osu file format v14

[General]
AudioFilename: senya+-+Cinderella+Avatar.mp3
AudioLeadIn: 0
PreviewTime: 54922
Countdown: 0
SampleSet: Soft
StackLeniency: 0.7
Mode: 3
LetterboxInBreaks: 0
SpecialStyle: 0
WidescreenStoryboard: 0

[Editor]
DistanceSpacing: 1.2
BeatDivisor: 4
GridSize: 32
TimelineZoom: 2.199999

[Metadata]
Title:Cinderella Avatar
TitleUnicode:シンデレラアバター
Artist:senya
ArtistUnicode:senya
Creator:Envory
Version:540's Easy
Source:東方風神録 ~ Mountain of Faith.
Tags:yuuhei satellite th10 native moriya suwako iceon kamase-tora 幽閉サテライト ネイティブフェイス 東方風神録 Verniy_Chan FAMoss yuzu__rinrin [R] atian540 - Ly0572 - Syadow-
BeatmapID:1418011
BeatmapSetID:665542

[Difficulty]
HPDrainRate:6.5
CircleSize:4
OverallDifficulty:6.5
ApproachRate:5
SliderMultiplier:1.4
SliderTickRate:1

[Events]
//Background and Video events
0,0,"696623.jpg",0,0
//Break Periods
//Storyboard Layer 0 (Background)
//Storyboard Layer 1 (Fail)
//Storyboard Layer 2 (Pass)
//Storyboard Layer 3 (Foreground)
//Storyboard Sound Samples
Sample,81612,0,"S.wav",30

[TimingPoints]
716,413.793103448276,4,2,1,50,1,0
55336,-100,4,2,1,50,0,1
67750,-100,4,2,1,50,0,0
68578,-100,4,2,1,50,0,1
81819,-100,4,2,1,50,0,0
95060,-100,4,2,1,50,0,1
108302,-100,4,2,1,50,0,0
109957,416.666666666667,4,2,1,40,1,0
109957,-116.279069767442,4,2,1,40,0,0
114123,461.538461538462,4,2,1,30,1,0
114123,-117.647058823529,4,2,1,30,0,0
115046,480,4,2,1,20,1,0
115046,-125,4,2,1,20,0,0
115526,517.241379310345,4,2,1,10,1,0
115526,-135.135135135135,4,2,1,10,0,0
115784,600,4,2,1,10,1,0
115784,-133.333333333333,4,2,1,10,0,0

[HitObjects]
320,192,819,128,0,1543:0:0:0:0:
64,192,1543,128,0,2371:0:0:0:30:S.wav
448,192,2371,1,6,0:0:0:0:
192,192,2784,1,8,0:0:0:0:
448,192,3198,1,2,0:0:0:0:
320,192,3612,1,8,0:0:0:0:
64,192,4026,1,2,0:0:0:0:
320,192,4440,1,8,0:0:0:0:
64,192,4853,1,2,0:0:0:0:
448,192,5267,1,8,0:0:0:0:
192,192,5681,1,2,0:0:0:0:
320,192,6095,1,8,0:0:0:0:
448,192,6509,1,2,0:0:0:0:
192,192,6922,1,8,0:0:0:0:
64,192,7336,128,2,8164:0:0:0:0:
448,192,7750,1,8,0:0:0:0:
192,192,8164,1,2,0:0:0:0:
320,192,8578,128,8,8991:0:0:0:0:
64,192,8991,1,2,0:0:0:0:
192,192,8991,1,4,0:0:0:0:
448,192,9405,1,8,0:0:0:0:
192,192,9819,1,2,0:0:0:0:
64,192,10233,1,8,0:0:0:0:
320,192,10647,1,2,0:0:0:0:
448,192,11060,1,8,0:0:0:0:
192,192,11474,1,2,0:0:0:0:
64,192,11888,1,8,0:0:0:0:
320,192,12302,1,2,0:0:0:0:
448,192,12302,1,4,0:0:0:0:
64,192,12716,1,8,0:0:0:0:
192,192,13129,1,2,0:0:0:0:
320,192,13129,1,4,0:0:0:0:
448,192,13543,1,8,0:0:0:0:
64,192,13957,1,2,0:0:0:0:
192,192,13957,1,4,0:0:0:0:
320,192,14371,1,8,0:0:0:0:
448,192,14371,1,4,0:0:0:0:
192,192,14784,128,6,15612:0:0:0:0:
320,192,15612,1,4,0:0:0:0:
448,192,15612,1,2,0:0:0:0:
64,192,16026,1,8,0:0:0:0:
320,192,16440,1,2,0:0:0:0:
192,192,16853,1,8,0:0:0:0:
448,192,17267,1,2,0:0:0:0:
320,192,17681,1,8,0:0:0:0:
192,192,18095,1,2,0:0:0:0:
64,192,18509,1,8,0:0:0:0:
448,192,18922,1,2,0:0:0:0:
64,192,19336,1,8,0:0:0:0:
320,192,19750,1,2,0:0:0:0:
448,192,20164,1,8,0:0:0:0:
192,192,20578,1,2,0:0:0:0:
64,192,20991,1,8,0:0:0:0:
320,192,21405,1,2,0:0:0:0:
448,192,21819,128,8,22233:0:0:0:0:
64,192,22233,1,4,0:0:0:0:
192,192,22233,1,2,0:0:0:0:
320,192,22647,1,8,0:0:0:0:
192,192,23060,1,2,0:0:0:0:
64,192,23474,1,8,0:0:0:0:
448,192,23888,1,2,0:0:0:0:
320,192,24302,1,8,0:0:0:0:
64,192,24716,1,2,0:0:0:0:
192,192,25129,1,8,0:0:0:0:
320,192,25543,1,2,0:0:0:0:
448,192,25957,1,8,0:0:0:0:
192,192,26371,1,2,0:0:0:0:
64,192,26784,1,8,0:0:0:0:
448,192,27198,1,6,0:0:0:0:
320,192,27405,1,6,0:0:0:0:
64,192,27612,1,6,0:0:0:0:
192,192,27922,128,6,28853:0:0:0:0:
320,192,28853,1,4,0:0:0:0:
448,192,28853,1,2,0:0:0:0:
64,192,29267,1,8,0:0:0:0:
320,192,29681,1,2,0:0:0:0:
192,192,30095,1,8,0:0:0:0:
448,192,30509,1,2,0:0:0:0:
320,192,30922,1,8,0:0:0:0:
192,192,31336,1,2,0:0:0:0:
64,192,31750,1,8,0:0:0:0:
320,192,32164,1,2,0:0:0:0:
192,192,32578,1,8,0:0:0:0:
448,192,32991,1,2,0:0:0:0:
64,192,33405,1,8,0:0:0:0:
320,192,33819,1,2,0:0:0:0:
448,192,34233,1,8,0:0:0:0:
192,192,34647,1,2,0:0:0:0:
64,192,35060,1,8,0:0:0:0:
192,192,35267,1,2,0:0:0:0:
320,192,35474,1,4,0:0:0:0:
448,192,35474,1,2,0:0:0:0:
64,192,35888,1,8,0:0:0:0:
192,192,36302,1,2,0:0:0:0:
448,192,36716,1,8,0:0:0:0:
320,192,37129,1,2,0:0:0:0:
64,192,37543,1,8,0:0:0:0:
448,192,37957,1,2,0:0:0:0:
192,192,38371,1,8,0:0:0:0:
320,192,38784,128,2,39198:0:0:0:0:
64,192,39198,1,8,0:0:0:0:
448,192,39612,128,2,40026:0:0:0:0:
192,192,40026,1,8,0:0:0:0:
64,192,40440,128,4,42095:0:0:0:0:
320,192,40440,1,2,0:0:0:0:
192,192,40853,1,8,0:0:0:0:
448,192,41267,1,6,0:0:0:0:
192,192,41681,1,12,0:0:0:0:
320,192,42095,1,2,0:0:0:0:
448,192,42095,1,4,0:0:0:0:
192,192,42509,1,8,0:0:0:0:
448,192,42922,1,2,0:0:0:0:
320,192,43336,1,8,0:0:0:0:
192,192,43750,1,2,0:0:0:0:
320,192,44164,1,8,0:0:0:0:
64,192,44578,1,2,0:0:0:0:
448,192,44991,1,8,0:0:0:0:
64,192,45405,1,2,0:0:0:0:
192,192,45819,1,8,0:0:0:0:
320,192,46233,1,2,0:0:0:0:
448,192,46647,1,8,0:0:0:0:
192,192,47060,128,6,48302:0:0:0:0:
320,192,47474,1,12,0:0:0:0:
64,192,47888,1,2,0:0:0:0:
448,192,48302,1,12,0:0:0:0:
320,192,48716,128,6,49543:0:0:0:0:
192,192,49129,1,8,0:0:0:0:
64,192,49543,128,2,50371:0:0:0:0:
320,192,49957,1,8,0:0:0:0:
448,192,50371,128,2,51198:0:0:0:0:
64,192,50784,1,8,0:0:0:0:
192,192,51198,128,2,52026:0:0:0:0:
320,192,51612,1,8,0:0:0:0:
64,192,52026,128,4,52853:0:0:0:0:
448,192,52026,1,2,0:0:0:0:
320,192,52853,128,6,53681:0:0:0:0:
448,192,53681,128,6,54922:0:0:0:0:
192,192,54922,1,8,0:0:0:0:
64,192,55336,128,2,56164:0:0:0:0:
320,192,55336,1,4,0:0:0:0:
192,192,55750,1,8,0:0:0:0:
448,192,56164,128,2,56991:0:0:0:0:
192,192,56578,1,8,0:0:0:0:
320,192,56991,128,2,57819:0:0:0:0:
64,192,57405,1,8,0:0:0:0:
192,192,57819,128,2,58647:0:0:0:0:
448,192,58233,1,8,0:0:0:0:
64,192,58647,128,2,59474:0:0:0:0:
320,192,59060,1,8,0:0:0:0:
448,192,59474,128,2,60302:0:0:0:0:
64,192,59888,1,8,0:0:0:0:
192,192,60302,128,2,61129:0:0:0:0:
448,192,60716,1,8,0:0:0:0:
320,192,61129,1,2,0:0:0:0:
64,192,61543,1,8,0:0:0:0:
192,192,61750,1,2,0:0:0:0:
320,192,61957,128,2,62784:0:0:0:0:
448,192,61957,1,4,0:0:0:0:
192,192,62371,1,8,0:0:0:0:
64,192,62784,128,2,63612:0:0:0:0:
320,192,63198,1,8,0:0:0:0:
448,192,63612,128,2,64440:0:0:0:0:
320,192,64026,1,8,0:0:0:0:
192,192,64440,128,2,65267:0:0:0:0:
64,192,64853,1,8,0:0:0:0:
320,192,65267,1,2,0:0:0:0:
448,192,65267,1,4,0:0:0:0:
64,192,65681,1,8,0:0:0:0:
192,192,66095,1,2,0:0:0:0:
320,192,66095,1,4,0:0:0:0:
448,192,66509,1,8,0:0:0:0:
64,192,66922,1,2,0:0:0:0:
192,192,66922,1,4,0:0:0:0:
320,192,67336,1,12,0:0:0:0:
192,192,67750,1,6,0:0:0:0:
320,192,68164,128,6,68578:0:0:0:0:
64,192,68578,1,4,0:0:0:0:
192,192,68578,1,2,0:0:0:0:
448,192,68991,1,8,0:0:0:0:
192,192,69405,1,2,0:0:0:0:
320,192,69819,1,8,0:0:0:0:
64,192,70233,1,2,0:0:0:0:
192,192,70647,1,8,0:0:0:0:
320,192,71060,1,2,0:0:0:0:
448,192,71474,1,8,0:0:0:0:
320,192,71888,128,2,72716:0:0:0:0:
64,192,72302,1,8,0:0:0:0:
192,192,72716,128,2,73543:0:0:0:0:
448,192,73129,1,8,0:0:0:0:
64,192,73543,128,2,74371:0:0:0:0:
320,192,73957,1,8,0:0:0:0:
192,192,74371,1,2,0:0:0:0:
448,192,74784,1,8,0:0:0:0:
320,192,74991,1,2,0:0:0:0:
64,192,75198,1,4,0:0:0:0:
192,192,75198,1,2,0:0:0:0:
448,192,75612,1,8,0:0:0:0:
192,192,76026,1,2,0:0:0:0:
64,192,76440,1,8,0:0:0:0:
192,192,76853,1,2,0:0:0:0:
448,192,77267,1,8,0:0:0:0:
64,192,77681,1,2,0:0:0:0:
320,192,78095,1,8,0:0:0:0:
64,192,78509,1,2,0:0:0:0:
192,192,78509,1,4,0:0:0:0:
448,192,78922,1,8,0:0:0:0:
192,192,79336,1,2,0:0:0:0:
320,192,79336,1,4,0:0:0:0:
64,192,79750,1,8,0:0:0:0:
320,192,80164,1,2,0:0:0:0:
448,192,80164,1,4,0:0:0:0:
64,192,80578,1,8,0:0:0:0:
192,192,80578,1,4,0:0:0:0:
320,192,80991,1,2,0:0:0:0:
448,192,80991,1,4,0:0:0:0:
64,192,81405,1,6,0:0:0:0:
192,192,81612,1,6,0:0:0:0:
320,192,81819,1,4,0:0:0:0:
448,192,81819,128,2,82647:0:0:0:0:
64,192,82233,1,8,0:0:0:0:
192,192,82647,128,2,83474:0:0:0:0:
448,192,83060,1,8,0:0:0:0:
320,192,83474,128,2,84302:0:0:0:0:
192,192,83888,1,8,0:0:0:0:
64,192,84302,128,2,85129:0:0:0:0:
320,192,84716,1,8,0:0:0:0:
448,192,85129,128,2,85957:0:0:0:0:
64,192,85543,1,8,0:0:0:0:
192,192,85957,128,2,86784:0:0:0:0:
448,192,86371,1,8,0:0:0:0:
320,192,86784,128,2,88026:0:0:0:0:
64,192,87198,1,8,0:0:0:0:
192,192,87612,1,2,0:0:0:0:
448,192,88026,1,8,0:0:0:0:
192,192,88233,1,2,0:0:0:0:
64,192,88440,1,4,0:0:0:0:
448,192,88440,1,2,0:0:0:0:
320,192,88853,1,8,0:0:0:0:
64,192,89267,1,2,0:0:0:0:
448,192,89681,1,8,0:0:0:0:
320,192,90095,1,2,0:0:0:0:
64,192,90509,1,8,0:0:0:0:
320,192,90922,1,2,0:0:0:0:
448,192,91336,1,8,0:0:0:0:
64,192,91750,1,2,0:0:0:0:
320,192,91750,1,4,0:0:0:0:
192,192,92164,1,8,0:0:0:0:
320,192,92578,1,2,0:0:0:0:
448,192,92578,1,4,0:0:0:0:
64,192,92991,1,8,0:0:0:0:
192,192,93405,1,2,0:0:0:0:
448,192,93405,1,4,0:0:0:0:
64,192,93819,1,8,0:0:0:0:
320,192,93819,1,4,0:0:0:0:
64,192,94233,128,2,95060:0:0:0:0:
192,192,94233,1,4,0:0:0:0:
320,192,95060,1,4,0:0:0:0:
448,192,95060,1,2,0:0:0:0:
192,192,95474,1,8,0:0:0:0:
64,192,95888,1,2,0:0:0:0:
320,192,96302,1,8,0:0:0:0:
448,192,96716,1,2,0:0:0:0:
64,192,97129,1,8,0:0:0:0:
448,192,97543,128,2,98784:0:0:0:0:
320,192,97957,1,8,0:0:0:0:
192,192,98371,1,2,0:0:0:0:
64,192,98784,1,8,0:0:0:0:
320,192,99198,1,2,0:0:0:0:
448,192,99612,1,8,0:0:0:0:
192,192,100026,1,2,0:0:0:0:
64,192,100440,1,8,0:0:0:0:
320,192,100853,1,2,0:0:0:0:
64,192,101267,1,8,0:0:0:0:
192,192,101474,1,2,0:0:0:0:
320,192,101681,1,2,0:0:0:0:
448,192,101681,1,4,0:0:0:0:
64,192,102095,1,8,0:0:0:0:
448,192,102509,1,2,0:0:0:0:
192,192,102922,1,8,0:0:0:0:
320,192,103336,1,2,0:0:0:0:
448,192,103750,1,8,0:0:0:0:
192,192,104164,1,2,0:0:0:0:
64,192,104578,1,8,0:0:0:0:
192,192,104991,1,2,0:0:0:0:
448,192,104991,1,4,0:0:0:0:
320,192,105405,1,8,0:0:0:0:
64,192,105819,1,2,0:0:0:0:
192,192,105819,1,4,0:0:0:0:
448,192,106233,1,8,0:0:0:0:
64,192,106647,1,2,0:0:0:0:
320,192,106647,1,4,0:0:0:0:
192,192,107060,1,12,0:0:0:0:
448,192,107474,1,6,0:0:0:0:
320,192,107888,128,6,108302:0:0:0:0:
64,192,108302,128,6,109957:0:0:0:0:
448,192,109957,128,0,110784:0:0:0:0:
192,192,110371,1,0,0:0:0:0:
320,192,110784,128,0,111612:0:0:0:0:
64,192,111198,1,0,0:0:0:0:
192,192,111612,128,0,112440:0:0:0:0:
448,192,112026,1,0,0:0:0:0:
64,192,112440,128,0,113267:0:0:0:0:
320,192,112853,1,0,0:0:0:0:
448,192,113267,128,0,114095:0:0:0:0:
64,192,113681,1,0,0:0:0:0:
192,192,114095,128,0,115026:0:0:0:0:
448,192,114612,1,0,0:0:0:0:
320,192,115026,1,0,0:0:0:0:
64,192,115513,1,0,0:0:0:0:
320,192,116058,1,0,0:0:0:0:
