osu file format v14

[General]
AudioFilename: audio.mp3
AudioLeadIn: 0
PreviewTime: 72662
Countdown: 0
SampleSet: Soft
StackLeniency: 0.7
Mode: 0
LetterboxInBreaks: 0
WidescreenStoryboard: 0

[Editor]
Bookmarks: 76853
DistanceSpacing: 0.5
BeatDivisor: 4
GridSize: 16
TimelineZoom: 1.3

[Metadata]
Title:mitsubachi no kiss
TitleUnicode:みつばちのキス
Artist:sena.rie from AIKATSU*STARS!
ArtistUnicode:せな・りえ from AIKATSU☆STARS!
Creator:snowsign7
Version:Insane
Source:アイカツスターズ!
Tags:aikatsu stars!
BeatmapID:1040987
BeatmapSetID:488267

[Difficulty]
HPDrainRate:7
CircleSize:3.8
OverallDifficulty:7
ApproachRate:8
SliderMultiplier:1.6
SliderTickRate:1

[Events]
//Background and Video events
0,0,"e98b5302.jpg",0,0
//Break Periods
2,193306,204466
//Storyboard Layer 0 (Background)
//Storyboard Layer 1 (Fail)
//Storyboard Layer 2 (Pass)
//Storyboard Layer 3 (Foreground)
//Storyboard Sound Samples

[TimingPoints]
763,441.111601235112,4,2,0,30,1,0
1425,441.111601235112,4,2,0,30,1,0
7821,-100,4,2,1,30,0,0
11569,441.111601235112,4,2,0,30,1,0
14436,-133.333333333333,4,2,0,30,0,0
15097,-83.3333333333333,4,2,0,50,0,1
22155,-83.3333333333333,4,2,1,50,0,1
29213,-83.3333333333333,4,2,1,40,0,0
72662,-133.333333333333,4,2,0,30,0,0
73324,-83.3333333333333,4,2,1,50,0,1
87219,-83.3333333333333,4,2,1,50,0,0
87440,-83.3333333333333,4,2,1,50,0,1
101555,-83.3333333333333,4,2,1,50,0,0
145005,-133.333333333333,4,2,0,30,0,0
145666,-83.3333333333333,4,2,0,30,0,0
171913,-100,4,2,0,30,0,0
205216,-83.3333333333333,4,2,0,30,0,0
226610,-100,4,2,0,30,0,0
228375,-83.3333333333333,4,2,0,30,0,0
235433,-100,4,2,0,30,0,0

[HitObjects]
242,81,763,6,0,P|207:115|242:236,1,160,4|0,0:0|0:0,0:0:0:0:
347,280,1424,2,0,B|357:240|357:240|347:187,1,80,8|0,0:0|0:0,0:0:0:0:
430,117,1866,2,0,B|424:155|424:155|436:204,1,80,8|2,0:0|0:0,0:0:0:0:
469,26,2307,1,8,0:0:0:0:
469,26,2527,2,0,L|281:14,1,160,2|2,0:0|0:0,0:0:0:0:
202,159,3189,2,0,P|229:85|147:23,1,160,8|8,0:0|0:0,0:0:0:0:
321,200,4071,1,8,0:0:0:0:
321,200,4292,6,0,P|287:269|350:343,1,160,2|2,0:0|0:0,0:0:0:0:
221,356,4953,2,0,L|125:345,1,80,8|0,0:0|0:0,0:0:0:0:
365,265,5395,2,0,L|450:257,2,80,8|2|8,0:0|0:0|0:0,0:0:0:0:
227,146,6056,2,0,P|219:104|222:46,1,80,0|8,0:0|0:0,0:0:0:0:
315,180,6497,1,0,0:0:0:0:
172,271,6718,2,0,B|172:221|172:221|138:175|138:175|138:94,1,160,8|8,0:0|0:0,0:0:0:0:
138,122,7600,1,8,0:0:0:0:
192,192,7821,6,0,P|115:208|53:135,1,160,4|2,0:0|0:0,0:0:0:0:
238,48,8482,2,0,B|249:87|249:87|238:139,1,80,8|0,0:1|0:0,0:0:0:0:
346,202,8923,2,0,B|334:161|334:161|343:111,1,80,8|8,0:1|0:0,0:0:0:0:
433,157,9365,1,8,0:1:0:0:
262,284,9585,2,0,L|239:117,1,160,8|2,0:0|0:0,0:0:0:0:
285,38,10247,1,8,0:0:0:0:
145,225,10688,2,0,L|34:209,1,80,8|8,0:1|0:0,0:0:0:0:
240,125,11129,1,8,0:1:0:0:
262,357,11569,6,0,P|235:312|247:204,1,160,4|0,0:1|0:0,0:0:0:0:
161,10,12230,2,0,P|180:61|148:169,1,160,4|2,0:1|0:0,0:0:0:0:
53,198,12892,1,8,0:1:0:0:
277,154,13112,1,8,0:0:0:0:
45,19,13774,5,4,0:1:0:0:
367,307,14436,6,0,L|354:166,1,120.000004577637
274,342,15097,6,0,L|271:288,1,47.9999985351563,4|0,0:1|0:0,0:0:0:0:
154,252,15318,1,0,0:0:0:0:
154,252,15428,1,0,0:0:0:0:
154,252,15539,2,0,L|161:184,1,47.9999985351563,8|0,0:0|0:0,0:0:0:0:
270,149,15759,1,0,0:0:0:0:
270,149,15869,1,0,0:0:0:0:
270,149,15980,1,0,0:0:0:0:
87,101,16200,1,0,0:0:0:0:
308,39,16421,1,0,0:0:0:0:
98,187,16641,6,0,P|38:173|19:48,1,191.999994140625,4|2,0:0|0:0,0:0:0:0:
188,150,17303,1,8,0:0:0:0:
32,279,17524,1,0,0:0:0:0:
200,286,17744,2,0,L|207:359,2,47.9999985351563,2|0|8,0:0|0:0|0:0,0:0:0:0:
87,101,18185,2,0,L|94:30,2,47.9999985351563,8|0|2,0:0|0:0|0:0,0:0:0:0:
322,97,18626,6,0,L|259:80,1,47.9999985351563,4|0,0:0|0:0,0:0:0:0:
370,220,18847,1,0,0:0:0:0:
370,220,18957,1,0,0:0:0:0:
370,220,19067,2,0,L|441:212,1,47.9999985351563,8|0,0:0|0:0,0:0:0:0:
488,136,19288,1,0,0:0:0:0:
341,320,19509,1,0,0:0:0:0:
486,282,19729,1,0,0:0:0:0:
275,240,19950,1,8,0:0:0:0:
409,128,20170,6,0,P|418:66|388:4,1,95.9999970703126,4|0,0:0|0:0,0:0:0:0:
497,141,20611,1,2,0:0:0:0:
333,78,20832,1,8,0:0:0:0:
291,228,21052,2,0,L|413:216,1,95.9999970703126,2|0,0:0|0:0,0:0:0:0:
333,78,21494,1,2,0:0:0:0:
216,283,21714,2,0,B|196:237|196:237|209:167,1,95.9999970703126,8|0,0:0|0:0,0:0:0:0:
200,57,22155,6,0,P|154:78|100:93,1,95.9999970703126,4|0,0:1|0:0,0:0:0:0:
8,227,22596,2,0,P|54:234|121:253,1,95.9999970703126,2|0,0:0|0:0,0:0:0:0:
231,190,23037,1,10,0:0:0:0:
114,94,23258,1,2,0:2:0:0:
101,246,23479,2,0,P|106:305|112:350,1,95.9999970703126,8|0,0:0|0:0,0:0:0:0:
26,354,23920,5,8,0:0:0:0:
195,292,24140,1,2,0:0:0:0:
22,195,24361,2,0,P|14:130|9:78,1,95.9999970703126,8|0,0:0|0:0,0:0:0:0:
228,139,24802,2,0,P|152:124|124:44,1,143.999995605469,8|0,0:0|0:0,0:0:0:0:
316,131,25243,2,0,L|299:253,1,95.9999970703126,8|0,0:0|0:0,0:0:0:0:
208,57,25684,5,4,0:1:0:0:
208,57,26125,1,8,0:0:0:0:
416,136,26346,2,0,L|401:29,1,95.9999970703126,4|0,0:1|0:0,0:0:0:0:
489,219,26787,2,0,L|505:107,1,95.9999970703126,4|0,0:1|0:0,0:0:0:0:
512,313,27228,6,0,P|460:261|341:257,1,191.999994140625,4|2,0:1|0:0,0:0:0:0:
410,358,27890,1,8,0:1:0:0:
326,160,28110,2,0,L|337:113,2,47.9999985351563,0|0|8,0:0|0:0|0:0,0:0:0:0:
221,308,28551,1,0,0:0:0:0:
221,308,28662,1,0,0:0:0:0:
221,308,28772,1,8,0:0:0:0:
346,254,28992,1,8,0:0:0:0:
156,208,29213,6,0,P|109:155|160:52,1,191.999994140625,4|8,0:1|0:0,0:0:0:0:
243,137,29875,2,0,L|190:130,2,47.9999985351563,0|0|8,0:0|0:0|0:0,0:0:0:0:
266,17,30316,1,0,0:0:0:0:
364,93,30536,1,8,0:0:0:0:
243,137,30757,6,0,P|247:198|254:242,1,95.9999970703126,0|8,0:0|0:0,0:0:0:0:
389,352,31198,2,0,P|394:283|392:229,1,95.9999970703126,0|8,0:0|0:0,0:0:0:0:
358,161,31639,1,0,0:0:0:0:
358,161,31749,1,0,0:0:0:0:
358,161,31860,1,8,0:0:0:0:
243,137,32080,1,0,0:0:0:0:
372,60,32301,1,8,0:0:0:0:
449,189,32521,1,0,0:0:0:0:
243,137,32742,6,0,P|238:78|243:21,1,95.9999970703126,10|0,0:0|0:0,0:0:0:0:
167,205,33183,2,0,L|58:191,1,95.9999970703126,8|0,0:0|0:0,0:0:0:0:
112,294,33624,1,8,0:0:0:0:
167,205,33845,1,0,0:0:0:0:
230,288,34065,1,8,0:0:0:0:
110,137,34286,6,0,P|110:66|121:16,1,95.9999970703126,0|8,0:0|0:0,0:0:0:0:
324,175,34727,2,0,L|349:166,1,23.9999992675781,2|2,0:0|0:0,0:0:0:0:
407,264,34947,2,0,L|366:249,1,23.9999992675781,10|0,0:0|0:0,0:0:0:0:
244,119,35168,2,0,L|279:108,1,23.9999992675781,2|0,0:0|0:0,0:0:0:0:
368,70,35389,1,8,0:0:0:0:
237,26,35609,1,0,0:0:0:0:
165,182,35830,2,0,P|150:109|161:54,1,95.9999970703126,8|0,0:0|0:0,0:0:0:0:
340,6,36271,6,0,P|340:58|325:130,1,95.9999970703126,8|2,0:0|0:0,0:0:0:0:
403,335,36712,2,0,P|389:285|390:222,1,95.9999970703126,8|2,0:0|0:0,0:0:0:0:
435,162,37043,2,0,L|495:154,1,47.9999985351563,0|8,0:0|0:0,0:0:0:0:
333,101,37374,2,0,L|220:91,1,95.9999970703126,2|8,0:0|0:0,0:0:0:0:
155,135,37815,1,0,0:0:0:0:
267,0,38035,5,8,0:0:0:0:
333,101,38256,1,0,0:0:0:0:
159,28,38476,1,8,0:0:0:0:
268,166,38697,2,0,P|273:235|271:277,1,95.9999970703126,2|8,0:0|0:0,0:0:0:0:
153,341,39138,2,0,P|205:302|327:306,1,191.999994140625
149,217,39800,6,0,P|151:168|160:87,1,95.9999970703126,8|0,0:0|0:0,0:0:0:0:
288,166,40241,2,0,L|348:154,1,47.9999985351563,8|0,0:0|0:0,0:0:0:0:
268,65,40461,1,0,0:0:0:0:
268,65,40572,1,0,0:0:0:0:
268,65,40682,1,8,0:0:0:0:
421,207,40902,2,0,P|427:141|419:94,1,95.9999970703126,0|8,0:0|0:0,0:0:0:0:
365,38,41344,1,0,0:0:0:0:
286,113,41564,5,10,0:0:0:0:
194,53,41785,1,2,0:0:0:0:
286,113,42005,1,10,0:0:0:0:
160,152,42226,1,2,0:0:0:0:
388,365,42667,2,0,L|403:229,1,95.9999970703126,2|8,0:0|0:1,0:0:0:0:
180,44,43329,6,0,B|167:84|167:84|181:140,1,95.9999970703126,4|0,0:1|0:0,0:0:0:0:
275,100,43770,1,8,0:0:0:0:
127,220,43990,2,0,L|124:277,2,47.9999985351563,0|0|8,0:0|0:0|0:0,0:0:0:0:
180,44,44431,2,0,L|52:21,1,95.9999970703126,2|8,0:0|0:0,0:0:0:0:
275,100,44872,6,0,P|298:166|305:209,1,95.9999970703126,0|8,0:0|0:0,0:0:0:0:
149,335,45314,2,0,P|157:251|169:212,1,95.9999970703126,0|8,0:0|0:0,0:0:0:0:
115,99,45755,2,0,P|55:134|1:149,1,95.9999970703126,2|8,0:0|0:0,0:0:0:0:
233,41,46196,2,0,L|355:54,1,95.9999970703126,0|8,0:0|0:0,0:0:0:0:
196,164,46637,1,0,0:0:0:0:
196,164,46857,6,0,P|258:140|390:162,1,191.999994140625,8|8,0:0|0:0,0:0:0:0:
184,263,47740,1,8,0:0:0:0:
196,164,47960,1,2,0:0:0:0:
212,68,48181,1,8,0:0:0:0:
93,131,48401,6,0,L|109:245,1,95.9999970703126,0|8,0:0|0:0,0:0:0:0:
331,158,48842,2,0,L|336:44,2,95.9999970703126,2|8|2,0:0|0:0|0:0,0:0:0:0:
331,177,49394,1,0,0:0:0:0:
330,196,49504,1,8,0:0:0:0:
439,307,49725,2,0,P|385:249|261:263,1,191.999994140625,2|0,0:0|0:0,0:0:0:0:
86,204,50386,6,0,P|154:188|197:173,1,95.9999970703126,8|0,0:0|0:0,0:0:0:0:
316,140,50827,2,0,L|323:80,1,47.9999985351563,8|0,0:0|0:0,0:0:0:0:
216,72,51048,2,0,L|213:25,2,47.9999985351563,2|0|8,0:0|0:0|0:0,0:0:0:0:
268,263,51489,2,0,P|203:251|162:244,1,95.9999970703126,2|8,0:0|0:0,0:0:0:0:
185,153,51930,1,0,0:0:0:0:
283,167,52151,5,8,0:0:0:0:
268,263,52371,1,0,0:0:0:0:
300,77,52592,1,8,0:0:0:0:
185,153,52812,2,0,P|168:70|176:27,1,95.9999970703126,2|8,0:0|0:0,0:0:0:0:
78,191,53254,1,0,0:0:0:0:
78,191,53364,1,0,0:0:0:0:
78,191,53474,1,8,0:0:0:0:
267,262,53695,1,0,0:0:0:0:
144,286,53915,6,0,P|127:359|124:380,1,95.9999970703126,8|0,0:0|0:0,0:0:0:0:
298,220,54356,2,0,P|287:149|276:105,1,95.9999970703126,8|2,0:0|0:0,0:0:0:0:
281,125,54687,1,0,0:0:0:0:
281,125,54797,1,8,0:0:0:0:
232,27,55018,2,0,P|293:25|362:34,1,95.9999970703126,2|8,0:0|0:0,0:0:0:0:
487,107,55459,6,0,P|436:117|391:130,1,95.9999970703126,0|8,0:0|0:0,0:0:0:0:
227,174,55900,2,0,P|278:184|323:197,1,95.9999970703126,0|8,0:0|0:0,0:0:0:0:
479,267,56341,2,0,P|428:277|383:290,1,95.9999970703126,0|8,0:0|0:0,0:0:0:0:
220,354,56782,1,0,0:0:0:0:
304,324,57003,1,8,0:0:0:0:
121,313,57224,6,0,P|127:232|143:108,1,191.999994140625,4|8,0:0|0:0,0:0:0:0:
119,34,57885,1,8,0:1:0:0:
119,34,57995,1,0,0:0:0:0:
119,34,58106,2,0,L|237:17,1,95.9999970703126,0|8,0:0|0:0,0:0:0:0:
17,7,58547,1,0,0:0:0:0:
41,151,58767,1,8,0:1:0:0:
297,232,58988,6,0,P|318:190|251:58,1,191.999994140625,8|8,0:0|0:0,0:0:0:0:
401,72,59650,1,8,0:1:0:0:
401,72,59760,1,0,0:0:0:0:
401,72,59870,1,8,0:0:0:0:
231,156,60091,1,8,0:0:0:0:
430,184,60311,1,0,0:0:0:0:
136,142,60532,1,8,0:1:0:0:
200,58,60752,1,8,0:0:0:0:
135,226,60973,6,0,P|77:194|85:72,1,191.999994140625,4|8,0:1|0:0,0:0:0:0:
101,317,61635,2,0,B|197:337|185:288|252:275|314:322,1,191.999994140625,8|8,0:0|0:0,0:0:0:0:
371,363,62296,1,8,0:1:0:0:
222,214,62517,6,0,P|196:110|203:8,1,191.999994140625,4|8,0:1|0:0,0:0:0:0:
280,14,63179,1,8,0:1:0:0:
295,105,63399,2,0,P|344:89|402:59,1,95.9999970703126,2|8,0:0|0:0,0:0:0:0:
222,214,63840,2,0,P|157:180|102:171,1,95.9999970703126,2|8,0:0|0:1,0:0:0:0:
336,306,64281,1,0,0:0:0:0:
336,306,64502,6,0,P|390:281|384:146,1,191.999994140625,8|8,0:0|0:1,0:0:0:0:
300,86,65164,2,0,L|180:70,1,95.9999970703126,0|8,0:0|0:0,0:0:0:0:
385,43,65605,1,0,0:0:0:0:
300,86,65825,1,8,0:1:0:0:
215,159,66046,6,0,P|197:263|204:359,1,191.999994140625,2|2,0:0|0:0,0:0:0:0:
104,294,66707,1,8,0:1:0:0:
312,354,66928,2,0,P|312:279|306:250,1,95.9999970703126,2|8,0:0|0:0,0:0:0:0:
308,162,67369,1,2,0:0:0:0:
308,162,67590,2,0,L|404:140,1,95.9999970703126,8|0,0:1|0:0,0:0:0:0:
482,67,68031,5,10,0:0:0:0:
389,41,68251,1,2,0:0:0:0:
295,20,68472,1,10,0:0:0:0:
401,140,68692,2,0,P|439:217|394:322,1,191.999994140625,2|2,0:0|0:0,0:0:0:0:
320,227,69354,1,8,0:1:0:0:
165,120,69575,6,0,P|169:43|176:10,1,95.9999970703126,2|8,0:0|0:0,0:0:0:0:
280,93,70016,1,2,0:0:0:0:
175,211,70236,2,0,L|55:195,1,95.9999970703126,10|0,0:0|0:0,0:0:0:0:
432,184,70677,2,0,P|455:123|453:70,1,95.9999970703126,4|0,0:1|0:0,0:0:0:0:
200,303,71119,2,0,P|176:221|178:188,1,95.9999970703126,4|8,0:1|0:0,0:0:0:0:
354,81,71780,5,8,0:0:0:0:
175,123,72001,1,8,0:0:0:0:
175,123,72111,2,0,L|176:76,1,47.9999985351563,2|2,0:0|0:0,0:0:0:0:
395,263,72662,6,0,P|341:281|263:263,1,120.000004577637
332,188,73324,6,0,L|324:117,1,47.9999985351563,8|0,0:0|0:0,0:0:0:0:
225,66,73545,1,8,0:0:0:0:
225,66,73655,1,0,0:0:0:0:
225,66,73765,2,0,L|230:9,1,47.9999985351563,8|0,0:0|0:0,0:0:0:0:
212,173,73986,1,8,0:0:0:0:
212,173,74096,1,0,0:0:0:0:
212,173,74206,1,8,0:0:0:0:
326,140,74427,1,8,0:0:0:0:
212,173,74647,1,8,0:0:0:0:
276,352,74868,6,0,P|204:298|85:299,1,191.999994140625,8|8,0:0|0:0,0:0:0:0:
328,255,75530,1,8,0:0:0:0:
212,173,75750,1,0,0:0:0:0:
177,296,75971,2,0,L|183:354,2,47.9999985351563,10|0|10,0:0|0:0|0:0,0:0:0:0:
318,139,76412,2,0,L|321:71,2,47.9999985351563,8|0|0,0:0|0:0|0:0,0:0:0:0:
223,191,76853,6,0,L|147:178,1,47.9999985351563,4|0,0:1|0:0,0:0:0:0:
319,135,77074,1,8,0:0:0:0:
319,135,77184,1,0,0:0:0:0:
319,135,77294,1,8,0:0:0:0:
215,60,77515,1,8,0:0:0:0:
175,182,77735,1,8,0:0:0:0:
248,271,77956,1,8,0:0:0:0:
69,237,78176,1,8,0:0:0:0:
186,154,78397,6,0,P|184:93|176:28,1,95.9999970703126,4|0,0:1|0:0,0:0:0:0:
266,264,78838,2,0,P|324:248|402:229,1,95.9999970703126,8|8,0:0|0:0,0:0:0:0:
334,141,79279,2,0,P|406:126|463:120,1,95.9999970703126,2|8,0:0|0:0,0:0:0:0:
293,56,79720,1,2,0:0:0:0:
266,264,79941,1,8,0:0:0:0:
266,264,80382,6,0,P|272:159|232:59,1,191.999994140625,4|8,0:1|0:0,0:0:0:0:
367,301,81264,2,0,P|432:289|496:278,1,95.9999970703126,8|2,0:0|0:0,0:0:0:0:
266,264,81705,1,8,0:0:0:0:
205,352,81926,6,0,P|114:319|124:223,1,191.999994140625
242,178,82587,2,0,P|247:108|238:57,1,95.9999970703126,8|0,0:0|0:0,0:0:0:0:
333,33,83029,2,0,P|383:50|436:87,1,95.9999970703126,8|0,0:0|0:0,0:0:0:0:
360,327,83470,2,0,P|336:250|341:193,1,95.9999970703126,8|0,0:0|0:0,0:0:0:0:
437,171,83911,6,0,P|339:225|240:170,1,191.999994140625,8|8,0:0|0:0,0:0:0:0:
167,212,84572,2,0,P|154:140|144:95,1,95.9999970703126,0|8,0:0|0:0,0:0:0:0:
235,45,85014,1,2,0:0:0:0:
332,54,85234,1,10,0:0:0:0:
397,130,85455,6,0,P|416:217|371:322,1,191.999994140625,4|2,0:1|0:0,0:0:0:0:
293,201,86116,1,8,0:0:0:0:
137,46,86337,2,0,P|108:116|162:249,1,191.999994140625,4|8,0:1|0:0,0:0:0:0:
128,328,86999,2,0,P|190:315|247:310,1,95.9999970703126,8|0,0:0|0:0,0:0:0:0:
381,207,87440,6,0,L|323:197,1,47.9999985351563,8|0,0:0|0:0,0:0:0:0:
243,120,87660,1,8,0:0:0:0:
243,120,87771,1,0,0:0:0:0:
243,120,87881,2,0,L|320:100,1,47.9999985351563,8|0,0:0|0:0,0:0:0:0:
255,253,88101,1,8,0:0:0:0:
255,253,88212,1,0,0:0:0:0:
255,253,88322,1,8,0:0:0:0:
163,189,88542,1,8,0:0:0:0:
173,78,88763,1,8,0:0:0:0:
117,298,88984,6,0,P|68:246|84:116,1,191.999994140625,8|8,0:0|0:0,0:0:0:0:
251,277,89645,1,8,0:0:0:0:
117,298,89866,1,0,0:0:0:0:
162,190,90086,2,0,L|148:117,2,47.9999985351563,10|0|8,0:0|0:0|0:0,0:0:0:0:
324,328,90527,2,0,L|316:404,2,47.9999985351563,2|0|2,0:0|0:0|0:0,0:0:0:0:
397,209,90969,6,0,L|390:152,1,47.9999985351563,4|0,0:1|0:0,0:0:0:0:
374,55,91189,1,8,0:0:0:0:
374,55,91299,1,0,0:0:0:0:
374,55,91410,1,8,0:0:0:0:
480,113,91630,1,8,0:0:0:0:
278,154,91851,1,8,0:0:0:0:
342,220,92071,1,8,0:0:0:0:
215,82,92292,1,8,0:0:0:0:
120,171,92512,6,0,P|86:94|105:23,1,143.999995605469,4|0,0:1|0:0,0:0:0:0:
96,37,92954,1,8,0:0:0:0:
0,208,93174,1,8,0:0:0:0:
122,273,93395,2,0,L|240:254,1,95.9999970703126,2|8,0:0|0:0,0:0:0:0:
287,201,93836,2,0,L|283:133,1,47.9999985351563,2|0,0:0|0:0,0:0:0:0:
381,271,94056,2,0,L|385:211,1,47.9999985351563,10|0,0:0|0:0,0:0:0:0:
390,89,94497,6,0,P|310:85|279:-10,1,191.999994140625,4|8,0:1|0:0,0:0:0:0:
198,123,95380,2,0,P|135:116|71:109,1,95.9999970703126,8|2,0:0|0:0,0:0:0:0:
361,18,95821,1,8,0:0:0:0:
314,282,96041,6,0,P|274:172|312:96,1,191.999994140625,2|2,0:0|0:0,0:0:0:0:
180,241,96703,2,0,P|179:296|174:344,1,95.9999970703126,10|0,0:0|0:0,0:0:0:0:
89,188,97144,2,0,P|136:156|178:144,1,95.9999970703126,8|0,0:0|0:0,0:0:0:0:
376,116,97585,2,0,P|312:78|272:24,1,95.9999970703126,8|0,0:0|0:0,0:0:0:0:
331,258,98026,5,4,0:1:0:0:
331,258,98467,1,8,0:0:0:0:
235,188,98688,2,0,L|237:81,1,95.9999970703126,4|0,0:1|0:0,0:0:0:0:
158,278,99129,2,0,L|130:160,1,95.9999970703126,4|0,0:1|0:0,0:0:0:0:
106,348,99570,6,0,P|150:295|284:286,1,191.999994140625,4|2,0:1|0:0,0:0:0:0:
361,359,100232,2,0,L|360:290,1,47.9999985351563
448,224,100452,2,0,L|517:238,2,47.9999985351563,0|0|8,0:0|0:0|0:0,0:0:0:0:
321,87,100894,1,0,0:0:0:0:
321,87,101004,1,0,0:0:0:0:
321,87,101114,1,8,0:0:0:0:
448,77,101335,1,4,3:0:0:0:
236,142,101555,6,0,P|226:58|229:14,1,95.9999970703126,4|0,0:1|0:0,0:0:0:0:
205,239,101996,2,0,L|90:221,1,95.9999970703126,8|0,0:0|0:0,0:0:0:0:
90,222,102327,1,0,0:0:0:0:
90,222,102437,1,10,0:0:0:0:
124,62,102658,1,0,0:0:0:0:
73,137,102879,1,8,0:0:0:0:
224,112,103099,6,0,P|230:46|215:-5,1,95.9999970703126,2|8,0:0|0:0,0:0:0:0:
155,214,103540,2,0,P|152:278|164:315,1,95.9999970703126,2|8,0:0|0:0,0:0:0:0:
252,254,103981,1,2,0:0:0:0:
155,214,104202,1,8,0:0:0:0:
344,194,104422,2,0,L|359:79,1,95.9999970703126,2|8,0:0|0:0,0:0:0:0:
295,29,104864,1,0,0:0:0:0:
398,272,105084,6,0,P|456:262|492:125,1,191.999994140625,10|8,0:0|0:0,0:0:0:0:
170,168,105966,1,10,0:0:0:0:
258,229,106187,1,2,0:0:0:0:
174,292,106407,1,10,0:0:0:0:
259,344,106628,6,0,P|332:334|369:331,1,95.9999970703126,2|8,0:0|0:0,0:0:0:0:
366,232,107069,2,0,L|353:213,1,23.9999992675781,2|0,0:0|0:0,0:0:0:0:
425,158,107290,2,0,L|415:123,1,23.9999992675781,2|0,0:0|0:0,0:0:0:0:
506,105,107510,2,0,L|504:71,1,23.9999992675781,2|0,0:0|0:0,0:0:0:0:
411,17,107731,1,8,0:0:0:0:
341,81,107951,1,2,0:0:0:0:
270,152,108172,2,0,L|167:143,1,95.9999970703126,8|0,0:0|0:0,0:0:0:0:
387,279,108613,6,0,P|300:262|186:250,1,191.999994140625,8|8,0:0|0:0,0:0:0:0:
77,265,109275,1,2,0:0:0:0:
77,265,109385,1,0,0:0:0:0:
77,265,109495,2,0,L|84:203,1,47.9999985351563,8|0,0:0|0:0,0:0:0:0:
28,66,109716,2,0,L|37:134,1,47.9999985351563,2|0,0:0|0:0,0:0:0:0:
188,159,109936,2,0,P|253:147|300:141,1,95.9999970703126,8|2,0:0|0:0,0:0:0:0:
391,151,110377,5,8,0:0:0:0:
387,252,110598,1,0,0:0:0:0:
286,242,110819,1,8,0:0:0:0:
468,212,111039,2,0,P|481:264|477:313,1,95.9999970703126,2|8,0:0|0:0,0:0:0:0:
391,151,111480,2,0,P|384:88|403:50,1,95.9999970703126,2|8,0:0|0:0,0:0:0:0:
504,20,111921,1,0,0:0:0:0:
387,252,112142,6,0,P|312:227|262:215,1,95.9999970703126,10|0,0:0|0:0,0:0:0:0:
189,256,112583,2,0,L|196:200,1,47.9999985351563,8|0,0:0|0:0,0:0:0:0:
92,139,112804,2,0,L|103:217,2,47.9999985351563,2|0|8,0:0|0:0|0:0,0:0:0:0:
298,15,113245,2,0,P|295:80|282:136,1,95.9999970703126,2|8,0:0|0:0,0:0:0:0:
171,39,113686,1,4,0:1:0:0:
289,110,113906,5,2,0:0:0:0:
224,175,114127,1,2,0:0:0:0:
303,229,114348,1,2,0:0:0:0:
253,308,114568,1,2,0:0:0:0:
183,74,115009,1,2,0:0:0:0:
99,10,115230,2,0,P|83:98|94:135,1,95.9999970703126
27,306,115671,6,0,P|122:291|239:276,1,191.999994140625,4|8,0:1|0:0,0:0:0:0:
147,198,116333,1,2,0:0:0:0:
147,198,116443,1,0,0:0:0:0:
147,198,116553,1,8,0:0:0:0:
321,180,116774,2,0,P|329:113|323:66,1,95.9999970703126,2|8,0:0|0:0,0:0:0:0:
200,11,117215,6,0,L|209:111,1,95.9999970703126,2|8,0:0|0:0,0:0:0:0:
397,251,117656,2,0,L|407:136,1,95.9999970703126,2|8,0:0|0:0,0:0:0:0:
236,315,118097,1,2,0:0:0:0:
236,315,118207,1,0,0:0:0:0:
236,315,118318,1,8,0:0:0:0:
397,251,118538,2,0,P|330:234|276:228,1,95.9999970703126,2|8,0:0|0:0,0:0:0:0:
241,123,118979,1,0,0:0:0:0:
161,181,119200,6,0,P|145:121|161:55,1,95.9999970703126,10|0,0:0|0:0,0:0:0:0:
303,230,119641,2,0,L|299:333,1,95.9999970703126,10|0,0:0|0:0,0:0:0:0:
187,297,120082,1,10,0:0:0:0:
212,202,120303,1,2,0:0:0:0:
303,230,120523,1,10,0:0:0:0:
113,238,120744,6,0,P|104:183|118:118,1,95.9999970703126,2|8,0:0|0:0,0:0:0:0:
242,171,121185,2,0,L|344:151,2,95.9999970703126,2|10|2,0:0|0:0|0:0,0:0:0:0:
224,177,121736,1,0,0:0:0:0:
205,182,121846,1,10,0:0:0:0:
274,263,122067,2,0,P|304:198|235:83,1,191.999994140625,2|0,0:0|0:0,0:0:0:0:
116,28,122729,6,0,P|112:94|113:145,1,95.9999970703126,10|0,0:0|0:0,0:0:0:0:
20,214,123170,1,8,0:0:0:0:
141,262,123390,2,0,L|187:252,2,47.9999985351563,2|0|8,0:0|0:0|0:0,0:0:0:0:
323,285,123831,2,0,P|321:204|297:154,1,95.9999970703126,2|8,0:0|0:0,0:0:0:0:
260,109,124273,1,2,0:0:0:0:
363,88,124493,5,8,0:0:0:0:
461,66,124714,1,0,0:0:0:0:
343,0,124934,1,8,0:0:0:0:
437,158,125155,2,0,P|387:142|335:135,1,95.9999970703126,2|8,0:0|0:0,0:0:0:0:
216,313,125596,2,0,P|302:319|354:207,1,191.999994140625,2|0,0:0|0:0,0:0:0:0:
212,88,126258,6,0,P|222:153|231:210,1,95.9999970703126,10|0,0:0|0:0,0:0:0:0:
314,128,126699,1,8,0:0:0:0:
108,267,126919,1,2,0:0:0:0:
108,267,127029,1,0,0:0:0:0:
108,267,127140,2,0,L|115:146,1,95.9999970703126,10|0,0:0|0:0,0:0:0:0:
256,310,127581,1,8,0:0:0:0:
195,232,127801,6,0,P|256:218|298:217,1,95.9999970703126,2|8,0:0|0:0,0:0:0:0:
488,267,128243,2,0,P|430:279|385:272,1,95.9999970703126,2|8,0:0|0:0,0:0:0:0:
416,23,128684,2,0,P|419:86|414:164,1,95.9999970703126,2|8,0:0|0:0,0:0:0:0:
319,185,129125,1,0,0:0:0:0:
274,97,129345,1,0,0:0:0:0:
238,14,129566,6,0,L|221:233,1,191.999994140625,4|8,0:1|0:0,0:0:0:0:
150,285,130228,2,0,L|135:217,2,47.9999985351563,2|0|2,0:0|0:0|0:0,0:0:0:0:
131,145,130669,2,0,P|78:132|18:117,1,95.9999970703126,8|0,0:0|0:0,0:0:0:0:
222,204,131110,2,0,L|288:192,1,47.9999985351563,8|0,0:0|0:0,0:0:0:0:
394,227,131330,6,0,P|354:166|369:39,1,191.999994140625,10|10,0:0|0:0,0:0:0:0:
458,98,131992,2,0,L|512:102,2,47.9999985351563,10|0|2,0:0|0:0|0:0,0:0:0:0:
255,68,132433,1,8,0:0:0:0:
362,51,132654,1,2,0:0:0:0:
255,68,132874,1,8,0:0:0:0:
474,29,133095,1,8,0:0:0:0:
171,193,133315,6,0,P|282:169|403:156,1,191.999994140625,4|0,0:1|0:0,0:0:0:0:
116,266,133977,2,0,B|69:224|83:167|83:167|43:120|79:54,1,191.999994140625,8|8,0:0|0:0,0:0:0:0:
124,15,134639,1,8,0:0:0:0:
171,193,134859,6,0,L|151:415,1,191.999994140625,4|8,0:1|0:0,0:0:0:0:
82,264,135521,1,8,0:0:0:0:
280,245,135741,2,0,P|289:171|265:112,1,95.9999970703126,2|8,0:0|0:0,0:0:0:0:
195,89,136183,1,2,0:0:0:0:
316,333,136403,2,0,P|385:324|439:320,1,95.9999970703126,8|0,0:0|0:0,0:0:0:0:
280,245,136844,6,0,P|342:161|446:169,1,191.999994140625,8|8,0:0|0:0,0:0:0:0:
230,120,137506,2,0,P|223:38|226:-9,1,95.9999970703126,0|8,0:0|0:0,0:0:0:0:
329,37,137947,1,2,0:0:0:0:
230,120,138168,1,8,0:0:0:0:
365,254,138388,6,0,P|311:326|207:292,1,191.999994140625,2|2,0:0|0:0,0:0:0:0:
280,243,139050,1,8,0:0:0:0:
109,343,139270,2,0,P|119:268|132:209,1,95.9999970703126,2|8,0:0|0:0,0:0:0:0:
220,308,139711,1,2,0:0:0:0:
200,177,139932,2,0,P|190:104|183:63,1,95.9999970703126,8|0,0:0|0:0,0:0:0:0:
92,149,140373,5,4,0:1:0:0:
200,177,140594,1,2,0:0:0:0:
281,86,140814,1,10,0:0:0:0:
315,173,141035,2,0,P|367:122|325:-2,1,191.999994140625,2|2,0:0|0:0,0:0:0:0:
468,96,141696,1,8,0:0:0:0:
223,224,141917,6,0,P|227:286|233:334,1,95.9999970703126,2|8,0:0|0:0,0:0:0:0:
124,288,142358,1,2,0:0:0:0:
315,173,142579,2,0,P|321:102|323:61,1,95.9999970703126,10|0,0:0|0:0,0:0:0:0:
223,224,143020,2,0,P|155:211|101:192,1,95.9999970703126,4|0,0:1|0:0,0:0:0:0:
72,296,143461,1,8,0:0:0:0:
39,178,143681,1,8,0:0:0:0:
358,282,144123,5,10,0:0:0:0:
445,158,144343,1,8,0:0:0:0:
445,158,144453,2,0,L|444:91,1,47.9999985351563,2|2,0:0|0:0,0:0:0:0:
358,282,145005,6,0,P|305:248|221:244,1,120.000004577637
157,272,145666,6,0,L|91:269,1,47.9999985351563,8|0,0:0|0:0,0:0:0:0:
26,173,145887,1,8,0:0:0:0:
26,173,145997,1,0,0:0:0:0:
26,173,146108,2,0,L|99:164,1,47.9999985351563,8|0,0:0|0:0,0:0:0:0:
155,80,146328,1,8,0:0:0:0:
155,80,146438,1,8,0:0:0:0:
155,80,146549,1,0,0:0:0:0:
31,37,146769,1,10,0:0:0:0:
73,167,146990,1,2,0:0:0:0:
220,13,147210,6,0,L|211:215,1,191.999994140625,4|8,0:0|0:0,0:0:0:0:
123,87,147872,1,8,0:0:0:0:
144,273,148093,1,2,0:0:0:0:
300,173,148313,1,10,0:0:0:0:
301,153,148423,1,0,0:0:0:0:
302,133,148534,1,10,0:0:0:0:
144,273,148754,1,10,0:0:0:0:
147,291,148864,1,0,0:0:0:0:
150,310,148975,1,2,0:0:0:0:
130,182,149195,6,0,L|69:170,1,47.9999985351563,4|0,0:0|0:0,0:0:0:0:
23,65,149416,1,8,0:0:0:0:
23,65,149526,1,0,0:0:0:0:
23,65,149636,2,0,L|109:52,1,47.9999985351563,8|0,0:0|0:0,0:0:0:0:
166,2,149857,1,8,0:0:0:0:
206,108,150078,1,8,0:0:0:0:
315,133,150298,1,8,0:0:0:0:
129,186,150519,1,8,0:0:0:0:
367,335,150739,6,0,P|291:276|168:296,1,191.999994140625,4|10,0:0|0:0,0:0:0:0:
327,172,151401,1,10,0:0:0:0:
196,142,151621,2,0,P|192:81|189:33,1,95.9999970703126,2|8,0:0|0:0,0:0:0:0:
308,65,152063,1,2,0:0:0:0:
97,194,152283,1,2,0:0:0:0:
97,194,152724,6,0,P|236:169|316:157,1,191.999994140625,8|8,0:0|0:0,0:0:0:0:
71,291,153606,2,0,P|3:228|31:114,1,191.999994140625
178,49,154268,1,2,0:0:0:0:
178,49,154378,1,0,0:0:0:0:
178,49,154489,6,0,L|185:170,1,95.9999970703126,8|0,0:0|0:0,0:0:0:0:
328,290,154930,2,0,L|339:181,1,95.9999970703126,8|0,0:0|0:0,0:0:0:0:
219,232,155371,1,10,0:0:0:0:
337,194,155591,1,0,0:0:0:0:
268,352,155812,2,0,P|205:335|145:325,1,95.9999970703126,10|0,0:0|0:0,0:0:0:0:
463,264,156253,6,0,P|480:190|413:77,1,191.999994140625,10|10,0:0|0:0,0:0:0:0:
273,127,156915,1,2,0:0:0:0:
268,148,157025,1,0,0:0:0:0:
265,167,157135,1,2,0:0:0:0:
294,26,157356,1,2,0:0:0:0:
174,72,157576,1,8,0:0:0:0:
327,227,157797,6,0,P|402:209|520:188,1,191.999994140625,4|0,0:1|0:0,0:0:0:0:
296,65,158459,1,8,0:0:0:0:
241,327,158679,2,0,P|213:271|232:128,1,191.999994140625,10|10,0:0|0:0,0:0:0:0:
48,225,159341,1,10,0:0:0:0:
322,159,159782,6,0,L|315:88,1,47.9999985351563,4|0,0:0|0:0,0:0:0:0:
164,55,160003,1,8,0:0:0:0:
164,55,160113,1,0,0:0:0:0:
164,55,160223,2,0,L|171:-1,1,47.9999985351563,8|0,0:0|0:0,0:0:0:0:
151,161,160444,1,8,0:0:0:0:
151,161,160554,1,0,0:0:0:0:
151,161,160664,1,10,0:0:0:0:
252,123,160885,1,10,0:0:0:0:
75,88,161105,1,10,0:0:0:0:
299,231,161326,6,0,P|303:140|288:16,1,191.999994140625,4|8,0:0|0:0,0:0:0:0:
195,140,161988,1,10,0:0:0:0:
400,160,162208,1,2,0:0:0:0:
216,252,162429,2,0,L|192:320,2,47.9999985351563,10|0|10,0:0|0:0|0:0,0:0:0:0:
297,311,162870,2,0,L|298:375,2,47.9999985351563,10|0|2,0:0|0:0|0:0,0:0:0:0:
153,164,163311,6,0,L|139:101,1,47.9999985351563,4|0,0:0|0:0,0:0:0:0:
285,93,163531,1,8,0:0:0:0:
285,93,163642,1,0,0:0:0:0:
285,93,163752,2,0,L|293:27,1,47.9999985351563,8|0,0:0|0:0,0:0:0:0:
263,207,163973,1,8,0:0:0:0:
153,166,164193,1,8,0:0:0:0:
208,57,164414,1,8,0:0:0:0:
55,137,164634,1,8,0:0:0:0:
189,207,164855,6,0,B|125:195|125:195|66:231|66:231|-6:215,1,191.999994140625,4|8,0:1|0:0,0:0:0:0:
160,283,165516,1,8,0:0:0:0:
55,137,165737,2,0,L|64:24,1,95.9999970703126,2|8,0:0|0:0,0:0:0:0:
189,122,166178,1,2,0:0:0:0:
275,71,166399,1,8,0:0:0:0:
160,283,166840,6,0,P|226:297|345:232,1,191.999994140625,4|8,0:1|0:0,0:0:0:0:
434,295,167501,1,2,0:0:0:0:
434,295,167612,1,0,0:0:0:0:
434,295,167722,2,0,P|428:222|424:169,1,95.9999970703126,8|2,0:0|0:0,0:0:0:0:
263,191,168163,1,8,0:0:0:0:
376,117,168384,6,0,P|307:56|175:78,1,191.999994140625,2|2,0:0|0:0,0:0:0:0:
131,112,169045,2,0,L|144:222,1,95.9999970703126,8|0,0:0|0:0,0:0:0:0:
54,196,169486,2,0,L|74:330,1,95.9999970703126,8|0,0:0|0:0,0:0:0:0:
33,77,169928,1,0,0:0:0:0:
33,77,170369,6,0,P|122:93|223:26,1,191.999994140625,4|0,0:1|0:0,0:0:0:0:
330,74,171030,2,0,L|317:179,1,95.9999970703126,4|0,0:1|0:0,0:0:0:0:
414,212,171471,2,0,L|379:311,1,95.9999970703126,4|0,0:1|0:0,0:0:0:0:
78,309,171913,6,0,P|149:242|312:279,1,240,4|0,0:1|0:0,0:0:0:0:
76,185,172905,1,0,1:0:0:0:
76,185,173015,1,0,0:0:0:0:
221,145,173236,1,4,3:0:0:0:
68,81,173456,1,8,0:0:0:0:
407,184,173898,6,0,P|410:106|395:7,2,160,4|2|2,0:0|0:0|0:0,0:0:0:0:
364,278,175000,1,0,0:0:0:0:
291,83,175221,2,0,P|291:139|278:194,1,80,10|0,0:0|0:0,0:0:0:0:
155,237,175662,2,0,B|183:239|211:227|211:227|249:261|249:261|318:249,1,160,10|8,0:0|0:0,0:0:0:0:
434,191,176324,2,0,L|492:199,2,40,0|0|10,0:0|0:0|0:0,0:0:0:0:
408,298,176765,1,0,0:0:0:0:
464,106,176985,2,0,L|364:94,1,80,8|0,0:0|0:0,0:0:0:0:
298,202,177426,6,0,B|313:146|313:146|302:101|302:101|315:29,2,160,8|0|8,0:0|0:0|0:0,0:0:0:0:
400,158,178529,2,0,P|383:217|370:262,1,80,2|8,0:0|0:0,0:0:0:0:
298,202,178970,1,2,0:0:0:0:
301,312,179191,2,0,P|218:321|159:252,1,160,8|8,0:0|0:0,0:0:0:0:
73,302,179853,2,0,L|62:201,1,80,2|8,0:0|0:0,0:0:0:0:
250,233,180294,1,0,0:0:0:0:
137,155,180514,1,2,0:0:0:0:
313,121,180735,1,2,0:0:0:0:
165,272,180955,6,0,P|156:317|149:369,1,80,10|0,0:0|0:0,0:0:0:0:
384,188,181396,2,0,P|402:115|362:37,2,160,8|8|8,0:0|0:0|0:0,0:0:0:0:
208,92,182720,1,8,0:0:0:0:
235,187,182940,2,0,B|196:195|196:195|132:163,1,80,0|8,0:0|0:0,0:0:0:0:
98,106,183381,1,0,0:0:0:0:
98,106,183492,1,0,0:0:0:0:
98,106,183602,2,0,L|100:5,1,80,8|0,0:0|0:0,0:0:0:0:
197,92,184043,1,8,0:0:0:0:
57,183,184264,1,0,0:0:0:0:
160,177,184484,6,0,P|178:232|186:272,1,80,10|0,0:0|0:0,0:0:0:0:
103,352,184925,1,8,0:0:0:0:
103,352,185146,2,0,P|80:294|78:269,1,80,2|8,0:0|0:0,0:0:0:0:
160,177,185587,2,0,P|168:125|156:72,1,80,2|8,0:0|0:0,0:0:0:0:
253,238,186028,1,2,0:0:0:0:
253,238,186138,1,0,0:0:0:0:
253,238,186249,6,0,L|364:222,1,80,10|0,0:0|0:0,0:0:0:0:
160,177,186690,1,8,0:0:0:0:
213,334,186910,1,2,0:0:0:0:
213,334,187020,1,0,0:0:0:0:
213,334,187131,2,0,L|102:318,1,80,10|0,0:0|0:0,0:0:0:0:
253,238,187572,5,0,0:0:0:0:
253,238,188013,1,0,0:0:0:0:
286,111,188234,1,2,0:0:0:0:
135,143,188454,1,2,0:0:0:0:
328,189,188675,2,0,P|341:85|322:17,1,160,2|2,0:0|0:0,0:0:0:0:
185,223,189336,2,0,L|225:225,1,40,8|0,0:0|0:0,0:0:0:0:
118,145,189557,6,0,P|89:214|118:293,1,160,2|2,0:0|0:0,0:0:0:0:
0,382,190219,2,0,P|10:308|8:282,1,80,8|0,0:0|0:0,0:0:0:0:
28,124,190660,2,0,P|39:183|60:234,1,80,4|0,0:1|0:0,0:0:0:0:
200,328,191101,2,0,L|205:277,1,40,8|0,0:0|0:0,0:0:0:0:
150,134,191321,2,0,L|154:206,1,40,8|0,0:0|0:0,0:0:0:0:
317,239,191763,6,0,L|372:229,1,40,10|10,0:0|0:0,0:0:0:0:
475,141,191983,1,8,0:0:0:0:
475,141,192093,2,0,L|405:134,1,40,10|0,0:0|0:0,0:0:0:0:
227,293,205216,5,8,0:0:0:0:
271,185,205437,6,0,B|251:39|251:39|212:95,1,191.999994140625,4|2,0:1|0:0,0:0:0:0:
169,168,206099,1,8,0:0:0:0:
371,238,206319,2,0,L|342:41,1,191.999994140625,4|8,0:1|0:0,0:0:0:0:
393,334,206981,1,8,0:0:0:0:
67,180,207422,6,0,L|138:162,1,47.9999985351563,8|0,0:0|0:0,0:0:0:0:
274,269,207643,1,8,0:0:0:0:
274,269,207753,1,0,0:0:0:0:
274,269,207863,2,0,L|197:258,1,47.9999985351563,8|0,0:0|0:0,0:0:0:0:
266,62,208084,1,0,0:0:0:0:
266,62,208194,1,0,0:0:0:0:
266,62,208304,1,8,0:0:0:0:
187,170,208525,1,8,0:0:0:0:
377,202,208745,2,0,L|371:147,1,47.9999985351563,8|0,0:0|0:0,0:0:0:0:
366,296,208966,6,0,P|443:272|455:160,1,191.999994140625,4|8,0:1|0:0,0:0:0:0:
370,56,209628,2,0,L|305:61,1,47.9999985351563,10|0,0:0|0:0,0:0:0:0:
249,124,209848,2,0,L|177:130,1,47.9999985351563,2|0,0:0|0:0,0:0:0:0:
106,141,210069,1,10,0:0:0:0:
101,177,210179,1,0,0:0:0:0:
95,212,210289,2,0,L|152:227,1,47.9999985351563,10|0,0:0|0:0,0:0:0:0:
229,251,210510,1,2,0:0:0:0:
234,287,210620,1,0,0:0:0:0:
241,323,210730,2,0,L|191:340,1,47.9999985351563,2|0,0:0|0:0,0:0:0:0:
366,192,210951,6,0,L|440:207,1,47.9999985351563,4|0,0:0|0:0,0:0:0:0:
281,105,211171,1,8,0:0:0:0:
281,105,211282,1,0,0:0:0:0:
281,105,211392,2,0,L|397:78,1,95.9999970703126,8|8,0:0|0:0,0:0:0:0:
412,204,211833,1,2,0:0:0:0:
453,331,212054,1,8,0:0:0:0:
503,191,212274,1,10,0:0:0:0:
344,277,212495,6,0,P|457:285|510:196,1,191.999994140625,8|8,0:0|0:0,0:0:0:0:
301,364,213157,1,8,0:0:0:0:
413,204,213377,2,0,B|403:60|403:60|355:122,1,191.999994140625,2|2,0:0|0:0,0:0:0:0:
323,179,214039,2,0,P|309:239|304:288,1,95.9999970703126,2|0,0:0|0:0,0:0:0:0:
163,374,214480,6,0,P|188:276|159:166,1,191.999994140625,4|8,0:1|0:0,0:0:0:0:
279,29,215142,1,0,0:0:0:0:
279,29,215252,1,0,0:0:0:0:
279,29,215362,2,0,P|268:115|270:165,1,95.9999970703126,8|0,0:0|0:0,0:0:0:0:
384,117,215803,1,2,0:0:0:0:
279,239,216024,6,0,P|386:249|447:155,1,191.999994140625,2|2,0:0|0:0,0:0:0:0:
205,318,216685,2,0,P|180:266|168:223,1,95.9999970703126,10|0,0:0|0:0,0:0:0:0:
272,115,217127,6,0,P|165:125|104:31,2,191.999994140625,10|10|10,0:0|0:0|0:0,0:0:0:0:
272,115,218450,1,10,0:0:0:0:
380,215,218670,2,0,L|386:95,1,95.9999970703126,2|0,0:0|0:0,0:0:0:0:
380,215,219112,1,2,0:0:0:0:
269,249,219332,1,8,0:0:0:0:
158,292,219553,6,0,B|146:148|146:148|193:187,1,191.999994140625,4|2,0:1|0:0,0:0:0:0:
52,132,220214,2,0,L|60:214,1,47.9999985351563,8|0,0:0|0:0,0:0:0:0:
245,255,220435,2,0,P|279:188|213:84,1,191.999994140625
186,181,221097,2,0,B|148:209|148:209|65:195,1,95.9999970703126,8|0,0:0|0:0,0:0:0:0:
242,337,221538,6,0,L|364:314,1,95.9999970703126,4|0,0:1|0:0,0:0:0:0:
123,300,221979,1,0,0:0:0:0:
186,181,222199,1,2,0:0:0:0:
186,181,222310,1,0,0:0:0:0:
186,181,222420,2,0,L|73:165,1,95.9999970703126,2|2,0:0|0:0,0:0:0:0:
315,91,222861,1,0,0:0:0:0:
291,191,223082,6,0,P|220:131|240:23,1,191.999994140625,4|8,0:1|0:0,0:0:0:0:
430,224,223743,2,0,P|453:295|455:342,1,95.9999970703126,8|0,0:0|0:0,0:0:0:0:
269,291,224184,1,2,0:0:0:0:
292,191,224625,1,2,0:0:0:0:
315,90,225067,5,2,0:0:0:0:
315,90,225508,1,8,0:0:0:0:
204,205,225728,2,0,L|104:185,1,95.9999970703126,4|0,0:1|0:0,0:0:0:0:
235,300,226169,2,0,L|135:280,1,95.9999970703126,4|0,0:1|0:0,0:0:0:0:
322,359,226610,6,0,P|264:282|351:157,1,239.999992675781,4|0,0:1|0:0,0:0:0:0:
323,165,227713,2,0,L|320:104,1,40,8|0,0:0|0:0,0:0:0:0:
231,80,227934,2,0,L|234:152,1,40,8|0,0:0|0:0,0:0:0:0:
146,171,228154,2,0,L|145:124,1,40,8|0,0:0|0:0,0:0:0:0:
119,279,228375,6,0,P|60:235|51:112,1,191.999994140625,10|2,0:0|0:0,0:0:0:0:
162,32,229037,2,0,L|53:10,1,95.9999970703126,8|0,0:0|0:0,0:0:0:0:
307,135,229478,1,10,0:0:0:0:
169,176,229698,1,2,0:0:0:0:
259,18,229919,1,8,0:0:0:0:
156,264,230139,6,0,P|143:192|148:50,1,191.999994140625,2|2,0:0|0:0,0:0:0:0:
368,216,230801,2,0,P|365:288|357:353,1,95.9999970703126,8|0,0:0|0:0,0:0:0:0:
338,125,231242,2,0,L|458:100,1,95.9999970703126,8|0,0:0|0:0,0:0:0:0:
230,77,231683,1,8,0:0:0:0:
259,163,231904,6,0,P|311:112|261:-7,1,191.999994140625,2|2,0:0|0:0,0:0:0:0:
154,145,232565,2,0,P|159:221|165:284,1,95.9999970703126,8|0,0:0|0:0,0:0:0:0:
235,284,233007,1,8,0:0:0:0:
351,259,233227,1,2,0:0:0:0:
261,161,233448,1,8,0:0:0:0:
368,352,233668,6,0,P|438:256|379:171,1,191.999994140625,2|2,0:0|0:0,0:0:0:0:
317,106,234330,2,0,P|317:35|322:-5,1,95.9999970703126,8|0,0:0|0:0,0:0:0:0:
341,259,234771,1,8,0:0:0:0:
341,259,235212,1,8,0:0:0:0:
214,230,235433,6,0,L|395:205,1,160,4|0,0:1|0:0,0:0:0:0:
226,139,236094,2,0,B|212:98|212:98|233:55,1,80
121,198,236535,2,0,L|23:183,2,80,2|2|2,0:0|0:0|0:0,0:0:0:0:
222,211,237197,6,0,B|181:242|181:242|141:107,1,160,2|2,0:0|0:0,0:0:0:0:
243,117,237859,2,0,P|321:155|408:125,1,160,2|2,0:0|0:0,0:0:0:0:
328,39,238520,1,2,0:0:0:0:
471,180,238741,2,0,L|468:72,1,80
465,299,239182,6,0,P|409:248|305:251,1,160,4|0,0:1|0:0,0:0:0:0:
214,289,239844,2,0,P|209:235|209:207,1,80,8|0,0:0|0:0,0:0:0:0:
352,149,240285,2,0,P|352:102|349:51,1,80,4|0,0:0|0:0,0:0:0:0:
200,22,240726,1,8,0:0:0:0:
156,112,241388,6,0,B|113:103|110:36|110:36|98:141|98:141|-32:99|-62:250|79:290|105:206,1,480,4|0,0:1|0:0,0:0:0:0:
256,192,242821,12,0,247453,0:0:0:0:
