osu file format v14

[General]
AudioFilename: audio.mp3
AudioLeadIn: 0
PreviewTime: 195712
Countdown: 0
SampleSet: Soft
StackLeniency: 0.3
Mode: 0
LetterboxInBreaks: 0
WidescreenStoryboard: 0

[Editor]
DistanceSpacing: 0.1
BeatDivisor: 4
GridSize: 16
TimelineZoom: 1.2

[Metadata]
Title:Snow Marriage
TitleUnicode:Snow Marriage
Artist:seleP
ArtistUnicode:seleP
Creator:P_O
Version:The girl kept waiting for you in the falling snow
Source:
Tags:IA rocks Vocaloid sanctuary electronic japanese trance trancepop 4th album self cover featured artist fa
BeatmapID:3740765
BeatmapSetID:1823014

[Difficulty]
HPDrainRate:5
CircleSize:4
OverallDifficulty:8
ApproachRate:8
SliderMultiplier:1.8
SliderTickRate:1

[Events]
//Background and Video events
0,0,"bg.jpg",0,0
//Break Periods
2,178134,186040
2,249245,257184
2,258134,266073
//Storyboard Layer 0 (Background)
//Storyboard Layer 1 (Fail)
//Storyboard Layer 2 (Pass)
//Storyboard Layer 3 (Foreground)
//Storyboard Layer 4 (Overlay)
//Storyboard Sound Samples

[TimingPoints]
157,555.555555555556,4,2,1,60,1,0
157,-133.333333333333,4,2,1,60,0,0
15712,-133.333333333333,4,2,2,60,0,0
17934,-100,4,2,1,90,0,1
35712,-100,4,2,1,90,0,0
53490,-166.666666666667,4,2,1,60,0,0
69045,-166.666666666667,4,2,2,60,0,0
71268,-166.666666666667,4,2,1,60,0,0
89045,-100,4,2,1,90,0,1
124601,-100,4,2,1,90,0,0
142379,-133.333333333333,4,2,1,75,0,0
177934,-133.333333333333,4,2,0,75,0,0
186823,-133.333333333333,4,2,1,60,0,0
195712,-100,4,2,1,90,0,1
213490,-100,4,2,1,95,0,1
231268,-133.333333333333,4,2,1,75,0,0
232101,-133.333333333333,4,2,2,75,0,0
232379,-133.333333333333,4,2,1,75,0,0
233490,-133.333333333333,4,2,2,75,0,0
233768,-133.333333333333,4,2,1,75,0,0
234601,-133.333333333333,4,2,2,75,0,0
234879,-133.333333333333,4,2,1,75,0,0
236823,-133.333333333333,4,2,2,75,0,0
237101,-133.333333333333,4,2,1,75,0,0
241268,-133.333333333333,4,2,2,75,0,0
241546,-133.333333333333,4,2,1,75,0,0
257934,-133.333333333333,4,2,2,75,0,0
266823,-133.333333333333,4,2,1,75,0,0
275712,-133.333333333333,4,2,0,60,0,0
282240,-133.333333333333,4,2,1,60,0,0
284601,-100,4,2,1,90,0,1
302379,-100,4,2,1,95,0,1
320157,-100,4,2,1,90,0,0
337934,-133.333333333333,4,2,1,75,0,0
341268,-133.333333333333,4,2,2,75,0,0
341407,-133.333333333333,4,2,1,75,0,0
341823,-133.333333333333,4,2,2,75,0,0
342101,-133.333333333333,4,2,1,75,0,0
342379,-133.333333333333,4,2,2,75,0,0
342795,-133.333333333333,4,2,1,75,0,0
343490,-133.333333333333,4,2,2,75,0,0
343629,-133.333333333333,4,2,1,75,0,0
344045,-133.333333333333,4,2,2,75,0,0
344323,-133.333333333333,4,2,1,75,0,0
346268,-133.333333333333,4,2,2,75,0,0
346545,-133.333333333333,4,2,1,75,0,0
346823,-133.333333333333,4,2,2,75,0,0
347240,-133.333333333333,4,2,1,75,0,0
347934,-133.333333333333,4,2,2,75,0,0
348073,-133.333333333333,4,2,1,75,0,0
350157,-133.333333333333,4,2,2,75,0,0
350295,-133.333333333333,4,2,1,75,0,0
350712,-133.333333333333,4,2,2,75,0,0
350990,-133.333333333333,4,2,1,75,0,0
351268,-133.333333333333,4,2,2,75,0,0
351407,-133.333333333333,4,2,1,75,0,0
355712,-133.333333333333,4,2,2,75,0,0

[Colours]
Combo1 : 0,5,191
Combo2 : 255,121,121
Combo3 : 121,182,255
Combo4 : 191,0,5

[HitObjects]
146,133,157,5,12,0:0:0:0:
96,192,434,1,0,0:0:0:0:
96,270,712,2,0,L|96:315,1,33.7500012874604,2|0,0:0|0:0,0:0:0:0:
96,382,1129,1,0,0:0:0:0:
174,382,1407,1,0,0:0:0:0:
224,323,1684,2,0,L|269:323,1,33.7500012874604,0|2,0:0|0:0,0:0:0:0:
335,323,2101,1,2,0:0:0:0:
345,323,2240,1,0,0:0:0:0:
355,323,2379,6,0,L|422:323,1,67.5000025749208,2|0,0:0|0:0,0:0:0:0:
355,239,2934,2,0,L|310:239,1,33.7500012874604,2|0,0:0|0:0,0:0:0:0:
431,239,3351,1,0,0:0:0:0:
478,176,3629,2,0,L|478:131,1,33.7500012874604,0|2,0:0|0:0,0:0:0:0:
478,64,4045,1,2,0:0:0:0:
393,176,4323,1,4,3:0:0:0:
393,176,4601,38,0,P|372:144|329:131,1,67.5000025749208,4|0,3:0|0:0,0:0:0:0:
269,132,5157,2,0,L|224:132,1,33.7500012874604,2|0,0:0|0:0,0:0:0:0:
235,54,5573,1,0,0:0:0:0:
171,10,5851,1,0,0:0:0:0:
93,10,6129,2,0,L|54:10,1,33.7500012874604,0|2,0:0|0:0,0:0:0:0:
1,61,6545,1,2,0:0:0:0:
1,71,6684,1,0,0:0:0:0:
1,81,6823,6,0,L|1:148,1,67.5000025749208,2|0,0:0|0:0,0:0:0:0:
1,226,7379,2,0,L|1:259,1,33.7500012874604,2|0,0:0|0:0,0:0:0:0:
77,260,7795,1,0,0:0:0:0:
127,318,8073,2,0,L|171:318,1,33.7500012874604,0|2,0:0|0:0,0:0:0:0:
256,318,8490,1,2,0:0:0:0:
273,318,8629,1,0,0:0:0:0:
290,318,8768,1,2,0:0:0:0:
302,305,8907,1,0,0:0:0:0:
302,287,9045,38,0,L|302:218,1,67.5000025749208,4|0,3:0|0:0,0:0:0:0:
238,148,9601,2,0,L|198:148,1,33.7500012874604,8|0,0:0|0:0,0:0:0:0:
109,148,10018,1,2,0:0:0:0:
92,148,10157,1,8,0:3:0:0:
75,148,10295,1,0,0:0:0:0:
62,135,10434,1,8,0:0:0:0:
62,40,10712,1,8,0:3:0:0:
156,40,10990,1,8,0:0:0:0:
173,40,11129,1,0,0:0:0:0:
190,40,11268,6,0,B|214:40|214:40|226:27|226:27|251:27,1,67.5000025749208,4|0,0:0|0:0,0:0:0:0:
346,27,11823,2,0,L|386:27,1,33.7500012874604,8|0,0:0|0:0,0:0:0:0:
461,77,12240,1,2,0:0:0:0:
461,94,12379,1,8,0:3:0:0:
461,111,12517,1,0,0:0:0:0:
474,124,12656,1,8,0:0:0:0:
474,218,12934,1,8,0:0:0:0:
393,268,13212,1,8,0:3:0:0:
393,285,13351,1,0,0:0:0:0:
393,302,13490,38,0,B|393:326|393:326|380:338|380:338|380:363,1,67.5000025749208,4|0,0:0|0:0,0:0:0:0:
307,302,14045,2,0,L|307:262,1,33.7500012874604,8|0,0:0|0:0,0:0:0:0:
307,173,14462,1,2,0:0:0:0:
294,160,14601,1,12,0:3:0:0:
277,160,14739,1,0,0:0:0:0:
264,147,14879,1,8,0:0:0:0:
169,147,15157,1,8,0:3:0:0:
169,53,15434,1,4,3:0:0:0:
152,53,15573,1,0,0:0:0:0:
135,53,15712,6,2,B|111:53|111:53|99:40|99:40|73:40,1,67.5000025749208,6|2,0:0|0:0,0:0:0:0:
107,134,16268,2,2,B|133:134|133:134|145:147|145:147|169:147,1,67.5000025749208
202,241,16823,2,2,B|178:241|178:241|166:228|166:228|140:228,1,67.5000025749208
174,322,17379,2,2,B|199:322|199:322|211:335|211:335|235:335,1,67.5000025749208
340,335,17934,5,4,0:3:0:0:
376,335,18073,1,0,0:0:0:0:
401,309,18212,1,8,0:0:0:0:
401,273,18351,1,0,0:0:0:0:
427,248,18490,1,8,0:3:0:0:
427,122,18768,5,8,0:0:0:0:
427,85,18907,1,0,0:0:0:0:
427,49,19045,1,8,0:3:0:0:
401,23,19184,1,0,0:0:0:0:
364,23,19323,1,8,0:0:0:0:
337,48,19462,1,0,0:0:0:0:
337,85,19601,1,8,0:3:0:0:
271,192,19879,37,8,0:0:0:0:
234,192,20018,1,2,0:0:0:0:
207,217,20157,1,6,0:0:0:0:
75,242,20434,5,8,0:0:0:0:
38,242,20573,1,2,0:0:0:0:
11,217,20712,2,8,L|11:125,1,90,10|8,0:3|0:0,0:0:0:0:
81,27,21268,37,10,0:1:0:0:
117,27,21407,1,8,0:0:0:0:
218,85,21684,1,8,0:0:0:0:
254,85,21823,1,8,0:1:0:0:
380,85,22101,1,8,0:3:0:0:
417,85,22240,1,2,0:0:0:0:
444,110,22379,6,0,L|444:210,1,90,4|0,0:0|0:0,0:0:0:0:
444,321,22934,1,8,0:3:0:0:
368,384,23212,1,8,0:0:0:0:
331,384,23351,1,2,0:0:0:0:
305,358,23490,1,12,0:3:0:0:
305,321,23629,1,8,0:3:0:0:
279,295,23768,1,2,0:0:0:0:
279,167,24045,38,0,L|279:67,1,90,8|0,0:3|0:0,0:0:0:0:
190,167,24601,1,12,0:3:0:0:
153,167,24740,1,8,0:3:0:0:
126,192,24879,1,2,0:0:0:0:
0,192,25157,1,12,0:3:0:0:
89,285,25434,5,8,0:0:0:0:
126,285,25573,1,0,0:0:0:0:
153,310,25712,1,12,0:3:0:0:
153,346,25851,1,8,0:3:0:0:
153,382,25990,1,2,0:0:0:0:
279,382,26268,37,12,0:0:0:0:
315,382,26407,1,0,0:0:0:0:
351,382,26545,1,8,0:0:0:0:
376,356,26684,1,0,0:0:0:0:
375,319,26823,1,12,0:3:0:0:
400,292,26962,1,0,0:0:0:0:
436,291,27101,1,8,0:0:0:0:
461,264,27240,1,0,0:0:0:0:
460,227,27379,1,8,0:3:0:0:
460,100,27657,5,8,0:0:0:0:
424,100,27795,1,0,0:0:0:0:
398,74,27934,1,8,0:3:0:0:
372,48,28073,1,0,0:0:0:0:
336,48,28211,1,8,0:0:0:0:
310,74,28351,1,0,0:0:0:0:
273,74,28490,1,8,0:3:0:0:
147,74,28768,37,8,0:0:0:0:
111,74,28906,1,2,0:0:0:0:
74,74,29046,1,6,0:0:0:0:
211,154,29323,1,8,0:0:0:0:
236,179,29461,1,2,0:0:0:0:
273,179,29601,2,0,L|379:179,1,90,10|0,0:3|3:0,3:0:0:0:
473,241,30157,5,10,0:1:0:0:
509,241,30295,1,8,0:0:0:0:
473,362,30573,1,8,0:0:0:0:
437,362,30711,1,8,0:1:0:0:
310,362,30990,37,8,0:0:0:0:
273,362,31129,1,0,0:0:0:0:
236,362,31268,1,12,0:3:0:0:
209,335,31407,1,8,0:3:0:0:
209,299,31545,1,2,0:0:0:0:
209,173,31823,2,0,L|209:81,1,90,8|0,0:3|0:0,0:0:0:0:
73,82,32379,5,12,0:3:0:0:
36,82,32518,1,4,0:3:0:0:
10,108,32657,1,2,0:0:0:0:
10,252,32934,2,0,L|10:351,1,90,8|0,0:3|0:0,0:0:0:0:
99,252,33490,37,12,0:3:0:0:
136,252,33629,1,8,0:3:0:0:
163,278,33768,1,2,0:0:0:0:
289,278,34045,1,12,0:3:0:0:
381,192,34323,5,8,0:0:0:0:
417,192,34462,1,0,0:0:0:0:
442,166,34601,1,12,0:3:0:0:
478,166,34740,1,8,0:0:0:0:
503,140,34879,1,0,0:0:0:0:
503,104,35018,1,0,0:0:0:0:
477,79,35157,1,8,0:3:0:0:
333,79,35434,37,8,0:0:0:0:
297,79,35573,1,0,0:0:0:0:
272,53,35712,1,12,0:3:0:0:
236,53,35851,1,0,0:0:0:0:
211,27,35990,1,8,0:0:0:0:
175,27,36129,1,0,0:0:0:0:
150,53,36268,1,8,0:3:0:0:
150,192,36545,5,8,0:0:0:0:
150,228,36683,1,0,0:0:0:0:
150,264,36822,1,8,0:3:0:0:
124,289,36961,1,0,0:0:0:0:
87,289,37100,1,8,0:0:0:0:
61,315,37240,1,0,0:0:0:0:
61,352,37379,1,8,0:3:0:0:
61,192,37657,38,2,L|61:147,2,45,10|2|6,0:0|0:0|0:0,0:0:0:0:
150,53,38212,2,0,L|195:53,2,45,8|0|10,0:0|0:0|0:3,0:0:0:0:
311,53,38768,1,0,0:0:0:0:
420,147,39045,5,10,0:1:0:0:
456,147,39184,1,8,0:0:0:0:
385,258,39462,1,8,0:0:0:0:
349,258,39601,1,8,0:1:0:0:
271,364,39879,37,8,0:0:0:0:
235,364,40018,1,2,0:0:0:0:
209,338,40157,2,0,L|209:249,1,90,4|0,0:0|0:0,0:0:0:0:
105,338,40712,1,8,0:3:0:0:
105,192,40990,5,8,0:0:0:0:
105,155,41129,1,0,0:0:0:0:
78,128,41268,1,12,0:3:0:0:
51,101,41407,1,8,0:3:0:0:
14,101,41545,1,2,0:0:0:0:
167,101,41823,1,8,0:3:0:0:
256,192,42101,37,8,0:0:0:0:
293,192,42240,1,0,0:0:0:0:
320,165,42379,1,12,0:3:0:0:
347,138,42518,1,8,0:3:0:0:
347,101,42657,1,2,0:0:0:0:
347,254,42934,1,8,0:3:0:0:
457,192,43212,5,8,0:0:0:0:
484,165,43351,1,0,0:0:0:0:
484,128,43490,1,12,0:3:0:0:
484,91,43629,1,8,0:3:0:0:
457,64,43768,1,2,0:0:0:0:
457,192,44045,37,12,0:0:0:0:
457,228,44184,1,0,0:0:0:0:
431,253,44323,1,8,0:0:0:0:
394,253,44462,1,0,0:0:0:0:
369,279,44601,1,12,0:3:0:0:
369,315,44740,1,0,0:0:0:0:
343,340,44879,1,8,0:0:0:0:
306,340,45018,1,0,0:0:0:0:
280,365,45157,1,8,0:3:0:0:
136,365,45434,5,8,0:0:0:0:
99,365,45573,1,0,0:0:0:0:
72,338,45712,1,8,0:3:0:0:
35,338,45851,1,0,0:0:0:0:
8,311,45990,1,8,0:0:0:0:
8,274,46129,1,0,0:0:0:0:
34,247,46268,1,8,0:3:0:0:
179,247,46545,38,2,L|227:247,2,45,10|2|6,0:0|0:0|0:0,0:0:0:0:
297,163,47101,2,2,L|297:115,2,45,10|2|10,0:0|0:0|0:3,0:0:0:0:
297,18,47657,1,0,0:0:0:0:
203,127,47934,1,10,0:1:0:0:
203,163,48073,1,8,0:0:0:0:
107,54,48351,1,8,0:0:0:0:
107,18,48490,1,8,0:1:0:0:
107,163,48768,5,8,0:0:0:0:
107,199,48907,1,0,0:0:0:0:
81,224,49045,1,12,0:3:0:0:
55,249,49184,1,8,0:3:0:0:
19,248,49322,1,2,0:0:0:0:
107,363,49601,1,8,0:3:0:0:
234,363,49879,37,8,0:0:0:0:
270,364,50017,1,0,0:0:0:0:
296,339,50157,1,12,0:3:0:0:
322,314,50294,1,8,0:3:0:0:
322,278,50433,1,2,0:0:0:0:
322,133,50712,1,8,0:3:0:0:
410,20,50990,5,8,0:0:0:0:
446,19,51128,1,0,0:0:0:0:
472,44,51267,1,12,0:3:0:0:
472,89,51407,1,8,0:0:0:0:
472,133,51545,1,2,0:0:0:0:
322,133,51823,1,12,0:0:0:0:
232,20,52101,37,8,0:0:0:0:
196,19,52239,1,0,0:0:0:0:
170,44,52378,1,12,0:3:0:0:
170,89,52518,1,8,0:3:0:0:
170,133,52656,1,2,0:0:0:0:
234,316,52934,5,12,0:0:0:0:
273,285,53073,1,0,0:0:0:0:
322,278,53212,1,8,0:0:0:0:
371,285,53351,1,0,0:0:0:0:
410,316,53490,1,12,0:0:0:0:
322,379,53768,5,0,0:0:0:0:
234,316,54045,2,2,L|170:316,1,53.9999983520508
93,251,54601,1,2,0:0:0:0:
93,237,54740,2,0,L|93:169,1,53.9999983520508
93,91,55295,1,0,0:0:0:0:
93,77,55434,1,2,0:0:0:0:
102,68,55573,1,0,0:0:0:0:
114,68,55712,6,2,L|182:68,1,53.9999983520508
260,68,56268,2,2,P|294:76|313:99,1,53.9999983520508
316,99,56684,1,0,0:0:0:0:
408,99,56962,1,2,0:0:0:0:
479,158,57240,1,0,0:0:0:0:
493,158,57379,1,2,0:0:0:0:
493,250,57657,1,0,0:0:0:0:
493,342,57934,2,2,P|459:350|440:373,1,53.9999983520508
353,362,58490,38,2,L|285:362,1,53.9999983520508
286,362,58907,1,0,0:0:0:0:
272,362,59045,1,2,0:0:0:0:
259,362,59184,2,2,P|225:354|206:331,1,53.9999983520508
204,330,59601,1,2,0:0:0:0:
112,330,59879,2,2,L|63:330,2,26.9999991760254
158,251,60434,1,0,0:0:0:0:
250,251,60712,6,2,L|320:251,1,53.9999983520508
395,252,61268,1,2,0:0:0:0:
409,252,61406,1,0,0:0:0:0:
489,207,61684,1,0,0:0:0:0:
489,193,61822,1,2,0:0:0:0:
489,101,62101,1,2,0:0:0:0:
489,87,62239,1,0,0:0:0:0:
489,73,62379,38,2,P|468:56|441:52,1,53.9999983520508,4|2,0:0|0:0,0:0:0:0:
350,52,62934,2,2,P|323:48|302:31,1,53.9999983520508
210,31,63490,1,0,0:0:0:0:
196,31,63629,2,2,L|126:31,1,53.9999983520508
128,31,64045,1,0,0:0:0:0:
67,100,64323,1,2,0:0:0:0:
67,113,64462,1,0,0:0:0:0:
67,126,64601,6,0,P|63:152|46:173,1,53.9999983520508,4|0,0:0|0:0,0:0:0:0:
116,234,65157,2,2,L|186:234,1,53.9999983520508
183,234,65573,1,0,0:0:0:0:
256,290,65851,1,2,0:0:0:0:
349,290,66129,1,0,0:0:0:0:
362,290,66268,1,2,0:0:0:0:
435,346,66545,1,4,0:0:0:0:
435,346,66823,38,2,L|493:346,1,53.9999983520508,6|2,0:0|0:0,0:0:0:0:
489,253,67379,1,2,0:0:0:0:
420,192,67657,1,2,0:0:0:0:
407,192,67796,1,0,0:0:0:0:
393,192,67934,1,4,0:0:0:0:
379,192,68073,2,2,P|352:196|331:213,1,53.9999983520508,2|2,0:3|0:0,0:0:0:0:
239,212,68629,1,2,0:0:0:0:
171,150,68907,1,0,0:0:0:0:
157,149,69045,6,2,L|81:149,1,53.9999983520508,6|0,0:0|0:0,0:0:0:0:
21,78,69601,2,0,L|97:78,1,53.9999983520508,6|0,0:0|0:0,0:0:0:0:
157,7,70157,2,0,L|103:7,1,53.9999983520508,6|0,0:0|0:0,0:0:0:0:
238,7,70712,2,0,P|265:11|286:28,1,53.9999983520508,6|0,0:0|0:0,0:0:0:0:
285,163,71268,38,0,L|285:233,1,53.9999983520508,4|0,3:2|0:0,0:0:0:0:
379,163,71823,1,8,0:3:0:0:
379,55,72101,1,8,0:0:0:0:
379,41,72240,2,2,P|400:24|426:20,1,53.9999983520508,8|2,0:3|0:0,0:0:0:0:
440,20,72657,1,8,3:0:0:0:
512,109,72934,2,2,L|513:168,1,53.9999983520508,10|2,0:3|0:0,0:0:0:0:
512,272,73490,6,10,B|512:339|512:339|458:339,1,107.999996704102,10|10,0:3|0:3,0:0:0:0:
457,339,74184,1,0,0:0:0:0:
443,339,74323,1,8,0:0:0:0:
443,352,74462,1,8,0:3:0:0:
443,366,74601,1,8,0:0:0:0:
335,366,74879,1,8,0:3:0:0:
256,292,75157,2,2,P|229:288|208:271,1,53.9999983520508,10|10,0:3|0:3,0:0:0:0:
335,292,75712,37,4,0:0:0:0:
256,218,75990,1,8,0:0:0:0:
256,204,76129,2,2,L|256:138,1,53.9999983520508,10|2,0:3|0:0,0:0:0:0:
256,136,76545,1,8,0:3:0:0:
256,28,76823,2,10,L|256:-7,2,26.9999991760254,10|8|10,0:0|0:0|0:3,0:0:0:0:
148,28,77379,2,2,P|121:32|100:49,1,53.9999983520508,10|2,0:3|0:0,0:0:0:0:
99,156,77934,6,2,B|66:156|66:156|57:137|57:137|21:137,1,80.9999975280763,6|2,0:0|0:0,0:0:0:0:
17,137,78490,1,8,0:3:0:0:
17,245,78768,1,8,0:3:0:0:
17,258,78907,1,0,0:0:0:0:
17,271,79045,2,2,P|38:287|64:291,1,53.9999983520508,14|2,0:0|0:0,0:0:0:0:
160,290,79601,38,2,B|185:290|185:290|204:306,2,35.9999989013672,14|2|2,0:0|0:0|0:0,0:0:0:0:
196,378,80157,2,2,L|266:378,1,53.9999983520508,14|2,0:3|0:0,0:0:0:0:
314,291,80712,2,2,L|384:291,1,53.9999983520508,10|2,0:3|0:0,0:0:0:0:
381,291,81129,1,8,0:3:0:0:
394,291,81268,1,8,0:0:0:0:
481,227,81545,1,0,0:0:0:0:
481,119,81823,2,2,P|477:92|461:71,1,53.9999983520508,10|2,0:3|0:0,0:0:0:0:
421,172,82379,6,0,L|351:172,2,53.9999983520508,4|2|8,0:0|0:0|0:3,0:0:0:0:
382,71,83212,1,8,0:0:0:0:
368,71,83351,1,8,0:3:0:0:
358,61,83490,1,8,0:3:0:0:
348,51,83629,1,8,0:0:0:0:
334,51,83768,1,8,0:0:0:0:
226,51,84045,2,2,P|199:47|178:31,1,53.9999983520508,10|2,0:3|0:0,0:0:0:0:
178,140,84601,38,8,L|178:210,1,53.9999983520508,12|8,0:0|0:3,0:3:0:0:
178,207,85018,1,0,0:0:0:0:
178,220,85157,1,8,0:3:0:0:
178,327,85434,5,8,0:0:0:0:
192,327,85573,1,8,0:3:0:0:
204,337,85712,1,4,0:0:0:0:
214,347,85851,1,0,0:0:0:0:
230,347,85990,1,8,0:3:0:0:
246,347,86129,1,0,0:0:0:0:
256,359,86268,1,4,0:3:0:0:
256,220,86545,37,8,0:0:0:0:
256,206,86684,1,0,0:0:0:0:
256,192,86823,2,2,L|256:130,1,53.9999983520508,14|2,0:3|0:0,0:0:0:0:
256,124,87240,1,10,0:3:0:0:
256,192,89045,37,12,0:3:0:0:
256,228,89184,1,0,0:0:0:0:
256,264,89323,1,8,0:0:0:0:
282,289,89462,1,0,0:0:0:0:
317,289,89601,1,8,0:3:0:0:
173,289,89879,37,8,0:0:0:0:
137,289,90018,1,0,0:0:0:0:
101,289,90157,1,8,0:3:0:0:
76,315,90296,1,0,0:0:0:0:
76,351,90435,1,8,0:0:0:0:
48,374,90573,1,0,0:0:0:0:
12,374,90712,1,8,0:3:0:0:
12,229,90990,6,2,L|12:184,2,45,10|2|4,0:0|0:0|0:0,0:0:0:0:
102,116,91545,2,2,L|147:116,2,45,10|2|10,0:0|0:0|0:3,0:0:0:0:
12,3,92101,1,0,0:3:0:0:
147,3,92379,1,10,0:1:0:0:
183,3,92518,1,8,0:0:0:0:
268,116,92795,1,8,0:0:0:0:
304,116,92934,1,8,0:1:0:0:
448,116,93212,37,8,0:0:0:0:
473,141,93351,1,2,0:0:0:0:
472,176,93490,2,0,L|472:265,1,90,4|0,0:0|0:0,0:0:0:0:
358,370,94045,1,8,0:3:0:0:
358,244,94323,5,8,0:0:0:0:
358,207,94462,1,0,0:0:0:0:
331,180,94601,1,12,0:3:0:0:
304,153,94740,1,8,0:3:0:0:
304,116,94879,1,2,0:0:0:0:
229,16,95157,1,8,0:3:0:0:
108,17,95434,37,0,0:0:0:0:
71,17,95573,1,0,0:0:0:0:
34,17,95712,1,12,0:3:0:0:
8,43,95851,1,8,0:0:0:0:
8,79,95990,1,2,0:0:0:0:
8,224,96268,1,12,0:3:0:0:
124,139,96545,5,8,0:0:0:0:
160,139,96684,1,0,0:0:0:0:
185,164,96823,1,12,0:3:0:0:
210,189,96962,1,8,0:3:0:0:
210,224,97101,1,2,0:0:0:0:
210,368,97379,37,12,0:0:0:0:
246,368,97518,1,0,0:0:0:0:
271,342,97657,1,8,0:0:0:0:
307,342,97795,1,0,0:0:0:0:
332,316,97934,1,12,0:3:0:0:
357,290,98073,1,0,0:0:0:0:
356,254,98212,1,8,0:0:0:0:
382,229,98351,1,0,0:0:0:0:
418,230,98490,1,8,0:3:0:0:
508,117,98768,5,8,0:0:0:0:
508,80,98907,1,0,0:0:0:0:
481,53,99045,1,8,0:3:0:0:
442,52,99184,1,0,0:0:0:0:
415,25,99323,1,8,0:0:0:0:
376,26,99462,1,0,0:0:0:0:
349,53,99601,1,8,0:3:0:0:
205,53,99879,38,2,L|156:53,2,45,10|2|6,0:0|0:0|0:0,0:0:0:0:
61,53,100434,2,2,L|61:4,2,45,10|2|10,0:0|0:0|0:3,0:0:0:0:
160,158,100990,1,0,0:0:0:0:
304,158,101268,5,10,0:1:0:0:
340,158,101407,1,8,0:0:0:0:
443,258,101684,1,8,0:0:0:0:
479,258,101823,1,8,0:1:0:0:
479,127,102101,37,8,0:0:0:0:
504,100,102240,1,0,0:0:0:0:
504,64,102379,1,12,0:3:0:0:
504,28,102518,1,8,0:3:0:0:
479,3,102657,1,2,0:0:0:0:
376,127,102934,2,2,L|276:126,1,90,10|2,0:3|0:0,0:0:0:0:
376,3,103490,5,12,0:3:0:0:
339,3,103629,1,8,0:3:0:0:
302,3,103768,1,2,0:0:0:0:
197,125,104045,2,2,L|196:225,1,90,10|2,0:3|0:0,0:0:0:0:
110,331,104601,37,12,0:3:0:0:
73,331,104740,1,8,0:3:0:0:
36,331,104879,1,2,0:0:0:0:
121,214,105157,1,12,0:3:0:0:
286,214,105434,5,8,0:0:0:0:
323,214,105573,1,8,0:0:0:0:
349,240,105712,1,12,0:3:0:0:
375,266,105851,1,8,0:0:0:0:
412,266,105990,1,0,0:0:0:0:
448,265,106129,1,8,0:0:0:0:
474,292,106268,1,12,0:3:0:0:
474,148,106545,37,8,0:0:0:0:
474,111,106684,1,0,0:0:0:0:
447,85,106823,1,8,0:3:0:0:
410,85,106962,1,0,0:0:0:0:
383,111,107101,1,8,0:0:0:0:
356,137,107240,1,0,0:0:0:0:
319,137,107379,1,8,0:3:0:0:
185,85,107657,5,8,0:0:0:0:
148,85,107796,1,0,0:0:0:0:
121,111,107935,1,8,0:3:0:0:
94,137,108074,1,0,0:0:0:0:
57,137,108213,1,8,0:0:0:0:
30,111,108352,1,0,0:0:0:0:
30,74,108491,1,8,0:3:0:0:
30,218,108768,38,2,L|30:276,2,45,10|2|6,0:0|0:0|0:0,0:0:0:0:
148,266,109323,2,2,L|148:324,2,45,10|2|10,0:0|0:0|0:3,0:0:0:0:
148,85,109879,1,0,0:0:0:0:
241,183,110157,5,10,0:1:0:0:
276,183,110295,1,8,0:0:0:0:
365,85,110573,1,8,0:0:0:0:
330,85,110711,1,8,0:1:0:0:
436,5,110990,1,8,0:0:0:0:
472,5,111129,1,2,0:0:0:0:
497,30,111268,2,2,L|497:121,1,90,6|2,0:0|0:0,0:0:0:0:
365,183,111823,37,8,0:3:0:0:
497,245,112101,1,8,0:0:0:0:
497,281,112240,1,0,0:0:0:0:
497,317,112379,1,12,0:3:0:0:
470,341,112518,1,8,0:3:0:0:
434,341,112657,1,2,0:0:0:0:
296,341,112934,6,2,L|202:341,1,90,10|2,0:3|0:0,0:0:0:0:
92,230,113490,1,12,0:3:0:0:
55,230,113629,1,8,0:3:0:0:
29,255,113768,1,2,0:0:0:0:
206,230,114045,37,8,0:3:0:0:
206,104,114323,1,8,0:0:0:0:
206,67,114462,1,0,0:0:0:0:
231,41,114601,1,12,0:3:0:0:
267,40,114740,1,8,0:3:0:0:
293,14,114879,1,2,0:0:0:0:
432,14,115156,5,12,0:0:0:0:
469,14,115295,1,0,0:0:0:0:
495,39,115434,1,8,0:0:0:0:
496,75,115573,1,0,0:0:0:0:
470,101,115712,1,12,0:3:0:0:
434,103,115851,1,0,0:0:0:0:
408,129,115990,1,8,0:0:0:0:
409,165,116129,1,0,0:0:0:0:
408,201,116268,1,8,0:3:0:0:
294,141,116545,37,8,0:0:0:0:
294,104,116684,1,0,0:0:0:0:
294,67,116823,1,8,0:3:0:0:
267,40,116962,1,0,0:0:0:0:
230,40,117101,1,8,0:0:0:0:
203,66,117240,1,0,0:0:0:0:
203,103,117379,1,8,0:3:0:0:
203,253,117657,6,2,L|203:299,2,45,10|2|6,0:0|0:0|0:0,0:0:0:0:
107,369,118212,2,2,L|61:369,2,45,10|2|10,0:0|0:0|0:3,0:0:0:0:
107,206,118768,1,0,0:0:0:0:
0,110,119045,37,10,0:1:0:0:
0,73,119184,1,8,0:0:0:0:
107,0,119462,1,8,0:0:0:0:
144,0,119601,1,8,0:1:0:0:
288,0,119879,5,8,0:0:0:0:
324,0,120018,1,0,0:0:0:0:
349,25,120157,1,12,0:3:0:0:
374,50,120295,1,8,0:3:0:0:
410,50,120434,1,2,0:0:0:0:
512,152,120712,38,2,L|512:244,1,90,10|2,0:3|0:0,0:0:0:0:
410,152,121268,1,12,0:3:0:0:
374,152,121407,1,8,0:3:0:0:
349,177,121545,1,2,0:0:0:0:
349,321,121823,1,8,0:3:0:0:
257,177,122101,5,8,0:3:0:0:
220,177,122240,1,8,0:0:0:0:
193,150,122379,1,8,0:3:0:0:
193,111,122518,1,8,0:0:0:0:
166,84,122656,1,8,0:3:0:0:
129,84,122795,1,8,0:0:0:0:
102,110,122934,37,8,0:3:0:0:
102,148,123073,1,8,0:0:0:0:
75,174,123212,1,8,0:0:0:0:
38,174,123351,1,8,0:0:0:0:
11,200,123490,1,8,0:3:0:0:
11,236,123629,1,8,0:3:0:0:
11,272,123768,1,8,0:0:0:0:
38,298,123907,1,8,0:3:0:0:
75,298,124045,5,8,0:3:0:0:
111,298,124184,1,8,0:0:0:0:
136,323,124323,1,8,0:3:0:0:
161,348,124462,1,8,0:3:0:0:
197,348,124601,38,2,L|260:348,3,45,12|2|10|2,0:3|0:0|0:0|0:0,0:0:0:0:
255,348,125157,1,8,0:3:0:0:
399,348,125434,5,8,0:0:0:0:
435,348,125573,1,0,0:0:0:0:
460,322,125712,1,8,0:3:0:0:
459,285,125851,1,0,0:0:0:0:
484,260,125990,1,8,0:0:0:0:
511,235,126129,1,0,0:0:0:0:
512,200,126268,1,8,0:3:0:0:
512,56,126545,37,8,0:0:0:0:
486,30,126684,1,2,0:0:0:0:
449,30,126823,1,6,0:0:0:0:
305,30,127101,1,8,0:0:0:0:
268,30,127240,1,2,0:0:0:0:
242,4,127379,1,8,0:3:0:0:
95,4,127657,1,0,0:0:0:0:
197,117,127934,6,0,L|247:117,1,45,10|8,0:1|0:0,0:0:0:0:
95,117,128351,2,0,L|95:167,1,45,8|8,0:0|0:1,0:0:0:0:
95,309,128768,37,8,0:0:0:0:
95,346,128907,1,2,0:0:0:0:
121,372,129045,2,2,L|225:372,1,90,6|2,0:0|0:0,0:0:0:0:
321,298,129601,1,8,0:3:0:0:
321,163,129879,5,8,0:0:0:0:
321,126,130018,1,0,0:0:0:0:
321,89,130157,1,12,0:3:0:0:
347,62,130295,1,8,0:3:0:0:
384,62,130434,1,2,0:0:0:0:
453,208,130712,2,2,L|454:308,1,90,10|2,0:3|0:0,0:0:0:0:
321,372,131268,37,12,0:3:0:0:
321,335,131407,1,8,0:3:0:0:
321,298,131545,1,2,0:0:0:0:
211,372,131823,1,8,0:3:0:0:
101,298,132101,5,8,0:0:0:0:
101,261,132240,1,0,0:0:0:0:
101,224,132379,1,12,0:3:0:0:
74,197,132518,1,8,0:3:0:0:
35,197,132657,1,2,0:0:0:0:
196,197,132934,37,12,0:0:0:0:
233,197,133073,1,0,0:0:0:0:
270,197,133212,1,8,0:0:0:0:
297,170,133351,1,0,0:0:0:0:
297,131,133490,1,12,0:3:0:0:
297,92,133629,1,0,0:0:0:0:
324,65,133768,1,8,0:0:0:0:
361,65,133907,1,0,0:0:0:0:
398,65,134046,1,8,0:3:0:0:
237,10,134323,5,8,0:0:0:0:
200,10,134462,1,0,0:0:0:0:
163,10,134601,1,8,0:3:0:0:
136,34,134740,1,0,0:0:0:0:
136,72,134879,1,8,0:0:0:0:
112,99,135018,1,0,0:0:0:0:
74,99,135157,1,8,0:3:0:0:
0,201,135434,37,8,0:0:0:0:
0,239,135573,1,2,0:0:0:0:
27,263,135712,1,6,0:0:0:0:
171,263,135990,1,8,0:0:0:0:
198,287,136129,1,2,0:0:0:0:
198,325,136268,1,8,0:3:0:0:
335,325,136545,1,0,0:0:0:0:
455,364,136823,6,0,L|505:364,1,45,10|8,0:1|0:0,0:0:0:0:
335,370,137240,2,8,L|335:320,1,45,8|8,0:0|0:1,0:0:0:0:
332,193,137657,1,8,0:0:0:0:
332,157,137795,1,0,0:0:0:0:
306,131,137934,1,12,0:3:0:0:
280,105,138073,1,8,0:3:0:0:
280,69,138211,1,2,0:0:0:0:
233,192,138490,38,2,L|134:192,1,90,10|2,0:3|0:0,0:0:0:0:
1,105,139045,1,12,0:3:0:0:
1,69,139183,1,8,0:0:0:0:
1,32,139322,1,2,0:0:0:0:
1,192,139601,1,8,0:3:0:0:
143,282,139879,5,8,0:0:0:0:
179,282,140017,1,0,0:0:0:0:
205,308,140156,1,12,0:3:0:0:
231,334,140295,1,8,0:3:0:0:
267,334,140433,1,2,0:0:0:0:
143,192,140712,1,8,0:3:0:0:
267,50,140990,37,8,0:0:0:0:
231,50,141128,1,0,0:0:0:0:
205,76,141267,1,12,0:3:0:0:
179,102,141406,1,8,0:3:0:0:
143,102,141544,1,2,0:0:0:0:
1,192,141823,5,12,0:0:0:0:
49,192,141962,1,0,0:0:0:0:
97,192,142101,1,8,0:0:0:0:
143,192,142240,1,0,0:0:0:0:
191,192,142379,6,2,L|282:192,1,67.5000025749208,6|2,0:0|0:0,0:0:0:0:
353,192,142934,2,2,P|387:200|406:223,1,67.5000025749208,10|2,0:3|0:0,0:0:0:0:
407,319,143490,1,8,0:3:0:0:
407,336,143629,1,2,0:0:0:0:
312,336,143907,1,2,0:0:0:0:
295,336,144046,2,2,P|262:342|241:368,1,67.5000025749208,10|2,0:3|0:0,0:0:0:0:
153,306,144601,6,2,L|153:215,1,67.5000025749208,10|2,0:0|0:0,0:0:0:0:
68,171,145157,2,2,L|68:262,1,67.5000025749208,10|2,0:3|0:0,0:0:0:0:
68,90,145712,1,8,0:0:0:0:
68,73,145851,1,2,0:0:0:0:
68,56,145990,1,8,0:0:0:0:
153,143,146268,1,8,0:3:0:0:
261,143,146545,1,8,0:0:0:0:
277,143,146684,1,2,0:0:0:0:
293,143,146823,38,2,P|325:149|346:175,1,67.5000025749208,10|2,0:0|0:0,0:0:0:0:
346,270,147379,2,2,L|346:361,1,67.5000025749208,10|2,0:3|0:0,0:0:0:0:
430,270,147934,1,8,0:3:0:0:
430,253,148073,1,2,0:0:0:0:
490,163,148351,1,2,0:0:0:0:
490,147,148490,2,2,P|483:114|457:93,1,67.5000025749208,10|2,0:3|0:0,0:0:0:0:
350,93,149045,5,8,0:0:0:0:
333,93,149184,1,2,0:0:0:0:
316,93,149323,1,8,0:0:0:0:
236,20,149601,2,10,L|145:20,1,67.5000025749208,10|10,0:3|0:0,0:0:0:0:
151,20,150018,1,0,0:0:0:0:
134,20,150157,1,8,0:0:0:0:
134,37,150295,1,8,0:0:0:0:
134,54,150434,1,2,0:0:0:0:
51,123,150712,37,8,0:3:0:0:
51,231,150990,1,8,0:0:0:0:
51,247,151129,1,2,0:0:0:0:
51,263,151268,2,2,L|51:348,1,67.5000025749208,6|2,0:0|0:0,0:0:0:0:
135,263,151823,2,2,L|135:178,1,67.5000025749208,10|2,0:3|0:0,0:0:0:0:
220,263,152379,1,8,0:3:0:0:
220,279,152518,1,2,0:0:0:0:
298,353,152795,1,2,0:0:0:0:
314,353,152934,2,2,P|346:346|367:320,1,67.5000025749208,10|2,0:3|0:0,0:0:0:0:
365,213,153490,6,2,L|365:128,1,67.5000025749208,6|2,0:0|0:0,0:0:0:0:
482,78,154045,2,2,L|397:78,1,67.5000025749208,10|2,0:3|0:0,0:0:0:0:
315,78,154601,1,8,0:0:0:0:
298,78,154740,1,2,0:0:0:0:
281,78,154879,1,8,0:0:0:0:
197,146,155157,1,8,0:3:0:0:
197,254,155434,1,0,0:0:0:0:
113,322,155712,37,4,0:0:0:0:
95,322,155851,1,2,0:0:0:0:
78,322,155990,1,8,0:0:0:0:
78,200,156268,1,8,0:3:0:0:
0,126,156545,5,8,0:0:0:0:
0,109,156684,1,0,0:0:0:0:
0,92,156823,1,4,0:0:0:0:
16,92,156962,1,2,0:0:0:0:
105,31,157240,1,2,0:0:0:0:
121,31,157379,2,10,P|153:37|174:63,1,67.5000025749208,10|10,0:3|0:0,0:0:0:0:
281,31,157934,37,4,0:0:0:0:
297,31,158073,1,2,0:0:0:0:
313,31,158212,1,8,0:0:0:0:
385,112,158490,1,4,0:0:0:0:
506,112,158768,5,8,0:3:0:0:
506,128,158907,1,8,0:0:0:0:
494,139,159045,1,4,0:3:0:0:
482,150,159184,1,8,0:3:0:0:
482,166,159323,1,8,0:0:0:0:
471,178,159462,1,8,0:3:0:0:
455,178,159601,1,4,0:0:0:0:
313,178,159879,37,8,0:0:0:0:
296,178,160018,1,2,0:0:0:0:
279,178,160157,2,2,P|247:184|226:210,1,67.5000025749208,6|2,0:0|0:0,0:0:0:0:
104,210,160712,2,2,P|136:216|157:242,1,67.5000025749208,10|2,0:3|0:0,0:0:0:0:
164,257,161129,1,2,0:0:0:0:
164,273,161268,1,8,0:3:0:0:
258,349,161545,1,0,0:0:0:0:
366,349,161823,2,2,L|453:349,1,67.5000025749208,10|2,0:3|0:0,0:0:0:0:
512,274,162379,6,10,B|512:199|512:199|452:199,1,135.000005149842,10|10,0:3|0:0,0:0:0:0:
434,199,163073,1,0,0:0:0:0:
417,199,163212,1,8,0:0:0:0:
417,182,163351,1,0,0:0:0:0:
417,165,163490,1,8,0:0:0:0:
400,165,163629,1,8,0:0:0:0:
383,165,163768,1,2,0:0:0:0:
262,165,164045,38,2,P|230:159|209:133,1,67.5000025749208,2|2,0:3|0:0,0:0:0:0:
138,51,164601,1,8,0:0:0:0:
121,51,164740,1,2,0:0:0:0:
104,51,164879,1,8,0:0:0:0:
34,133,165157,1,8,0:3:0:0:
34,259,165434,5,8,0:0:0:0:
34,276,165573,1,0,0:0:0:0:
34,293,165712,1,8,0:0:0:0:
46,305,165851,1,8,0:0:0:0:
62,305,165990,1,2,0:0:0:0:
184,305,166268,2,2,P|216:311|237:337,1,67.5000025749208,10|2,0:3|0:0,0:0:0:0:
340,371,166823,37,8,0:0:0:0:
357,371,166962,1,2,0:0:0:0:
374,371,167101,1,8,0:0:0:0:
340,254,167379,1,8,0:3:0:0:
461,254,167657,5,8,0:0:0:0:
478,254,167796,1,0,0:0:0:0:
495,254,167935,1,8,0:0:0:0:
507,266,168074,1,8,0:0:0:0:
507,282,168213,1,2,0:0:0:0:
507,143,168490,38,8,B|475:143|475:143|461:162,2,45.0000017166138,8|2|2,0:3|0:0|0:0,0:0:0:0:
439,73,169045,2,2,L|368:73,1,67.5000025749208,6|2,0:0|0:0,0:0:0:0:
236,72,169601,2,2,P|204:78|183:104,1,67.5000025749208,10|2,0:3|0:0,0:0:0:0:
179,121,170018,1,2,0:0:0:0:
179,138,170157,1,8,0:3:0:0:
108,219,170434,1,0,0:0:0:0:
108,313,170712,2,2,L|108:386,1,67.5000025749208,10|2,0:3|0:0,0:0:0:0:
0,286,171268,6,2,L|0:213,1,67.5000025749208,6|2,0:0|0:0,0:0:0:0:
108,219,171823,2,2,P|140:225|161:251,1,67.5000025749208,10|2,0:3|0:0,0:0:0:0:
256,174,172379,1,8,0:0:0:0:
256,158,172518,1,2,0:0:0:0:
256,142,172657,1,8,0:0:0:0:
323,58,172934,2,2,L|396:58,1,67.5000025749208,2|2,0:3|0:0,0:0:0:0:
457,142,173490,37,4,0:0:0:0:
457,158,173629,1,0,0:0:0:0:
468,169,173768,1,8,0:0:0:0:
479,180,173907,1,0,0:0:0:0:
479,196,174046,1,8,0:0:0:0:
479,317,174323,1,8,0:3:0:0:
370,371,174601,5,4,0:0:0:0:
370,355,174740,1,0,0:0:0:0:
359,344,174879,1,8,0:0:0:0:
348,333,175018,1,0,0:0:0:0:
348,317,175157,1,8,0:0:0:0:
348,192,175434,37,8,0:3:0:0:
348,158,175573,1,8,0:0:0:0:
322,136,175712,1,12,0:3:0:0:
312,103,175851,1,8,0:0:0:0:
291,75,175990,5,8,0:3:0:0:
256,71,176129,1,8,0:0:0:0:
221,75,176268,1,8,0:3:0:0:
200,103,176406,37,8,0:0:0:0:
190,136,176545,1,8,0:3:0:0:
164,158,176684,1,8,0:0:0:0:
164,192,176823,1,8,0:3:0:0:
256,378,177934,5,4,0:0:0:0:
256,134,186823,54,8,L|256:85,3,33.7500012874604,8|8|8|8,3:0|3:0|3:0|3:0,3:0:0:0:
314,192,187657,2,8,L|348:192,1,33.7500012874604,8|8,3:0|3:0,3:0:0:0:
198,192,188490,2,8,L|164:192,1,33.7500012874604,8|8,3:0|3:0,3:0:0:0:
314,192,189045,2,8,L|363:192,3,33.7500012874604,8|8|8|8,3:0|3:0|3:0|3:0,3:0:0:0:
256,100,189879,2,8,L|256:133,1,33.7500012874604,8|8,3:0|3:0,3:0:0:0:
371,12,190851,38,8,B|371:40|371:40|307:40,1,67.5000025749208,8|8,3:0|3:0,3:0:0:0:
256,100,191545,1,8,3:0:0:0:
141,12,191962,2,8,B|141:40|141:40|205:40,1,67.5000025749208,8|8,3:0|3:0,3:0:0:0:
256,100,192657,1,8,3:0:0:0:
256,250,193073,2,8,L|256:326,1,67.5000025749208,8|8,3:0|3:0,3:0:0:0:
256,335,193490,2,8,L|256:375,8,33.7500012874604,8|8|8|8|8|8|8|8|8,3:0|3:0|3:0|3:0|3:0|3:0|3:0|3:0|3:0,3:0:0:0:
256,192,195712,37,12,0:3:0:0:
256,155,195851,1,0,0:0:0:0:
279,127,195990,1,8,0:0:0:0:
315,127,196129,1,0,0:0:0:0:
351,127,196268,1,8,0:3:0:0:
171,127,196545,37,8,0:0:0:0:
134,127,196684,1,0,0:0:0:0:
106,104,196823,1,8,0:3:0:0:
106,68,196962,1,0,0:0:0:0:
106,32,197101,1,8,0:0:0:0:
80,6,197240,1,0,0:0:0:0:
43,6,197379,1,8,0:3:0:0:
43,186,197657,5,8,0:0:0:0:
43,221,197795,1,0,0:0:0:0:
43,257,197934,1,12,0:0:0:0:
68,282,198073,1,0,0:0:0:0:
104,282,198212,1,8,0:0:0:0:
129,307,198351,1,0,0:0:0:0:
165,307,198490,1,8,0:3:0:0:
256,192,198768,37,8,0:0:0:0:
256,156,198907,1,0,0:0:0:0:
281,131,199046,1,8,0:3:0:0:
281,95,199185,1,8,0:0:0:0:
306,70,199324,1,8,0:0:0:0:
341,70,199462,1,0,0:0:0:0:
377,70,199601,1,8,0:3:0:0:
484,192,199879,5,8,0:0:0:0:
484,228,200018,1,0,0:0:0:0:
458,253,200157,1,12,0:0:0:0:
432,278,200295,1,0,0:0:0:0:
432,314,200434,1,8,0:0:0:0:
407,340,200573,1,0,0:0:0:0:
371,340,200712,1,8,0:3:0:0:
209,340,200990,37,8,0:0:0:0:
173,340,201129,1,0,0:0:0:0:
147,315,201268,1,12,0:0:0:0:
147,279,201407,1,8,0:0:0:0:
147,243,201545,1,0,0:0:0:0:
121,218,201684,1,0,0:0:0:0:
85,218,201823,1,8,0:3:0:0:
85,56,202101,6,2,L|40:56,2,45,10|2|6,0:0|0:0|0:0,0:0:0:0:
242,218,202657,2,10,L|287:218,2,45,10|2|10,0:0|0:0|0:3,0:0:0:0:
422,218,203212,1,8,0:0:0:0:
458,218,203351,1,0,0:0:0:0:
483,192,203490,1,12,0:3:0:0:
508,166,203629,1,8,0:3:0:0:
508,129,203768,1,2,0:0:0:0:
422,307,204045,37,12,0:3:0:0:
260,307,204323,1,8,0:0:0:0:
223,307,204462,1,0,0:0:0:0:
196,333,204601,1,12,0:3:0:0:
159,333,204740,1,0,0:0:0:0:
122,333,204879,1,8,0:0:0:0:
95,359,205018,1,0,0:0:0:0:
58,359,205157,1,8,0:3:0:0:
0,208,205434,5,8,0:0:0:0:
0,169,205573,1,0,0:0:0:0:
27,141,205712,1,8,0:3:0:0:
54,113,205851,1,0,0:0:0:0:
92,113,205990,1,8,0:0:0:0:
119,85,206129,1,0,0:0:0:0:
155,85,206268,1,8,0:3:0:0:
256,208,206545,37,8,0:0:0:0:
256,244,206684,1,0,0:0:0:0:
281,269,206823,1,12,0:0:0:0:
317,269,206962,1,0,0:0:0:0:
353,269,207101,1,8,0:0:0:0:
378,294,207240,1,0,0:0:0:0:
378,330,207379,1,8,0:3:0:0:
378,168,207657,5,8,0:0:0:0:
414,168,207795,1,0,0:0:0:0:
440,143,207934,1,8,0:3:0:0:
440,107,208073,1,8,0:0:0:0:
440,71,208212,1,8,0:0:0:0:
414,46,208351,1,0,0:0:0:0:
378,46,208489,1,8,0:3:0:0:
134,46,208768,37,8,0:0:0:0:
171,46,208907,1,0,0:0:0:0:
198,73,209045,1,12,0:0:0:0:
198,110,209184,1,8,0:0:0:0:
171,137,209322,1,0,0:0:0:0:
144,164,209462,1,0,0:0:0:0:
144,201,209601,1,8,0:3:0:0:
368,201,209879,5,8,0:0:0:0:
368,164,210018,1,0,0:0:0:0:
341,137,210158,1,12,0:0:0:0:
314,110,210296,1,8,0:0:0:0:
314,73,210435,1,0,0:0:0:0:
341,46,210573,1,0,0:0:0:0:
378,46,210712,1,8,0:3:0:0:
299,227,210990,37,8,0:0:0:0:
284,194,211129,1,0,0:0:0:0:
256,172,211268,1,12,0:3:0:0:
228,194,211407,1,8,0:3:0:0:
213,227,211545,1,2,0:0:0:0:
256,383,211823,1,12,0:0:0:0:
122,263,212101,5,8,0:0:0:0:
122,226,212240,1,0,0:0:0:0:
122,189,212379,2,2,L|122:139,3,45,14|2|10|2,0:3|0:0|0:0|0:0,0:0:0:0:
44,189,212934,2,2,L|44:239,3,45,14|2|10|2,0:3|0:0|0:0|0:0,0:0:0:0:
44,279,213490,37,12,0:3:0:0:
44,324,213629,1,0,0:0:0:0:
75,355,213768,1,8,0:0:0:0:
121,355,213907,1,0,0:0:0:0:
165,355,214045,1,8,0:3:0:0:
313,288,214323,5,8,0:0:0:0:
357,288,214461,1,0,0:0:0:0:
403,288,214600,1,8,0:3:0:0:
434,257,214739,1,8,0:0:0:0:
434,212,214878,1,8,0:0:0:0:
465,181,215018,1,0,0:0:0:0:
510,181,215157,1,8,0:3:0:0:
346,106,215434,37,8,0:0:0:0:
300,106,215573,1,0,0:0:0:0:
267,73,215712,1,12,0:0:0:0:
234,40,215851,1,8,0:0:0:0:
188,40,215990,1,0,0:0:0:0:
155,73,216129,1,0,0:0:0:0:
155,119,216268,1,8,0:3:0:0:
155,281,216545,5,8,0:0:0:0:
155,326,216684,1,0,0:0:0:0:
123,357,216823,1,8,0:3:0:0:
77,357,216962,1,8,0:0:0:0:
31,357,217101,1,8,0:0:0:0:
0,326,217240,1,0,0:0:0:0:
0,281,217379,1,8,0:3:0:0:
0,119,217657,37,8,0:0:0:0:
0,74,217796,1,0,0:0:0:0:
31,43,217934,1,12,0:0:0:0:
76,43,218073,1,0,0:0:0:0:
107,12,218212,1,8,0:0:0:0:
152,12,218351,1,0,0:0:0:0:
197,12,218490,1,8,0:3:0:0:
317,125,218768,5,8,0:0:0:0:
362,125,218907,1,0,0:0:0:0:
393,94,219045,1,12,0:0:0:0:
393,49,219184,1,0,0:0:0:0:
424,18,219323,1,8,0:0:0:0:
469,18,219461,1,0,0:0:0:0:
500,49,219601,1,8,0:3:0:0:
500,230,219879,38,2,L|499:287,2,45,10|2|6,0:0|0:0|0:0,0:0:0:0:
317,169,220434,2,2,L|316:112,2,45,10|2|10,0:0|0:0|0:3,0:0:0:0:
317,333,220990,1,8,0:0:0:0:
285,364,221129,1,0,0:0:0:0:
239,364,221268,1,12,0:3:0:0:
193,364,221407,1,8,0:3:0:0:
161,333,221546,1,2,0:0:0:0:
317,333,221823,5,12,0:3:0:0:
161,243,222101,1,8,0:0:0:0:
115,243,222240,1,0,0:0:0:0:
69,243,222379,1,12,0:3:0:0:
36,210,222518,1,0,0:0:0:0:
36,163,222657,1,8,0:0:0:0:
69,130,222795,1,0,0:0:0:0:
69,83,222934,1,8,0:3:0:0:
230,3,223212,37,8,0:0:0:0:
275,3,223351,1,0,0:0:0:0:
306,34,223490,1,8,0:3:0:0:
306,78,223629,1,8,0:0:0:0:
306,123,223768,1,0,0:0:0:0:
338,155,223907,1,0,0:0:0:0:
382,155,224045,1,8,0:3:0:0:
237,211,224323,5,8,0:0:0:0:
193,211,224461,1,0,0:0:0:0:
161,243,224600,1,12,0:0:0:0:
161,288,224739,1,8,0:0:0:0:
161,332,224878,1,8,0:0:0:0:
130,363,225017,1,0,0:0:0:0:
85,363,225156,1,8,0:3:0:0:
265,363,225434,37,8,0:0:0:0:
310,363,225573,1,0,0:0:0:0:
341,331,225712,1,8,0:3:0:0:
386,331,225851,1,8,0:0:0:0:
431,331,225990,1,8,0:0:0:0:
463,300,226129,1,0,0:0:0:0:
463,256,226268,1,8,0:3:0:0:
463,94,226545,5,8,0:0:0:0:
463,48,226684,1,0,0:0:0:0:
430,15,226823,1,12,0:0:0:0:
384,15,226962,1,8,0:0:0:0:
338,15,227101,1,8,0:0:0:0:
305,48,227240,1,0,0:0:0:0:
305,94,227379,1,8,0:3:0:0:
49,94,227657,37,8,0:0:0:0:
49,48,227796,1,0,0:0:0:0:
82,15,227934,1,12,0:0:0:0:
128,15,228074,1,8,0:0:0:0:
174,15,228213,1,8,0:0:0:0:
207,48,228352,1,0,0:0:0:0:
207,94,228491,1,8,0:3:0:0:
49,195,228768,5,8,3:0:0:0:
49,240,228907,1,8,0:0:0:0:
80,271,229045,1,12,3:0:0:0:
111,302,229184,1,8,0:0:0:0:
111,347,229323,37,8,3:0:0:0:
142,378,229462,1,8,0:0:0:0:
187,378,229601,1,12,3:0:0:0:
220,347,229740,1,8,0:0:0:0:
220,302,229879,1,8,3:0:0:0:
256,275,230018,1,8,0:0:0:0:
292,302,230157,1,12,3:3:0:0:
292,347,230296,1,8,0:3:0:0:
325,378,230435,1,8,3:0:0:0:
370,378,230573,1,8,0:3:0:0:
401,347,230712,5,12,3:3:0:0:
401,302,230852,1,8,0:3:0:0:
432,271,230991,1,8,0:3:0:0:
463,240,231129,1,8,0:3:0:0:
463,195,231268,6,0,L|463:118,1,67.5000025749208,14|0,0:3|0:0,0:0:0:0:
383,65,231823,1,8,0:3:0:0:
383,65,232101,1,2,0:0:0:0:
303,127,232379,2,0,L|303:195,1,67.5000025749208,8|0,0:3|0:0,0:0:0:0:
223,258,232934,1,8,0:3:0:0:
143,195,233212,6,0,L|143:153,2,33.7500012874604,8|0|10,0:0|0:0|3:2,0:0:0:0:
143,82,233768,1,0,0:0:0:0:
63,20,234045,1,8,0:3:0:0:
63,20,234323,1,8,0:0:0:0:
63,127,234601,2,0,L|63:168,2,33.7500012874604,10|0|8,3:2|0:0|0:0,0:0:0:0:
63,240,235157,1,8,0:3:0:0:
143,302,235434,38,0,L|143:343,2,33.7500012874604,8|0|4,0:0|0:0|0:0,0:0:0:0:
223,364,235990,1,0,0:0:0:0:
303,302,236268,1,8,0:3:0:0:
303,302,236545,1,8,0:0:0:0:
303,201,236823,2,0,L|303:163,2,33.7500012874604,10|0|8,3:2|0:0|0:0,0:0:0:0:
383,139,237379,1,8,0:3:0:0:
383,38,237657,6,0,L|383:0,2,33.7500012874604,8|0|4,0:0|0:0|0:0,0:0:0:0:
463,100,238212,1,8,0:0:0:0:
463,201,238490,1,8,0:3:0:0:
463,302,238768,37,8,0:3:0:0:
463,318,238907,1,0,0:0:0:0:
463,334,239045,1,12,0:3:0:0:
451,345,239184,1,8,0:3:0:0:
435,345,239323,1,8,0:0:0:0:
334,345,239601,1,8,0:3:0:0:
261,275,239879,5,8,0:3:0:0:
245,275,240018,1,0,0:0:0:0:
229,275,240157,1,12,0:3:0:0:
218,287,240295,1,8,0:3:0:0:
218,303,240434,1,8,0:0:0:0:
116,303,240712,2,0,L|28:303,1,67.5000025749208,8|0,0:0|0:0,0:0:0:0:
116,226,241268,2,8,L|116:187,2,33.7500012874604,10|8|8,0:0|0:0|0:0,0:0:0:0:
116,113,241823,1,0,0:0:0:0:
181,35,242101,37,8,0:0:0:0:
197,35,242240,1,0,0:0:0:0:
213,35,242379,1,12,0:0:0:0:
224,47,242517,1,0,0:0:0:0:
224,63,242656,1,8,0:0:0:0:
293,137,242934,1,8,0:0:0:0:
362,63,243212,5,8,0:0:0:0:
362,47,243351,1,0,0:0:0:0:
373,35,243490,1,12,0:0:0:0:
389,35,243628,1,0,0:0:0:0:
405,35,243767,1,8,0:0:0:0:
506,35,244045,1,12,0:0:0:0:
506,136,244323,37,8,0:0:0:0:
506,152,244462,1,0,0:0:0:0:
506,168,244600,1,12,0:3:0:0:
494,179,244739,1,0,0:0:0:0:
478,179,244878,1,8,0:0:0:0:
478,281,245157,1,8,0:3:0:0:
395,340,245434,5,8,0:3:0:0:
379,340,245573,1,0,0:0:0:0:
362,340,245711,1,12,0:3:0:0:
352,352,245850,1,8,0:3:0:0:
352,368,245989,1,8,0:3:0:0:
340,378,246129,1,0,0:0:0:0:
324,378,246268,1,8,0:3:0:0:
256,303,246545,37,8,0:0:0:0:
256,286,246684,1,0,0:0:0:0:
256,269,246823,2,8,L|256:221,3,33.7500012874604,12|8|8|8,0:3|0:3|0:3|0:3,0:3:0:0:
212,176,247379,2,8,L|178:142,3,33.7500012874604,12|8|8|8,0:3|0:3|0:3|0:3,0:3:0:0:
300,176,247934,2,8,L|333:142,3,33.7500012874604,12|8|8|8,0:3|0:3|0:3|0:3,0:3:0:0:
256,115,248490,5,12,0:3:0:0:
256,98,248629,1,8,0:3:0:0:
256,81,248768,1,8,0:3:0:0:
256,64,248907,1,8,0:3:0:0:
256,47,249045,1,14,1:3:0:0:
256,337,257934,37,4,2:0:0:0:
256,192,266823,5,8,0:3:0:0:
256,208,266962,1,0,0:0:0:0:
256,224,267101,1,8,0:0:0:0:
244,235,267240,1,0,0:0:0:0:
227,235,267379,1,8,0:3:0:0:
126,235,267657,37,8,0:0:0:0:
110,235,267796,1,0,0:0:0:0:
94,235,267935,1,8,0:3:0:0:
83,223,268074,1,0,0:0:0:0:
83,206,268213,1,8,0:0:0:0:
71,195,268351,1,0,0:0:0:0:
54,195,268490,1,8,0:3:0:0:
54,93,268768,6,2,L|54:52,2,33.7500012874604,10|2|10,0:0|0:0|0:3,0:0:0:0:
136,26,269323,2,2,L|136:67,2,33.7500012874604,10|2|10,0:0|0:0|0:3,0:0:0:0:
238,26,269879,1,8,0:0:0:0:
254,26,270018,1,0,0:0:0:0:
265,37,270157,1,8,0:3:0:0:
281,37,270295,1,2,0:0:0:0:
360,100,270573,1,8,0:0:0:0:
376,100,270712,1,8,0:3:0:0:
455,163,270990,37,8,0:0:0:0:
455,179,271129,1,0,0:0:0:0:
455,195,271268,2,0,L|454:275,1,67.5000025749208,8|0,0:3|0:0,0:0:0:0:
370,329,271823,2,0,L|370:261,1,67.5000025749208,8|0,0:3|0:0,0:0:0:0:
370,245,272239,1,2,0:0:0:0:
370,228,272379,2,0,P|351:206|315:192,1,67.5000025749208,8|0,0:3|0:0,0:0:0:0:
215,192,272934,6,0,L|131:192,1,67.5000025749208,8|0,0:3|0:0,0:0:0:0:
130,192,273351,1,2,0:0:0:0:
113,191,273490,2,0,P|81:179|58:155,1,67.5000025749208,8|0,0:3|0:0,0:0:0:0:
58,54,274045,2,0,P|80:29|112:18,1,67.5000025749208,8|0,0:3|0:0,0:0:0:0:
129,15,274462,1,2,0:0:0:0:
146,15,274601,2,0,L|230:15,1,67.5000025749208,8|0,0:3|0:0,0:0:0:0:
366,15,275157,2,0,L|298:15,1,67.5000025749208,8|0,0:3|0:0,0:0:0:0:
256,134,275712,38,4,L|256:85,3,33.7500012874604,4|4|4|4,3:2|3:2|3:2|3:2,3:2:0:0:
198,192,276545,2,8,L|149:192,1,33.7500012874604,8|8,3:0|3:0,3:0:0:0:
314,192,277379,2,8,L|363:192,1,33.7500012874604,8|8,3:0|3:0,3:0:0:0:
256,250,277934,2,4,L|255:299,3,33.7500012874604,4|4|4|4,3:2|3:2|3:2|3:2,3:2:0:0:
256,134,278768,2,8,L|256:85,1,33.7500012874604,8|8,3:0|3:0,3:0:0:0:
371,371,279740,6,4,B|371:343|371:343|307:343,1,67.5000025749208,4|4,0:0|0:0,3:0:0:0:
256,283,280434,1,4,3:0:0:0:
141,371,280851,2,8,B|141:343|141:343|205:343,1,67.5000025749208,8|8,3:0|3:0,3:0:0:0:
256,376,281407,1,4,0:0:0:0:
256,363,281545,2,8,L|256:276,1,67.5000025749208,8|4,3:0|0:0,3:0:0:0:
256,282,281962,1,8,0:3:0:0:
162,244,282240,37,8,0:3:0:0:
165,210,282379,1,12,0:0:0:0:
185,183,282518,1,8,0:3:0:0:
217,172,282657,1,8,0:3:0:0:
239,146,282796,1,8,0:3:0:0:
273,146,282935,5,12,0:0:0:0:
295,172,283073,1,8,0:3:0:0:
327,183,283212,1,8,0:3:0:0:
347,210,283351,1,8,0:3:0:0:
350,244,283490,1,12,0:0:0:0:
256,44,284601,5,12,0:3:0:0:
210,44,284740,1,0,0:0:0:0:
177,76,284879,1,8,0:0:0:0:
144,108,285018,1,0,0:0:0:0:
98,108,285157,1,8,0:3:0:0:
3,239,285434,5,8,0:0:0:0:
2,284,285573,1,0,0:0:0:0:
33,318,285712,1,8,0:3:0:0:
64,350,285851,1,0,0:0:0:0:
110,352,285990,1,8,0:0:0:0:
141,384,286129,1,0,0:0:0:0:
185,384,286268,1,8,0:3:0:0:
365,384,286545,38,2,L|438:384,2,45,10|2|6,0:0|0:0|0:0,0:0:0:0:
185,263,287101,2,2,L|112:263,2,45,10|2|10,0:0|0:0|0:3,0:0:0:0:
365,263,287657,1,0,0:0:0:0:
504,180,287934,1,10,0:1:0:0:
504,134,288073,1,8,0:0:0:0:
365,50,288351,1,8,0:0:0:0:
365,96,288490,1,8,0:1:0:0:
226,12,288768,5,8,0:0:0:0:
182,12,288907,1,2,0:0:0:0:
137,12,289045,2,2,L|38:12,1,90,6|2,0:0|0:0,0:0:0:0:
226,96,289601,1,8,0:3:0:0:
226,258,289879,37,8,0:0:0:0:
226,303,290018,1,0,0:0:0:0:
195,337,290157,1,12,0:3:0:0:
150,337,290295,1,8,0:3:0:0:
116,368,290434,1,2,0:0:0:0:
0,258,290712,2,2,L|0:159,1,90,10|2,0:3|0:0,0:0:0:0:
147,227,291268,5,12,0:3:0:0:
192,227,291407,1,4,0:3:0:0:
226,258,291545,1,2,0:3:0:0:
388,258,291823,1,12,0:3:0:0:
512,153,292101,37,8,0:0:0:0:
512,108,292240,1,0,0:0:0:0:
481,74,292379,1,12,0:3:0:0:
436,74,292518,1,8,0:3:0:0:
402,43,292656,1,2,0:0:0:0:
226,43,292934,5,12,0:3:0:0:
180,43,293073,1,0,0:0:0:0:
147,10,293212,1,8,0:0:0:0:
100,10,293351,1,0,0:0:0:0:
67,43,293490,1,12,0:3:0:0:
34,76,293629,1,0,0:0:0:0:
34,122,293768,1,8,0:0:0:0:
67,155,293907,1,0,0:0:0:0:
67,201,294046,1,8,0:3:0:0:
67,363,294323,37,8,0:0:0:0:
67,317,294462,1,0,0:0:0:0:
100,284,294601,1,8,0:3:0:0:
146,284,294740,1,0,0:0:0:0:
178,251,294879,1,8,0:0:0:0:
210,218,295018,1,0,0:0:0:0:
256,219,295157,1,8,0:3:0:0:
437,219,295434,6,2,L|493:219,2,45,10|2|6,0:0|0:0|0:0,0:0:0:0:
256,137,295990,2,2,L|256:81,2,45,10|2|10,0:0|0:0|0:3,0:0:0:0:
437,137,296545,1,0,0:0:0:0:
302,294,296823,1,10,0:1:0:0:
256,294,296962,1,8,0:0:0:0:
121,384,297240,1,8,0:0:0:0:
75,384,297379,1,8,0:1:0:0:
29,229,297657,37,8,0:0:0:0:
75,229,297796,1,0,0:0:0:0:
121,229,297934,1,12,0:3:0:0:
153,196,298073,1,8,0:3:0:0:
153,150,298212,1,2,0:0:0:0:
256,25,298490,6,2,L|356:25,1,90,10|2,0:3|0:0,0:0:0:0:
488,104,299045,1,12,0:3:0:0:
488,150,299184,1,8,0:3:0:0:
488,196,299322,1,2,0:0:0:0:
427,347,299601,38,2,L|427:247,1,90,10|2,0:3|0:0,0:0:0:0:
348,115,300157,1,12,0:3:0:0:
302,115,300295,1,8,0:3:0:0:
256,115,300433,1,2,0:0:0:0:
93,115,300712,1,4,0:3:0:0:
224,238,300990,5,8,0:0:0:0:
270,238,301129,1,0,0:0:0:0:
316,238,301267,1,12,0:3:0:0:
348,271,301406,1,8,0:3:0:0:
348,317,301545,1,2,0:0:0:0:
224,238,301823,1,12,0:3:0:0:
93,115,302101,37,8,0:0:0:0:
93,60,302240,1,0,0:0:0:0:
131,22,302379,1,12,0:3:0:0:
185,22,302518,1,0,0:0:0:0:
239,22,302657,1,8,0:0:0:0:
277,60,302796,1,0,0:0:0:0:
277,115,302935,1,8,0:3:0:0:
93,199,303212,5,8,0:0:0:0:
38,199,303351,1,0,0:0:0:0:
0,237,303490,1,12,0:3:0:0:
0,292,303629,1,0,0:0:0:0:
37,331,303768,1,8,0:0:0:0:
93,331,303907,1,0,0:0:0:0:
147,331,304045,1,8,0:3:0:0:
365,331,304323,38,2,L|429:331,2,45,10|2|6,0:0|0:0|0:0,0:0:0:0:
512,224,304879,2,8,L|448:224,2,45,10|2|10,0:0|0:0|0:3,0:0:0:0:
256,224,305434,1,0,0:0:0:0:
98,138,305712,1,10,0:1:0:0:
43,138,305851,1,8,0:0:0:0:
201,11,306129,1,8,0:0:0:0:
256,11,306268,1,8,0:1:0:0:
420,83,306545,5,8,0:0:0:0:
420,138,306684,1,2,0:0:0:0:
420,192,306823,2,0,L|420:298,1,90,12|0,0:0|0:0,0:0:0:0:
256,384,307379,2,0,L|256:278,1,90,8|0,0:3|0:0,0:0:0:0:
109,192,307934,1,4,0:0:0:0:
54,192,308073,1,2,0:0:0:0:
0,191,308212,1,8,0:0:0:0:
109,26,308490,38,0,L|215:26,1,90,8|0,0:3|0:0,0:0:0:0:
397,26,309045,1,4,0:0:0:0:
451,26,309184,1,2,0:0:0:0:
489,64,309323,1,8,0:0:0:0:
489,245,309601,1,4,0:3:0:0:
348,104,309879,5,8,0:0:0:0:
294,104,310018,1,0,0:0:0:0:
256,142,310157,1,12,0:3:0:0:
218,180,310295,1,8,0:3:0:0:
164,180,310434,1,2,0:0:0:0:
12,278,310712,37,12,0:0:0:0:
12,332,310851,1,0,0:0:0:0:
50,370,310990,1,8,0:0:0:0:
103,370,311129,1,0,0:0:0:0:
141,331,311268,1,12,0:3:0:0:
179,292,311407,1,0,0:0:0:0:
232,292,311545,1,8,0:0:0:0:
270,330,311685,1,0,0:0:0:0:
270,384,311823,1,8,0:3:0:0:
424,292,312101,5,8,0:0:0:0:
424,237,312240,1,0,0:0:0:0:
385,198,312379,1,12,0:3:0:0:
330,198,312518,1,0,0:0:0:0:
275,198,312657,1,8,0:0:0:0:
236,159,312796,1,0,0:0:0:0:
236,104,312934,1,8,0:3:0:0:
57,198,313212,38,10,L|10:198,2,45,10|2|6,0:0|0:0|0:0,0:0:0:0:
191,15,313768,2,2,L|238:14,2,45,10|2|10,0:0|0:0|0:3,0:0:0:0:
388,15,314323,1,0,0:0:0:0:
236,104,314601,1,6,1:2:0:0:
181,104,314740,1,8,0:0:0:0:
330,198,315018,1,8,0:0:0:0:
385,198,315157,1,8,0:1:0:0:
181,198,315434,5,8,0:0:0:0:
126,198,315573,1,0,0:0:0:0:
71,198,315712,1,12,0:3:0:0:
32,237,315851,1,8,0:3:0:0:
32,292,315990,1,2,0:0:0:0:
32,103,316268,1,4,0:3:0:0:
180,2,316545,37,8,0:0:0:0:
235,2,316684,1,0,0:0:0:0:
290,2,316823,1,12,0:3:0:0:
329,41,316962,1,8,0:3:0:0:
329,96,317101,1,2,0:0:0:0:
329,276,317379,1,4,0:3:0:0:
167,354,317657,5,8,0:0:0:0:
112,354,317796,1,0,0:0:0:0:
74,315,317935,1,12,0:3:0:0:
112,276,318073,1,8,0:3:0:0:
167,276,318212,1,2,0:0:0:0:
329,276,318490,1,4,0:3:0:0:
500,176,318768,37,8,0:0:0:0:
500,121,318907,1,0,0:0:0:0:
461,83,319046,1,12,0:3:0:0:
406,83,319184,1,0,0:0:0:0:
368,45,319323,1,8,0:0:0:0:
331,7,319462,1,0,0:0:0:0:
275,6,319601,1,12,0:3:0:0:
81,6,319879,5,8,0:0:0:0:
126,6,320018,1,0,0:0:0:0:
157,37,320157,1,12,0:3:0:0:
157,80,320295,1,0,0:0:0:0:
188,111,320434,1,8,0:0:0:0:
231,111,320573,1,0,0:0:0:0:
275,111,320712,1,8,0:3:0:0:
408,203,320990,37,8,0:0:0:0:
408,246,321128,1,0,0:0:0:0:
374,276,321268,1,8,0:3:0:0:
344,307,321408,1,0,0:0:0:0:
344,351,321545,1,8,0:0:0:0:
314,382,321684,1,0,0:0:0:0:
268,382,321823,1,8,0:3:0:0:
106,382,322101,6,2,L|56:382,2,45,10|2|6,0:0|0:0|0:0,0:0:0:0:
0,284,322657,2,10,L|0:234,2,45,10|2|10,0:0|0:0|0:3,0:0:0:0:
0,122,323212,1,0,0:0:0:0:
106,220,323490,1,10,0:1:0:0:
152,220,323629,1,8,0:0:0:0:
258,318,323907,1,8,0:0:0:0:
304,318,324046,1,8,0:1:0:0:
408,220,324323,37,8,0:0:0:0:
408,174,324462,1,2,0:0:0:0:
408,128,324601,2,2,L|408:30,1,90,6|2,0:0|0:0,0:0:0:0:
272,128,325157,1,8,0:3:0:0:
110,128,325434,5,8,0:0:0:0:
64,128,325573,1,0,0:0:0:0:
31,160,325712,1,12,0:3:0:0:
31,205,325851,1,8,0:3:0:0:
31,250,325990,1,2,0:0:0:0:
128,356,326268,2,2,L|226:356,1,90,10|2,0:3|0:0,0:0:0:0:
315,250,326823,37,12,0:3:0:0:
360,250,326962,1,8,0:3:0:0:
405,250,327101,1,2,0:0:0:0:
510,151,327379,1,4,0:3:0:0:
405,52,327657,5,8,0:0:0:0:
360,52,327796,1,0,0:0:0:0:
315,52,327935,1,12,0:3:0:0:
283,85,328073,1,8,0:3:0:0:
283,131,328213,1,2,0:0:0:0:
283,275,328490,37,12,0:0:0:0:
283,320,328629,1,0,0:0:0:0:
251,353,328768,1,8,0:0:0:0:
204,353,328907,1,0,0:0:0:0:
172,321,329045,1,12,0:3:0:0:
140,289,329184,1,0,0:0:0:0:
93,289,329323,1,8,0:0:0:0:
61,320,329461,1,0,0:0:0:0:
60,365,329601,1,8,0:3:0:0:
18,190,329879,5,8,0:0:0:0:
18,144,330018,1,0,0:0:0:0:
50,111,330157,1,8,0:3:0:0:
96,111,330295,1,0,0:0:0:0:
129,79,330434,1,8,0:0:0:0:
162,47,330573,1,0,0:0:0:0:
208,47,330711,1,8,0:3:0:0:
389,47,330990,38,2,L|444:47,2,45,10|2|6,0:0|0:0|0:0,0:0:0:0:
253,128,331545,2,2,L|198:128,2,45,10|2|10,0:0|0:0|0:3,0:0:0:0:
434,128,332101,1,0,0:0:0:0:
299,218,332379,1,10,0:1:0:0:
253,218,332517,1,8,0:0:0:0:
150,319,332795,1,8,0:0:0:0:
150,365,332933,1,8,0:1:0:0:
355,365,333212,5,8,0:0:0:0:
401,365,333351,1,0,0:0:0:0:
434,333,333490,1,12,0:3:0:0:
434,288,333629,1,8,0:3:0:0:
434,243,333768,1,2,0:0:0:0:
344,128,334045,38,10,L|434:128,1,90,10|10,0:3|0:0,0:0:0:0:
344,15,334601,1,12,0:3:0:0:
299,15,334740,1,8,0:3:0:0:
254,15,334879,1,2,0:0:0:0:
164,128,335157,1,8,0:3:0:0:
164,290,335434,5,8,0:3:0:0:
164,336,335573,1,8,0:0:0:0:
132,369,335712,1,12,0:3:0:0:
87,369,335851,1,8,0:0:0:0:
42,369,335990,1,8,0:3:0:0:
10,336,336129,1,8,0:0:0:0:
10,290,336268,37,12,0:3:0:0:
10,244,336407,1,8,0:0:0:0:
42,211,336545,1,8,0:3:0:0:
87,210,336684,1,8,0:0:0:0:
132,209,336823,1,12,0:3:0:0:
164,176,336961,1,8,0:3:0:0:
164,130,337100,5,8,0:0:0:0:
164,84,337239,1,8,0:3:0:0:
132,51,337378,1,12,0:3:0:0:
87,51,337517,1,8,0:0:0:0:
42,51,337656,1,8,0:3:0:0:
10,84,337795,1,8,0:3:0:0:
10,130,337934,5,12,0:0:0:0:
164,130,338351,1,2,0:0:0:0:
180,130,338490,2,0,L|255:130,1,67.5000025749208,8|0,0:3|0:0,0:0:0:0:
311,51,339045,1,8,0:3:0:0:
327,51,339184,1,2,0:0:0:0:
432,51,339462,1,2,0:0:0:0:
432,67,339601,2,0,L|432:142,1,67.5000025749208,8|0,0:3|0:0,0:0:0:0:
432,237,340157,5,4,0:0:0:0:
250,237,340573,1,2,0:0:0:0:
266,237,340712,2,0,L|341:237,1,67.5000025749208,8|0,0:3|0:0,0:0:0:0:
250,326,341268,1,10,3:2:0:0:
234,326,341407,1,2,0:0:0:0:
173,237,341684,1,2,0:0:0:0:
157,237,341823,2,0,L|82:237,1,67.5000025749208,10|0,3:2|0:0,0:0:0:0:
12,171,342379,37,6,0:0:0:0:
12,9,342795,1,2,0:0:0:0:
12,25,342934,2,0,L|12:100,1,67.5000025749208,8|0,0:3|0:0,0:0:0:0:
91,9,343490,1,2,0:0:0:0:
107,9,343629,1,2,0:0:0:0:
123,9,343768,1,8,0:0:0:0:
123,109,344046,1,2,0:0:0:0:
202,172,344323,1,2,0:0:0:0:
281,236,344601,5,4,0:0:0:0:
281,252,344740,1,2,0:0:0:0:
281,268,344879,1,8,0:0:0:0:
360,331,345157,1,8,0:3:0:0:
439,268,345434,37,8,0:0:0:0:
439,251,345573,1,0,0:0:0:0:
451,238,345712,1,12,0:0:0:0:
463,225,345851,1,8,0:0:0:0:
463,208,345990,1,2,0:0:0:0:
463,107,346268,1,6,0:0:0:0:
384,44,346545,1,8,0:0:0:0:
367,44,346684,1,2,0:0:0:0:
350,44,346823,5,6,0:0:0:0:
188,44,347240,1,2,0:0:0:0:
204,44,347379,2,0,L|279:44,1,67.5000025749208,8|0,0:3|0:0,0:0:0:0:
204,128,347934,1,10,0:0:0:0:
187,128,348073,1,2,0:0:0:0:
170,128,348212,1,8,0:0:0:0:
70,128,348490,2,0,L|-5:128,1,67.5000025749208,10|0,0:3|0:0,0:0:0:0:
70,212,349045,37,4,0:0:0:0:
87,212,349184,1,2,0:0:0:0:
104,212,349323,1,8,0:0:0:0:
205,212,349601,2,0,L|280:212,1,67.5000025749208,8|0,0:3|0:0,0:0:0:0:
340,288,350157,1,10,0:0:0:0:
357,288,350296,1,0,0:0:0:0:
374,288,350435,1,8,0:0:0:0:
475,288,350712,1,10,0:0:0:0:
475,187,350990,1,0,0:0:0:0:
400,119,351268,5,6,0:0:0:0:
400,102,351407,1,2,0:0:0:0:
400,85,351546,1,8,0:0:0:0:
325,17,351823,1,8,0:3:0:0:
206,17,352101,37,8,0:0:0:0:
189,17,352240,1,0,0:0:0:0:
176,29,352379,1,12,0:0:0:0:
163,41,352518,1,8,0:0:0:0:
146,41,352657,1,2,0:0:0:0:
71,109,352934,1,10,0:0:0:0:
71,210,353212,1,8,0:3:0:0:
146,278,353490,5,4,0:0:0:0:
162,278,353629,1,0,0:0:0:0:
178,278,353768,1,8,0:0:0:0:
189,289,353907,1,0,0:0:0:0:
189,304,354045,1,4,0:0:0:0:
189,186,354323,37,8,0:0:0:0:
189,170,354462,1,0,0:0:0:0:
189,154,354601,1,12,0:3:0:0:
205,154,354740,1,8,0:0:0:0:
280,86,355018,1,8,0:0:0:0:
296,86,355157,1,12,0:3:0:0:
371,154,355434,5,8,0:0:0:0:
371,170,355573,1,2,0:0:0:0:
371,186,355712,1,6,0:0:0:0:
