osu file format v14

[General]
AudioFilename: audio.mp3
AudioLeadIn: 0
PreviewTime:53130
Countdown: 0
SampleSet: Soft
StackLeniency: 0.7
Mode: 0
LetterboxInBreaks: 0
WidescreenStoryboard: 1

[Editor]
Bookmarks: 13458,26699,35803,39941,53182,79665,92906,104492,106148,109458,112768,119389,132630,145872,172354,198837,212079,225217
DistanceSpacing: 1
BeatDivisor: 4
GridSize: 4
TimelineZoom: 1.7

[Metadata]
Title:Segments Blue
TitleUnicode:Segments Blue
Artist:seleP
ArtistUnicode:seleP
Creator:Okoratu
Version:Normal
Source:
Tags:osu! featured artist fa electronic japanese Okorin hamburger CUL Vocaloid もぐ
BeatmapID:2978393
BeatmapSetID:1406043

[Difficulty]
HPDrainRate:3
CircleSize:3
OverallDifficulty:4
ApproachRate:6
SliderMultiplier:1.1
SliderTickRate:2

[Events]
//Background and Video events
0,0,"burger2.jpg",0,0
//Break Periods
2,79865,91856
//Storyboard Layer 0 (Background)
//Storyboard Layer 1 (Fail)
//Storyboard Layer 2 (Pass)
//Storyboard Layer 3 (Foreground)
//Storyboard Layer 4 (Overlay)
//Storyboard Sound Samples

[TimingPoints]
217,413.793103448276,4,2,2,10,1,0
217,-166.666666666667,4,2,2,10,0,0
1872,-166.666666666667,4,2,2,15,0,0
3527,-125,4,2,2,25,0,0
6837,-111.111111111111,4,2,2,50,0,0
11803,-111.111111111111,4,2,1,60,0,0
13458,-100,4,2,1,80,0,0
26699,-83.3333333333333,4,2,1,80,0,0
39941,-76.9230769230769,4,2,1,80,0,0
53182,-76.9230769230769,4,2,1,90,0,1
56130,-76.9230769230769,4,2,2,90,0,1
56234,-76.9230769230769,4,2,1,90,0,1
56337,-76.9230769230769,4,2,2,90,0,1
56441,-76.9230769230769,4,2,1,90,0,1
62958,-76.9230769230769,4,2,2,90,0,1
63062,-76.9230769230769,4,2,1,90,0,1
65182,-76.9230769230769,4,2,1,90,0,1
66423,-76.9230769230769,4,2,1,90,0,1
69579,-76.9230769230769,4,2,2,90,0,1
69683,-76.9230769230769,4,2,1,90,0,1
76199,-76.9230769230769,4,2,2,90,0,1
76303,-76.9230769230769,4,2,1,90,0,1
78423,-76.9230769230769,4,2,1,90,0,1
79665,-100,4,2,1,90,0,0
92906,-100,4,2,1,70,0,0
106148,-133.333333333333,4,2,1,70,0,1
106251,-133.333333333333,4,2,1,70,0,0
112768,-83.3333333333333,4,2,1,80,0,0
119389,-76.9230769230769,4,2,1,80,0,0
132630,-100,4,2,1,70,0,1
132734,-100,4,2,1,70,0,0
139148,-83.3333333333333,4,2,1,90,0,0
145872,-76.9230769230769,4,2,1,90,0,1
149027,-76.9230769230769,4,2,2,90,0,1
149130,-76.9230769230769,4,2,1,90,0,1
155648,-76.9230769230769,4,2,2,90,0,1
155751,-76.9230769230769,4,2,1,90,0,1
159113,-76.9230769230769,4,2,1,90,0,1
162268,-76.9230769230769,4,2,2,90,0,1
162372,-76.9230769230769,4,2,1,90,0,1
168889,-76.9230769230769,4,2,2,90,0,1
168992,-76.9230769230769,4,2,1,90,0,1
171113,-71.4285714285714,4,2,1,90,0,1
172251,-100,4,2,1,90,0,0
172354,-76.9230769230769,4,2,1,90,0,1
175510,-76.9230769230769,4,2,2,90,0,1
175613,-76.9230769230769,4,2,1,90,0,1
182130,-76.9230769230769,4,2,2,90,0,1
182234,-76.9230769230769,4,2,1,90,0,1
185596,-71.4285714285714,4,2,1,90,0,1
198734,-100,4,2,1,90,0,0
198837,-71.4285714285714,4,2,1,90,0,1
212079,-100,4,2,1,90,0,0

[Colours]
Combo1 : 17,254,176
Combo2 : 173,255,95
Combo3 : 255,88,100
Combo4 : 255,94,55

[HitObjects]
55,85,13458,6,0,L|171:80,1,110,6|8,1:2|1:0,0:0:0:0:
277,36,14285,1,2,1:2:0:0:
332,59,14492,1,2,3:0:0:0:
388,80,14699,1,8,1:0:0:0:
311,173,15113,2,0,P|291:229|295:302,1,110,2|8,1:2|1:0,0:0:0:0:
401,327,15941,2,0,P|421:271|417:198,1,110,2|8,1:2|1:0,0:0:0:0:
448,166,16561,1,2,1:2:0:0:
403,124,16768,6,0,L|274:115,1,110,6|10,1:2|1:2,0:0:0:0:
185,60,17596,2,0,L|117:65,1,55,2|2,1:2|3:0,0:0:0:0:
84,104,18010,2,0,L|85:169,1,55,10|2,1:2|3:0,0:0:0:0:
59,213,18423,5,6,1:2:0:0:
179,197,18837,1,8,1:0:0:0:
248,296,19251,2,0,P|291:319|366:320,1,110,6|8,1:2|1:0,0:0:0:0:
411,331,19872,1,8,1:0:0:0:
419,271,20079,6,0,L|432:154,1,110,6|10,1:2|1:0,0:0:0:0:
375,54,20906,1,2,1:2:0:0:
326,89,21113,1,2,3:0:0:0:
266,79,21320,1,8,1:0:0:0:
154,32,21734,2,0,P|103:67|84:127,1,110,6|10,1:2|1:0,0:0:0:0:
43,153,22354,1,2,3:0:0:0:
85,196,22561,2,0,P|107:245|153:273,1,110,2|8,1:2|1:0,0:0:0:0:
264,323,23389,6,0,L|333:331,1,55,6|2,1:2|3:0,0:0:0:0:
376,349,23803,1,10,1:0:0:0:
445,249,24217,2,0,P|455:200|458:179,1,55,6|2,1:2|3:0,0:0:0:0:
434,138,24630,1,8,1:0:0:0:
324,85,25044,1,6,1:2:0:0:
270,112,25251,1,2,1:2:0:0:
239,164,25458,6,0,L|243:260,2,82.5,12|8|8,1:0|1:0|1:0,0:0:0:0:
200,117,26285,1,12,1:0:0:0:
95,35,26699,6,0,P|65:97|78:180,1,131.99999597168,6|10,1:2|1:2,0:0:0:0:
58,290,27527,2,0,L|132:280,1,65.9999979858399,2|2,1:2|3:0,0:0:0:0:
175,322,27941,2,0,L|269:330,1,65.9999979858399,8|2,1:2|3:0,0:0:0:0:
291,369,28354,6,0,P|303:294|329:242,1,131.99999597168,2|10,1:2|1:2,0:0:0:0:
445,183,29182,1,2,1:2:0:0:
404,130,29389,1,2,3:0:0:0:
423,66,29596,1,8,1:0:0:0:
291,49,30010,6,0,L|134:63,2,131.99999597168,2|10|0,1:2|1:2|1:0,0:0:0:0:
336,97,31044,1,2,3:0:0:0:
317,160,31251,1,8,1:0:0:0:
185,168,31665,5,2,1:2:0:0:
53,155,32079,1,10,1:0:0:0:
23,283,32492,1,2,1:2:0:0:
141,341,32906,1,8,1:0:0:0:
261,286,33320,6,0,P|312:275|416:292,1,131.99999597168,6|10,1:2|1:2,0:0:0:0:
500,208,34148,2,0,L|484:137,1,65.9999979858399,2|2,1:2|3:0,0:0:0:0:
479,77,34561,1,8,1:2:0:0:
356,125,34975,2,0,P|276:140|210:123,1,131.99999597168,2|10,1:2|1:2,0:0:0:0:
175,89,35596,1,2,3:0:0:0:
109,78,35803,2,0,P|57:119|60:203,1,131.99999597168,0|8,1:0|1:0,0:0:0:0:
110,298,36630,6,0,P|120:356|113:385,2,65.9999979858399,2|2|10,1:2|3:0|1:2,0:0:0:0:
209,210,37458,1,2,1:2:0:0:
270,233,37665,1,2,3:0:0:0:
300,291,37872,1,8,1:0:0:0:
420,343,38285,6,0,P|442:299|430:195,1,131.99999597168,0|10,1:0|1:0,0:0:0:0:
464,87,39113,1,2,1:0:0:0:
398,94,39320,1,10,1:0:0:0:
336,69,39527,1,8,1:0:0:0:
272,50,39734,1,2,1:3:0:0:
206,65,39941,5,6,1:0:0:0:
205,208,40354,1,10,1:0:0:0:
66,245,40768,2,0,P|41:165|47:86,1,142.99999345398,6|8,1:0|1:2,0:0:0:0:
183,134,41596,2,0,L|262:154,1,71.4999967269899,6|2,1:2|3:0,0:0:0:0:
282,206,42010,2,0,L|267:288,1,71.4999967269899,14|2,1:2|3:0,0:0:0:0:
289,336,42423,1,6,1:2:0:0:
431,341,42837,1,8,1:0:0:0:
416,198,43251,6,0,P|421:122|445:60,2,142.99999345398,6|10|2,1:2|1:0|1:2,0:0:0:0:
293,272,44492,1,8,1:2:0:0:
258,133,44906,2,0,P|218:96|176:92,1,71.4999967269899,6|2,1:2|3:0,0:0:0:0:
156,49,45320,2,0,P|112:59|88:89,1,71.4999967269899,6|2,1:2|3:0,0:0:0:0:
35,93,45734,2,0,L|47:243,1,142.99999345398,6|8,1:2|1:0,0:0:0:0:
145,338,46561,5,6,1:2:0:0:
193,296,46768,1,2,3:0:0:0:
258,291,46975,1,10,1:0:0:0:
245,148,47389,2,0,P|267:93|292:75,1,71.4999967269899,6|0,1:2|0:0,0:0:0:0:
332,64,47803,1,8,1:2:0:0:
453,140,48217,6,0,L|461:239,1,71.4999967269899,6|2,1:2|3:0,0:0:0:0:
414,257,48630,2,0,L|311:251,1,71.4999967269899,10|2,1:0|3:0,0:0:0:0:
291,284,49044,2,0,P|233:281|141:282,1,142.99999345398,6|8,1:2|1:0,0:0:0:0:
32,197,49872,5,4,1:0:0:0:
119,84,50285,1,12,1:2:0:0:
256,123,50699,1,4,1:2:0:0:
393,84,51113,1,12,1:2:0:0:
480,197,51526,1,8,1:0:0:0:
399,315,51941,1,4,1:2:0:0:
276,242,52354,2,0,P|223:238|160:303,1,142.99999345398,0|4,1:0|1:3,0:0:0:0:
103,326,52975,1,4,1:3:0:0:
48,286,53182,6,0,P|34:235|52:140,1,142.99999345398,6|10,1:2|1:0,0:0:0:0:
142,38,54010,1,2,1:3:0:0:
193,97,54217,1,2,3:0:0:0:
270,83,54423,1,8,1:0:0:0:
425,56,54837,2,0,P|453:99|450:134,1,71.4999967269899,2|2,1:2|3:2,0:0:0:0:
478,193,55251,2,0,L|466:292,1,71.4999967269899,10|2,1:0|3:2,0:0:0:0:
407,313,55665,2,0,P|393:269|293:240,1,142.99999345398,2|8,1:3|1:0,0:0:0:0:
233,257,56285,1,8,1:0:0:0:
185,320,56492,6,0,P|101:324|62:256,1,142.99999345398,6|10,1:2|1:0,0:0:0:0:
8,136,57320,1,2,1:2:0:0:
126,32,57734,1,8,1:0:0:0:
177,91,57941,1,2,0:0:0:0:
247,56,58148,6,0,L|396:51,1,142.99999345398,14|10,1:2|1:0,0:0:0:0:
410,207,58975,2,0,L|261:212,1,142.99999345398,6|12,1:2|1:2,0:0:0:0:
188,210,59596,1,0,1:0:0:0:
146,276,59803,6,0,P|97:291|31:217,1,142.99999345398,6|10,1:2|1:0,0:0:0:0:
57,80,60630,1,2,1:2:0:0:
135,88,60837,1,2,3:0:0:0:
206,55,61044,1,8,1:0:0:0:
361,29,61458,6,0,P|350:79|345:170,1,142.99999345398,6|10,1:2|1:0,0:0:0:0:
368,245,62079,1,2,3:2:0:0:
316,303,62285,2,0,P|238:328|160:308,1,142.99999345398,2|8,1:2|1:0,0:0:0:0:
126,259,62906,1,8,1:0:0:0:
50,282,63113,5,6,1:2:0:0:
23,126,63527,1,8,1:0:0:0:
165,59,63941,1,6,1:2:0:0:
284,165,64354,2,0,P|340:194|368:194,1,71.4999967269899,8|0,1:0|1:0,0:0:0:0:
425,184,64768,2,0,L|433:98,1,71.4999967269899,2|2,1:2|1:2,0:0:0:0:
379,53,65182,2,0,L|266:63,2,107.249995090485,6|8|2,1:2|1:0|1:3,0:0:0:0:
451,20,66010,1,12,1:2:0:0:
435,176,66423,5,6,1:2:0:0:
388,239,66630,1,2,3:2:0:0:
390,317,66837,1,10,1:0:0:0:
241,265,67251,2,0,P|199:263|161:266,1,71.4999967269899,2|2,1:2|3:0,0:0:0:0:
102,306,67665,2,0,P|51:289|42:206,2,142.99999345398,8|2|10,1:0|1:2|1:0,0:0:0:0:
167,163,68906,1,2,1:0:0:0:
314,107,69320,1,10,1:0:0:0:
294,183,69527,1,2,1:3:0:0:
303,261,69734,5,6,1:2:0:0:
448,321,70148,1,10,1:0:0:0:
504,174,70561,2,0,P|507:124|494:87,1,71.4999967269899,2|0,1:2|0:0,0:0:0:0:
454,39,70975,1,8,1:0:0:0:
338,145,71389,2,0,L|246:156,1,71.4999967269899,6|2,1:2|3:2,0:0:0:0:
195,120,71803,2,0,P|161:86|64:74,1,142.99999345398,10|4,1:0|1:2,0:0:0:0:
30,224,72630,1,12,1:2:0:0:
78,285,72837,1,0,1:0:0:0:
151,257,73044,6,0,P|240:250|294:256,1,142.99999345398,6|10,1:2|1:0,0:0:0:0:
422,346,73872,1,2,1:2:0:0:
478,291,74079,1,2,3:0:0:0:
451,217,74285,1,8,1:0:0:0:
490,64,74699,2,0,L|392:76,1,71.4999967269899,6|2,1:2|3:2,0:0:0:0:
344,47,75113,2,0,L|246:59,1,71.4999967269899,10|2,1:0|3:2,0:0:0:0:
227,120,75527,2,0,P|261:191|252:259,1,142.99999345398,2|10,1:2|1:2,0:0:0:0:
188,296,76148,1,2,1:3:0:0:
112,276,76354,6,0,P|78:205|87:137,1,142.99999345398,6|10,1:2|1:0,0:0:0:0:
229,81,77182,2,0,L|384:101,1,142.99999345398,6|8,1:2|1:0,0:0:0:0:
454,232,78010,1,8,1:0:0:0:
385,270,78217,1,10,1:0:0:0:
312,241,78423,2,0,P|262:230|200:242,2,107.249995090485,12|8|2,1:2|1:0|1:3,0:0:0:0:
372,184,79251,1,12,1:2:0:0:
256,94,79665,1,6,1:2:0:0:
166,55,92906,6,0,L|155:169,2,110,6|10|2,1:2|1:2|0:0,0:0:0:0:
280,94,94148,2,0,L|347:88,1,55,8|2,1:0|3:0,0:0:0:0:
379,129,94561,6,0,L|390:243,2,110,6|10|2,1:2|1:2|0:0,0:0:0:0:
281,201,95803,2,0,L|214:195,1,55,8|2,1:0|1:0,0:0:0:0:
182,236,96216,6,0,L|171:350,2,110,6|10|2,1:2|1:2|0:0,0:0:0:0:
81,167,97458,2,0,P|67:118|73:94,1,55,8|2,1:0|3:3,0:0:0:0:
94,60,97872,1,6,1:2:0:0:
208,98,98285,1,10,1:2:0:0:
319,50,98699,1,6,1:2:0:0:
424,109,99113,1,6,1:2:0:0:
373,218,99527,6,0,L|360:273,1,55,6|0,1:2|1:0,0:0:0:0:
365,332,99941,2,0,P|321:315|242:319,1,110,6|6,1:2|1:0,0:0:0:0:
204,342,100561,1,0,1:0:0:0:
152,310,100768,2,0,P|135:266|139:187,2,110,6|6|6,1:2|1:2|1:2,0:0:0:0:
240,227,102010,1,6,1:2:0:0:
259,169,102217,1,0,1:0:0:0:
233,114,102423,1,6,1:2:0:0:
245,54,102630,1,2,1:3:0:0:
300,29,102837,1,6,1:2:0:0:
256,192,102941,12,6,106148,1:0:0:0:
114,146,107803,6,0,P|160:197|165:254,2,123.750004720688,2|0|0,1:2|1:0|1:0,0:0:0:0:
116,55,109458,2,0,L|252:47,2,123.750004720688,0|0|8,1:0|0:0|1:0,0:0:0:0:
57,124,111113,6,0,B|102:241|163:156|209:284|159:326,1,247.500009441376,2|0,1:3|1:0,0:0:0:0:
305,359,112768,6,0,P|295:305|317:232,1,131.99999597168,6|10,1:2|1:0,0:0:0:0:
382,218,113389,1,2,3:0:0:0:
431,174,113596,2,0,P|440:120|418:46,1,131.99999597168,2|8,1:2|1:2,0:0:0:0:
288,25,114423,1,2,1:2:0:0:
247,77,114630,1,2,3:0:0:0:
180,78,114837,1,10,1:0:0:0:
60,22,115251,2,0,P|39:54|52:153,1,131.99999597168,2|8,1:2|1:0,0:0:0:0:
70,205,115872,1,2,3:0:0:0:
122,245,116079,6,0,L|193:244,2,65.9999979858399,2|2|10,1:2|3:0|1:2,0:0:0:0:
211,147,116906,1,2,1:2:0:0:
277,148,117113,1,2,3:0:0:0:
311,204,117320,1,8,1:0:0:0:
359,326,117734,6,0,P|306:310|229:314,1,131.99999597168,2|10,1:2|1:2,0:0:0:0:
104,354,118561,1,2,1:2:0:0:
57,307,118768,1,10,1:0:0:0:
55,240,118975,1,8,1:0:0:0:
97,189,119182,1,2,3:0:0:0:
168,180,119389,5,6,1:2:0:0:
309,199,119803,1,10,1:2:0:0:
289,59,120217,2,0,L|137:45,1,142.99999345398,6|8,1:2|1:0,0:0:0:0:
90,77,120837,1,2,3:0:0:0:
67,140,121044,2,0,L|74:217,1,71.4999967269899,6|2,1:2|1:3,0:0:0:0:
124,247,121458,2,0,L|131:324,1,71.4999967269899,14|2,1:2|3:0,0:0:0:0:
178,359,121872,1,6,1:2:0:0:
246,233,122285,1,10,1:2:0:0:
313,358,122699,6,0,P|367:367|448:322,1,142.99999345398,6|10,1:2|1:0,0:0:0:0:
376,201,123527,2,0,P|363:141|366:115,1,71.4999967269899,6|2,1:2|3:0,0:0:0:0:
407,84,123941,1,8,1:0:0:0:
274,30,124354,5,6,1:2:0:0:
225,82,124561,1,2,1:3:0:0:
154,70,124768,1,14,1:2:0:0:
50,168,125182,2,0,P|67:206|73:255,1,71.4999967269899,6|0,1:2|0:0,0:0:0:0:
79,297,125596,2,0,P|114:286|169:279,1,71.4999967269899,10|2,1:2|3:0,0:0:0:0:
205,311,126010,6,0,L|348:332,1,142.99999345398,6|10,1:2|1:2,0:0:0:0:
466,245,126837,1,4,1:2:0:0:
483,175,127044,1,0,0:0:0:0:
429,127,127251,1,8,1:0:0:0:
292,83,127665,5,6,1:2:0:0:
190,184,128079,1,10,1:2:0:0:
68,108,128492,2,0,P|86:55|172:23,1,142.99999345398,6|10,1:2|1:2,0:0:0:0:
220,45,129113,1,2,3:0:0:0:
238,106,129320,5,4,1:2:0:0:
380,99,129734,1,12,1:2:0:0:
313,225,130148,1,4,1:2:0:0:
256,356,130561,1,12,1:2:0:0:
199,225,130975,1,4,1:2:0:0:
132,99,131389,1,12,1:2:0:0:
47,214,131803,6,0,P|43:279|82:354,1,142.99999345398,0|4,1:2|1:3,0:0:0:0:
138,358,132423,1,4,1:3:0:0:
190,323,132630,1,6,1:2:0:0:
256,192,132734,12,0,135113,0:0:0:0:
256,192,135941,12,0,138423,0:0:0:0:
196,109,139251,6,0,P|252:81|327:126,1,131.99999597168,0|0,1:0|1:0,0:0:0:0:
353,157,139872,1,2,0:3:0:0:
315,211,140079,2,0,P|259:239|184:194,1,131.99999597168,0|0,1:0|1:0,0:0:0:0:
98,301,140906,2,0,P|183:347|223:342,1,131.99999597168,4|2,1:2|1:2,0:0:0:0:
259,295,141527,1,2,0:3:0:0:
300,347,141734,2,0,P|364:342|416:303,1,131.99999597168,6|2,1:2|1:2,0:0:0:0:
382,176,142561,6,0,P|352:146|344:48,1,131.99999597168,4|0,1:2|1:3,0:0:0:0:
207,61,143389,2,0,P|204:125|164:176,1,131.99999597168,0|2,1:0|1:3,0:0:0:0:
87,284,144217,1,6,1:2:0:0:
209,333,144630,1,6,1:2:0:0:
319,261,145044,1,4,1:2:0:0:
441,310,145457,1,6,0:2:0:0:
413,169,145872,5,6,1:2:0:0:
256,192,145975,12,2,148354,1:2:0:0:
256,192,149182,12,6,151665,1:2:0:0:
260,201,152492,6,0,P|260:148|242:61,1,142.99999345398,6|10,1:2|1:0,0:0:0:0:
171,24,153113,1,2,3:2:0:0:
113,78,153320,1,0,1:0:0:0:
97,234,153734,1,8,1:0:0:0:
212,341,154148,6,0,L|288:333,1,71.4999967269899,6|2,1:2|3:2,0:0:0:0:
357,359,154561,2,0,P|328:295|354:210,1,142.99999345398,10|2,1:0|1:2,0:0:0:0:
428,93,155389,1,10,1:0:0:0:
361,51,155596,1,2,1:3:0:0:
296,95,155803,6,0,L|141:101,1,142.99999345398,4|10,1:2|1:0,0:0:0:0:
58,226,156630,2,0,L|213:220,1,142.99999345398,6|8,1:2|1:0,0:0:0:0:
347,161,157458,1,8,1:2:0:0:
420,189,157665,1,0,1:0:0:0:
448,262,157872,2,0,L|440:373,2,107.249995090485,12|8|2,1:2|1:0|1:2,0:0:0:0:
506,209,158699,1,12,1:2:0:0:
451,61,159113,6,0,P|391:51|309:78,1,142.99999345398,6|10,1:2|1:0,0:0:0:0:
266,138,159734,1,2,3:2:0:0:
269,216,159941,1,2,1:0:0:0:
184,348,160354,1,8,1:0:0:0:
52,261,160768,2,0,P|30:204|40:169,1,71.4999967269899,2|2,1:0|3:2,0:0:0:0:
37,116,161182,2,0,L|133:110,1,71.4999967269899,10|2,1:0|3:2,2:0:0:0:
170,62,161596,2,0,L|326:55,1,142.99999345398,2|10,1:0|1:0,0:0:0:0:
346,127,162217,1,2,1:3:0:0:
296,188,162423,6,0,P|279:245|282:333,1,142.99999345398,6|10,1:2|1:0,0:0:0:0:
437,347,163251,2,0,P|454:290|451:202,1,142.99999345398,2|8,1:2|1:0,0:0:0:0:
455,128,163872,1,2,3:0:0:0:
398,72,164079,5,6,1:2:0:0:
241,79,164492,1,10,1:0:0:0:
166,217,164906,2,0,L|75:229,1,71.4999967269899,4|2,1:2|3:0,0:0:0:0:
16,238,165320,1,14,1:2:0:0:
21,80,165734,5,6,1:2:0:0:
80,28,165941,1,2,3:2:0:0:
158,28,166148,1,10,1:0:0:0:
252,153,166561,2,0,L|241:302,1,142.99999345398,2|8,1:2|1:2,0:0:0:0:
179,344,167182,1,2,3:0:0:0:
100,341,167389,6,0,P|53:305|57:207,1,142.99999345398,6|10,1:2|1:0,0:0:0:0:
28,69,168217,2,0,B|114:55|89:110|189:94,1,142.99999345398,2|10,1:0|1:0,0:0:0:0:
228,50,168837,1,2,1:3:0:0:
299,82,169044,6,0,P|327:137|325:167,1,71.4999967269899,6|2,1:2|3:2,0:0:0:0:
301,220,169458,2,0,L|289:372,1,142.99999345398,10|6,1:0|1:2,0:0:0:0:
445,337,170285,1,8,1:0:0:0:
466,181,170699,1,0,1:0:0:0:
421,115,170906,1,0,1:0:0:0:
341,117,171113,2,0,B|293:142|288:92|214:122,2,115.49999647522,12|8|2,1:2|1:0|1:3,0:0:0:0:
374,42,171941,1,14,1:2:0:0:
218,17,172354,5,6,1:2:0:0:
84,99,172768,2,0,P|71:150|88:257,1,142.99999345398,10|2,1:0|1:0,0:0:0:0:
138,293,173389,1,2,3:0:0:0:
215,279,173596,1,8,1:0:0:0:
261,128,174010,6,0,P|308:122|349:133,1,71.4999967269899,2|2,1:0|3:2,0:0:0:0:
391,75,174423,2,0,P|444:111|456:148,1,71.4999967269899,10|2,1:0|3:2,0:0:0:0:
456,194,174837,2,0,L|437:343,1,142.99999345398,2|10,1:0|1:0,0:0:0:0:
365,368,175458,1,2,1:3:0:0:
296,329,175665,6,0,P|243:314|139:335,1,142.99999345398,6|10,1:2|1:0,0:0:0:0:
21,245,176492,2,0,P|17:197|36:156,1,71.4999967269899,2|2,1:0|3:0,0:0:0:0:
78,117,176906,1,8,1:0:0:0:
171,243,177320,6,0,P|221:256|296:213,2,142.99999345398,6|10|6,1:2|1:0|1:2,0:0:0:0:
132,174,178354,1,2,3:0:0:0:
185,116,178561,2,0,L|263:103,1,71.4999967269899,14|2,1:2|0:0,0:0:0:0:
321,59,178975,5,6,1:2:0:0:
464,123,179389,1,10,1:0:0:0:
407,269,179803,1,2,1:0:0:0:
333,296,180010,1,2,3:0:0:0:
257,318,180217,1,8,1:0:0:0:
239,162,180630,6,0,P|223:104|153:64,1,142.99999345398,2|10,1:0|1:0,0:0:0:0:
75,65,181251,1,2,3:2:0:0:
48,139,181458,2,0,B|71:212|12:217|42:300,1,142.99999345398,2|10,1:0|1:2,0:0:0:0:
178,344,182285,5,6,1:2:0:0:
243,300,182492,1,2,3:2:0:0:
321,304,182699,1,10,1:0:0:0:
452,217,183113,2,0,P|474:132|442:68,1,142.99999345398,6|8,1:2|1:0,0:0:0:0:
297,66,183941,5,8,1:0:0:0:
251,130,184148,1,0,1:0:0:0:
173,116,184354,2,0,P|148:77|72:59,2,107.249995090485,14|8|2,1:2|1:0|1:3,0:0:0:0:
170,195,185182,1,12,1:2:0:0:
82,322,185596,6,0,L|-6:326,2,76.9999976501466,6|2|10,1:2|3:0|1:0,0:0:0:0:
230,282,186423,1,2,1:0:0:0:
297,320,186630,1,2,3:0:0:0:
374,316,186837,1,8,1:0:0:0:
469,196,187251,6,0,P|469:142|461:115,1,76.9999976501466,2|2,1:2|3:0,0:0:0:0:
391,91,187665,2,0,L|286:102,1,76.9999976501466,10|2,1:2|3:0,0:0:0:0:
258,45,188079,1,2,1:0:0:0:
104,59,188492,1,8,1:0:0:0:
57,120,188699,1,2,3:2:0:0:
43,195,188906,6,0,L|49:290,2,76.9999976501466,6|2|10,1:2|3:0|1:0,0:0:0:0:
196,178,189734,2,0,P|246:191|284:285,1,153.999995300293,2|8,1:0|1:0,0:0:0:0:
286,357,190354,1,2,3:0:0:0:
363,354,190561,5,6,1:2:0:0:
439,220,190975,1,10,1:0:0:0:
363,85,191389,1,6,1:2:0:0:
209,73,191803,1,14,1:2:0:0:
165,136,192010,1,2,1:0:0:0:
87,136,192217,6,0,L|-4:130,2,76.9999976501466,6|2|10,1:2|3:0|1:0,0:0:0:0:
236,171,193044,1,2,1:0:0:0:
278,235,193251,1,2,3:0:0:0:
268,311,193458,1,8,1:2:0:0:
101,336,193872,6,0,P|65:284|64:243,1,76.9999976501466,6|2,1:2|3:0,0:0:0:0:
98,203,194285,2,0,L|105:115,1,76.9999976501466,10|2,1:2|3:0,0:0:0:0:
89,50,194699,1,2,1:0:0:0:
241,68,195113,1,8,1:0:0:0:
256,143,195320,1,2,1:2:0:0:
332,154,195527,6,0,L|415:150,2,76.9999976501466,6|2|10,1:2|3:0|1:0,0:0:0:0:
207,244,196354,2,0,P|200:311|275:363,2,153.999995300293,6|8|8,1:2|1:0|1:0,0:0:0:0:
206,166,197389,1,8,1:0:0:0:
145,118,197596,2,0,L|30:128,2,115.49999647522,14|10|2,1:2|1:0|1:3,0:0:0:0:
187,53,198423,1,12,1:2:0:0:
340,68,198837,5,6,1:2:0:0:
394,128,199044,1,2,3:2:0:0:
390,209,199251,1,10,1:0:0:0:
252,296,199665,2,0,L|147:290,1,76.9999976501466,2|2,1:0|3:0,0:0:0:0:
95,309,200079,1,8,1:2:0:0:
24,161,200492,5,2,1:0:0:0:
67,92,200699,1,2,3:2:0:0:
148,95,200906,2,0,P|191:137|303:151,2,153.999995300293,10|2|8,1:2|1:0|1:2,0:0:0:0:
164,257,202148,5,6,1:2:0:0:
228,306,202354,1,2,3:2:0:0:
309,314,202561,1,10,1:0:0:0:
365,160,202975,1,2,1:0:0:0:
301,111,203181,1,2,3:0:0:0:
220,103,203388,1,8,1:0:0:0:
65,157,203803,5,6,1:2:0:0:
132,305,204217,1,10,1:2:0:0:
294,298,204630,2,0,L|471:317,1,153.999995300293,6|14,1:2|1:2,0:0:0:0:
509,260,205251,1,2,1:0:0:0:
472,186,205458,6,0,P|383:161|307:195,1,153.999995300293,6|10,1:2|1:0,0:0:0:0:
249,207,206079,1,2,3:2:0:0:
213,133,206285,1,2,1:0:0:0:
59,76,206699,1,8,1:0:0:0:
29,236,207113,1,6,1:2:0:0:
72,305,207320,1,2,3:2:0:0:
153,307,207527,1,10,1:0:0:0:
140,144,207941,2,0,P|149:90|251:29,1,153.999995300293,2|8,1:0|1:0,0:0:0:0:
305,33,208561,1,2,1:0:0:0:
363,89,208768,5,6,1:2:0:0:
345,168,208975,1,2,3:2:0:0:
328,247,209182,1,10,1:0:0:0:
199,347,209596,2,0,P|163:315|161:215,2,153.999995300293,6|8|8,1:2|1:0|1:0,0:0:0:0:
272,311,210630,5,8,1:0:0:0:
346,345,210837,2,0,P|396:361|467:358,2,115.49999647522,14|10|2,1:2|1:0|1:3,0:0:0:0:
344,262,211665,1,14,1:2:0:0:
440,162,212079,1,4,1:2:0:0:
