osu file format v14

[General]
AudioFilename: audio.mp3
AudioLeadIn: 0
PreviewTime:53130
Countdown: 0
SampleSet: Soft
StackLeniency: 0.7
Mode: 0
LetterboxInBreaks: 0
WidescreenStoryboard: 1

[Editor]
Bookmarks: 13458,26699,35803,39941,53182,79665,92906,104492,106148,109458,112768,119389,132630,145872,172354,198837,212079,225217
DistanceSpacing: 1
BeatDivisor: 4
GridSize: 4
TimelineZoom: 1.7

[Metadata]
Title:Segments Blue
TitleUnicode:Segments Blue
Artist:seleP
ArtistUnicode:seleP
Creator:Okoratu
Version:Intermediate
Source:
Tags:osu! featured artist fa electronic japanese Okorin hamburger CUL Vocaloid もぐ
BeatmapID:2973193
BeatmapSetID:1406043

[Difficulty]
HPDrainRate:4
CircleSize:3.5
OverallDifficulty:5
ApproachRate:7
SliderMultiplier:1.4
SliderTickRate:2

[Events]
//Background and Video events
0,0,"burger2.jpg",0,0
//Break Periods
2,79865,92006
//Storyboard Layer 0 (Background)
//Storyboard Layer 1 (Fail)
//Storyboard Layer 2 (Pass)
//Storyboard Layer 3 (Foreground)
//Storyboard Layer 4 (Overlay)
//Storyboard Sound Samples

[TimingPoints]
217,413.793103448276,4,2,2,10,1,0
217,-166.666666666667,4,2,2,10,0,0
1872,-166.666666666667,4,2,2,15,0,0
3527,-125,4,2,2,25,0,0
6837,-111.111111111111,4,2,2,50,0,0
11803,-111.111111111111,4,2,1,60,0,0
13458,-100,4,2,1,80,0,0
26699,-83.3333333333333,4,2,1,80,0,0
39941,-76.9230769230769,4,2,1,80,0,0
53182,-76.9230769230769,4,2,1,90,0,1
56130,-76.9230769230769,4,2,2,90,0,1
56234,-76.9230769230769,4,2,1,90,0,1
56337,-76.9230769230769,4,2,2,90,0,1
56441,-76.9230769230769,4,2,1,90,0,1
62958,-76.9230769230769,4,2,2,90,0,1
63062,-76.9230769230769,4,2,1,90,0,1
65182,-76.9230769230769,4,2,1,90,0,1
66423,-76.9230769230769,4,2,1,90,0,1
69579,-76.9230769230769,4,2,2,90,0,1
69683,-76.9230769230769,4,2,1,90,0,1
76199,-76.9230769230769,4,2,2,90,0,1
76303,-76.9230769230769,4,2,1,90,0,1
78423,-76.9230769230769,4,2,1,90,0,1
79665,-100,4,2,1,90,0,0
92906,-100,4,2,1,70,0,0
106148,-133.333333333333,4,2,1,70,0,1
106251,-133.333333333333,4,2,1,70,0,0
112768,-83.3333333333333,4,2,1,80,0,0
119389,-76.9230769230769,4,2,1,80,0,0
132630,-100,4,2,1,70,0,1
132734,-100,4,2,1,70,0,0
139148,-83.3333333333333,4,2,1,90,0,0
145872,-76.9230769230769,4,2,1,90,0,1
149027,-76.9230769230769,4,2,2,90,0,1
149130,-76.9230769230769,4,2,1,90,0,1
155648,-76.9230769230769,4,2,2,90,0,1
155751,-76.9230769230769,4,2,1,90,0,1
159113,-76.9230769230769,4,2,1,90,0,1
162268,-76.9230769230769,4,2,2,90,0,1
162372,-76.9230769230769,4,2,1,90,0,1
168889,-76.9230769230769,4,2,2,90,0,1
168992,-76.9230769230769,4,2,1,90,0,1
171113,-71.4285714285714,4,2,1,90,0,1
172251,-100,4,2,1,90,0,0
172354,-76.9230769230769,4,2,1,90,0,1
175510,-76.9230769230769,4,2,2,90,0,1
175613,-76.9230769230769,4,2,1,90,0,1
182130,-76.9230769230769,4,2,2,90,0,1
182234,-76.9230769230769,4,2,1,90,0,1
185596,-71.4285714285714,4,2,1,90,0,1
198734,-100,4,2,1,90,0,0
198837,-71.4285714285714,4,2,1,90,0,1
212079,-100,4,2,1,90,0,0

[Colours]
Combo1 : 17,254,176
Combo2 : 173,255,95
Combo3 : 255,88,100
Combo4 : 255,94,55

[HitObjects]
30,96,13458,6,0,P|75:68|136:82,1,105,6|0,1:2|0:0,0:0:0:0:
148,86,13872,2,0,L|235:83,1,70,8|2,1:0|3:0,0:0:0:0:
301,34,14285,1,2,1:2:0:0:
308,128,14492,1,2,3:0:0:0:
392,29,14699,1,8,1:0:0:0:
399,123,14906,1,2,3:0:0:0:
408,212,15113,6,0,L|413:296,1,70,2|2,1:2|3:0,0:0:0:0:
331,338,15527,2,0,L|325:248,1,70,8|2,1:0|3:0,0:0:0:0:
246,218,15941,2,0,P|200:241|129:241,1,105,2|2,1:2|0:0,0:0:0:0:
113,239,16354,2,0,L|29:247,1,70,8|2,1:0|1:2,0:0:0:0:
15,154,16768,6,0,L|112:147,1,70,6|2,1:2|3:3,0:0:0:0:
150,84,17182,1,10,1:2:0:0:
213,148,17389,1,2,3:3:0:0:
248,59,17596,2,0,P|335:44|366:74,1,105,2|2,1:2|0:0,0:0:0:0:
355,70,18010,2,0,L|342:157,1,70,10|2,1:2|3:0,0:0:0:0:
419,210,18423,6,0,P|432:138|471:81,1,140,6|8,1:2|1:0,0:0:0:0:
270,203,19251,2,0,P|283:250|285:300,1,70,6|0,1:2|0:0,0:0:0:0:
287,316,19561,1,2,1:2:0:0:
287,316,19665,2,0,L|198:318,1,70,8|8,1:0|1:0,0:0:0:0:
125,346,20079,5,6,1:2:0:0:
142,257,20285,1,2,3:0:0:0:
71,192,20492,1,10,1:0:0:0:
98,106,20698,1,2,3:0:0:0:
170,164,20906,2,0,P|213:159|249:95,1,105,2|2,1:2|0:0,0:0:0:0:
245,77,21320,2,0,L|339:82,1,70,8|2,1:0|3:0,0:0:0:0:
402,29,21734,6,0,L|484:27,1,70,6|2,1:2|3:0,0:0:0:0:
499,120,22148,2,0,L|417:122,1,70,10|2,1:0|3:0,0:0:0:0:
371,193,22561,2,0,P|281:205|259:217,1,105,2|2,1:2|0:0,0:0:0:0:
248,236,22975,2,0,L|171:228,1,70,8|2,1:0|1:2,0:0:0:0:
89,253,23389,5,6,1:2:0:0:
79,342,23596,1,2,3:0:0:0:
171,356,23803,2,0,P|209:332|278:338,1,105,10|0,1:0|0:0,0:0:0:0:
303,346,24217,2,0,L|382:349,1,70,6|2,1:2|3:0,0:0:0:0:
464,287,24630,2,0,P|420:282|385:249,1,70,8|2,1:0|1:2,0:0:0:0:
392,181,25044,6,0,L|402:139,2,35,6|0|2,1:2|1:0|1:2,0:0:0:0:
313,216,25458,2,0,P|260:214|186:221,2,105,12|8|8,1:0|1:0|1:0,0:0:0:0:
253,110,26285,2,0,L|176:114,1,70,12|8,1:0|1:0,0:0:0:0:
140,91,26596,1,8,1:0:0:0:
140,91,26699,6,0,P|142:152|106:261,1,167.999994873047,6|10,1:2|1:2,0:0:0:0:
174,337,27320,1,2,3:0:0:0:
174,337,27527,2,0,P|247:331|346:351,1,167.999994873047,2|8,1:2|1:2,0:0:0:0:
434,357,28148,1,2,3:0:0:0:
434,357,28354,2,0,L|423:258,1,83.9999974365235,2|2,1:2|3:0,0:0:0:0:
374,187,28768,2,0,L|467:182,1,83.9999974365235,10|2,1:2|3:0,0:0:0:0:
407,91,29182,2,0,L|267:97,1,125.999996154785,2|2,1:2|0:0,0:0:0:0:
257,102,29596,2,0,P|216:69|180:75,1,83.9999974365235,8|2,1:0|3:0,0:0:0:0:
96,81,30010,5,2,1:2:0:0:
144,161,30217,1,2,3:0:0:0:
99,238,30423,1,10,1:2:0:0:
147,318,30630,1,2,3:0:0:0:
196,243,30837,2,0,P|250:240|274:266,1,83.9999974365235,0|2,1:0|3:0,0:0:0:0:
346,313,31251,2,0,L|448:306,1,83.9999974365235,8|2,1:0|3:0,0:0:0:0:
487,231,31665,5,2,1:2:0:0:
487,231,31872,1,2,3:0:0:0:
387,174,32079,1,10,1:0:0:0:
387,174,32285,1,2,3:0:0:0:
467,105,32492,1,2,1:2:0:0:
467,105,32699,1,2,3:0:0:0:
366,65,32906,2,0,P|289:76|218:72,1,125.999996154785,8|2,1:0|1:3,0:0:0:0:
214,75,33320,6,0,L|228:173,1,83.9999974365235,6|2,1:2|3:0,0:0:0:0:
271,241,33734,2,0,P|197:243|151:243,1,83.9999974365235,10|2,1:2|3:0,0:0:0:0:
88,209,34148,2,0,B|68:301|132:285|104:403,1,167.999994873047,2|8,1:2|1:2,0:0:0:0:
201,319,34768,1,2,3:0:0:0:
201,319,34975,6,0,P|247:323|285:333,1,83.9999974365235,2|2,1:2|3:0,0:0:0:0:
384,250,35389,2,0,P|343:247|302:237,1,83.9999974365235,10|2,1:2|3:0,0:0:0:0:
276,136,35803,2,0,L|471:167,1,167.999994873047,0|8,1:0|1:0,0:0:0:0:
409,66,36423,1,2,3:2:0:0:
409,66,36630,6,0,L|214:35,1,167.999994873047,2|10,1:2|1:2,0:0:0:0:
155,60,37251,1,2,3:0:0:0:
205,147,37458,2,0,P|216:199|216:279,1,125.999996154785,2|2,1:2|0:0,0:0:0:0:
201,298,37872,2,0,L|112:294,1,83.9999974365235,8|2,1:0|3:0,0:0:0:0:
37,230,38285,6,0,L|30:178,2,41.9999987182618,0|10|0,1:0|1:0|0:0,0:0:0:0:
124,182,38699,2,0,P|134:106|181:84,1,125.999996154785,10|2,1:0|1:0,0:0:0:0:
184,56,39113,2,0,L|288:75,1,83.9999974365235,2|10,1:0|1:0,0:0:0:0:
385,40,39527,2,0,L|330:128,1,83.9999974365235,8|2,1:0|1:3,0:0:0:0:
327,151,39837,1,0,1:0:0:0:
327,151,39941,6,0,P|334:230|325:275,2,90.9999958343508,6|2|10,1:0|1:3|1:0,0:0:0:0:
245,204,40561,1,2,3:0:0:0:
301,315,40768,2,0,P|337:271|437:267,1,136.499993751526,6|2,1:0|0:2,0:0:0:0:
412,257,41182,2,0,L|444:148,1,90.9999958343508,8|2,1:2|3:0,0:0:0:0:
466,65,41596,5,6,1:2:0:0:
466,65,41803,1,2,3:0:0:0:
363,115,42010,1,14,1:2:0:0:
363,115,42217,1,2,3:0:0:0:
258,41,42423,2,0,P|265:105|256:206,1,136.499993751526,6|2,1:2|0:0,0:0:0:0:
261,176,42837,2,0,L|263:284,1,90.9999958343508,8|2,1:0|0:0,0:0:0:0:
167,352,43251,6,0,P|97:340|75:369,2,90.9999958343508,6|2|10,1:2|3:0|1:0,0:0:0:0:
174,248,43872,1,2,3:0:0:0:
253,348,44079,2,0,P|309:349|388:291,1,136.499993751526,2|2,1:2|0:0,0:0:0:0:
376,308,44492,2,0,L|484:317,1,90.9999958343508,8|0,1:2|0:0,0:0:0:0:
486,211,44906,5,6,1:2:0:0:
486,211,45113,1,2,3:0:0:0:
361,200,45320,1,6,1:2:0:0:
361,200,45527,1,2,3:0:0:0:
265,131,45733,2,0,P|258:195|267:296,1,136.499993751526,6|0,1:2|0:0,0:0:0:0:
262,266,46147,2,0,L|260:374,1,90.9999958343508,8|2,1:0|3:0,0:0:0:0:
156,278,46561,6,0,L|158:170,2,90.9999958343508,6|2|10,1:2|3:0|1:0,0:0:0:0:
81,363,47182,1,2,3:0:0:0:
78,256,47389,2,0,P|134:298|160:366,1,136.499993751526,6|2,1:2|0:0,0:0:0:0:
159,357,47803,2,0,L|261:355,1,90.9999958343508,8|2,1:2|3:0,0:0:0:0:
338,276,48217,5,6,1:2:0:0:
338,276,48423,1,2,3:0:0:0:
223,190,48630,1,10,1:0:0:0:
223,190,48837,1,2,3:0:0:0:
298,68,49044,2,0,P|258:42|154:51,1,136.499993751526,6|0,1:2|0:0,0:0:0:0:
171,42,49458,2,0,L|67:48,1,90.9999958343508,8|2,1:0|3:0,0:0:0:0:
79,194,49872,5,4,1:0:0:0:
79,194,49975,2,0,P|163:160|220:163,1,136.499993751526,8|12,1:0|1:2,0:0:0:0:
433,194,50699,1,4,1:2:0:0:
433,194,50802,2,0,P|349:160|292:163,1,136.499993751526,10|12,1:0|1:2,0:0:0:0:
256,237,51320,1,2,3:2:0:0:
256,237,51527,6,0,L|256:301,2,45.4999979171754,8|0|0,1:0|1:0|0:0,0:0:0:0:
246,113,51941,2,0,P|243:62|144:49,1,136.499993751526,4|0,1:2|0:0,0:0:0:0:
132,59,52354,2,0,L|69:67,2,45.4999979171754,0|0|2,1:0|1:0|1:3,0:0:0:0:
150,156,52768,1,4,1:3:0:0:
150,156,52975,1,4,1:3:0:0:
85,233,53182,6,0,P|73:283|80:329,1,90.9999958343508,6|2,1:2|3:2,0:0:0:0:
182,333,53596,2,0,P|194:283|187:237,1,90.9999958343508,10|2,1:0|3:2,0:0:0:0:
246,172,54010,1,2,1:3:0:0:
246,172,54113,2,0,L|406:185,1,136.499993751526,2|8,0:0|1:0,0:0:0:0:
470,194,54630,1,2,3:0:0:0:
478,76,54837,6,0,L|354:71,1,90.9999958343508,2|2,1:2|3:2,0:0:0:0:
286,98,55251,2,0,L|162:93,1,90.9999958343508,10|2,1:0|3:2,0:0:0:0:
105,48,55665,2,0,P|145:108|138:207,1,136.499993751526,2|2,1:3|0:0,0:0:0:0:
149,170,56079,2,0,L|35:161,1,90.9999958343508,8|8,1:0|1:0,0:0:0:0:
27,270,56492,6,0,B|101:255|108:320|199:314,1,181.999991668702,6|10,1:2|1:0,0:0:0:0:
256,238,57113,1,2,3:2:0:0:
312,314,57320,2,0,B|404:320|411:255|485:270,1,181.999991668702,2|8,1:2|1:0,0:0:0:0:
491,179,57941,1,2,0:0:0:0:
454,97,58148,5,14,1:2:0:0:
464,351,58561,1,10,1:0:0:0:
189,380,58975,1,6,1:2:0:0:
108,134,59285,1,4,1:3:0:0:
108,134,59389,2,0,L|207:146,1,90.9999958343508,12|0,1:2|1:0,0:0:0:0:
278,82,59803,6,0,P|223:36|110:42,1,181.999991668702,6|10,1:2|1:0,0:0:0:0:
33,76,60423,1,2,3:2:0:0:
108,134,60630,1,2,1:2:0:0:
108,134,60734,2,0,P|114:186|103:272,1,136.499993751526,2|8,0:0|1:0,0:0:0:0:
89,361,61251,1,2,3:0:0:0:
182,319,61458,6,0,P|246:319|282:345,1,90.9999958343508,6|2,1:2|3:2,0:0:0:0:
356,264,61872,2,0,P|391:306|398:350,1,90.9999958343508,10|2,1:0|3:2,0:0:0:0:
272,335,62285,2,0,P|283:207|285:162,1,136.499993751526,2|2,1:2|0:0,0:0:0:0:
283,199,62699,2,0,L|289:77,1,90.9999958343508,8|8,1:0|1:0,0:0:0:0:
252,16,63113,6,0,P|331:38|429:30,1,181.999991668702,6|8,1:2|1:0,0:0:0:0:
499,113,63734,1,2,3:2:0:0:
460,212,63941,2,0,P|381:190|283:198,1,181.999991668702,6|8,1:2|1:0,0:0:0:0:
198,241,64561,1,0,1:0:0:0:
121,179,64768,6,0,L|120:117,2,45.4999979171754,2|8|2,1:2|1:0|1:2,0:0:0:0:
42,245,65182,2,0,B|20:314|65:337|17:391,2,136.499993751526,6|8|2,1:2|1:0|1:3,0:0:0:0:
28,150,66010,2,0,P|30:84|61:51,1,90.9999958343508,12|2,1:2|1:0,0:0:0:0:
34,40,66320,1,8,1:0:0:0:
34,40,66423,6,0,L|149:51,1,90.9999958343508,6|2,1:2|3:2,0:0:0:0:
231,27,66837,1,10,1:0:0:0:
205,129,67044,1,2,3:2:0:0:
289,177,67251,2,0,P|311:103|393:67,1,136.499993751526,2|2,1:2|0:0,0:0:0:0:
357,71,67665,2,0,L|477:86,1,90.9999958343508,8|2,1:0|3:0,0:0:0:0:
491,176,68079,5,2,1:2:0:0:
397,167,68285,1,2,3:2:0:0:
348,250,68492,2,0,L|355:340,1,90.9999958343508,10|2,1:0|3:2,0:0:0:0:
265,370,68906,1,2,1:0:0:0:
265,370,69010,2,0,L|252:191,1,136.499993751526,2|10,0:0|1:0,0:0:0:0:
271,141,69527,1,2,1:3:0:0:
171,154,69734,6,0,B|74:171|149:255|33:260,1,181.999991668702,6|10,1:2|1:0,0:0:0:0:
28,167,70354,1,2,3:2:0:0:
40,259,70561,2,0,B|137:276|62:360|178:365,1,181.999991668702,2|8,1:2|1:0,0:0:0:0:
222,286,71182,1,2,3:2:0:0:
307,332,71389,5,6,1:2:0:0:
479,156,71803,1,10,1:0:0:0:
205,52,72217,1,4,1:2:0:0:
361,35,72527,1,4,1:3:0:0:
361,35,72630,2,0,L|339:133,1,90.9999958343508,12|0,1:2|1:0,0:0:0:0:
300,240,73044,6,0,P|273:183|186:184,1,136.499993751526,6|0,1:2|0:0,0:0:0:0:
193,181,73458,2,0,L|91:184,1,90.9999958343508,10|2,1:0|0:0,0:0:0:0:
49,266,73872,1,2,1:2:0:0:
49,266,73975,2,0,L|191:262,1,136.499993751526,2|8,0:0|1:0,0:0:0:0:
261,330,74492,1,2,3:0:0:0:
289,231,74699,6,0,P|317:181|371:177,1,90.9999958343508,6|2,1:2|3:2,0:0:0:0:
422,242,75113,2,0,L|529:257,1,90.9999958343508,10|2,1:0|3:2,0:0:0:0:
506,146,75527,2,0,L|399:131,1,90.9999958343508,2|0,1:2|0:0,0:0:0:0:
345,74,75941,1,10,1:2:0:0:
301,155,76148,1,2,1:3:0:0:
210,168,76354,6,0,P|191:104|221:19,1,136.499993751526,6|0,1:2|0:0,0:0:0:0:
207,37,76768,2,0,L|83:45,1,90.9999958343508,10|2,1:0|3:2,0:0:0:0:
32,117,77182,2,0,P|79:134|83:236,1,136.499993751526,6|2,1:2|0:0,0:0:0:0:
98,211,77596,2,0,L|86:310,1,90.9999958343508,8|2,1:0|1:2,0:0:0:0:
178,335,78010,6,0,L|181:380,2,45.4999979171754,8|0|10,1:0|1:0|1:0,0:0:0:0:
229,237,78423,2,0,P|244:167|223:104,2,136.499993751526,12|8|2,1:2|1:0|1:3,0:0:0:0:
296,312,79251,2,0,L|398:318,1,90.9999958343508,12|0,1:2|1:0,0:0:0:0:
406,306,79561,1,0,1:0:0:0:
406,306,79665,1,6,1:2:0:0:
110,0,92906,6,0,P|70:29|110:119,2,140,6|10|2,1:2|1:2|0:0,0:0:0:0:
181,67,93941,1,0,0:0:0:0:
181,67,94148,2,0,L|271:74,1,70,8|2,1:0|3:0,0:0:0:0:
327,130,94561,6,0,P|367:159|327:249,2,140,6|10|2,1:2|1:2|0:0,0:0:0:0:
256,197,95596,1,0,0:0:0:0:
256,197,95803,2,0,L|166:204,1,70,8|2,1:0|1:0,0:0:0:0:
110,260,96216,6,0,P|70:289|110:379,2,140,6|10|2,1:2|1:2|0:0,0:0:0:0:
181,327,97251,1,0,0:0:0:0:
181,327,97458,2,0,L|271:334,1,70,8|2,1:0|3:3,0:0:0:0:
352,360,97872,6,0,P|348:310|397:229,1,140,6|10,1:2|1:2,0:0:0:0:
464,175,98492,1,2,3:2:0:0:
464,175,98699,2,0,P|418:146|394:142,1,70,6|0,1:2|0:0,0:0:0:0:
365,57,99113,2,0,P|320:75|277:79,1,70,6|0,1:2|1:0,0:0:0:0:
199,131,99527,6,0,L|101:116,1,70,6|0,1:2|1:0,0:0:0:0:
20,102,99941,2,0,L|63:186,1,70,6|2,1:2|1:3,0:0:0:0:
144,210,100354,2,0,L|242:225,1,70,6|0,1:0|1:0,0:0:0:0:
323,239,100768,2,0,L|280:155,1,70,6|2,1:2|1:3,0:0:0:0:
363,87,101182,6,0,L|439:64,1,70,6|0,1:2|1:0,0:0:0:0:
397,179,101596,2,0,L|473:175,1,70,6|2,1:2|1:3,0:0:0:0:
397,269,102010,2,0,L|473:273,1,70,6|0,1:2|1:0,0:0:0:0:
363,361,102423,2,0,L|439:384,1,70,6|2,1:2|1:3,0:0:0:0:
256,192,102837,12,6,106148,1:0:0:0:
172,108,107389,5,8,1:0:0:0:
102,190,107803,2,0,P|150:183|201:233,1,105.000004005432,2|8,1:2|1:0,0:0:0:0:
172,291,108423,2,0,L|351:272,1,157.500006008148,0|0,1:0|1:0,0:0:0:0:
427,197,109458,6,0,P|379:204|328:154,1,105.000004005432,0|8,1:0|1:0,0:0:0:0:
357,96,110078,2,0,L|178:115,1,157.500006008148,0|8,0:0|1:0,0:0:0:0:
75,98,111113,6,0,L|43:107,3,26.2500010013581,2|0|2|0,1:3|1:0|1:3|1:0,0:0:0:0:
69,144,111527,2,0,L|37:153,3,26.2500010013581,2|0|2|0,1:3|1:0|1:3|1:0,0:0:0:0:
63,190,111941,2,0,L|31:199,3,26.2500010013581,2|0|0|2,1:2|1:0|1:0|1:3,0:0:0:0:
57,236,112354,2,0,L|25:245,3,26.2500010013581,0|0|2|0,1:0|1:0|1:2|1:0,0:0:0:0:
102,253,112768,6,0,P|124:303|124:343,1,83.9999974365235,6|2,1:2|3:0,0:0:0:0:
223,367,113182,2,0,P|245:317|245:277,1,83.9999974365235,10|2,1:0|3:0,0:0:0:0:
223,202,113596,2,0,B|321:189|296:254|391:246,1,167.999994873047,2|8,1:2|1:2,0:0:0:0:
454,191,114217,1,2,3:0:0:0:
472,101,114423,5,2,1:2:0:0:
386,84,114630,1,2,3:0:0:0:
294,59,114837,2,0,B|203:52|248:123|131:107,1,167.999994873047,10|2,1:0|1:2,0:0:0:0:
62,56,115458,1,2,3:0:0:0:
62,56,115665,2,0,P|51:118|71:166,1,83.9999974365235,8|2,1:0|3:0,0:0:0:0:
44,236,116079,5,2,1:2:0:0:
136,201,116285,1,2,3:0:0:0:
153,296,116492,2,0,P|186:331|270:326,1,125.999996154785,10|0,1:2|0:0,0:0:0:0:
260,331,116906,2,0,L|347:341,1,83.9999974365235,2|2,1:2|3:0,0:0:0:0:
427,279,117320,1,8,1:0:0:0:
427,279,117527,1,2,3:0:0:0:
360,212,117734,6,0,L|304:208,2,41.9999987182618,2|8|0,1:2|1:0|0:0,0:0:0:0:
441,167,118148,2,0,P|438:118|392:46,1,125.999996154785,10|2,1:2|1:2,0:0:0:0:
399,52,118561,2,0,L|310:57,1,83.9999974365235,2|10,1:2|1:0,0:0:0:0:
242,110,118975,2,0,L|152:114,1,83.9999974365235,8|2,1:0|3:0,0:0:0:0:
118,132,119285,1,0,1:0:0:0:
118,132,119389,6,0,P|120:69|140:23,2,90.9999958343508,6|2|10,1:2|1:3|1:2,0:0:0:0:
25,81,120010,1,0,3:0:0:0:
39,188,120217,2,0,P|92:183|145:274,1,136.499993751526,6|2,1:2|0:0,0:0:0:0:
145,239,120630,2,0,L|132:357,1,90.9999958343508,8|2,1:0|3:0,0:0:0:0:
237,362,121044,5,6,1:2:0:0:
237,362,121251,1,2,1:3:0:0:
259,230,121458,1,14,1:2:0:0:
259,230,121665,1,2,3:0:0:0:
377,300,121872,2,0,P|436:266|425:191,1,136.499993751526,6|0,1:2|0:0,0:0:0:0:
434,203,122285,2,0,L|343:187,1,90.9999958343508,10|2,1:2|3:0,0:0:0:0:
258,130,122699,6,0,L|258:31,2,90.9999958343508,6|2|10,1:2|1:3|1:0,0:0:0:0:
173,86,123320,1,2,3:0:0:0:
207,208,123527,2,0,P|174:240|67:247,1,136.499993751526,6|2,1:2|0:0,0:0:0:0:
87,254,123941,2,0,P|56:176|59:129,1,90.9999958343508,8|2,1:0|3:0,0:0:0:0:
98,69,124354,5,6,1:2:0:0:
98,69,124561,1,2,1:3:0:0:
224,118,124768,1,14,1:2:0:0:
224,118,124975,1,2,3:0:0:0:
377,84,125182,2,0,P|436:118|425:193,1,136.499993751526,6|0,1:2|0:0,0:0:0:0:
434,180,125596,2,0,L|343:197,1,90.9999958343508,10|2,1:2|3:0,0:0:0:0:
260,282,126010,6,0,L|170:298,2,90.9999958343508,6|2|10,1:2|1:3|1:2,0:0:0:0:
257,173,126630,1,2,3:0:0:0:
263,286,126837,2,0,P|340:322|400:297,1,136.499993751526,4|2,1:2|0:0,0:0:0:0:
385,307,127251,2,0,L|409:208,1,90.9999958343508,8|2,1:0|3:0,0:0:0:0:
452,102,127665,5,6,1:2:0:0:
452,102,127872,1,2,1:3:0:0:
329,142,128079,1,10,1:2:0:0:
329,142,128285,1,2,3:0:0:0:
226,26,128492,2,0,L|70:48,1,136.499993751526,6|0,1:2|0:0,0:0:0:0:
70,48,128906,2,0,L|45:156,1,90.9999958343508,10|2,1:2|3:0,0:0:0:0:
113,220,129320,5,4,1:2:0:0:
113,220,129423,2,0,P|161:180|205:100,1,136.499993751526,10|12,1:0|1:2,0:0:0:0:
399,220,130148,1,4,1:2:0:0:
399,220,130251,2,0,P|351:180|307:100,1,136.499993751526,2|12,1:2|1:2,0:0:0:0:
257,57,130768,1,2,3:0:0:0:
256,171,130975,6,0,L|256:240,2,45.4999979171754,4|0|0,1:2|1:0|0:0,0:0:0:0:
257,57,131389,2,0,L|116:62,1,136.499993751526,12|0,1:2|0:0,0:0:0:0:
98,81,131803,2,0,L|40:84,2,45.4999979171754,0|0|0,1:2|1:0|1:0,0:0:0:0:
166,152,132217,2,0,L|173:268,1,90.9999958343508,4|4,1:3|1:3,0:0:0:0:
148,340,132630,5,6,1:2:0:0:
256,192,132734,12,0,135113,0:0:0:0:
256,192,135941,12,0,138423,0:0:0:0:
145,151,139251,6,0,P|162:112|197:91,1,83.9999974365235,0|2,1:0|0:3,0:0:0:0:
314,91,139665,2,0,P|349:112|366:151,1,83.9999974365235,0|2,1:0|0:3,0:0:0:0:
366,232,140079,2,0,P|349:271|314:292,1,83.9999974365235,0|2,1:0|0:3,0:0:0:0:
197,292,140493,2,0,P|162:271|145:232,1,83.9999974365235,0|2,1:0|0:3,0:0:0:0:
77,168,140906,6,0,P|127:131|220:174,1,167.999994873047,4|2,1:2|1:2,0:0:0:0:
256,243,141527,1,2,0:3:0:0:
295,168,141734,2,0,P|364:128|435:168,1,167.999994873047,6|2,1:2|1:2,0:0:0:0:
414,259,142354,1,2,0:3:0:0:
335,308,142561,6,0,L|327:353,1,41.9999987182618,4|2,1:2|1:3,0:0:0:0:
177,308,142872,2,0,L|185:353,2,41.9999987182618,0|0|2,1:0|1:3|1:3,0:0:0:0:
177,175,143285,2,0,L|184:133,2,41.9999987182618,0|0|2,1:0|1:0|1:3,0:0:0:0:
335,175,143699,2,0,L|327:133,1,41.9999987182618,0|2,1:0|1:3,0:0:0:0:
257,41,144010,1,2,0:3:0:0:
257,41,144113,1,0,0:0:0:0:
257,41,144217,6,0,L|256:221,3,167.999994873047,6|6|4|6,1:2|1:2|1:2|0:2,1:0:0:0:
78,345,145872,5,6,1:2:0:0:
59,256,146079,1,2,3:2:0:0:
151,239,146285,1,10,1:2:0:0:
177,331,146492,1,2,3:2:0:0:
251,262,146699,1,2,1:0:0:0:
256,192,146803,12,2,148354,1:2:0:0:
183,55,149182,5,6,1:2:0:0:
208,142,149389,1,2,3:2:0:0:
304,142,149596,1,10,1:2:0:0:
329,55,149803,1,2,3:2:0:0:
256,77,150010,1,2,1:0:0:0:
256,192,150113,12,6,151665,1:2:0:0:
42,200,152492,5,6,1:2:0:0:
139,186,152699,1,2,3:2:0:0:
155,278,152906,2,0,P|201:319|277:317,1,136.499993751526,10|0,1:0|0:0,0:0:0:0:
286,306,153320,2,0,L|388:321,1,90.9999958343508,0|2,1:0|3:0,0:0:0:0:
437,244,153734,2,0,L|335:229,1,90.9999958343508,8|2,1:0|3:0,0:0:0:0:
270,181,154148,6,0,B|266:94|357:115|343:1,1,181.999991668702,6|10,1:2|1:0,0:0:0:0:
250,22,154768,1,2,3:2:0:0:
250,22,154975,2,0,L|138:29,1,90.9999958343508,2|0,1:2|0:0,0:0:0:0:
60,8,155389,1,10,1:0:0:0:
91,100,155596,1,2,1:3:0:0:
52,182,155803,6,0,P|38:230|59:316,1,136.499993751526,4|0,1:2|0:0,0:0:0:0:
68,335,156217,2,0,P|121:319|182:334,1,90.9999958343508,10|2,1:0|3:2,0:0:0:0:
248,364,156630,2,0,P|234:316|255:230,1,136.499993751526,6|2,1:2|0:0,0:0:0:0:
264,211,157044,2,0,P|317:227|378:212,1,90.9999958343508,8|2,1:0|1:3,0:0:0:0:
440,262,157458,6,0,L|437:340,2,45.4999979171754,8|8|0,1:2|1:0|1:0,0:0:0:0:
428,160,157872,2,0,B|422:89|483:110|466:11,2,136.499993751526,12|8|2,1:2|1:0|1:2,0:0:0:0:
370,76,158699,2,0,P|324:58|265:73,1,90.9999958343508,12|2,1:2|1:2,0:0:0:0:
266,73,159010,1,0,1:0:0:0:
266,73,159113,6,0,L|132:56,1,90.9999958343508,6|2,1:2|3:2,0:0:0:0:
73,35,159527,2,0,L|97:155,1,90.9999958343508,10|2,1:0|3:2,0:0:0:0:
54,248,159941,2,0,P|89:180|195:204,1,181.999991668702,2|8,1:0|1:0,0:0:0:0:
228,264,160561,1,2,3:0:0:0:
290,201,160768,5,2,1:0:0:0:
318,288,160975,1,2,3:2:0:0:
382,217,161182,2,0,L|496:228,1,90.9999958343508,10|2,1:0|3:2,2:0:0:0:
500,133,161596,2,0,L|340:119,1,136.499993751526,2|0,1:0|0:0,0:0:0:0:
338,87,162010,2,0,L|224:76,1,90.9999958343508,10|2,1:0|1:3,0:0:0:0:
151,59,162423,5,6,1:2:0:0:
175,154,162630,1,2,3:2:0:0:
86,170,162837,1,10,1:0:0:0:
100,264,163044,1,2,3:2:0:0:
200,249,163251,1,2,1:2:0:0:
200,249,163354,2,0,L|355:264,1,136.499993751526,2|8,0:0|1:0,0:0:0:0:
411,322,163872,1,2,3:0:0:0:
475,255,164079,5,6,1:2:0:0:
254,55,164492,1,10,1:0:0:0:
37,255,164906,1,4,1:2:0:0:
38,132,165217,1,4,1:3:0:0:
38,132,165320,2,0,P|98:145|140:176,1,90.9999958343508,14|2,1:2|1:0,0:0:0:0:
186,244,165734,6,0,P|213:200|262:181,1,90.9999958343508,6|2,1:2|3:2,0:0:0:0:
308,108,166148,1,10,1:0:0:0:
361,198,166354,1,2,3:2:0:0:
457,203,166561,1,2,1:2:0:0:
457,203,166665,2,0,L|481:49,1,136.499993751526,2|8,0:0|1:2,0:0:0:0:
397,15,167182,1,2,3:0:0:0:
336,91,167389,6,0,P|292:118|144:110,1,181.999991668702,6|10,1:2|1:0,0:0:0:0:
86,213,168010,1,2,3:2:0:0:
195,265,168217,2,0,P|239:238|387:246,1,181.999991668702,2|10,1:0|1:0,0:0:0:0:
422,307,168837,1,2,1:3:0:0:
478,235,169044,6,0,P|498:163|513:117,1,90.9999958343508,6|2,1:2|3:2,0:0:0:0:
502,55,169458,2,0,L|396:53,1,90.9999958343508,10|2,1:0|3:2,0:0:0:0:
319,49,169872,2,0,L|343:192,1,136.499993751526,6|2,1:2|0:0,0:0:0:0:
341,183,170285,2,0,P|276:164|228:181,1,90.9999958343508,8|2,1:0|1:3,0:0:0:0:
203,255,170699,6,0,L|214:312,2,45.4999979171754,0|0|0,1:0|1:0|1:0,0:0:0:0:
116,184,171113,2,0,B|99:129|158:122|122:21,2,146.999995513916,12|8|2,1:2|1:0|1:3,0:0:0:0:
39,280,171941,2,0,P|83:308|154:294,1,97.9999970092774,14|2,1:2|1:0,0:0:0:0:
161,288,172251,1,2,1:0:0:0:
161,288,172354,6,0,L|279:299,1,90.9999958343508,6|2,1:2|3:2,0:0:0:0:
329,368,172768,1,10,1:0:0:0:
421,322,172975,1,2,3:2:0:0:
347,251,173182,1,2,1:0:0:0:
347,251,173285,2,0,L|365:85,1,136.499993751526,2|8,0:0|1:0,0:0:0:0:
439,36,173803,1,2,3:0:0:0:
482,135,174010,6,0,P|483:200|451:241,1,90.9999958343508,2|2,1:0|3:2,0:0:0:0:
361,115,174423,2,0,P|309:134|245:133,1,90.9999958343508,10|2,1:0|3:2,0:0:0:0:
200,49,174837,1,2,1:0:0:0:
200,49,174941,2,0,P|134:45|52:55,1,136.499993751526,2|10,0:0|1:0,0:0:0:0:
10,136,175458,1,2,1:3:0:0:
114,147,175665,5,6,1:2:0:0:
80,249,175872,1,2,3:2:0:0:
196,213,176079,2,0,P|243:245|256:296,1,90.9999958343508,10|2,1:0|3:2,0:0:0:0:
158,382,176492,2,0,L|177:282,1,90.9999958343508,2|2,1:0|3:0,0:0:0:0:
274,356,176906,2,0,B|357:329|333:374|425:371,1,136.499993751526,8|2,1:0|0:0,0:0:0:0:
451,352,177320,6,0,P|433:304|428:243,1,90.9999958343508,6|2,1:2|3:0,0:0:0:0:
364,175,177734,2,0,P|357:219|340:262,1,90.9999958343508,10|2,1:0|3:0,0:0:0:0:
273,181,178148,2,0,L|128:170,1,136.499993751526,6|4,1:2|3:0,0:0:0:0:
96,199,178561,1,14,1:2:0:0:
48,101,178768,1,2,0:0:0:0:
138,37,178975,6,0,L|252:47,1,90.9999958343508,6|2,1:2|3:2,0:0:0:0:
329,18,179389,1,10,1:0:0:0:
389,100,179596,1,2,3:2:0:0:
313,166,179803,1,2,1:0:0:0:
313,166,179906,2,0,P|300:213|297:307,1,136.499993751526,2|8,0:0|1:0,0:0:0:0:
380,348,180423,1,2,3:0:0:0:
405,260,180630,6,0,P|433:220|478:195,1,90.9999958343508,2|2,1:0|3:2,0:0:0:0:
296,300,181044,2,0,L|189:308,1,90.9999958343508,10|2,1:0|3:2,0:0:0:0:
109,361,181458,2,0,P|119:300|94:243,1,90.9999958343508,2|0,1:0|0:0,0:0:0:0:
29,187,181872,1,10,1:2:0:0:
29,187,182079,1,2,1:3:0:0:
141,179,182285,5,6,1:2:0:0:
80,88,182492,1,2,3:2:0:0:
174,33,182699,2,0,L|289:44,1,90.9999958343508,10|2,1:0|3:2,0:0:0:0:
236,135,183113,2,0,L|216:290,1,136.499993751526,6|2,1:2|0:0,0:0:0:0:
203,290,183527,2,0,L|321:276,1,90.9999958343508,8|2,1:0|1:3,0:0:0:0:
380,223,183941,6,0,L|443:215,2,45.4999979171754,8|8|0,1:0|1:0|1:0,0:0:0:0:
285,175,184354,2,0,B|235:162|219:200|130:172|131:162,2,136.499993751526,14|8|2,1:2|1:0|1:3,0:0:0:0:
268,68,185182,2,0,P|340:80|361:121,1,90.9999958343508,12|2,1:2|1:0,0:0:0:0:
454,70,185596,5,6,1:2:0:0:
417,161,185803,1,2,3:0:0:0:
438,258,186010,1,10,1:0:0:0:
349,220,186217,2,0,B|268:207|305:266|183:245,2,146.999995513916,2|2|8,3:0|0:0|1:0,0:0:0:0:
438,258,187044,1,2,3:0:0:0:
358,314,187251,6,0,P|301:336|257:330,1,97.9999970092774,2|2,1:2|3:0,0:0:0:0:
170,360,187665,2,0,P|186:298|182:219,1,97.9999970092774,10|2,1:2|3:0,0:0:0:0:
130,257,187975,1,2,0:0:0:0:
130,257,188079,2,0,L|113:60,1,195.999994018555,2|8,1:0|1:0,0:0:0:0:
195,10,188699,1,2,3:2:0:0:
216,102,188906,5,6,1:2:0:0:
308,62,189113,1,2,3:0:0:0:
371,139,189320,1,10,1:0:0:0:
284,173,189527,2,0,B|248:233|308:238|249:332,2,146.999995513916,2|2|8,3:0|0:0|1:0,0:0:0:0:
371,139,190354,1,2,3:0:0:0:
433,217,190561,5,6,1:2:0:0:
79,217,190975,1,10,1:0:0:0:
433,217,191389,1,6,1:2:0:0:
343,333,191699,1,4,1:3:0:0:
343,333,191803,2,0,P|285:346|243:342,1,97.9999970092774,14|2,1:2|1:0,0:0:0:0:
155,360,192217,5,6,1:2:0:0:
176,262,192423,1,2,3:0:0:0:
205,169,192630,1,10,1:0:0:0:
128,106,192837,2,0,P|66:119|39:200,2,146.999995513916,2|2|8,3:0|0:0|1:2,0:0:0:0:
205,169,193665,1,2,3:0:0:0:
238,76,193872,6,0,P|308:73|358:90,1,97.9999970092774,6|2,1:2|3:0,0:0:0:0:
446,153,194285,2,0,P|376:150|326:167,1,97.9999970092774,10|2,1:2|3:0,0:0:0:0:
277,240,194699,2,0,P|363:254|458:242,1,146.999995513916,2|2,1:0|0:0,0:0:0:0:
461,234,195113,2,0,L|442:355,1,97.9999970092774,8|2,1:0|1:2,0:0:0:0:
344,363,195527,5,6,1:2:0:0:
256,314,195734,1,2,3:0:0:0:
159,342,195941,1,10,1:0:0:0:
83,274,196148,2,0,B|47:209|101:188|50:124,2,146.999995513916,2|2|8,3:0|0:0|1:0,0:0:0:0:
181,228,196975,1,2,1:2:0:0:
240,316,197182,6,0,P|242:345|236:382,2,48.9999985046387,8|2|8,1:0|1:2|1:0,0:0:0:0:
298,224,197596,2,0,B|330:152|276:144|316:56,2,146.999995513916,14|10|2,1:2|1:0|1:3,0:0:0:0:
213,116,198423,2,0,P|217:40|239:5,1,97.9999970092774,12|2,1:2|1:0,0:0:0:0:
100,15,198837,5,6,1:2:0:0:
122,114,199044,1,2,3:2:0:0:
20,149,199251,1,10,1:0:0:0:
95,220,199458,2,0,P|108:279|62:354,2,146.999995513916,2|2|8,3:2|0:0|1:2,0:0:0:0:
200,184,200285,1,2,3:0:0:0:
200,184,200389,1,2,0:0:0:0:
200,184,200492,6,0,P|214:264|208:323,1,97.9999970092774,2|2,1:0|3:2,0:0:0:0:
304,158,200906,2,0,P|318:238|312:297,1,97.9999970092774,10|2,1:2|3:2,0:0:0:0:
312,301,201217,1,2,0:0:0:0:
312,301,201320,2,0,P|347:244|492:219,1,195.999994018555,2|8,1:0|1:2,0:0:0:0:
505,119,201941,1,2,1:3:0:0:
430,44,202148,5,6,1:2:0:0:
343,113,202354,1,2,3:2:0:0:
289,17,202561,1,10,1:0:0:0:
216,100,202768,2,0,B|147:128|149:71|56:104,2,146.999995513916,2|2|8,3:2|0:0|1:0,0:0:0:0:
276,199,203596,1,2,3:0:0:0:
276,199,203699,1,2,0:0:0:0:
276,199,203803,6,0,P|261:263|258:317,1,97.9999970092774,6|2,1:2|3:2,0:0:0:0:
158,374,204217,2,0,P|145:295|103:249,1,97.9999970092774,10|2,1:2|3:2,0:0:0:0:
20,257,204630,2,0,P|33:165|53:84,1,146.999995513916,6|4,1:2|1:3,0:0:0:0:
35,86,205044,2,0,P|88:95|152:94,1,97.9999970092774,14|2,1:2|1:0,0:0:0:0:
218,40,205458,5,6,1:2:0:0:
288,114,205665,1,2,3:2:0:0:
382,70,205872,1,10,1:0:0:0:
416,166,206079,2,0,P|401:221|408:315,2,146.999995513916,2|2|8,3:2|0:0|1:0,0:0:0:0:
479,76,206906,1,2,3:0:0:0:
479,76,207010,1,2,0:0:0:0:
479,76,207113,6,0,L|377:69,1,97.9999970092774,6|2,1:2|3:2,0:0:0:0:
267,34,207527,2,0,P|275:103|273:153,1,97.9999970092774,10|2,1:0|3:2,0:0:0:0:
258,235,207941,2,0,P|234:159|158:134,1,146.999995513916,2|2,1:0|0:0,0:0:0:0:
143,116,208354,2,0,P|80:124|38:119,1,97.9999970092774,8|2,1:0|1:0,0:0:0:0:
7,222,208768,5,6,1:2:0:0:
117,234,208975,1,2,3:2:0:0:
104,342,209182,1,10,1:0:0:0:
217,293,209389,1,2,3:2:0:0:
217,293,209492,1,2,0:0:0:0:
217,293,209596,2,0,P|291:300|419:331,1,195.999994018555,6|8,1:2|1:0,0:0:0:0:
501,275,210217,1,2,1:0:0:0:
464,182,210423,6,0,L|465:120,2,48.9999985046387,8|2|8,1:0|1:0|1:0,0:0:0:0:
363,179,210837,2,0,P|357:119|336:31,2,146.999995513916,14|10|2,1:2|1:0|1:3,0:0:0:0:
264,116,211665,2,0,P|213:117|170:134,1,97.9999970092774,14|2,1:2|1:0,0:0:0:0:
134,177,211975,1,2,1:0:0:0:
134,177,212079,1,4,1:2:0:0:
