osu file format v14

[General]
AudioFilename: audio.mp3
AudioLeadIn: 0
PreviewTime: 53130
Countdown: 0
SampleSet: Soft
StackLeniency: 0.7
Mode: 0
LetterboxInBreaks: 0
WidescreenStoryboard: 1

[Editor]
Bookmarks: 13458,26699,39941,53182,79665,92906,104492,106148,112768,119389,132630,145872,172354,198837,212079,225217
DistanceSpacing: 0.8
BeatDivisor: 4
GridSize: 4
TimelineZoom: 2.1

[Metadata]
Title:Segments Blue
TitleUnicode:Segments Blue
Artist:seleP
ArtistUnicode:seleP
Creator:Okoratu
Version:Hyper
Source:
Tags:osu! featured artist fa electronic japanese Okorin hamburger CUL Vocaloid もぐ
BeatmapID:2945145
BeatmapSetID:1406043

[Difficulty]
HPDrainRate:5
CircleSize:4
OverallDifficulty:6.5
ApproachRate:8.5
SliderMultiplier:1.6
SliderTickRate:2

[Events]
//Background and Video events
0,0,"burger2.jpg",0,0
//Break Periods
2,79865,92231
//Storyboard Layer 0 (Background)
//Storyboard Layer 1 (Fail)
//Storyboard Layer 2 (Pass)
//Storyboard Layer 3 (Foreground)
//Storyboard Layer 4 (Overlay)
//Storyboard Sound Samples

[TimingPoints]
217,413.793103448276,4,2,2,10,1,0
217,-166.666666666667,4,2,2,10,0,0
1872,-166.666666666667,4,2,2,15,0,0
3527,-125,4,2,2,25,0,0
6837,-111.111111111111,4,2,2,50,0,0
11803,-111.111111111111,4,2,1,60,0,0
13458,-100,4,2,1,80,0,0
26699,-83.3333333333333,4,2,1,80,0,0
39941,-76.9230769230769,4,2,1,80,0,0
53182,-76.9230769230769,4,2,1,90,0,1
56130,-76.9230769230769,4,2,2,90,0,1
56234,-76.9230769230769,4,2,1,90,0,1
56337,-76.9230769230769,4,2,2,90,0,1
56441,-76.9230769230769,4,2,1,90,0,1
62958,-76.9230769230769,4,2,2,90,0,1
63062,-76.9230769230769,4,2,1,90,0,1
65182,-71.4285714285714,4,2,1,90,0,1
66423,-76.9230769230769,4,2,1,90,0,1
69579,-76.9230769230769,4,2,2,90,0,1
69683,-76.9230769230769,4,2,1,90,0,1
76199,-76.9230769230769,4,2,2,90,0,1
76303,-76.9230769230769,4,2,1,90,0,1
78423,-71.4285714285714,4,2,1,90,0,1
79665,-100,4,2,1,90,0,0
92906,-100,4,2,1,70,0,0
106148,-133.333333333333,4,2,1,70,0,1
106251,-133.333333333333,4,2,1,70,0,0
112768,-83.3333333333333,4,2,1,80,0,0
119389,-76.9230769230769,4,2,1,80,0,0
132630,-100,4,2,1,70,0,1
132734,-100,4,2,1,70,0,0
139148,-71.4285714285714,4,2,1,90,0,0
145872,-66.6666666666667,4,2,1,90,0,1
149027,-66.6666666666667,4,2,2,90,0,1
149130,-66.6666666666667,4,2,1,90,0,1
155648,-66.6666666666667,4,2,2,90,0,1
155751,-66.6666666666667,4,2,1,90,0,1
159113,-64.5161290322581,4,2,1,90,0,1
162268,-64.5161290322581,4,2,2,90,0,1
162372,-64.5161290322581,4,2,1,90,0,1
168889,-64.5161290322581,4,2,2,90,0,1
168992,-64.5161290322581,4,2,1,90,0,1
171113,-58.8235294117647,4,2,1,90,0,1
172251,-100,4,2,1,90,0,0
172354,-64.5161290322581,4,2,1,90,0,1
175510,-64.5161290322581,4,2,2,90,0,1
175613,-64.5161290322581,4,2,1,90,0,1
182130,-64.5161290322581,4,2,2,90,0,1
182234,-64.5161290322581,4,2,1,90,0,1
185596,-62.5,4,2,1,90,0,1
198734,-100,4,2,1,90,0,0
198837,-62.5,4,2,1,90,0,1
212079,-100,4,2,1,90,0,0

[Colours]
Combo1 : 17,254,176
Combo2 : 173,255,95
Combo3 : 255,88,100
Combo4 : 255,94,55

[HitObjects]
66,95,217,6,0,L|70:146,1,47.9999985351563,2|0,0:0|0:0,0:0:0:0:
78,225,630,1,0,0:0:0:0:
78,225,837,1,0,0:0:0:0:
160,212,1044,1,2,0:0:0:0:
160,212,1148,2,0,L|230:202,1,47.9999985351563,2|2,0:0|0:0,0:0:0:0:
306,170,1561,2,0,L|311:135,2,23.9999992675781,2|0|0,0:0|0:0|0:0,0:0:0:0:
350,227,1872,6,0,L|341:285,1,47.9999985351563,2|0,0:0|0:0,0:0:0:0:
423,286,2285,2,0,L|430:238,1,47.9999985351563
463,161,2699,1,2,0:0:0:0:
463,161,2803,1,2,0:0:0:0:
383,149,3010,1,2,0:0:0:0:
373,62,3217,2,0,L|378:34,2,23.9999992675781
299,82,3527,6,0,P|250:78|229:80,1,64,2|0,0:0|0:0,0:0:0:0:
147,44,3941,2,0,L|156:118,1,64
170,206,4354,1,2,0:0:0:0:
170,206,4458,1,2,0:0:0:0:
50,231,4665,1,2,0:0:0:0:
37,114,4872,1,2,0:0:0:0:
37,114,4975,1,0,0:0:0:0:
37,114,5079,1,0,0:0:0:0:
37,114,5182,6,0,L|116:104,1,64,2|2,0:0|0:0,0:0:0:0:
175,47,5596,1,2,0:0:0:0:
204,134,5803,1,2,0:0:0:0:
279,69,6010,1,2,0:0:0:0:
279,69,6113,2,0,L|358:59,1,64,2|2,0:0|0:0,0:0:0:0:
381,155,6527,1,2,0:0:0:0:
381,155,6630,1,0,0:0:0:0:
381,155,6734,1,2,0:0:0:0:
381,155,6837,6,0,P|409:205|412:241,1,71.9999978027344,2|0,0:0|0:0,0:0:0:0:
283,211,7251,2,0,P|281:268|265:300,1,71.9999978027344,2|0,0:0|0:0,0:0:0:0:
153,304,7665,1,2,0:0:0:0:
153,304,7768,2,0,L|166:210,1,71.9999978027344,2|2,0:0|0:0,0:0:0:0:
168,199,8079,1,2,0:0:0:0:
183,106,8285,1,2,0:0:0:0:
86,46,8492,6,0,L|1:62,1,71.9999978027344,2|0,0:0|0:0,0:0:0:0:
76,160,8906,2,0,L|-9:176,1,71.9999978027344,2|0,0:0|0:0,0:0:0:0:
61,272,9320,1,2,0:0:0:0:
61,272,9423,2,0,L|171:248,1,107.999996704102,2|0,0:0|0:0,0:0:0:0:
262,366,9941,1,0,0:0:0:0:
262,366,10148,6,0,L|278:273,1,71.9999978027344,2|0,0:0|0:0,0:0:0:0:
292,186,10561,1,2,0:0:0:0:
410,205,10768,1,0,0:0:0:0:
370,49,10975,1,2,0:0:0:0:
370,49,11079,1,2,0:0:0:0:
355,135,11285,1,2,0:0:0:0:
474,137,11492,1,2,0:0:0:0:
474,137,11596,1,0,0:0:0:0:
474,137,11699,1,2,0:0:0:0:
474,137,11803,6,0,P|474:217|441:305,1,143.999995605469,6|2,0:0|3:0,0:0:0:0:
120,319,12630,2,0,L|170:315,1,35.9999989013672,2|2,0:0|0:0,0:0:0:0:
250,306,12941,1,2,0:0:0:0:
259,195,13148,1,2,0:0:0:0:
259,195,13251,1,2,0:0:0:0:
259,195,13354,1,0,0:0:0:0:
259,195,13458,6,0,P|194:176|139:185,1,120,6|0,1:2|0:0,0:0:0:0:
120,209,13872,2,0,L|29:214,1,80,8|2,1:0|3:0,0:0:0:0:
35,342,14285,1,2,1:2:0:0:
35,342,14389,2,0,L|180:334,1,120,2|8,0:0|1:0,0:0:0:0:
268,345,14906,1,2,3:0:0:0:
268,345,15010,1,2,0:0:0:0:
268,345,15113,6,0,L|255:248,1,80,2|2,1:2|3:0,0:0:0:0:
289,168,15527,1,8,1:0:0:0:
272,58,15734,1,2,3:0:0:0:
372,103,15941,1,2,1:2:0:0:
372,103,16044,2,0,L|388:208,1,80,2|2,0:0|0:0,0:0:0:0:
408,203,16354,2,0,L|423:299,1,80,8|2,1:0|1:2,0:0:0:0:
506,125,16768,6,0,P|476:86|404:91,1,120,6|0,1:2|0:0,0:0:0:0:
372,103,17182,2,0,L|263:111,1,80,10|2,1:2|3:3,0:0:0:0:
189,117,17596,1,2,1:2:0:0:
189,117,17699,1,2,0:0:0:0:
68,127,17906,1,2,0:0:0:0:
68,127,18010,1,10,1:2:0:0:
149,25,18217,1,2,3:0:0:0:
149,25,18320,1,2,0:0:0:0:
149,25,18423,6,0,L|140:116,1,80,6|2,1:2|3:0,0:0:0:0:
75,206,18837,2,0,L|66:115,1,80,8|2,1:0|3:0,0:0:0:0:
123,290,19251,1,6,1:2:0:0:
398,214,19561,1,2,1:2:0:0:
398,214,19665,1,8,1:0:0:0:
319,130,19872,1,8,1:0:0:0:
319,130,19975,1,8,1:0:0:0:
319,130,20079,6,0,P|296:182|287:247,1,120,6|0,1:2|0:0,0:0:0:0:
275,287,20492,2,0,L|374:288,1,80,10|2,1:0|3:0,0:0:0:0:
475,314,20906,1,2,1:2:0:0:
475,314,21010,2,0,P|464:252|473:189,1,120,2|8,0:0|1:0,0:0:0:0:
482,101,21527,1,2,3:0:0:0:
482,101,21630,1,2,0:0:0:0:
482,101,21734,6,0,L|394:107,1,80,6|2,1:2|3:0,0:0:0:0:
335,28,22148,2,0,L|247:34,1,80,10|2,1:0|3:0,0:0:0:0:
136,42,22561,1,2,1:2:0:0:
136,42,22665,1,2,0:0:0:0:
180,144,22872,1,2,0:0:0:0:
180,144,22975,1,8,1:0:0:0:
70,174,23182,1,2,1:2:0:0:
34,65,23389,6,0,P|68:121|68:186,1,120,6|0,1:2|0:0,0:0:0:0:
111,194,23803,2,0,L|95:285,1,80,10|2,1:0|3:0,0:0:0:0:
9,348,24217,2,0,P|74:345|131:376,1,120,6|2,1:2|0:0,0:0:0:0:
162,371,24630,1,8,1:0:0:0:
263,323,24837,5,2,1:2:0:0:
280,325,24941,1,0,1:0:0:0:
297,327,25044,1,6,1:2:0:0:
314,329,25148,1,0,1:0:0:0:
332,331,25251,1,2,1:2:0:0:
410,261,25458,2,0,B|432:299|438:341|438:341|416:377,2,120,12|8|8,1:0|1:0|1:0,0:0:0:0:
481,157,26285,1,12,1:0:0:0:
374,169,26492,1,8,1:0:0:0:
374,169,26596,1,8,1:0:0:0:
374,169,26699,6,0,P|302:160|279:161,1,95.9999970703126,6|2,1:2|3:0,0:0:0:0:
176,149,27113,1,10,1:2:0:0:
177,250,27320,1,2,3:0:0:0:
67,241,27527,1,2,1:2:0:0:
67,241,27630,2,0,P|75:180|72:117,1,95.9999970703126,2|2,0:0|0:0,0:0:0:0:
51,124,27941,2,0,L|55:14,1,95.9999970703126,8|2,1:2|3:0,0:0:0:0:
165,26,28354,5,2,1:2:0:0:
251,100,28561,1,2,3:0:0:0:
347,40,28768,1,10,1:2:0:0:
383,145,28975,1,2,3:0:0:0:
383,145,29079,1,0,3:0:0:0:
383,145,29182,2,0,P|378:217|378:298,1,143.999995605469,2|2,1:2|0:0,0:0:0:0:
358,328,29596,2,0,P|432:309|466:313,1,95.9999970703126,8|2,1:0|3:0,0:0:0:0:
500,214,30010,5,2,1:2:0:0:
482,109,30217,1,2,3:0:0:0:
387,48,30423,2,0,L|256:67,1,95.9999970703126,10|2,1:2|3:0,0:0:0:0:
161,26,30837,1,0,1:0:0:0:
161,26,30941,2,0,P|90:40|39:30,1,95.9999970703126,2|2,0:0|0:0,0:0:0:0:
31,30,31251,1,8,1:0:0:0:
55,138,31458,5,2,3:0:0:0:
55,138,31561,1,2,0:0:0:0:
55,138,31665,1,2,1:2:0:0:
72,238,31872,1,2,3:0:0:0:
151,146,32079,1,10,1:0:0:0:
168,246,32286,1,2,3:0:0:0:
251,154,32492,2,0,P|324:149|372:167,1,95.9999970703126,2|2,1:2|3:0,0:0:0:0:
465,123,32906,2,0,L|452:224,1,95.9999970703126,8|2,1:0|3:0,0:0:0:0:
486,288,33217,1,2,1:3:0:0:
486,288,33320,6,0,P|417:263|366:267,1,95.9999970703126,6|2,1:2|3:0,0:0:0:0:
273,271,33734,1,10,1:2:0:0:
190,361,33941,1,2,3:0:0:0:
159,243,34148,1,2,1:2:0:0:
159,243,34251,2,0,L|173:141,1,95.9999970703126,2|2,0:0|0:0,0:0:0:0:
181,115,34561,2,0,L|51:106,1,95.9999970703126,8|2,1:2|3:0,0:0:0:0:
56,16,34975,5,2,1:2:0:0:
164,25,35182,1,2,3:0:0:0:
271,35,35389,1,10,1:2:0:0:
263,146,35596,1,2,3:0:0:0:
263,146,35699,1,2,0:0:0:0:
263,146,35803,1,0,1:0:0:0:
381,45,36010,2,0,L|431:48,2,47.9999985351563,2|0|8,3:2|0:0|1:0,0:0:0:0:
372,157,36423,1,2,3:2:0:0:
372,157,36630,6,0,P|359:218|353:305,1,143.999995605469,2|0,1:2|0:0,0:0:0:0:
360,332,37044,2,0,P|309:308|272:324,1,95.9999970703126,10|2,1:2|3:0,0:0:0:0:
186,358,37458,1,2,1:2:0:0:
186,358,37561,1,2,0:0:0:0:
204,235,37768,1,2,0:0:0:0:
204,235,37872,2,0,L|221:131,1,95.9999970703126,8|2,1:0|3:0,0:0:0:0:
176,73,38182,6,0,L|187:10,1,47.9999985351563,10|0,1:0|1:0,0:0:0:0:
102,37,38389,1,10,1:0:0:0:
102,37,38492,1,0,0:0:0:0:
41,155,38699,2,0,L|153:148,1,95.9999970703126,10|2,1:0|3:0,0:0:0:0:
176,174,39010,1,2,1:0:0:0:
176,174,39113,1,2,1:0:0:0:
270,95,39320,1,10,1:0:0:0:
335,196,39527,1,8,1:0:0:0:
241,275,39734,1,2,1:3:0:0:
241,275,39837,1,0,1:0:0:0:
241,275,39941,6,0,L|122:265,1,103.999995239258,6|2,1:0|1:3,0:0:0:0:
343,185,40354,2,0,L|450:175,1,103.999995239258,10|2,1:0|3:0,0:0:0:0:
458,138,40665,1,2,0:0:0:0:
458,138,40768,2,0,L|435:25,1,103.999995239258,6|0,1:0|0:0,0:0:0:0:
303,14,41182,1,8,1:2:0:0:
254,188,41389,5,2,3:0:0:0:
254,188,41492,1,2,0:0:0:0:
254,188,41596,1,6,1:2:0:0:
277,85,41803,1,2,3:0:0:0:
225,290,42010,1,14,1:2:0:0:
168,107,42217,1,2,3:0:0:0:
254,188,42423,1,6,1:2:0:0:
254,188,42526,1,10,1:0:0:0:
254,188,42630,1,2,0:0:0:0:
334,249,42837,2,0,L|322:309,3,51.999997619629,8|2|2|2,1:0|0:0|0:0|0:0,0:0:0:0:
349,347,43251,6,0,B|311:329|311:329|233:342,1,103.999995239258,6|2,1:2|3:0,0:0:0:0:
145,357,43665,1,10,1:0:0:0:
47,244,43872,1,2,3:0:0:0:
47,244,43975,1,0,0:0:0:0:
47,244,44079,2,0,L|32:365,2,103.999995239258,2|0|8,1:2|0:0|1:2,0:0:0:0:
84,62,44699,5,0,0:0:0:0:
84,62,44803,1,2,0:0:0:0:
84,62,44906,1,6,1:2:0:0:
194,116,45113,1,2,3:0:0:0:
255,23,45320,1,6,1:2:0:0:
318,116,45527,1,2,3:0:0:0:
428,62,45734,1,6,1:2:0:0:
428,62,45837,2,0,L|409:175,1,103.999995239258,10|0,1:0|0:0,0:0:0:0:
393,204,46148,2,0,L|381:264,3,51.999997619629,8|2|2|10,1:0|0:0|3:0|1:0,0:0:0:0:
426,336,46561,6,0,L|283:324,1,103.999995239258,6|2,1:2|3:0,0:0:0:0:
154,210,46975,2,0,L|297:198,1,103.999995239258,10|2,1:0|3:0,0:0:0:0:
257,201,47285,1,0,0:0:0:0:
257,201,47389,1,6,1:2:0:0:
209,115,47596,1,0,0:0:0:0:
56,217,47803,2,0,L|79:108,1,103.999995239258,8|2,1:2|3:0,0:0:0:0:
106,86,48113,1,2,0:0:0:0:
106,86,48217,5,6,1:2:0:0:
228,101,48423,1,2,3:0:0:0:
406,13,48630,1,10,1:0:0:0:
328,89,48837,1,2,3:0:0:0:
328,89,48941,1,0,0:0:0:0:
328,89,49044,2,0,L|342:217,1,103.999995239258,6|0,1:2|0:0,0:0:0:0:
272,356,49458,2,0,P|282:314|309:291,3,51.999997619629,8|2|2|2,1:0|0:0|3:0|0:0,0:0:0:0:
353,354,49872,5,4,1:0:0:0:
353,354,49975,2,0,P|417:333|522:333,1,155.999992858887,8|12,1:0|1:2,0:0:0:0:
349,220,50492,1,2,3:0:0:0:
165,328,50699,1,4,1:2:0:0:
165,328,50802,2,0,P|101:349|-4:349,1,155.999992858887,10|12,1:0|1:2,0:0:0:0:
18,242,51320,5,2,3:2:0:0:
18,242,51423,2,0,L|96:250,1,51.999997619629,2|8,1:0|1:0,0:0:0:0:
118,180,51630,2,0,L|245:191,1,103.999995239258,0|0,1:0|0:0,0:0:0:0:
256,258,51941,2,0,L|455:276,1,155.999992858887,4|0,1:2|0:0,0:0:0:0:
494,204,52354,1,0,1:0:0:0:
494,204,52458,1,0,1:0:0:0:
494,204,52561,1,2,1:3:0:0:
494,204,52665,1,0,1:0:0:0:
494,204,52768,2,0,L|385:194,1,103.999995239258,4|4,1:3|1:3,0:0:0:0:
208,77,53182,5,6,1:2:0:0:
306,172,53389,1,2,3:2:0:0:
436,79,53596,1,10,1:0:0:0:
288,48,53803,1,2,3:2:0:0:
219,200,54010,1,2,1:3:0:0:
219,200,54113,1,2,0:0:0:0:
93,56,54320,1,2,0:0:0:0:
93,56,54423,1,8,1:0:0:0:
57,216,54630,1,2,3:0:0:0:
109,357,54837,6,0,P|131:282|165:231,1,103.999995239258,2|2,1:2|3:2,0:0:0:0:
221,278,55148,1,0,0:0:0:0:
221,278,55251,2,0,L|342:293,1,103.999995239258,10|2,1:0|3:2,0:0:0:0:
471,206,55665,1,2,1:3:0:0:
471,206,55768,2,0,L|354:191,1,103.999995239258,2|2,0:0|0:0,0:0:0:0:
293,180,56079,1,8,1:0:0:0:
405,53,56285,1,8,1:0:0:0:
405,53,56389,1,2,0:1:0:0:
405,53,56492,6,0,P|371:88|300:78,1,103.999995239258,6|2,1:2|3:2,0:0:0:0:
162,34,56906,1,10,1:0:0:0:
261,196,57113,1,2,3:2:0:0:
71,167,57320,1,2,1:2:0:0:
71,167,57423,2,0,P|149:201|150:242,1,103.999995239258,2|2,0:0|0:0,0:0:0:0:
160,218,57734,2,0,L|137:331,1,103.999995239258,8|2,1:0|0:0,0:0:0:0:
246,366,58148,6,0,P|265:263|268:184,1,155.999992858887,14|0,1:2|0:0,0:0:0:0:
262,183,58561,2,0,P|327:192|353:234,1,103.999995239258,10|2,1:0|0:0,0:0:0:0:
449,30,58975,2,0,P|386:60|383:116,1,103.999995239258,6|2,1:2|3:0,0:0:0:0:
405,164,59285,1,4,1:3:0:0:
405,164,59389,1,12,1:2:0:0:
308,35,59596,1,0,1:0:0:0:
301,54,59699,1,8,1:0:0:0:
292,72,59803,6,0,P|229:89|159:92,1,103.999995239258,6|2,1:2|3:2,0:0:0:0:
38,81,60217,1,10,1:0:0:0:
97,193,60423,1,2,3:2:0:0:
38,346,60630,1,2,1:2:0:0:
38,346,60734,2,0,L|142:332,1,103.999995239258,2|2,0:0|0:0,0:0:0:0:
138,299,61044,2,0,L|277:313,1,103.999995239258,8|2,1:0|3:0,0:0:0:0:
358,318,61458,5,6,1:2:0:0:
300,202,61665,1,2,3:2:0:0:
355,84,61872,1,10,1:0:0:0:
487,62,62079,1,2,3:2:0:0:
415,186,62285,1,2,1:2:0:0:
415,186,62389,1,2,0:0:0:0:
250,78,62596,1,2,0:0:0:0:
250,78,62699,2,0,L|180:88,1,51.999997619629,8|2,1:0|0:0,0:0:0:0:
122,97,62906,1,8,1:0:0:0:
114,283,63113,6,0,P|125:186|212:164,1,155.999992858887,6|0,1:2|0:0,0:0:0:0:
207,192,63527,2,0,L|342:225,1,103.999995239258,8|2,1:0|3:2,0:0:0:0:
424,20,63941,2,0,P|413:117|326:139,1,155.999992858887,6|2,1:2|0:0,0:0:0:0:
327,136,64354,1,8,1:0:0:0:
251,48,64561,5,0,1:0:0:0:
226,54,64665,1,8,1:0:0:0:
201,60,64768,1,2,1:2:0:0:
176,66,64872,1,8,1:0:0:0:
151,72,64975,1,2,1:2:0:0:
46,183,65182,2,0,B|133:170|127:223|241:211,2,167.999994873047,6|8|2,1:2|1:0|1:3,0:0:0:0:
199,135,66010,1,12,1:2:0:0:
83,262,66217,1,2,1:0:0:0:
83,262,66320,1,8,1:0:0:0:
83,262,66423,5,6,1:2:0:0:
206,314,66630,1,2,3:2:0:0:
318,226,66837,1,10,1:0:0:0:
183,173,67044,1,2,3:2:0:0:
183,173,67148,1,0,0:0:0:0:
183,173,67251,2,0,P|193:106|203:36,1,103.999995239258,2|2,1:2|3:0,0:0:0:0:
346,0,67665,2,0,P|352:60|363:119,1,103.999995239258,8|2,1:0|3:0,0:0:0:0:
359,103,67975,1,2,0:0:0:0:
359,103,68079,5,2,1:2:0:0:
278,174,68285,1,2,3:2:0:0:
468,138,68492,1,10,1:0:0:0:
305,274,68699,1,2,3:2:0:0:
487,246,68906,1,2,1:0:0:0:
487,246,69010,1,2,0:0:0:0:
393,311,69217,1,2,0:0:0:0:
393,311,69320,1,10,1:0:0:0:
363,189,69527,1,2,1:3:0:0:
363,189,69630,1,2,0:1:0:0:
363,189,69734,6,0,P|285:195|237:214,1,103.999995239258,6|2,1:2|3:2,0:0:0:0:
239,241,70044,1,0,0:0:0:0:
239,241,70148,2,0,L|217:90,1,103.999995239258,10|2,1:0|3:2,0:0:0:0:
75,49,70561,1,2,1:2:0:0:
75,49,70665,2,0,L|97:200,1,103.999995239258,2|2,0:0|0:0,0:0:0:0:
110,177,70975,2,0,P|87:235|85:300,1,103.999995239258,8|2,1:0|3:2,0:0:0:0:
191,371,71389,5,6,1:2:0:0:
265,265,71596,1,2,3:2:0:0:
265,265,71699,1,0,0:0:0:0:
265,265,71803,1,10,1:0:0:0:
388,330,72010,1,2,0:0:0:0:
325,135,72217,1,4,1:2:0:0:
325,135,72320,1,0,0:0:0:0:
265,265,72527,1,4,1:3:0:0:
265,265,72631,1,12,1:2:0:0:
453,207,72837,1,0,1:0:0:0:
453,207,72941,1,8,1:0:0:0:
453,207,73044,6,0,L|311:200,1,103.999995239258,6|2,1:2|3:2,0:0:0:0:
298,59,73458,2,0,L|156:52,1,103.999995239258,10|2,1:0|0:0,0:0:0:0:
57,115,73872,1,2,1:2:0:0:
57,115,73975,2,0,P|126:154|123:208,1,103.999995239258,2|2,0:0|0:0,0:0:0:0:
114,223,74285,1,8,1:0:0:0:
58,334,74492,1,2,3:0:0:0:
58,334,74596,1,2,0:0:0:0:
58,334,74699,5,6,1:2:0:0:
215,237,74906,1,2,3:2:0:0:
249,341,75113,2,0,P|323:351|355:360,1,103.999995239258,10|2,1:0|3:2,0:0:0:0:
116,268,75527,2,0,P|42:258|10:249,1,103.999995239258,2|0,1:2|0:0,0:0:0:0:
60,72,75941,1,10,1:2:0:0:
70,83,76044,1,2,0:0:0:0:
80,94,76148,1,2,1:3:0:0:
89,104,76251,1,2,0:1:0:0:
99,115,76354,6,0,P|191:108|261:118,1,155.999992858887,6|0,1:2|0:0,0:0:0:0:
283,104,76768,2,0,L|247:215,1,103.999995239258,10|2,1:0|3:2,0:0:0:0:
313,332,77182,2,0,L|374:146,1,155.999992858887,6|2,1:2|0:0,0:0:0:0:
393,157,77596,1,8,1:0:0:0:
476,37,77803,5,2,1:2:0:0:
451,43,77907,1,2,1:0:0:0:
426,49,78010,1,8,1:0:0:0:
401,55,78114,1,0,1:0:0:0:
376,61,78217,1,10,1:0:0:0:
242,20,78423,2,0,P|282:79|251:181,2,167.999994873047,12|8|2,1:2|1:0|1:3,0:0:0:0:
348,192,79251,1,12,1:2:0:0:
192,108,79458,1,0,1:0:0:0:
192,108,79561,1,0,1:0:0:0:
192,108,79665,1,6,1:2:0:0:
38,131,92906,6,0,P|69:99|148:106,1,120,6|0,1:2|0:0,0:0:0:0:
158,136,93320,2,0,L|261:153,1,80,10|2,1:2|3:2,0:0:0:0:
359,119,93734,1,2,0:0:0:0:
359,119,93941,1,0,0:0:0:0:
346,243,94148,1,8,1:0:0:0:
346,243,94355,1,2,3:0:0:0:
466,238,94561,6,0,P|435:206|356:213,1,120,6|0,1:2|0:0,0:0:0:0:
346,243,94975,2,0,L|243:260,1,80,10|2,1:2|3:2,0:0:0:0:
145,226,95389,1,2,0:0:0:0:
145,226,95596,1,0,0:0:0:0:
158,350,95803,1,8,1:0:0:0:
38,345,96010,1,2,1:0:0:0:
38,345,96113,1,2,0:0:0:0:
38,345,96217,6,0,P|69:313|148:320,1,120,6|0,1:2|0:0,0:0:0:0:
158,350,96631,2,0,L|261:367,1,80,10|2,1:2|3:2,0:0:0:0:
357,346,97044,1,2,0:0:0:0:
357,346,97251,1,0,0:0:0:0:
256,243,97458,1,8,1:0:0:0:
372,189,97665,1,2,3:3:0:0:
372,189,97768,1,2,0:0:0:0:
372,189,97872,6,0,P|389:108|389:108,1,80,6|2,1:2|3:0,0:0:0:0:
411,24,98285,1,10,1:2:0:0:
300,51,98492,1,2,3:2:0:0:
271,163,98699,1,6,1:2:0:0:
271,163,98803,1,2,0:0:0:0:
235,284,99010,1,2,0:0:0:0:
235,284,99113,1,6,1:2:0:0:
156,181,99320,1,0,1:0:0:0:
156,181,99423,1,0,1:0:0:0:
156,181,99527,6,0,L|46:148,1,80,6|0,1:2|1:0,0:0:0:0:
205,106,99941,2,0,L|143:19,1,80,6|2,1:2|1:3,0:0:0:0:
315,94,100354,2,0,L|345:11,1,80,6|0,1:0|1:0,0:0:0:0:
423,169,100768,2,0,L|526:138,1,80,6|2,1:2|1:3,0:0:0:0:
471,272,101182,5,6,1:2:0:0:
386,260,101389,1,0,1:0:0:0:
256,197,101596,1,6,1:2:0:0:
337,178,101803,1,2,1:3:0:0:
41,272,102010,5,6,1:2:0:0:
126,260,102217,1,0,1:0:0:0:
256,197,102423,1,6,1:2:0:0:
175,178,102630,1,2,1:3:0:0:
83,49,102837,6,0,P|97:86|91:106,3,40,6|2|6|2,1:2|1:2|1:2|1:2,0:0:0:0:
154,88,103251,2,0,P|168:51|162:31,3,40,4|2|4|2,1:0|1:2|1:2|1:2,0:0:0:0:
210,41,103665,2,0,L|266:46,3,40,4|2|6|2,1:0|1:2|1:2|1:2,0:0:0:0:
277,84,104079,2,0,L|333:89,3,40,4|2|6|2,1:0|1:2|1:2|1:2,0:0:0:0:
404,100,104492,5,6,1:2:0:0:
402,113,104596,1,2,1:2:0:0:
400,126,104699,1,6,1:2:0:0:
398,139,104803,1,2,1:2:0:0:
356,159,104906,5,6,1:2:0:0:
358,172,105010,1,2,1:2:0:0:
360,185,105113,1,6,1:2:0:0:
362,198,105217,1,2,1:2:0:0:
365,241,105320,5,6,1:2:0:0:
333,238,105423,1,2,1:2:0:0:
301,235,105527,1,6,1:2:0:0:
269,232,105630,1,2,1:2:0:0:
239,260,105734,5,6,1:2:0:0:
207,263,105837,1,2,1:2:0:0:
175,266,105941,1,6,1:2:0:0:
143,269,106044,1,2,1:2:0:0:
107,294,106148,6,0,P|99:242|33:183,1,120.000004577637,6|8,1:0|0:1,0:0:0:0:
39,82,106768,2,0,B|153:78|133:151|206:154,1,180.000006866455,0|8,1:0|1:0,0:0:0:0:
405,294,107803,6,0,P|413:242|479:183,1,120.000004577637,2|8,1:2|1:0,0:0:0:0:
473,82,108423,2,0,B|359:78|379:151|306:154,1,180.000006866455,0|0,1:0|1:0,0:0:0:0:
114,13,109458,6,0,P|94:62|134:124,1,120.000004577637,0|8,1:0|1:0,0:0:0:0:
202,69,110079,2,0,P|168:183|158:257,1,180.000006866455,0|8,0:0|1:0,0:0:0:0:
103,357,111113,6,0,P|134:345|146:350,3,30.0000011444092,2|0|2|0,1:3|1:0|1:3|1:0,0:0:0:0:
173,328,111527,2,0,P|187:331|199:340,3,30.0000011444092,2|0|2|0,1:3|1:0|1:3|1:0,0:0:0:0:
237,362,111941,2,0,P|270:347|274:333,3,30.0000011444092,2|0|0|2,1:2|1:0|1:0|1:3,0:0:0:0:
282,316,112354,2,0,L|329:319,1,30.0000011444092,0|0,1:0|1:0,0:0:0:0:
351,349,112561,2,0,L|398:352,1,30.0000011444092,2|0,1:2|1:0,0:0:0:0:
412,341,112768,6,0,L|422:238,1,95.9999970703126,6|2,1:2|3:0,0:0:0:0:
484,133,113182,1,10,1:0:0:0:
356,163,113389,1,2,3:0:0:0:
406,55,113596,1,2,1:2:0:0:
406,55,113699,1,2,0:0:0:0:
266,71,113906,1,2,0:0:0:0:
266,71,114009,1,8,1:2:0:0:
284,210,114217,6,0,L|291:263,2,47.9999985351563,2|2|2,3:0|0:0|1:2,0:0:0:0:
232,341,114630,1,2,3:0:0:0:
378,251,114837,2,0,P|448:265|471:343,1,143.999995605469,10|2,1:0|0:0,0:0:0:0:
457,350,115251,2,0,L|318:331,1,95.9999970703126,2|2,1:2|3:0,0:0:0:0:
327,338,115561,1,2,0:0:0:0:
327,338,115665,1,8,1:0:0:0:
281,226,115872,1,2,3:0:0:0:
154,249,116079,5,2,1:2:0:0:
154,249,116285,1,2,3:0:0:0:
218,105,116492,2,0,L|119:112,1,95.9999970703126,10|2,1:2|3:0,0:0:0:0:
87,115,116803,1,0,0:0:0:0:
87,115,116906,2,0,L|17:123,1,47.9999985351563,2|2,1:2|0:0,0:0:0:0:
16,261,117217,2,0,L|86:253,1,47.9999985351563,2|8,0:2|1:0,0:0:0:0:
124,212,117423,1,0,0:0:0:0:
124,212,117527,6,0,L|194:204,1,47.9999985351563,2|0,3:0|0:0,0:0:0:0:
240,165,117734,1,2,1:2:0:0:
240,165,117837,1,8,1:0:0:0:
240,165,117941,1,0,0:0:0:0:
275,296,118148,2,0,P|329:331|426:298,1,143.999995605469,10|2,1:2|1:2,0:0:0:0:
445,289,118561,1,2,1:2:0:0:
373,204,118768,1,10,1:0:0:0:
436,98,118975,1,8,1:0:0:0:
319,50,119182,1,2,3:0:0:0:
319,50,119285,1,0,1:0:0:0:
319,50,119389,6,0,L|200:65,1,103.999995239258,6|2,1:2|1:3,0:0:0:0:
32,133,119803,2,0,L|151:148,1,103.999995239258,10|0,1:2|3:0,0:0:0:0:
150,170,120113,1,2,0:0:0:0:
150,170,120217,2,0,L|136:273,1,103.999995239258,6|0,1:2|0:0,0:0:0:0:
205,362,120630,1,8,1:0:0:0:
374,295,120837,5,2,3:0:0:0:
374,295,120941,1,2,0:0:0:0:
374,295,121044,1,6,1:2:0:0:
289,211,121251,1,2,1:3:0:0:
371,126,121458,1,14,1:2:0:0:
289,211,121665,1,2,3:0:0:0:
289,211,121768,1,0,0:0:0:0:
289,211,121872,1,6,1:2:0:0:
195,141,122079,1,0,0:0:0:0:
223,313,122285,2,0,L|205:375,3,51.999997619629,10|2|2|2,1:2|0:0|3:0|0:0,0:0:0:0:
121,361,122699,6,0,P|142:307|156:236,1,103.999995239258,6|2,1:2|1:3,0:0:0:0:
52,99,123113,2,0,P|59:171|85:214,1,103.999995239258,10|2,1:0|3:0,0:0:0:0:
73,198,123423,1,0,0:0:0:0:
73,198,123527,1,6,1:2:0:0:
149,124,123734,1,2,3:0:0:0:
254,194,123941,2,0,L|359:215,1,103.999995239258,8|2,1:0|3:0,0:0:0:0:
401,196,124251,1,2,0:0:0:0:
401,196,124354,5,6,1:2:0:0:
401,303,124561,1,2,1:3:0:0:
490,225,124768,2,0,L|483:88,1,103.999995239258,14|2,1:2|3:0,0:0:0:0:
429,68,125079,1,0,0:0:0:0:
429,68,125182,2,0,L|343:78,1,51.999997619629,6|2,1:2|1:2,0:0:0:0:
249,195,125492,1,0,0:0:0:0:
249,195,125596,2,0,L|257:268,3,51.999997619629,10|2|2|10,1:2|0:0|3:0|1:0,0:0:0:0:
324,282,126010,6,0,L|335:158,1,103.999995239258,6|2,1:2|1:3,0:0:0:0:
269,77,126423,1,10,1:2:0:0:
143,88,126630,1,2,3:0:0:0:
92,204,126837,1,4,1:2:0:0:
92,204,126941,1,10,1:0:0:0:
48,51,127148,1,2,0:0:0:0:
48,51,127252,1,8,1:0:0:0:
143,88,127458,6,0,L|130:151,2,51.999997619629,2|2|6,3:0|0:0|1:2,0:0:0:0:
261,147,127872,1,2,1:3:0:0:
173,236,128079,1,10,1:2:0:0:
296,282,128285,1,2,3:0:0:0:
296,282,128389,1,0,0:0:0:0:
296,282,128492,2,0,L|433:301,1,103.999995239258,6|0,1:2|0:0,0:0:0:0:
205,326,128906,2,0,L|129:331,3,51.999997619629,10|2|2|2,1:2|0:0|3:0|0:0,0:0:0:0:
82,360,129320,5,4,1:2:0:0:
82,360,129423,2,0,P|69:240|59:178,1,155.999992858887,10|12,1:0|1:2,0:0:0:0:
237,206,129941,1,2,3:0:0:0:
167,49,130148,1,4,1:2:0:0:
167,49,130251,2,0,P|154:169|144:231,1,155.999992858887,2|12,1:2|1:2,0:0:0:0:
181,314,130768,5,2,3:0:0:0:
181,314,130872,2,0,L|239:309,1,51.999997619629,2|4,1:0|1:2,0:0:0:0:
310,353,131079,2,0,L|327:216,1,103.999995239258,0|0,1:0|0:0,0:0:0:0:
281,163,131389,2,0,L|443:182,1,155.999992858887,12|0,1:2|0:0,0:0:0:0:
492,106,131803,1,0,1:2:0:0:
492,106,131906,1,0,1:0:0:0:
492,106,132010,1,0,1:0:0:0:
492,106,132113,1,0,1:0:0:0:
492,106,132217,2,0,L|352:93,1,103.999995239258,4|4,1:3|1:3,0:0:0:0:
182,68,132630,6,0,P|216:47|258:55,1,80,6|0,1:2|3:0,0:0:0:0:
234,163,133044,2,0,L|143:148,1,80,10|2,1:0|3:0,0:0:0:0:
48,111,133458,1,2,0:0:0:0:
48,111,133561,2,0,P|56:188|51:249,1,120,2|8,0:0|1:0,0:0:0:0:
256,192,133975,12,0,135527,0:0:0:0:
151,55,135941,6,0,P|188:95|201:142,1,80,6|2,0:0|3:0,0:0:0:0:
361,55,136354,2,0,P|324:95|311:142,1,80,10|2,1:0|3:0,0:0:0:0:
255,200,136768,1,2,0:0:0:0:
255,200,136872,2,0,L|255:330,1,120,2|8,0:0|1:0,0:0:0:0:
256,192,137285,12,0,138837,0:0:0:0:
256,181,139148,5,0,0:0:0:0:
256,181,139251,1,0,1:0:0:0:
178,126,139458,1,2,0:3:0:0:
102,172,139665,1,0,1:0:0:0:
181,222,139872,1,2,0:3:0:0:
256,181,140079,5,0,1:0:0:0:
334,126,140286,1,2,0:3:0:0:
410,172,140493,1,0,1:0:0:0:
331,222,140700,1,2,0:3:0:0:
225,61,140906,5,4,1:2:0:0:
134,34,141113,1,2,0:3:0:0:
134,34,141217,1,2,0:0:0:0:
134,34,141320,1,2,1:2:0:0:
107,127,141527,1,2,0:3:0:0:
75,217,141734,1,6,1:2:0:0:
139,346,141941,1,2,0:3:0:0:
171,256,142148,1,2,1:2:0:0:
203,166,142354,1,2,0:3:0:0:
327,242,142561,5,4,1:2:0:0:
327,242,142665,1,2,1:3:0:0:
340,102,142872,2,0,L|386:59,2,55.9999982910157,0|0|2,1:0|1:3|1:3,0:0:0:0:
172,102,143285,2,0,L|126:59,2,55.9999982910157,0|0|2,1:0|1:0|1:3,0:0:0:0:
185,242,143699,1,0,1:0:0:0:
185,242,143803,1,2,1:3:0:0:
257,329,144010,1,2,0:3:0:0:
257,329,144113,1,0,0:0:0:0:
257,329,144217,6,0,L|340:321,1,55.9999982910157,6|0,1:2|1:0,1:0:0:0:
322,277,144423,2,0,L|391:285,1,55.9999982910157,2|0,1:0|1:0,1:0:0:0:
433,282,144630,2,0,L|451:207,1,55.9999982910157,6|0,1:2|1:0,1:0:0:0:
460,177,144837,2,0,L|379:188,1,55.9999982910157,2|0,1:0|1:0,1:0:0:0:
359,184,145044,2,0,L|332:120,1,55.9999982910157,4|0,1:2|1:0,1:0:0:0:
342,91,145251,2,0,L|389:42,1,55.9999982910157,0|0,1:0|1:0,1:0:0:0:
312,10,145458,1,6,0:2:0:0:
298,16,145561,1,2,0:0:0:0:
284,22,145665,1,2,3:0:0:0:
270,28,145768,1,2,0:0:0:0:
258,36,145872,6,0,P|180:31|124:46,1,120.000004577637,6|2,1:2|3:2,0:0:0:0:
57,20,146182,1,0,0:0:0:0:
57,20,146285,2,0,L|73:164,1,120.000004577637,10|2,1:2|3:2,0:0:0:0:
52,299,146699,1,2,1:0:0:0:
52,299,146803,1,2,0:0:0:0:
186,228,147010,1,2,0:0:0:0:
256,192,147113,12,10,148768,1:0:0:0:
340,260,149182,5,6,1:2:0:0:
417,145,149389,1,2,3:2:0:0:
312,117,149596,1,10,1:2:0:0:
239,32,149803,1,2,3:2:0:0:
243,190,150010,1,2,1:0:0:0:
243,190,150113,2,0,L|158:179,1,60.0000022888184,2|2,0:0|3:0,0:0:0:0:
107,175,150320,1,2,0:0:0:0:
256,192,150423,12,14,152079,1:2:0:0:
125,66,152492,5,6,1:2:0:0:
167,183,152699,1,2,3:2:0:0:
167,183,152803,1,0,0:0:0:0:
167,183,152906,1,10,1:0:0:0:
84,281,153113,1,2,3:2:0:0:
48,165,153320,1,0,1:0:0:0:
48,165,153423,2,0,L|181:185,1,120.000004577637,2|2,0:0|0:0,0:0:0:0:
251,157,153734,2,0,P|329:187|326:260,1,120.000004577637,8|2,1:0|3:0,0:0:0:0:
424,334,154148,5,6,1:2:0:0:
457,219,154354,1,2,3:2:0:0:
378,99,154561,1,10,1:0:0:0:
346,242,154768,1,2,3:2:0:0:
346,242,154872,1,0,0:0:0:0:
346,242,154975,2,0,P|248:258|218:277,1,120.000004577637,2|0,1:2|0:0,0:0:0:0:
96,362,155389,1,10,1:0:0:0:
108,197,155596,1,2,1:3:0:0:
108,197,155699,1,2,0:1:0:0:
108,197,155803,6,0,P|99:115|58:78,1,120.000004577637,4|2,1:2|3:2,0:0:0:0:
42,67,156113,1,0,0:0:0:0:
42,67,156217,2,0,L|182:53,1,120.000004577637,10|2,1:0|3:2,0:0:0:0:
303,30,156630,1,6,1:2:0:0:
303,30,156734,2,0,P|287:94|282:158,1,120.000004577637,2|2,0:0|0:0,0:0:0:0:
263,195,157044,2,0,L|345:190,1,60.0000022888184,8|0,1:0|0:0,0:0:0:0:
395,146,157251,5,2,1:3:0:0:
403,157,157354,1,0,1:0:0:0:
411,168,157458,1,8,1:2:0:0:
419,179,157561,1,8,1:0:0:0:
427,190,157665,1,0,1:0:0:0:
424,344,157872,2,0,P|402:278|293:278,2,180.000006866455,12|8|2,1:2|1:0|1:2,0:0:0:0:
408,183,158699,1,12,1:2:0:0:
352,341,158906,1,2,1:2:0:0:
352,341,159010,1,0,1:0:0:0:
352,341,159113,6,0,P|259:316|217:327,1,124.000000946045,6|2,1:2|3:2,0:0:0:0:
97,361,159527,1,10,1:0:0:0:
172,203,159734,1,2,3:2:0:0:
25,154,159941,1,2,1:0:0:0:
25,154,160044,1,2,0:0:0:0:
90,286,160251,1,2,0:0:0:0:
90,286,160354,1,8,1:0:0:0:
110,87,160561,1,2,3:0:0:0:
267,214,160768,6,0,P|323:235|400:228,1,124.000000946045,2|2,1:0|3:2,0:0:0:0:
491,95,161182,2,0,P|435:74|358:81,1,124.000000946045,10|2,1:0|3:2,2:0:0:0:
189,129,161596,1,2,1:0:0:0:
189,129,161699,2,0,L|339:141,1,124.000000946045,2|0,0:0|0:0,0:0:0:0:
331,144,162010,2,0,L|320:214,1,62.0000004730225,10|2,1:0|0:0,0:0:0:0:
386,260,162217,2,0,L|375:330,1,62.0000004730225,2|2,1:3|0:1,0:0:0:0:
450,360,162423,6,0,P|457:280|464:226,1,124.000000946045,6|2,1:2|3:2,0:0:0:0:
449,100,162837,1,10,1:0:0:0:
449,100,162941,1,0,0:0:0:0:
449,100,163044,2,0,L|312:122,1,124.000000946045,2|2,3:2|1:2,0:0:0:0:
314,122,163354,2,0,L|154:81,1,124.000000946045,2|2,0:0|0:0,0:0:0:0:
135,40,163665,1,8,1:0:0:0:
48,149,163872,1,2,3:0:0:0:
48,149,163975,1,2,0:0:0:0:
48,149,164079,6,0,P|26:213|122:294,1,186.000001419067,6|2,1:2|0:0,0:0:0:0:
123,327,164492,2,0,P|138:244|205:218,1,124.000000946045,10|2,1:0|3:0,0:0:0:0:
299,150,164906,2,0,L|463:185,1,124.000000946045,4|2,1:2|3:0,0:0:0:0:
453,257,165217,1,4,1:3:0:0:
453,257,165320,2,0,L|289:222,1,124.000000946045,14|2,1:2|1:0,0:0:0:0:
196,218,165734,5,6,1:2:0:0:
213,324,165941,1,2,3:2:0:0:
87,342,166148,1,10,1:0:0:0:
70,236,166355,1,2,3:2:0:0:
156,159,166561,1,2,1:2:0:0:
156,159,166665,2,0,L|140:297,2,124.000000946045,2|2|2,0:0|0:0|0:0,0:0:0:0:
129,82,167182,1,2,3:0:0:0:
129,82,167285,1,2,0:0:0:0:
129,82,167389,6,0,P|206:84|273:128,1,124.000000946045,6|2,1:2|3:2,0:0:0:0:
403,48,167803,1,10,1:0:0:0:
351,183,168010,1,2,3:2:0:0:
449,320,168217,1,2,1:0:0:0:
449,320,168320,1,2,0:0:0:0:
473,168,168527,1,2,0:0:0:0:
473,168,168630,1,10,1:0:0:0:
346,277,168837,1,2,1:3:0:0:
338,111,169044,6,0,P|280:76|220:99,1,124.000000946045,6|2,1:2|3:2,0:0:0:0:
0,118,169458,2,0,P|58:153|118:130,1,124.000000946045,10|2,1:0|3:2,0:0:0:0:
68,42,169872,2,0,P|39:152|30:263,1,186.000001419067,6|2,1:2|0:0,0:0:0:0:
36,274,170285,1,8,1:0:0:0:
167,211,170492,5,2,1:3:0:0:
199,218,170596,1,0,1:0:0:0:
231,225,170699,1,0,1:0:0:0:
263,232,170803,1,0,1:0:0:0:
295,239,170906,1,0,1:0:0:0:
240,144,171113,2,0,P|231:232|201:344,2,204.000003890991,12|8|2,1:2|1:0|1:3,0:0:0:0:
328,56,171941,1,14,1:2:0:0:
358,193,172148,1,2,1:0:0:0:
358,193,172251,1,2,1:0:0:0:
358,193,172354,6,0,P|371:284|415:292,1,124.000000946045,6|2,1:2|3:2,0:0:0:0:
452,236,172665,1,0,0:0:0:0:
452,236,172768,2,0,P|437:159|433:79,1,124.000000946045,10|2,1:0|3:2,0:0:0:0:
330,53,173182,1,2,1:0:0:0:
330,53,173285,1,2,0:0:0:0:
217,175,173492,1,2,0:0:0:0:
217,175,173596,1,8,1:0:0:0:
217,175,173699,2,0,L|202:102,2,62.0000004730225,2|2|2,0:0|3:0|0:0,0:0:0:0:
287,206,174010,6,0,L|265:362,1,124.000000946045,2|2,1:0|3:2,0:0:0:0:
126,346,174423,1,10,1:0:0:0:
59,225,174630,1,2,3:2:0:0:
208,116,174837,1,2,1:0:0:0:
208,116,174941,2,0,P|121:111|50:100,1,124.000000946045,2|0,0:0|0:0,0:0:0:0:
36,99,175251,1,10,1:0:0:0:
36,99,175458,1,2,1:3:0:0:
183,25,175665,5,6,1:2:0:0:
156,184,175872,1,2,3:2:0:0:
183,25,176079,2,0,B|257:44|317:58|317:57,1,124.000000946045,10|2,1:0|3:2,0:0:0:0:
329,46,176389,1,0,0:2:0:0:
329,46,176492,2,0,L|435:73,1,62.0000004730225,2|2,1:0|0:0,0:0:0:0:
512,156,176803,2,0,L|406:183,1,62.0000004730225,2|8,0:0|1:0,0:0:0:0:
394,235,177010,1,2,0:0:0:0:
394,235,177113,1,2,3:0:0:0:
394,235,177217,1,2,0:0:0:0:
394,235,177320,6,0,P|358:178|238:213,1,186.000001419067,6|2,1:2|0:0,0:0:0:0:
251,191,177734,2,0,L|94:172,1,124.000000946045,10|2,1:0|3:0,0:0:0:0:
11,272,178148,2,0,L|168:291,1,124.000000946045,6|2,1:2|3:0,0:0:0:0:
189,339,178458,1,4,3:0:0:0:
189,339,178561,1,14,1:2:0:0:
341,248,178768,1,2,0:0:0:0:
314,250,178872,1,2,0:0:0:0:
294,265,178975,6,0,P|294:339|343:350,1,124.000000946045,6|2,1:2|3:2,0:0:0:0:
474,267,179389,1,10,1:0:0:0:
343,156,179596,1,2,3:2:0:0:
485,61,179803,1,2,1:0:0:0:
485,61,179906,2,0,L|461:129,1,62.0000004730225,2|2,0:0|3:0,0:0:0:0:
436,193,180113,1,2,0:0:0:0:
436,193,180217,1,8,1:0:0:0:
347,56,180423,1,2,3:0:0:0:
347,56,180527,1,2,0:0:0:0:
347,56,180630,6,0,P|255:69|230:108,1,124.000000946045,2|2,1:0|3:2,0:0:0:0:
228,131,180941,1,0,0:0:0:0:
228,131,181044,2,0,L|59:114,1,124.000000946045,10|2,1:0|3:2,0:0:0:0:
24,33,181458,1,2,1:0:0:0:
24,33,181561,1,2,0:0:0:0:
35,177,181768,1,2,0:0:0:0:
35,177,181872,1,10,1:2:0:0:
166,283,182079,1,2,1:3:0:0:
45,365,182285,6,0,P|55:291|89:224,1,124.000000946045,6|2,1:2|3:2,0:0:0:0:
109,228,182596,1,0,0:0:0:0:
109,228,182699,2,0,L|257:251,1,124.000000946045,10|2,1:0|3:2,0:0:0:0:
383,214,183113,2,0,P|373:288|339:355,1,124.000000946045,6|2,1:2|3:0,0:0:0:0:
319,351,183424,1,2,0:0:0:0:
319,351,183527,1,8,1:0:0:0:
257,211,183734,5,2,1:3:0:0:
280,176,183837,1,0,1:0:0:0:
303,141,183941,1,8,1:0:0:0:
326,106,184044,1,8,1:0:0:0:
349,71,184148,1,0,1:0:0:0:
224,94,184354,2,0,P|332:139|347:222,2,186.000001419067,14|8|2,1:2|1:0|1:3,0:0:0:0:
252,189,185182,1,12,1:2:0:0:
74,89,185389,5,2,1:0:0:0:
74,89,185492,1,2,1:0:0:0:
74,89,185596,1,6,1:2:0:0:
192,232,185803,1,2,3:0:0:0:
32,199,186010,1,10,1:0:0:0:
192,232,186217,2,0,L|264:246,1,64,2|2,3:0|0:0,0:0:0:0:
264,323,186423,1,2,1:0:0:0:
264,323,186527,2,0,L|462:314,1,192,2|8,0:0|1:0,0:0:0:0:
394,101,187044,5,2,3:0:0:0:
394,101,187148,1,2,0:0:0:0:
394,101,187251,1,2,1:2:0:0:
359,235,187458,1,2,3:0:0:0:
483,200,187665,1,10,1:2:0:0:
267,155,187872,1,2,3:0:0:0:
267,155,187975,1,2,0:0:0:0:
267,155,188079,2,0,P|165:151|63:164,1,192,2|2,1:0|0:0,0:0:0:0:
19,213,188492,2,0,P|39:108|23:49,1,128,8|2,1:0|3:2,0:0:0:0:
120,20,188906,5,6,1:2:0:0:
256,66,189113,1,2,3:0:0:0:
392,20,189320,1,10,1:0:0:0:
260,152,189527,1,2,3:0:0:0:
260,152,189630,1,2,0:0:0:0:
260,152,189734,1,2,1:0:0:0:
260,152,189837,2,0,P|256:292|257:348,1,192,2|8,0:0|1:0,0:0:0:0:
346,202,190354,1,2,3:0:0:0:
346,202,190458,1,2,0:0:0:0:
346,202,190561,6,0,P|409:182|468:242,1,128,6|2,1:2|3:2,0:0:0:0:
369,355,190975,2,0,P|306:375|247:315,1,128,10|2,1:0|3:2,0:0:0:0:
27,216,191389,2,0,P|93:192|91:114,1,128,6|2,1:2|3:0,0:0:0:0:
176,107,191699,1,4,1:3:0:0:
176,107,191803,2,0,L|16:84,1,128,14|2,1:2|1:0,0:0:0:0:
70,12,192113,1,2,1:0:0:0:
70,12,192217,6,0,L|230:35,1,128,6|2,1:2|3:0,0:0:0:0:
393,19,192630,1,10,1:0:0:0:
284,139,192837,2,0,P|271:198|280:240,1,64,2|2,3:0|0:0,0:0:0:0:
315,266,193044,1,2,1:0:0:0:
315,266,193148,2,0,P|244:212|137:230,1,192,2|8,0:0|1:2,0:0:0:0:
52,318,193665,5,2,3:0:0:0:
52,318,193768,1,2,0:0:0:0:
52,318,193872,1,6,1:2:0:0:
208,290,194079,1,2,3:0:0:0:
148,71,194285,1,10,1:2:0:0:
40,154,194492,1,2,3:0:0:0:
40,154,194596,1,2,0:0:0:0:
40,154,194699,2,0,P|142:168|260:161,1,192,2|2,1:0|0:0,0:0:0:0:
268,72,195113,2,0,P|335:71|394:105,1,128,8|2,1:0|1:2,0:0:0:0:
474,281,195527,5,6,1:2:0:0:
304,166,195734,1,2,3:0:0:0:
316,326,195941,1,10,1:0:0:0:
391,230,196148,1,2,3:0:0:0:
391,230,196251,1,2,0:0:0:0:
391,230,196354,1,6,1:2:0:0:
391,230,196458,2,0,P|312:212|187:217,1,192,2|8,0:0|1:0,0:0:0:0:
61,123,196975,5,2,1:2:0:0:
101,114,197078,1,0,1:0:0:0:
142,104,197182,1,8,1:0:0:0:
183,95,197285,1,2,1:2:0:0:
224,85,197389,1,8,1:0:0:0:
112,18,197596,2,0,B|157:90|65:110|123:218,2,192,14|10|2,1:2|1:0|1:3,0:0:0:0:
193,155,198423,1,12,1:2:0:0:
78,315,198630,5,2,1:0:0:0:
78,315,198734,1,2,1:0:0:0:
78,315,198837,1,6,1:2:0:0:
193,155,199044,1,2,3:2:0:0:
225,360,199251,1,10,1:0:0:0:
137,240,199458,2,0,L|231:250,1,64,2|2,3:2|0:0,0:0:0:0:
289,287,199665,1,2,1:0:0:0:
289,287,199768,2,0,P|398:299|455:319,1,128,2|2,0:0|0:0,0:0:0:0:
479,350,200079,1,8,1:2:0:0:
488,201,200285,5,2,3:0:0:0:
488,201,200389,1,2,0:0:0:0:
488,201,200492,1,2,1:0:0:0:
328,211,200699,1,2,3:2:0:0:
256,75,200906,1,10,1:2:0:0:
184,211,201113,1,2,3:2:0:0:
184,211,201217,1,2,0:0:0:0:
184,211,201320,1,2,1:0:0:0:
24,201,201527,2,0,L|8:121,1,64,2|2,0:0|0:0,0:0:0:0:
85,99,201734,2,0,L|115:268,1,128,8|2,1:2|1:3,0:0:0:0:
183,341,202148,5,6,1:2:0:0:
233,166,202354,1,2,3:2:0:0:
420,234,202561,1,10,1:0:0:0:
324,376,202768,1,2,3:2:0:0:
324,376,202872,1,2,0:0:0:0:
324,376,202975,1,2,1:0:0:0:
324,376,203079,2,0,P|328:253|339:194,1,128,2|2,0:0|0:0,0:0:0:0:
334,211,203389,1,8,1:0:0:0:
512,118,203596,1,2,3:0:0:0:
512,118,203699,1,2,0:0:0:0:
512,118,203803,6,0,P|397:126|371:146,1,128,6|2,1:2|3:2,0:0:0:0:
350,112,204113,1,0,0:0:0:0:
350,112,204217,2,0,L|187:94,1,128,10|2,1:2|3:2,0:0:0:0:
37,15,204630,2,0,P|85:71|72:164,1,128,6|2,1:2|3:0,0:0:0:0:
52,195,204941,1,4,1:3:0:0:
52,195,205044,1,14,1:2:0:0:
213,349,205251,1,2,1:0:0:0:
203,326,205354,1,2,1:0:0:0:
210,294,205458,5,6,1:2:0:0:
342,235,205665,1,2,3:2:0:0:
232,132,205872,1,10,1:0:0:0:
339,19,206079,2,0,L|427:53,1,64,2|2,3:2|0:0,0:0:0:0:
459,130,206285,1,2,1:0:0:0:
459,130,206389,2,0,P|383:115|323:157,1,128,2|2,0:0|0:0,0:0:0:0:
281,190,206699,1,8,1:0:0:0:
89,65,206906,5,2,3:0:0:0:
89,65,207010,1,2,0:0:0:0:
89,65,207113,1,6,1:2:0:0:
211,152,207320,1,2,3:2:0:0:
70,232,207527,1,10,1:0:0:0:
83,86,207734,1,2,3:2:0:0:
83,86,207838,1,2,0:0:0:0:
81,87,207941,2,0,P|116:155|120:283,1,192,2|2,1:0|0:0,0:0:0:0:
91,339,208354,2,0,L|181:339,1,64,8|0,1:0|0:0,0:0:0:0:
202,272,208561,2,0,L|292:272,1,64,2|2,1:0|0:0,0:0:0:0:
339,311,208768,5,6,1:2:0:0:
485,148,208975,1,2,3:2:0:0:
293,86,209182,1,10,1:0:0:0:
453,25,209389,1,2,3:2:0:0:
453,25,209492,1,2,0:0:0:0:
453,25,209596,1,6,1:2:0:0:
453,25,209699,2,0,P|410:81|400:151,1,128,2|2,0:0|0:0,0:0:0:0:
420,211,210010,1,8,1:0:0:0:
293,86,210217,5,2,1:0:0:0:
252,96,210321,1,0,1:0:0:0:
211,105,210424,1,8,1:0:0:0:
170,115,210528,1,2,1:0:0:0:
130,124,210631,1,8,1:0:0:0:
51,31,210837,1,14,1:2:0:0:
120,310,211148,1,10,1:0:0:0:
379,230,211458,1,2,1:3:0:0:
349,111,211665,1,14,1:2:0:0:
480,170,211872,1,2,1:0:0:0:
480,170,211975,1,2,1:0:0:0:
480,170,212079,1,4,1:2:0:0:
