osu file format v14

[General]
AudioFilename: audio.mp3
AudioLeadIn: 0
PreviewTime:53130
Countdown: 0
SampleSet: Soft
StackLeniency: 0.7
Mode: 0
LetterboxInBreaks: 0
WidescreenStoryboard: 0

[Editor]
Bookmarks:13458,26699,39941,53182,79665,92906,106148,112768,119389,132630,145872,172354,198837,212079,225217
DistanceSpacing: 1.2
BeatDivisor: 8
GridSize: 4
TimelineZoom: 2.1

[Metadata]
Title:Segments Blue
TitleUnicode:Segments Blue
Artist:seleP
ArtistUnicode:seleP
Creator:Okoratu
Version:Extra
Source:
Tags:osu! featured artist fa electronic japanese Okorin hamburger CUL Vocaloid もぐ
BeatmapID:2899404
BeatmapSetID:1406043

[Difficulty]
HPDrainRate:5
CircleSize:4.2
OverallDifficulty:8
ApproachRate:9.3
SliderMultiplier:2.4
SliderTickRate:1

[Events]
//Background and Video events
0,0,"burger2.jpg",0,0
//Break Periods
2,79865,92306
//Storyboard Layer 0 (Background)
//Storyboard Layer 1 (Fail)
//Storyboard Layer 2 (Pass)
//Storyboard Layer 3 (Foreground)
//Storyboard Layer 4 (Overlay)
//Storyboard Sound Samples

[TimingPoints]
217,413.793103448276,4,2,2,60,1,0
217,-166.666666666667,4,2,2,10,0,0
1872,-166.666666666667,4,2,2,15,0,0
3527,-125,4,2,2,25,0,0
6837,-111.111111111111,4,2,2,50,0,0
11803,-111.111111111111,4,2,1,60,0,0
13458,-100,4,2,1,80,0,0
26699,-83.3333333333333,4,2,1,80,0,0
39941,-76.9230769230769,4,2,1,80,0,0
53182,-66.6666666666667,4,2,1,90,0,1
56130,-66.6666666666667,4,2,2,90,0,1
56234,-66.6666666666667,4,2,1,90,0,1
56337,-66.6666666666667,4,2,2,90,0,1
56441,-66.6666666666667,4,2,1,90,0,1
62958,-66.6666666666667,4,2,2,90,0,1
63062,-66.6666666666667,4,2,1,90,0,1
65182,-58.8235294117647,4,2,1,90,0,1
66423,-66.6666666666667,4,2,1,90,0,1
69579,-66.6666666666667,4,2,2,90,0,1
69683,-66.6666666666667,4,2,1,90,0,1
76199,-66.6666666666667,4,2,2,90,0,1
76303,-66.6666666666667,4,2,1,90,0,1
78423,-58.8235294117647,4,2,1,90,0,1
79665,-100,4,2,1,90,0,0
92906,-100,4,2,1,70,0,0
106148,-133.333333333333,4,2,1,70,0,1
106251,-133.333333333333,4,2,1,70,0,0
112768,-83.3333333333333,4,2,1,80,0,0
119389,-76.9230769230769,4,2,1,80,0,0
132630,-100,4,2,1,70,0,1
132734,-100,4,2,1,70,0,0
139148,-71.4285714285714,4,2,1,90,0,0
145872,-66.6666666666667,4,2,1,90,0,1
149027,-66.6666666666667,4,2,2,90,0,1
149130,-66.6666666666667,4,2,1,90,0,1
155648,-66.6666666666667,4,2,2,90,0,1
155751,-66.6666666666667,4,2,1,90,0,1
159113,-64.5161290322581,4,2,1,90,0,1
162268,-64.5161290322581,4,2,2,90,0,1
162372,-64.5161290322581,4,2,1,90,0,1
168889,-64.5161290322581,4,2,2,90,0,1
168992,-64.5161290322581,4,2,1,90,0,1
171113,-58.8235294117647,4,2,1,90,0,1
172251,-100,4,2,1,90,0,0
172354,-58.8235294117647,4,2,1,90,0,1
175510,-58.8235294117647,4,2,2,90,0,1
175613,-58.8235294117647,4,2,1,90,0,1
182130,-58.8235294117647,4,2,2,90,0,1
182234,-58.8235294117647,4,2,1,90,0,1
185596,-52.6315789473684,4,2,1,90,0,1
198734,-100,4,2,1,90,0,0
198837,-43.4782608695652,4,2,1,90,0,1
212079,-100,4,2,1,90,0,0

[Colours]
Combo1 : 17,254,176
Combo2 : 173,255,95
Combo3 : 255,88,100
Combo4 : 255,94,55

[HitObjects]
64,275,217,6,0,P|114:270|166:271,1,71.9999978027345,2|0,0:0|0:0,0:0:0:0:
214,205,630,1,0,0:0:0:0:
214,205,837,1,0,0:0:0:0:
257,312,1044,1,2,0:0:0:0:
257,312,1148,1,2,0:0:0:0:
302,227,1354,2,0,P|303:167|307:124,1,71.9999978027345,2|2,0:0|0:0,0:0:0:0:
285,121,1665,2,0,L|329:115,1,35.9999989013672
407,53,1872,6,0,L|403:135,1,71.9999978027345,2|0,0:0|0:0,0:0:0:0:
396,226,2285,1,0,0:0:0:0:
500,169,2492,1,0,0:0:0:0:
464,327,2699,1,2,0:0:0:0:
464,327,2803,1,2,0:0:0:0:
312,276,3010,1,2,0:0:0:0:
312,276,3113,2,0,L|250:284,1,35.9999989013672
220,335,3320,2,0,L|167:342,1,35.9999989013672
106,376,3527,5,2,0:0:0:0:
144,243,3734,1,0,0:0:0:0:
50,88,3941,1,0,0:0:0:0:
27,220,4148,1,0,0:0:0:0:
178,109,4354,1,2,0:0:0:0:
178,109,4458,2,0,P|223:115|281:120,1,96,2|2,0:0|0:0,0:0:0:0:
482,61,4872,1,2,0:0:0:0:
482,61,4975,1,0,0:0:0:0:
482,61,5079,1,0,0:0:0:0:
482,61,5182,6,0,P|473:107|470:127,1,48,2|0,0:0|0:0,0:0:0:0:
427,253,5389,2,0,P|416:185|413:175,1,48,2|0,0:0|0:0,0:0:0:0:
291,195,5596,2,0,P|345:191|371:193,1,48,2|0,0:0|0:0,0:0:0:0:
499,330,5803,2,0,P|445:334|419:332,1,48,2|0,0:0|0:0,0:0:0:0:
352,295,6010,1,2,0:0:0:0:
352,295,6113,2,0,P|299:296|265:293,1,48,2|0,0:0|0:0,0:0:0:0:
220,355,6320,1,2,0:0:0:0:
81,89,6527,1,2,0:0:0:0:
96,112,6630,1,0,0:0:0:0:
73,141,6734,1,2,0:0:0:0:
110,177,6837,6,0,P|123:236|127:292,1,107.999996704102,2|0,0:0|0:0,0:0:0:0:
174,58,7251,1,2,0:0:0:0:
273,13,7458,1,0,0:0:0:0:
326,191,7665,1,2,0:0:0:0:
326,191,7768,1,2,0:0:0:0:
227,104,7975,1,2,0:0:0:0:
227,104,8079,2,0,L|295:93,1,53.9999983520508,2|0,0:0|0:0,0:0:0:0:
447,65,8285,1,2,0:0:0:0:
409,70,8389,1,0,0:0:0:0:
388,97,8492,5,2,0:0:0:0:
467,165,8699,1,0,0:0:0:0:
356,6,8906,1,2,0:0:0:0:
335,140,9113,1,0,0:0:0:0:
302,347,9320,1,2,0:0:0:0:
302,347,9423,2,0,P|301:296|297:274,1,53.9999983520508,2|0,0:0|0:0,0:0:0:0:
344,213,9630,2,0,L|219:222,1,107.999996704102,2|0,0:0|0:0,0:0:0:0:
135,116,9941,2,0,L|146:200,1,53.9999983520508
71,311,10148,5,2,0:0:0:0:
236,220,10354,1,0,0:0:0:0:
62,210,10561,1,2,0:0:0:0:
221,322,10768,1,0,0:0:0:0:
71,311,10975,1,2,0:0:0:0:
71,311,11079,1,2,0:0:0:0:
284,123,11285,1,2,0:0:0:0:
466,268,11492,1,2,0:0:0:0:
430,245,11596,1,0,0:0:0:0:
393,262,11699,1,2,0:0:0:0:
354,202,11803,6,0,P|254:203|125:184,1,215.999993408203,6|2,0:0|3:0,0:0:0:0:
322,15,12630,2,0,L|345:83,1,53.9999983520508,2|2,0:0|0:0,0:0:0:0:
248,335,12941,2,0,L|260:279,1,53.9999983520508,2|0,0:0|0:0,0:0:0:0:
295,139,13148,5,2,0:0:0:0:
295,139,13251,1,2,0:0:0:0:
295,139,13354,1,0,0:0:0:0:
295,139,13458,6,0,P|251:143|217:140,1,60,6|0,1:2|0:0,0:0:0:0:
97,20,13665,2,0,P|122:68|126:103,1,60,2|0,3:0|0:0,0:0:0:0:
76,294,13872,2,0,P|114:232|121:191,1,60,8|0,1:0|0:0,0:0:0:0:
156,159,14079,2,0,L|79:161,1,60,2|0,3:0|0:0,0:0:0:0:
11,58,14285,1,2,1:2:0:0:
15,133,14389,2,0,L|22:235,1,60,2|2,0:0|3:0,0:0:0:0:
17,300,14596,2,0,L|98:292,1,60,2|8,0:0|1:0,0:0:0:0:
241,205,14803,1,2,0:0:0:0:
235,276,14906,1,2,3:0:0:0:
230,349,15010,1,2,0:0:0:0:
300,318,15113,6,0,L|381:321,1,60,2|0,1:2|0:0,0:0:0:0:
466,363,15320,2,0,L|461:292,1,60,2|0,3:0|0:0,0:0:0:0:
420,104,15527,1,8,1:0:0:0:
361,240,15734,1,2,3:0:0:0:
250,127,15941,1,2,1:2:0:0:
260,117,16044,2,0,L|343:110,1,60,2|2,0:0|3:0,0:0:0:0:
491,171,16251,1,2,0:0:0:0:
477,162,16354,2,0,P|437:192|418:224,1,60,8|0,1:0|0:0,0:0:0:0:
306,259,16561,2,0,L|312:161,1,60,2|2,1:2|0:0,0:0:0:0:
363,27,16768,5,6,1:2:0:0:
227,219,16975,1,2,3:3:0:0:
77,101,17182,2,0,L|157:78,1,60,10|0,1:2|0:0,0:0:0:0:
235,160,17389,2,0,L|225:236,1,60,2|0,3:3|0:0,0:0:0:0:
127,370,17596,1,2,1:2:0:0:
172,305,17699,2,0,P|217:298|258:316,1,60,2|2,0:0|3:0,0:0:0:0:
392,361,17906,2,0,P|330:333|322:265,1,120,2|2,0:0|0:0,0:0:0:0:
491,158,18217,1,2,3:0:0:0:
468,229,18320,1,2,0:0:0:0:
437,297,18423,6,0,L|282:284,1,120,6|2,1:2|3:0,0:0:0:0:
61,69,18837,2,0,L|216:56,1,120,8|2,1:0|3:0,0:0:0:0:
399,360,19251,1,6,1:2:0:0:
399,360,19354,1,2,0:2:0:0:
113,360,19561,1,2,1:2:0:0:
113,360,19664,1,8,1:0:0:0:
256,14,19872,1,8,1:0:0:0:
200,73,19975,1,8,1:0:0:0:
200,73,20079,6,0,L|123:80,1,60,6|0,1:2|0:0,0:0:0:0:
37,36,20285,2,0,L|51:128,1,60,2|0,3:0|0:0,0:0:0:0:
110,202,20492,2,0,L|124:294,1,60,10|0,1:0|0:0,0:0:0:0:
38,343,20699,2,0,L|52:251,1,60,2|0,3:0|0:0,0:0:0:0:
193,158,20906,1,2,1:2:0:0:
202,237,21010,2,0,L|209:297,1,60,2|2,0:0|3:0,0:0:0:0:
348,340,21217,2,0,P|422:351|454:372,1,60,2|8,0:0|1:0,0:0:0:0:
499,236,21423,1,2,0:0:0:0:
426,241,21527,1,2,3:0:0:0:
353,249,21630,1,2,0:0:0:0:
330,181,21734,5,6,1:2:0:0:
432,103,21941,1,2,3:0:0:0:
432,103,22044,1,0,0:0:0:0:
432,103,22148,2,0,L|428:207,1,60,10|0,1:0|0:0,0:0:0:0:
302,280,22354,2,0,L|215:270,1,60,2|0,3:0|0:0,0:0:0:0:
40,330,22561,1,2,1:2:0:0:
81,321,22665,1,2,0:0:0:0:
64,127,22872,1,2,0:0:0:0:
24,141,22975,2,0,L|34:218,1,60,8|0,1:0|0:0,0:0:0:0:
184,283,23182,2,0,L|267:267,1,60,2|2,1:2|0:0,0:0:0:0:
129,61,23389,6,0,P|138:127|144:193,1,120,6|2,1:2|3:0,0:0:0:0:
143,180,23699,1,0,0:0:0:0:
143,180,23803,1,10,1:0:0:0:
303,53,24010,1,2,3:0:0:0:
192,338,24217,1,6,1:2:0:0:
192,338,24320,2,0,L|278:327,1,60,2|2,0:0|3:0,0:0:0:0:
441,250,24527,2,0,L|435:332,1,60,2|8,0:0|1:0,0:0:0:0:
340,361,24734,1,0,0:0:0:0:
340,361,24837,2,0,L|348:262,1,60,2|0,1:2|1:0,0:0:0:0:
385,101,25044,5,6,1:2:0:0:
351,166,25148,1,0,1:0:0:0:
314,230,25251,1,2,1:2:0:0:
191,54,25458,2,0,L|268:39,2,60,12|0|0,1:0|0:0|0:0,0:0:0:0:
58,182,25768,2,0,L|-19:197,2,60,8|4|0,1:0|0:2|0:0,0:0:0:0:
92,15,26079,2,0,L|117:116,1,60,8|0,1:0|0:0,0:0:0:0:
92,369,26285,2,0,L|117:268,1,60,12|0,1:0|0:0,0:0:0:0:
333,194,26492,1,8,1:0:0:0:
292,259,26596,1,8,1:0:0:0:
256,188,26699,6,0,L|247:78,1,71.9999978027344,6|0,1:2|0:0,0:0:0:0:
435,174,26906,2,0,L|416:262,1,71.9999978027344,2|0,3:0|0:0,0:0:0:0:
368,308,27113,1,10,1:2:0:0:
368,308,27320,1,2,3:0:0:0:
368,308,27423,1,2,0:0:0:0:
368,308,27527,2,0,L|280:300,1,71.9999978027344,2|2,1:2|0:0,0:0:0:0:
131,363,27734,1,2,3:0:0:0:
144,357,27837,2,0,P|157:275|150:204,1,143.999995605469,2|0,0:0|0:0,0:0:0:0:
65,105,28148,2,0,L|137:110,1,71.9999978027344,2|0,3:0|0:0,0:0:0:0:
270,15,28354,5,2,1:2:0:0:
265,72,28458,1,0,0:0:0:0:
261,122,28561,1,2,3:0:0:0:
257,178,28665,1,2,0:0:0:0:
217,212,28768,5,10,1:2:0:0:
387,332,28975,1,2,3:0:0:0:
387,332,29079,1,0,3:0:0:0:
387,332,29182,2,0,P|378:252|399:165,1,143.999995605469,2|2,1:2|3:0,0:0:0:0:
274,350,29492,2,0,L|170:364,1,71.9999978027344,2|8,0:0|1:0,0:0:0:0:
127,290,29699,1,0,0:0:0:0:
127,290,29803,2,0,L|227:280,1,71.9999978027344,2|0,3:0|0:0,0:0:0:0:
303,280,30010,6,0,P|276:221|303:165,1,71.9999978027344,2|0,1:2|0:0,0:0:0:0:
328,50,30217,2,0,L|215:52,1,71.9999978027344,2|0,3:0|0:0,0:0:0:0:
91,109,30423,2,0,L|190:106,1,71.9999978027344,10|0,1:2|0:0,0:0:0:0:
380,141,30630,1,2,3:0:0:0:
380,141,30734,1,0,0:0:0:0:
380,141,30837,2,0,L|469:143,1,71.9999978027344,0|2,1:0|0:0,0:0:0:0:
276,216,31044,1,2,3:0:0:0:
276,216,31148,2,0,L|204:213,1,71.9999978027344,2|8,0:0|1:0,0:0:0:0:
29,72,31354,1,2,0:0:0:0:
98,36,31458,1,2,3:0:0:0:
103,110,31561,1,2,0:0:0:0:
36,152,31665,5,2,1:2:0:0:
289,122,31872,1,2,3:0:0:0:
176,46,32079,1,10,1:0:0:0:
228,275,32286,1,2,3:0:0:0:
228,275,32389,1,2,0:0:0:0:
228,275,32492,2,0,P|141:286|47:319,1,143.999995605469,2|2,1:2|3:0,0:0:0:0:
318,199,32803,2,0,P|314:274|309:321,1,71.9999978027344,2|8,0:0|1:0,0:0:0:0:
201,361,33010,1,0,0:0:0:0:
201,361,33113,2,0,L|311:354,1,71.9999978027344,2|2,3:0|1:3,0:0:0:0:
452,134,33320,6,0,P|410:182|423:241,1,71.9999978027344,6|0,1:2|0:0,0:0:0:0:
401,339,33527,2,0,P|370:257|345:247,1,71.9999978027344,2|0,3:0|0:0,0:0:0:0:
318,199,33734,2,0,L|221:210,1,71.9999978027344,10|0,1:2|0:0,0:0:0:0:
76,98,33941,1,2,3:0:0:0:
110,83,34044,1,2,0:0:0:0:
151,65,34148,2,0,L|171:147,1,71.9999978027344,2|2,1:2|0:0,0:0:0:0:
86,313,34354,1,2,3:0:0:0:
86,313,34458,2,0,P|90:230|111:151,1,143.999995605469,2|0,0:0|0:0,0:0:0:0:
189,292,34768,1,2,3:0:0:0:
189,292,34872,1,2,0:0:0:0:
189,292,34975,6,0,L|282:300,1,71.9999978027344,2|0,1:2|0:0,0:0:0:0:
352,123,35182,2,0,L|365:210,1,71.9999978027344,2|0,3:0|0:0,0:0:0:0:
379,354,35389,2,0,P|379:289|401:279,1,71.9999978027344,10|0,1:2|0:0,0:0:0:0:
497,228,35596,1,2,3:0:0:0:
497,228,35699,1,2,0:0:0:0:
497,228,35803,2,0,P|459:231|413:237,1,71.9999978027344,0|0,1:0|0:0,0:0:0:0:
300,255,36010,2,0,P|222:259|141:267,1,143.999995605469,2|8,3:2|1:0,0:0:0:0:
29,329,36320,1,0,0:0:0:0:
29,329,36423,2,0,P|91:321|142:323,1,71.9999978027344,2|0,3:2|0:0,0:0:0:0:
29,110,36630,6,0,L|74:190,1,71.9999978027344,2|0,1:2|0:0,0:0:0:0:
191,55,36837,2,0,L|105:107,1,71.9999978027344,2|0,3:0|0:0,0:0:0:0:
253,204,37044,2,0,L|208:124,1,71.9999978027344,10|0,1:2|0:0,0:0:0:0:
91,259,37251,1,2,3:0:0:0:
91,259,37354,1,2,0:0:0:0:
91,259,37458,1,2,1:2:0:0:
91,259,37561,2,0,L|177:207,1,71.9999978027344,2|2,0:0|3:0,0:0:0:0:
253,204,37768,2,0,L|339:152,1,71.9999978027344,2|8,0:0|1:0,0:0:0:0:
363,29,37975,2,0,L|363:106,1,71.9999978027344,2|2,0:0|3:0,0:0:0:0:
340,298,38182,5,10,1:0:0:0:
411,281,38285,1,0,1:0:0:0:
436,213,38389,2,0,B|438:157|473:125|473:125|466:58,1,143.999995605469,10|0,1:0|0:0,0:0:0:0:
253,204,38699,2,0,B|251:260|216:292|216:292|223:359,1,143.999995605469,10|2,1:0|3:0,0:0:0:0:
141,369,39010,1,2,1:0:0:0:
99,296,39113,2,0,L|86:201,1,71.9999978027344,2|0,1:0|0:0,0:0:0:0:
228,93,39320,2,0,L|115:104,1,71.9999978027344,10|0,1:0|0:0,0:0:0:0:
305,307,39527,2,0,L|397:317,1,71.9999978027344,8|0,1:0|0:0,0:0:0:0:
494,201,39734,5,2,1:3:0:0:
417,203,39837,1,0,1:0:0:0:
343,207,39941,6,0,B|302:158|266:177|265:176,1,77.9999964294435,6|0,1:0|0:0,0:0:0:0:
412,132,40148,2,0,B|456:110|465:84|455:64,1,77.9999964294435,2|0,1:3|0:0,0:0:0:0:
272,32,40354,2,0,B|269:81|287:101|309:103,1,77.9999964294435,10|0,1:0|0:0,0:0:0:0:
273,253,40561,1,2,3:0:0:0:
201,269,40665,1,2,0:0:0:0:
139,223,40768,2,0,P|90:217|50:228,1,77.9999964294435,6|2,1:0|0:0,0:0:0:0:
159,350,41079,1,2,0:2:0:0:
32,108,41285,1,2,0:0:0:0:
32,108,41389,1,2,3:0:0:0:
32,108,41492,1,2,0:0:0:0:
32,108,41596,6,0,P|79:96|136:110,1,77.9999964294435,6|0,1:2|0:0,0:0:0:0:
344,48,41803,2,0,B|323:92|319:120|327:151,1,77.9999964294435,2|0,3:0|0:0,0:0:0:0:
192,344,42010,2,0,P|213:325|234:243,1,77.9999964294435,14|0,1:2|0:0,0:0:0:0:
174,39,42217,2,0,P|183:105|225:145,1,77.9999964294435,2|0,3:0|0:0,0:0:0:0:
427,134,42423,1,6,1:2:0:0:
414,124,42527,2,0,P|322:134|253:171,1,155.999992858887,10|2,1:0|0:0,0:0:0:0:
338,362,42837,5,8,1:0:0:0:
349,325,42941,1,2,0:0:0:0:
382,298,43044,1,2,0:0:0:0:
420,293,43148,1,2,0:0:0:0:
459,314,43251,6,0,B|495:341|533:332|529:292,1,77.9999964294435,6|0,1:2|0:0,0:0:0:0:
505,192,43458,2,0,B|470:208|442:198|404:204,1,77.9999964294435,2|0,3:0|0:0,0:0:0:0:
320,243,43665,2,0,B|285:259|257:249|219:255,1,77.9999964294435,10|0,1:0|0:0,0:0:0:0:
147,173,43872,1,2,3:0:0:0:
143,256,43975,1,2,0:0:0:0:
68,284,44079,1,2,1:2:0:0:
68,284,44182,2,0,P|78:142|87:85,2,155.999992858887,2|2|2,0:0|0:0|0:0,0:0:0:0:
170,190,44699,1,0,0:0:0:0:
170,190,44803,1,2,0:0:0:0:
170,190,44906,6,0,L|287:194,1,77.9999964294435,6|0,1:2|0:0,0:0:0:0:
108,42,45113,2,0,L|-9:46,1,77.9999964294435,2|0,3:0|0:0,0:0:0:0:
223,286,45320,2,0,L|340:290,1,77.9999964294435,6|0,1:2|0:0,0:0:0:0:
495,251,45527,2,0,L|378:255,1,77.9999964294435,2|0,3:0|0:0,0:0:0:0:
124,159,45734,1,6,1:2:0:0:
137,170,45837,2,0,L|305:180,1,155.999992858887,10|0,1:0|0:0,0:0:0:0:
420,91,46148,5,8,1:0:0:0:
382,86,46252,1,2,0:0:0:0:
349,59,46354,1,2,3:0:0:0:
338,22,46459,1,10,1:0:0:0:
411,13,46561,6,0,L|424:128,1,77.9999964294435,6|0,1:2|0:0,0:0:0:0:
418,237,46768,2,0,L|425:314,1,77.9999964294435,2|0,3:0|0:0,0:0:0:0:
295,223,46975,2,0,L|194:231,1,77.9999964294435,10|0,1:0|0:0,0:0:0:0:
60,328,47182,5,2,3:0:0:0:
132,375,47285,1,0,0:0:0:0:
140,328,47389,1,6,1:2:0:0:
129,284,47492,1,2,0:0:0:0:
418,237,47699,1,2,0:0:0:0:
279,357,47906,1,2,0:0:0:0:
279,357,48010,1,2,3:0:0:0:
279,357,48113,1,2,0:0:0:0:
279,357,48217,6,0,L|294:250,1,77.9999964294435,6|0,1:2|0:0,0:0:0:0:
415,74,48423,2,0,P|348:86|314:68,1,77.9999964294435,2|0,3:0|0:0,0:0:0:0:
418,237,48630,2,0,B|473:237|500:285|502:284,1,77.9999964294435,10|0,1:0|0:0,0:0:0:0:
216,24,48837,2,0,P|234:102|229:158,1,77.9999964294435,2|0,3:0|0:0,0:0:0:0:
31,288,49044,1,6,1:2:0:0:
41,202,49148,2,0,P|116:166|229:174,1,155.999992858887,10|0,1:0|0:0,0:0:0:0:
420,293,49458,5,8,1:0:0:0:
382,298,49561,1,2,0:0:0:0:
349,325,49665,1,2,3:0:0:0:
338,362,49769,1,2,0:0:0:0:
412,366,49872,6,0,L|509:362,2,77.9999964294435,4|8|2,1:0|1:0|3:0,0:0:0:0:
499,179,50182,1,2,0:0:0:0:
493,202,50285,2,0,P|414:208|329:206,1,155.999992858887,12|2,1:2|3:0,0:0:0:0:
125,346,50596,1,2,0:0:0:0:
144,333,50699,1,4,1:2:0:0:
160,320,50803,6,0,L|257:316,1,77.9999964294435,10|2,1:0|3:0,0:0:0:0:
227,86,51010,1,2,0:0:0:0:
245,78,51113,2,0,P|251:157|249:242,1,155.999992858887,12|2,1:2|3:2,0:0:0:0:
160,320,51423,5,2,1:0:0:0:
90,340,51527,1,8,1:0:0:0:
47,285,51630,2,0,B|60:219|43:182|43:182|59:116,1,155.999992858887,0|0,1:0|0:0,0:0:0:0:
249,233,51941,2,0,B|275:257|398:261|345:183|497:226,1,233.999989288331,4|0,1:2|0:0,0:0:0:0:
480,53,52354,5,0,1:0:0:0:
434,78,52458,1,0,1:0:0:0:
387,56,52561,1,2,1:3:0:0:
341,81,52665,1,0,1:0:0:0:
300,162,52768,1,4,1:3:0:0:
300,200,52872,1,0,1:0:0:0:
210,211,52975,1,4,1:3:0:0:
209,172,53079,1,0,1:0:0:0:
247,90,53182,6,0,B|214:73|160:83|143:110,1,90.0000034332277,6|0,1:2|0:0,0:0:0:0:
0,182,53389,2,0,B|33:165|87:175|104:202,1,90.0000034332277,2|0,3:2|0:0,0:0:0:0:
153,358,53596,1,10,1:0:0:0:
169,353,53699,1,0,0:0:0:0:
183,348,53803,2,0,L|196:229,1,90.0000034332277,2|0,3:2|0:0,0:0:0:0:
322,177,54010,1,2,1:2:0:0:
322,177,54113,2,0,L|454:191,1,90.0000034332277,2|2,0:0|3:0,0:0:0:0:
483,50,54320,2,0,L|361:62,1,90.0000034332277,2|8,0:0|1:0,0:0:0:0:
182,93,54527,1,2,0:0:0:0:
233,170,54630,1,2,3:0:0:0:
192,258,54734,1,2,0:0:0:0:
98,231,54837,6,0,L|73:109,1,90.0000034332277,2|0,1:2|0:0,0:0:0:0:
253,98,55044,2,0,L|278:-24,1,90.0000034332277,2|0,3:2|0:0,0:0:0:0:
164,175,55251,2,0,L|182:263,1,90.0000034332277,10|0,1:0|0:0,0:0:0:0:
293,186,55458,2,0,L|401:172,1,90.0000034332277,2|0,3:2|0:0,0:0:0:0:
151,45,55665,1,2,1:3:0:0:
151,45,55768,2,0,B|233:34|233:119|356:96,1,180.000006866455,2|2,0:0|0:0,0:0:0:0:
499,160,56079,1,8,1:0:0:0:
455,174,56182,1,2,0:2:0:0:
396,230,56285,1,8,1:0:0:0:
352,244,56388,1,2,0:1:0:0:
382,155,56492,6,0,L|398:48,1,90.0000034332277,6|0,1:2|0:0,0:0:0:0:
249,219,56699,2,0,L|233:326,1,90.0000034332277,2|0,3:2|0:0,0:0:0:0:
142,77,56906,2,0,P|213:61|246:89,1,90.0000034332277,10|0,1:0|0:0,0:0:0:0:
352,244,57113,2,0,P|395:253|434:233,1,90.0000034332277,2|0,3:2|0:0,0:0:0:0:
148,166,57320,1,2,1:2:0:0:
148,166,57423,2,0,L|25:177,1,90.0000034332277,2|2,0:0|3:0,0:0:0:0:
312,105,57630,2,0,L|435:94,2,90.0000034332277,2|8|0,0:0|1:0|0:0,0:0:0:0:
173,248,57941,1,2,0:0:0:0:
98,256,58044,1,2,0:0:0:0:
25,262,58148,5,14,1:2:0:0:
146,320,58354,1,2,3:2:0:0:
487,262,58561,1,10,1:0:0:0:
366,320,58768,2,0,L|385:192,1,90.0000034332277,2|0,0:0|0:0,0:0:0:0:
422,22,58975,2,0,P|442:75|305:95,1,180.000006866455,6|2,1:2|3:0,0:0:0:0:
174,57,59285,1,4,1:3:0:0:
241,4,59389,2,0,P|259:65|231:133,1,90.0000034332277,12|0,1:2|0:0,0:0:0:0:
174,230,59596,1,0,1:0:0:0:
174,230,59699,1,8,1:0:0:0:
174,230,59803,6,0,L|32:219,1,90.0000034332277,6|0,1:2|0:0,0:0:0:0:
174,57,60010,2,0,L|162:158,1,90.0000034332277,2|0,3:2|0:0,0:0:0:0:
90,338,60217,2,0,P|160:306|208:326,1,90.0000034332277,10|0,1:0|0:0,0:0:0:0:
362,211,60423,2,0,P|427:263|427:304,1,90.0000034332277,2|0,3:2|0:0,0:0:0:0:
251,345,60630,1,2,1:2:0:0:
265,261,60734,2,0,L|283:117,1,90.0000034332277,2|2,0:0|3:0,0:0:0:0:
95,57,60941,2,0,L|104:178,1,90.0000034332277,2|8,0:0|1:0,0:0:0:0:
19,310,61148,1,2,0:0:0:0:
88,262,61251,1,2,3:0:0:0:
181,281,61354,1,2,0:0:0:0:
249,358,61458,6,0,P|315:368|378:362,1,90.0000034332277,6|0,1:2|0:0,0:0:0:0:
478,272,61665,2,0,P|412:282|349:276,1,90.0000034332277,2|0,3:2|0:0,0:0:0:0:
271,150,61872,1,10,1:0:0:0:
283,162,61975,1,0,0:0:0:0:
294,173,62079,2,0,P|363:201|359:237,1,90.0000034332277,2|0,3:2|0:0,0:0:0:0:
302,42,62285,1,2,1:2:0:0:
302,42,62389,2,0,B|228:27|213:78|213:78|94:67,1,180.000006866455,2|2,0:0|0:0,0:0:0:0:
17,224,62699,1,8,1:0:0:0:
68,211,62803,1,2,0:0:0:0:
138,239,62906,1,8,1:0:0:0:
155,288,63010,1,2,0:1:0:0:
77,279,63113,6,0,L|123:160,1,90.0000034332277,6|0,1:2|0:0,0:0:0:0:
109,195,63320,2,0,L|226:194,1,90.0000034332277,2|0,3:2|0:0,0:0:0:0:
435,105,63527,2,0,L|389:224,1,90.0000034332277,8|0,1:0|0:0,0:0:0:0:
402,188,63734,2,0,L|286:190,1,90.0000034332277,2|0,3:2|0:0,0:0:0:0:
19,99,63941,1,6,1:2:0:0:
36,109,64044,2,0,L|237:107,1,180.000006866455,2|2,0:0|0:0,0:0:0:0:
359,8,64354,2,0,L|333:126,1,90.0000034332277,8|0,1:0|0:0,0:0:0:0:
306,310,64561,5,0,1:0:0:0:
325,256,64665,1,8,1:0:0:0:
369,224,64768,1,2,1:2:0:0:
422,218,64872,1,8,1:0:0:0:
469,240,64975,1,2,1:2:0:0:
102,71,65182,2,0,B|177:151|177:151|148:283,1,204.000003890991,6|2,1:2|3:0,0:0:0:0:
410,313,65492,2,0,B|335:233|335:233|364:101,1,204.000003890991,8|0,1:0|0:0,0:0:0:0:
258,23,65803,2,0,L|281:154,1,102.000001945496,2|0,1:3|0:0,0:0:0:0:
156,243,66010,2,0,L|174:344,1,102.000001945496,12|2,1:2|0:0,0:0:0:0:
16,335,66217,1,2,1:0:0:0:
16,335,66320,1,8,1:0:0:0:
16,335,66423,6,0,P|68:292|143:325,1,90.0000034332277,6|0,1:2|0:0,0:0:0:0:
236,260,66630,2,0,L|353:274,1,90.0000034332277,2|0,3:2|0:0,0:0:0:0:
494,166,66837,1,10,1:0:0:0:
477,181,66941,1,0,0:0:0:0:
458,198,67044,2,0,L|341:184,1,90.0000034332277,2|0,3:2|0:0,0:0:0:0:
266,30,67251,2,0,P|284:143|213:174,1,180.000006866455,2|2,1:2|3:0,0:0:0:0:
224,349,67561,2,0,L|241:221,1,90.0000034332277,2|8,0:0|1:0,0:0:0:0:
143,156,67768,1,2,0:0:0:0:
66,160,67872,1,2,3:0:0:0:
26,236,67975,1,2,0:0:0:0:
69,313,68079,6,0,L|196:298,1,90.0000034332277,2|0,1:2|0:0,0:0:0:0:
312,236,68285,2,0,L|298:348,1,90.0000034332277,2|0,3:2|0:0,0:0:0:0:
452,272,68492,2,0,L|466:160,1,90.0000034332277,10|0,1:0|0:0,0:0:0:0:
355,117,68699,2,0,L|265:127,1,90.0000034332277,2|0,3:2|0:0,0:0:0:0:
46,147,68906,1,2,1:0:0:0:
62,126,69010,2,0,P|143:125|161:230,1,180.000006866455,2|0,0:0|0:0,0:0:0:0:
283,16,69320,1,10,1:0:0:0:
265,67,69423,1,2,0:0:0:0:
286,151,69527,1,2,1:3:0:0:
268,202,69630,1,2,0:1:0:0:
337,94,69734,6,0,L|426:82,1,90.0000034332277,6|0,1:2|0:0,0:0:0:0:
472,278,69941,2,0,P|403:225|404:157,1,90.0000034332277,2|0,3:2|0:0,0:0:0:0:
215,127,70148,2,0,P|146:180|147:248,1,90.0000034332277,10|0,1:0|0:0,0:0:0:0:
35,357,70354,2,0,P|104:304|103:236,1,90.0000034332277,2|0,3:2|0:0,0:0:0:0:
91,45,70561,1,2,1:2:0:0:
91,45,70665,2,0,P|75:151|75:152,1,90.0000034332277,2|0,0:0|0:0,0:0:0:0:
189,274,70872,2,0,P|205:380|205:381,2,90.0000034332277,2|8|0,0:0|1:0|0:0,0:0:0:0:
297,118,71182,1,2,3:2:0:0:
378,121,71285,1,2,0:0:0:0:
460,125,71389,5,6,1:2:0:0:
337,37,71596,1,2,3:2:0:0:
52,259,71803,1,10,1:0:0:0:
175,347,72010,1,2,0:0:0:0:
67,65,72217,2,0,L|250:186,1,180.000006866455,4|2,1:2|3:0,0:0:0:0:
458,250,72527,1,4,1:3:0:0:
379,195,72630,2,0,L|295:147,1,90.0000034332277,12|0,1:2|0:0,0:0:0:0:
236,308,72837,1,0,1:0:0:0:
236,308,72941,1,8,1:0:0:0:
236,308,73044,6,0,P|292:287|347:313,1,90.0000034332277,6|0,1:2|0:0,0:0:0:0:
443,86,73251,2,0,P|452:191|410:216,1,90.0000034332277,2|0,3:2|0:0,0:0:0:0:
411,358,73458,2,0,L|412:259,1,90.0000034332277,10|0,1:0|0:0,0:0:0:0:
241,204,73665,2,0,L|105:215,1,90.0000034332277,2|0,0:0|0:0,0:0:0:0:
28,317,73872,1,2,1:2:0:0:
28,317,73975,2,0,L|164:306,1,90.0000034332277,2|2,0:0|3:0,0:0:0:0:
255,365,74182,2,0,P|256:301|273:226,1,90.0000034332277,2|8,0:0|1:0,0:0:0:0:
250,81,74389,1,2,0:0:0:0:
172,40,74492,1,2,3:0:0:0:
83,60,74596,1,2,0:0:0:0:
40,153,74699,6,0,L|53:263,1,90.0000034332277,6|0,1:2|0:0,0:0:0:0:
213,177,74906,2,0,L|349:166,1,90.0000034332277,2|0,3:2|0:0,0:0:0:0:
423,65,75113,2,0,P|454:124|433:187,1,90.0000034332277,10|0,1:0|0:0,0:0:0:0:
357,323,75320,2,0,P|326:264|347:201,1,90.0000034332277,2|0,3:2|0:0,0:0:0:0:
193,10,75527,1,2,1:2:0:0:
193,10,75630,2,0,B|219:100|181:110|205:201,1,180.000006866455,2|2,0:0|0:0,0:0:0:0:
56,340,75941,1,10,1:2:0:0:
86,276,76044,1,2,0:0:0:0:
172,253,76148,1,2,1:3:0:0:
142,317,76251,1,2,0:1:0:0:
213,341,76354,6,0,L|323:348,1,90.0000034332277,6|0,1:2|0:0,0:0:0:0:
436,253,76561,2,0,L|326:246,1,90.0000034332277,2|0,3:2|0:0,0:0:0:0:
260,118,76768,1,10,1:0:0:0:
260,118,76872,1,0,0:0:0:0:
260,118,76975,2,0,L|150:111,1,90.0000034332277,2|0,3:2|0:0,0:0:0:0:
65,334,77182,1,6,1:2:0:0:
87,345,77285,2,0,P|151:274|123:152,1,180.000006866455,2|2,0:0|0:0,0:0:0:0:
287,322,77596,2,0,L|407:332,1,90.0000034332277,8|0,1:0|0:0,0:0:0:0:
457,88,77803,5,2,1:2:0:0:
413,118,77906,1,2,1:0:0:0:
403,172,78010,1,8,1:0:0:0:
419,222,78113,1,0,1:0:0:0:
463,248,78217,1,10,1:0:0:0:
336,29,78423,2,0,B|279:27|252:62|252:62|206:41|206:41|180:60|88:62,1,204.000003890991,12|2,1:2|3:0,0:0:0:0:
0,256,78734,2,0,B|57:258|84:223|84:223|130:244|130:244|156:225|248:223,1,204.000003890991,8|0,1:0|0:0,0:0:0:0:
325,119,79044,2,0,P|344:199|323:255,1,102.000001945496,2|0,1:3|0:0,0:0:0:0:
285,358,79251,2,0,P|266:278|287:222,1,102.000001945496,12|0,1:2|0:0,0:0:0:0:
125,141,79458,1,0,1:0:0:0:
125,141,79561,1,0,1:0:0:0:
125,141,79665,1,6,1:2:0:0:
220,300,92906,6,0,P|197:223|145:168,1,120,6|2,1:2|3:0,0:0:0:0:
79,56,93320,2,0,L|155:67,1,60,10|0,1:2|0:0,0:0:0:0:
236,128,93527,2,0,L|312:139,1,60,2|0,3:2|0:0,0:0:0:0:
378,105,93734,1,2,0:0:0:0:
378,105,93837,1,2,0:0:0:0:
160,133,94044,1,2,0:0:0:0:
242,321,94251,1,2,0:0:0:0:
242,321,94354,1,2,3:0:0:0:
242,321,94458,1,2,0:0:0:0:
242,321,94561,6,0,P|260:242|243:169,1,120,6|2,1:2|3:0,0:0:0:0:
241,40,94975,2,0,L|301:87,1,60,10|0,1:2|0:0,0:0:0:0:
341,180,95182,2,0,L|401:227,1,60,2|0,3:2|0:0,0:0:0:0:
476,231,95389,1,2,0:0:0:0:
476,231,95492,1,2,0:0:0:0:
270,148,95699,1,2,0:0:0:0:
252,326,95906,1,2,0:0:0:0:
252,326,96009,1,2,1:0:0:0:
252,326,96113,1,2,0:0:0:0:
252,326,96216,6,0,P|307:267|328:195,1,120,6|2,1:2|3:0,0:0:0:0:
391,82,96630,2,0,L|419:153,1,60,10|0,1:2|0:0,0:0:0:0:
408,253,96837,2,0,L|436:324,1,60,2|0,3:2|0:0,0:0:0:0:
499,365,97044,1,2,0:0:0:0:
499,365,97147,1,2,0:0:0:0:
276,144,97354,1,2,0:0:0:0:
70,214,97561,1,2,0:0:0:0:
70,214,97664,1,2,3:3:0:0:
70,214,97768,1,2,0:0:0:0:
70,214,97872,6,0,P|147:191|202:139,1,120,6|2,1:2|3:0,0:0:0:0:
312,72,98285,2,0,L|301:148,1,60,10|0,1:2|0:0,0:0:0:0:
241,228,98492,2,0,L|229:303,1,60,2|0,3:2|3:0,0:0:0:0:
264,371,98699,1,6,1:2:0:0:
264,371,98802,1,2,0:0:0:0:
160,75,99009,1,2,0:0:0:0:
160,75,99113,2,0,L|238:65,1,60,6|0,1:2|0:0,0:0:0:0:
402,40,99320,1,0,1:0:0:0:
443,50,99423,1,0,1:0:0:0:
474,84,99527,5,6,1:2:0:0:
301,156,99734,1,0,1:0:0:0:
324,350,99941,1,6,1:2:0:0:
497,278,100148,1,2,1:3:0:0:
38,84,100354,5,6,1:0:0:0:
211,156,100561,1,0,1:0:0:0:
188,350,100768,1,6,1:2:0:0:
15,278,100975,1,2,1:3:0:0:
474,84,101182,5,6,1:2:0:0:
301,156,101389,1,0,1:0:0:0:
324,350,101596,1,6,1:2:0:0:
497,278,101803,1,2,1:3:0:0:
38,84,102010,5,6,1:2:0:0:
211,156,102217,1,0,1:0:0:0:
188,350,102424,1,6,1:2:0:0:
15,278,102631,1,2,1:3:0:0:
257,43,102837,5,6,1:2:0:0:
295,68,102941,1,2,1:2:0:0:
310,114,103044,1,6,1:2:0:0:
296,160,103148,1,2,1:2:0:0:
227,188,103251,5,4,1:0:0:0:
230,233,103355,1,2,1:2:0:0:
262,269,103458,1,4,1:2:0:0:
309,280,103562,1,2,1:2:0:0:
389,308,103665,5,4,1:0:0:0:
400,258,103768,1,2,1:2:0:0:
411,209,103872,1,6,1:2:0:0:
422,158,103975,1,2,1:2:0:0:
493,101,104079,5,4,1:0:0:0:
443,90,104182,1,2,1:2:0:0:
394,79,104286,1,6,1:2:0:0:
343,68,104389,1,2,1:2:0:0:
252,37,104492,5,6,1:2:0:0:
232,44,104596,1,2,1:2:0:0:
180,104,104699,1,6,1:2:0:0:
160,97,104803,1,2,1:2:0:0:
113,40,104906,5,6,1:2:0:0:
93,47,105010,1,2,1:2:0:0:
41,103,105113,1,6,1:2:0:0:
21,96,105217,1,2,1:2:0:0:
43,184,105320,5,6,1:2:0:0:
56,215,105423,1,2,1:2:0:0:
109,282,105527,5,6,1:2:0:0:
122,251,105630,1,2,1:2:0:0:
171,173,105734,5,6,1:2:0:0:
184,204,105837,1,2,1:2:0:0:
237,271,105941,5,6,1:2:0:0:
250,240,106044,1,2,1:2:0:0:
318,198,106148,6,0,P|403:200|510:189,1,180.000006866455,6|8,1:0|0:1,0:0:0:0:
236,94,106768,2,0,P|151:92|44:103,1,180.000006866455,0|0,1:0|0:0,0:0:0:0:
294,34,107389,2,0,P|322:98|318:129,1,90.0000034332277,8|0,1:0|0:0,0:0:0:0:
320,116,107699,1,2,0:3:0:0:
320,116,107803,1,2,1:2:0:0:
412,67,108010,1,0,3:0:0:0:
469,155,108217,1,8,1:0:0:0:
297,31,108423,6,0,P|257:50|245:186,1,180.000006866455,0|0,1:0|0:0,0:0:0:0:
56,307,109044,1,0,1:0:0:0:
56,307,109251,2,0,L|131:297,1,45.0000017166138,2|0,0:2|0:0,0:0:0:0:
174,361,109458,6,0,P|187:302|313:236,1,180.000006866455,0|8,1:0|1:0,0:0:0:0:
472,335,110079,2,0,P|414:353|265:322,1,180.000006866455
501,179,110699,2,0,P|499:237|508:287,1,90.0000034332277,8|0,1:0|0:0,0:0:0:0:
460,70,111113,5,2,1:3:0:0:
423,92,111217,1,0,1:0:0:0:
377,103,111320,1,2,1:3:0:0:
329,105,111423,1,0,1:0:0:0:
285,77,111527,1,2,1:3:0:0:
235,68,111630,1,0,1:0:0:0:
188,90,111734,1,2,1:3:0:0:
165,137,111837,1,0,1:0:0:0:
183,187,111941,1,2,1:2:0:0:
205,233,112044,1,0,1:0:0:0:
194,284,112148,1,0,1:0:0:0:
164,334,112251,1,2,1:3:0:0:
113,353,112354,1,0,1:0:0:0:
58,341,112458,1,0,1:0:0:0:
23,299,112561,1,2,1:2:0:0:
26,244,112665,1,0,1:0:0:0:
62,206,112768,6,0,L|135:215,1,71.9999978027344,6|0,1:2|0:0,0:0:0:0:
244,148,112975,2,0,L|317:157,1,71.9999978027344,2|0,3:0|0:0,0:0:0:0:
392,249,113182,1,10,1:0:0:0:
392,249,113389,1,2,3:0:0:0:
392,249,113492,1,0,0:0:0:0:
392,249,113596,2,0,L|400:167,1,71.9999978027344,2|2,1:2|0:0,0:0:0:0:
477,51,113803,1,2,3:0:0:0:
477,51,113906,2,0,P|472:139|483:212,1,143.999995605469,2|0,0:0|0:0,0:0:0:0:
382,82,114217,1,2,3:0:0:0:
382,82,114320,1,2,0:0:0:0:
382,82,114423,6,0,P|325:96|312:130,1,71.9999978027344,2|0,1:2|0:0,0:0:0:0:
218,92,114630,2,0,P|221:153|241:189,1,71.9999978027344,2|0,3:0|0:0,0:0:0:0:
139,259,114837,2,0,P|210:259|242:220,1,71.9999978027344,10|0,1:0|0:0,0:0:0:0:
470,270,115044,1,2,3:0:0:0:
457,293,115148,1,2,0:0:0:0:
445,314,115251,2,0,P|374:314|342:353,1,71.9999978027344,2|0,1:2|0:0,0:0:0:0:
282,366,115458,1,2,3:0:0:0:
288,334,115561,2,0,L|299:244,2,71.9999978027344,2|8|0,0:0|1:0|0:0,0:0:0:0:
356,208,115872,2,0,L|366:121,1,71.9999978027344,2|0,3:0|0:0,0:0:0:0:
438,34,116079,5,2,1:2:0:0:
438,34,116182,1,0,0:0:0:0:
438,34,116285,2,0,P|370:46|329:34,1,71.9999978027344,2|0,3:0|0:0,0:0:0:0:
276,139,116492,2,0,P|208:151|167:139,1,71.9999978027344,10|0,1:2|0:0,0:0:0:0:
37,127,116699,2,0,L|113:139,1,71.9999978027344,2|2,3:0|0:0,0:0:0:0:
60,263,116906,1,2,1:2:0:0:
60,263,117010,2,0,L|-9:294,1,71.9999978027344,2|2,0:0|3:0,0:0:0:0:
125,233,117217,2,0,L|56:264,1,71.9999978027344,2|8,0:2|1:0,0:0:0:0:
227,221,117423,1,0,0:0:0:0:
227,221,117527,2,0,L|296:190,1,71.9999978027344,2|0,3:0|0:0,0:0:0:0:
440,92,117734,5,2,1:2:0:0:
406,162,117837,2,0,B|375:230|435:226|397:325,1,143.999995605469,8|0,1:0|0:0,0:0:0:0:
212,141,118148,2,0,B|243:73|183:77|221:-22,1,143.999995605469,10|2,1:2|3:0,0:0:0:0:
292,82,118458,1,2,1:2:0:0:
296,165,118561,2,0,L|302:267,1,71.9999978027344,2|0,1:2|0:0,0:0:0:0:
136,99,118768,2,0,L|142:201,1,71.9999978027344,10|0,1:0|0:0,0:0:0:0:
225,353,118975,2,0,L|220:281,1,71.9999978027344,8|0,1:0|0:0,0:0:0:0:
52,118,119182,1,2,3:0:0:0:
61,191,119285,1,0,1:0:0:0:
70,263,119389,6,0,P|38:302|50:343,1,77.9999964294435,6|0,1:2|0:0,0:0:0:0:
220,281,119596,2,0,P|247:255|249:217,1,77.9999964294435,2|0,1:3|0:0,0:0:0:0:
208,84,119803,2,0,L|304:95,1,77.9999964294435,10|0,1:2|0:0,0:0:0:0:
486,205,120010,1,0,3:0:0:0:
411,192,120113,1,2,0:0:0:0:
374,260,120217,2,0,P|325:275|288:273,1,77.9999964294435,6|2,1:2|0:0,0:0:0:0:
466,115,120527,2,0,L|468:38,1,77.9999964294435,2|8,0:0|1:0,0:0:0:0:
384,79,120734,1,2,0:0:0:0:
384,79,120837,1,2,3:0:0:0:
384,79,120941,1,2,0:0:0:0:
384,79,121044,6,0,P|339:121|343:172,1,77.9999964294435,6|0,1:2|0:0,0:0:0:0:
224,310,121251,2,0,P|273:351|323:340,1,77.9999964294435,2|0,1:3|0:0,0:0:0:0:
213,130,121458,2,0,P|164:89|114:100,1,77.9999964294435,14|0,1:2|0:0,0:0:0:0:
421,265,121665,2,0,P|501:254|537:223,1,77.9999964294435,2|0,3:0|0:0,0:0:0:0:
225,209,121872,1,6,1:2:0:0:
203,232,121975,2,0,P|114:246|-12:227,1,155.999992858887,2|0,1:2|0:0,0:0:0:0:
286,354,122285,5,10,1:2:0:0:
310,316,122389,1,2,0:0:0:0:
354,296,122492,1,2,3:0:0:0:
401,296,122596,1,2,0:0:0:0:
443,316,122699,6,0,P|486:338|545:323,1,77.9999964294435,6|0,1:2|0:0,0:0:0:0:
493,226,122906,1,2,1:3:0:0:
493,226,123010,1,0,0:0:0:0:
493,226,123113,2,0,L|483:117,1,77.9999964294435,10|0,1:0|0:0,0:0:0:0:
383,84,123320,2,0,L|279:97,1,77.9999964294435,2|0,3:0|0:0,0:0:0:0:
183,191,123527,1,6,1:2:0:0:
183,191,123630,2,0,L|287:178,1,77.9999964294435,2|2,0:0|3:0,0:0:0:0:
460,74,123837,2,0,L|356:87,1,77.9999964294435,2|8,0:0|1:0,0:0:0:0:
219,98,124044,1,2,0:0:0:0:
219,98,124148,1,2,3:0:0:0:
219,98,124251,1,2,0:0:0:0:
219,98,124354,6,0,L|114:80,1,77.9999964294435,6|0,1:2|0:0,0:0:0:0:
238,292,124561,2,0,L|278:384,1,77.9999964294435,2|0,1:3|0:0,0:0:0:0:
443,223,124768,2,0,L|528:135,1,77.9999964294435,14|0,1:2|0:0,0:0:0:0:
164,181,124975,2,0,L|59:163,1,77.9999964294435,2|0,3:0|0:0,0:0:0:0:
384,4,125182,1,6,1:2:0:0:
356,40,125285,2,0,B|324:111|365:189|381:206,1,155.999992858887,2|0,1:2|0:0,0:0:0:0:
286,354,125596,5,10,1:2:0:0:
310,316,125700,1,2,0:0:0:0:
354,296,125803,1,2,3:0:0:0:
401,296,125907,1,10,1:0:0:0:
443,316,126010,6,0,P|486:338|545:323,1,77.9999964294435,6|0,1:2|0:0,0:0:0:0:
512,216,126217,2,0,L|426:230,1,77.9999964294435,2|0,1:3|0:0,0:0:0:0:
278,221,126423,2,0,L|192:235,1,77.9999964294435,10|0,1:2|0:0,0:0:0:0:
43,276,126630,5,2,3:0:0:0:
96,204,126734,1,2,0:0:0:0:
122,251,126837,1,4,1:2:0:0:
124,306,126941,1,10,1:0:0:0:
95,78,127148,2,0,L|187:89,1,77.9999964294435,2|8,0:0|1:0,0:0:0:0:
273,46,127354,1,0,0:0:0:0:
273,46,127458,1,2,3:0:0:0:
273,46,127561,1,2,0:0:0:0:
273,46,127665,6,0,P|254:118|254:183,1,77.9999964294435,6|0,1:2|0:0,0:0:0:0:
273,338,127872,2,0,P|254:266|254:201,1,77.9999964294435,2|0,1:3|0:0,0:0:0:0:
392,189,128079,2,0,L|501:196,1,77.9999964294435,10|0,1:2|0:0,0:0:0:0:
122,171,128285,2,0,L|13:164,1,77.9999964294435,2|0,3:0|0:0,0:0:0:0:
99,343,128492,1,6,1:2:0:0:
144,268,128596,2,0,P|161:158|159:70,1,155.999992858887,2|0,1:2|0:0,0:0:0:0:
286,354,128906,5,10,1:2:0:0:
310,316,129010,1,2,0:0:0:0:
354,296,129113,1,2,3:0:0:0:
401,296,129217,1,2,0:0:0:0:
443,316,129320,6,0,P|486:338|545:323,1,77.9999964294435,4|10,1:2|1:0,0:0:0:0:
489,177,129527,1,2,3:0:0:0:
479,197,129630,1,2,0:0:0:0:
467,215,129734,2,0,P|359:207|282:213,1,155.999992858887,12|2,1:2|3:0,0:0:0:0:
138,47,130044,5,2,0:0:0:0:
173,60,130148,1,4,1:2:0:0:
203,72,130251,2,0,L|195:189,1,77.9999964294435,2|2,1:2|3:0,0:0:0:0:
67,318,130458,1,2,0:0:0:0:
84,300,130561,2,0,P|80:213|44:129,1,155.999992858887,12|2,1:2|3:0,0:0:0:0:
298,158,130872,5,2,1:0:0:0:
252,222,130975,1,4,1:2:0:0:
296,290,131079,2,0,B|347:279|375:307|375:307|450:309,1,155.999992858887,0|0,1:0|0:0,0:0:0:0:
512,116,131389,2,0,B|448:136|405:90|405:90|334:58|266:94,1,233.999989288331,12|0,1:2|0:0,0:0:0:0:
88,47,131803,1,0,1:2:0:0:
71,100,131906,1,0,1:0:0:0:
88,153,132010,1,0,1:0:0:0:
135,179,132113,1,0,1:0:0:0:
206,155,132217,1,4,1:3:0:0:
219,196,132320,1,0,1:0:0:0:
307,224,132423,1,4,1:3:0:0:
299,268,132527,1,0,1:0:0:0:
239,321,132630,5,6,1:2:0:0:
239,321,132837,1,0,3:0:0:0:
64,336,133044,2,0,B|79:291|100:259|100:258,1,60,10|0,1:0|0:0,0:0:0:0:
88,153,133251,2,0,P|123:145|183:152,1,60,2|0,3:0|0:0,0:0:0:0:
270,81,133458,1,2,0:0:0:0:
270,81,133561,2,0,P|269:123|274:165,1,60,2|2,0:0|3:0,0:0:0:0:
250,281,133768,1,2,0:0:0:0:
250,281,133872,1,8,1:0:0:0:
256,192,133975,12,0,135837,0:0:0:0:
273,103,135941,6,0,L|372:108,1,60,6|0,0:0|0:0,0:0:0:0:
255,191,136148,2,0,L|196:188,1,60,2|0,3:0|0:0,0:0:0:0:
119,273,136354,2,0,L|218:278,1,60,10|0,1:0|0:0,0:0:0:0:
101,361,136561,2,0,L|42:358,1,60,2|0,3:0|0:0,0:0:0:0:
0,266,136768,1,2,0:0:0:0:
0,266,136872,2,0,L|14:170,1,60,2|2,0:0|3:0,0:0:0:0:
188,361,137079,1,2,0:0:0:0:
188,361,137182,1,8,1:0:0:0:
256,192,137285,12,0,139044,0:0:0:0:
188,348,139148,5,0,0:0:0:0:
197,331,139251,2,0,L|166:223,1,83.9999974365235,0|0,1:0|0:0,0:0:0:0:
92,178,139458,2,0,L|61:70,1,83.9999974365235,2|0,0:3|0:0,0:0:0:0:
180,9,139665,2,0,L|211:117,1,83.9999974365235,0|0,1:0|0:0,0:0:0:0:
285,162,139872,2,0,L|316:270,1,83.9999974365235,2|0,0:3|0:0,0:0:0:0:
403,315,140079,6,0,L|434:207,1,83.9999974365235,0|0,1:0|0:0,0:0:0:0:
400,81,140286,2,0,L|267:47,1,83.9999974365235,2|0,0:3|0:0,0:0:0:0:
109,69,140492,2,0,L|78:177,1,83.9999974365235,0|0,1:0|0:0,0:0:0:0:
112,303,140699,2,0,L|245:337,1,83.9999974365235,2|0,0:3|0:0,0:0:0:0:
298,384,140906,6,0,P|273:326|327:263,1,83.9999974365235,4|0,1:2|0:0,0:0:0:0:
294,159,141113,1,2,0:3:0:0:
294,159,141217,1,2,0:0:0:0:
294,159,141320,2,0,P|319:217|265:280,1,83.9999974365235,2|0,1:2|0:0,0:0:0:0:
196,270,141527,2,0,P|171:212|225:149,1,83.9999974365235,2|0,0:3|0:0,0:0:0:0:
60,87,141734,2,0,P|85:145|31:208,1,83.9999974365235,6|0,1:2|0:0,0:0:0:0:
54,327,141941,1,2,0:3:0:0:
54,327,142044,1,2,0:0:0:0:
54,327,142148,2,0,L|172:339,1,83.9999974365235,2|0,1:2|0:0,0:0:0:0:
274,303,142354,2,0,L|392:315,1,83.9999974365235,2|0,0:3|0:0,0:0:0:0:
468,367,142561,5,4,1:2:0:0:
482,294,142665,1,2,1:3:0:0:
112,172,142872,1,0,1:0:0:0:
178,216,142975,1,0,1:3:0:0:
182,294,143079,1,2,1:3:0:0:
330,90,143285,1,0,1:0:0:0:
334,168,143389,1,0,1:0:0:0:
400,212,143492,1,2,1:3:0:0:
44,17,143699,1,0,1:0:0:0:
30,90,143803,1,2,1:3:0:0:
259,29,144010,5,2,0:3:0:0:
259,29,144113,1,0,0:0:0:0:
259,29,144217,2,0,B|296:42|319:64|319:113,1,83.9999974365235,6|0,1:2|1:0,1:0:0:0:
347,362,144423,2,0,B|310:349|287:327|287:278,1,83.9999974365235,2|0,1:0|1:0,1:0:0:0:
500,178,144630,2,0,B|487:215|465:238|416:238,1,83.9999974365235,6|0,1:2|1:0,1:0:0:0:
88,161,144837,2,0,B|101:124|123:101|172:101,1,83.9999974365235,2|0,1:0|1:0,1:0:0:0:
479,30,145044,6,0,L|420:132,1,83.9999974365235,4|0,1:2|1:0,1:0:0:0:
58,334,145251,2,0,L|101:262,1,83.9999974365235,0|0,1:0|1:0,1:0:0:0:
309,214,145458,1,6,0:2:0:0:
309,214,145561,1,2,0:0:0:0:
309,214,145665,1,2,3:0:0:0:
309,214,145768,1,2,0:0:0:0:
309,214,145872,6,0,P|325:145|279:96,1,90.0000034332277,6|0,1:2|0:0,0:0:0:0:
390,6,146079,1,2,3:2:0:0:
377,26,146182,1,0,0:0:0:0:
366,43,146285,2,0,L|218:53,1,90.0000034332277,10|0,1:2|0:0,0:0:0:0:
223,161,146492,2,0,L|75:171,1,90.0000034332277,2|0,3:2|0:0,0:0:0:0:
34,326,146699,1,2,1:0:0:0:
34,326,146803,2,0,P|85:291|150:313,1,90.0000034332277,2|2,0:0|3:0,0:0:0:0:
305,313,147010,2,0,P|254:348|189:326,1,90.0000034332277,2|8,0:0|1:0,0:0:0:0:
228,234,147217,1,0,0:0:0:0:
228,234,147320,2,0,L|342:245,1,90.0000034332277,2|0,3:0|0:0,0:0:0:0:
432,311,147527,6,0,P|435:232|478:190,1,90.0000034332277,2|0,1:2|0:0,0:0:0:0:
386,42,147734,1,2,3:0:0:0:
426,121,147838,1,2,0:0:0:0:
338,118,147941,2,0,L|207:109,1,90.0000034332277,8|0,1:0|0:0,0:0:0:0:
95,30,148148,2,0,P|162:58|158:131,1,90.0000034332277,2|0,3:2|0:0,0:0:0:0:
104,325,148354,1,2,1:2:0:0:
187,257,148458,2,0,P|159:153|79:122,1,180.000006866455,2|2,0:0|0:0,0:0:0:0:
30,244,148768,6,0,P|100:216|143:259,1,90.0000034332277,10|2,1:0|0:0,0:0:0:0:
265,232,148975,2,0,P|195:260|152:217,1,90.0000034332277,0|2,1:0|0:2,0:0:0:0:
319,34,149182,6,0,L|445:60,1,90.0000034332277,6|0,1:2|0:0,0:0:0:0:
233,63,149389,2,0,L|335:28,1,90.0000034332277,2|0,3:2|0:0,0:0:0:0:
144,44,149596,2,0,L|270:70,1,90.0000034332277,10|0,1:2|0:0,0:0:0:0:
59,73,149803,2,0,L|161:38,1,90.0000034332277,2|0,3:2|0:0,0:0:0:0:
140,160,150010,1,2,1:0:0:0:
140,160,150113,2,0,B|156:195|106:208|149:302,1,90.0000034332277,2|2,0:0|3:0,0:0:0:0:
109,357,150320,1,2,0:0:0:0:
109,357,150423,2,0,B|45:339|28:267|69:267,1,90.0000034332277,8|0,1:0|0:0,0:0:0:0:
217,98,150630,5,2,3:0:0:0:
291,101,150734,1,2,0:0:0:0:
364,105,150837,1,6,1:2:0:0:
463,62,151044,1,2,3:0:0:0:
130,41,151251,1,10,1:0:0:0:
289,293,151458,1,2,3:0:0:0:
68,123,151665,1,6,1:2:0:0:
89,126,151768,2,0,B|110:159|110:159|97:216,1,90.0000034332277,2|2,0:0|3:0,0:0:0:0:
246,372,151975,1,4,3:0:0:0:
225,369,152078,2,0,B|204:336|204:336|217:279,1,90.0000034332277,14|0,1:2|0:0,0:0:0:0:
446,171,152285,1,2,1:2:0:0:
433,254,152389,1,0,1:0:0:0:
418,333,152492,6,0,P|348:312|293:336,1,90.0000034332277,6|0,1:2|0:0,0:0:0:0:
280,194,152699,2,0,P|210:173|155:197,1,90.0000034332277,2|0,3:2|0:0,0:0:0:0:
56,313,152906,2,0,P|109:262|115:203,1,90.0000034332277,10|0,1:0|0:0,0:0:0:0:
70,81,153113,2,0,P|86:152|135:187,1,90.0000034332277,2|0,3:2|0:0,0:0:0:0:
183,283,153320,1,0,1:0:0:0:
183,283,153423,2,0,L|279:274,1,90.0000034332277,2|2,0:0|3:0,0:0:0:0:
391,163,153630,1,2,0:0:0:0:
391,163,153734,2,0,P|348:187|358:256,1,90.0000034332277,8|0,1:0|0:0,0:0:0:0:
356,343,153941,1,2,3:0:0:0:
356,343,154044,1,0,0:0:0:0:
356,343,154148,6,0,L|452:334,1,90.0000034332277,6|0,1:2|0:0,0:0:0:0:
183,283,154354,2,0,L|279:274,1,90.0000034332277,2|0,3:2|0:0,0:0:0:0:
480,154,154561,2,0,L|390:162,1,90.0000034332277,10|0,1:0|0:0,0:0:0:0:
183,283,154768,2,0,L|87:292,1,90.0000034332277,2|0,3:2|0:0,0:0:0:0:
224,26,154975,1,2,1:2:0:0:
224,26,155079,2,0,B|248:124|177:87|216:218,1,180.000006866455,2|0,0:2|0:0,0:0:0:0:
250,362,155389,1,10,1:0:0:0:
271,343,155492,1,2,0:0:0:0:
301,282,155596,1,2,1:3:0:0:
327,262,155699,1,2,0:1:0:0:
359,336,155803,6,0,P|448:343|460:289,1,90.0000034332277,4|0,1:2|0:0,0:0:0:0:
431,101,156010,2,0,L|416:245,1,90.0000034332277,2|0,3:2|0:0,0:0:0:0:
327,84,156217,1,10,1:0:0:0:
327,84,156320,1,0,0:0:0:0:
327,84,156423,2,0,P|236:76|225:97,1,90.0000034332277,2|0,3:2|0:0,0:0:0:0:
141,188,156630,1,6,1:2:0:0:
141,188,156734,2,0,P|196:156|225:188,1,90.0000034332277,2|2,0:0|3:0,0:0:0:0:
287,339,156941,1,2,0:0:0:0:
287,339,157045,2,0,P|232:307|203:339,1,90.0000034332277,8|0,1:0|0:0,0:0:0:0:
17,157,157251,5,2,1:3:0:0:
86,166,157354,1,0,1:0:0:0:
128,225,157458,1,8,1:2:0:0:
125,299,157561,1,8,1:0:0:0:
61,344,157665,1,0,1:0:0:0:
393,41,157872,6,0,P|274:44|278:140,1,180.000006866455,12|2,1:2|3:0,0:0:0:0:
272,280,158182,2,0,P|263:189|346:128,1,180.000006866455,8|0,1:0|0:0,0:0:0:0:
136,67,158492,2,0,P|169:101|173:192,1,90.0000034332277,2|0,1:2|0:0,0:0:0:0:
360,270,158699,2,0,L|483:258,1,90.0000034332277,12|0,1:2|0:0,0:0:0:0:
477,91,158906,1,2,1:2:0:0:
477,91,159010,1,0,1:0:0:0:
477,91,159113,6,0,L|462:211,1,93.0000007095337,6|0,1:2|0:0,0:0:0:0:
369,356,159320,2,0,P|362:272|337:256,1,93.0000007095337,2|0,3:2|0:0,0:0:0:0:
305,127,159527,1,10,1:0:0:0:
295,148,159630,1,0,0:0:0:0:
284,170,159734,2,0,L|165:180,1,93.0000007095337,2|0,3:2|0:0,0:0:0:0:
49,321,159941,1,2,1:0:0:0:
49,321,160044,2,0,P|73:263|52:195,1,93.0000007095337,2|2,0:0|3:0,0:0:0:0:
119,25,160251,2,0,P|105:128|136:148,1,93.0000007095337,2|8,0:0|1:0,0:0:0:0:
151,275,160458,1,2,0:0:0:0:
239,254,160561,1,2,3:0:0:0:
320,301,160665,1,2,0:0:0:0:
376,378,160768,6,0,L|419:244,1,93.0000007095337,2|0,1:0|0:0,0:0:0:0:
426,96,160975,2,0,P|373:127|375:189,1,93.0000007095337,2|0,3:2|0:0,0:0:0:0:
263,343,161182,2,0,L|226:207,1,93.0000007095337,10|0,1:0|2:0,2:0:0:0:
202,74,161389,2,0,P|174:128|209:179,1,93.0000007095337,2|0,3:2|2:0,2:0:0:0:
28,302,161596,1,2,1:0:0:0:
30,199,161699,2,0,P|93:138|195:167,1,186.000001419067,2|0,0:0|0:0,0:0:0:0:
386,287,162010,1,10,1:0:0:0:
390,236,162113,1,2,0:0:0:0:
483,205,162217,1,2,1:3:0:0:
479,256,162320,1,2,0:1:0:0:
423,346,162423,6,0,L|397:223,1,93.0000007095337,6|0,1:2|0:0,0:0:0:0:
380,51,162630,2,0,L|345:188,1,93.0000007095337,2|0,3:2|0:0,0:0:0:0:
309,285,162837,2,0,L|172:268,1,93.0000007095337,10|0,1:0|0:0,0:0:0:0:
5,158,163044,2,0,L|142:175,1,93.0000007095337,2|0,3:2|0:0,0:0:0:0:
295,135,163251,5,2,1:2:0:0:
224,70,163354,2,0,P|146:80|140:100,1,93.0000007095337,2|2,0:0|3:0,0:0:0:0:
58,286,163561,2,0,P|136:276|142:256,1,93.0000007095337,2|8,0:0|1:0,0:0:0:0:
390,194,163768,1,2,0:0:0:0:
376,291,163872,1,2,3:0:0:0:
301,337,163975,1,2,0:0:0:0:
300,238,164079,6,0,P|291:122|275:16,1,186.000001419067,6|2,1:2|3:0,0:0:0:0:
171,9,164389,1,2,0:0:0:0:
73,71,164492,2,0,P|82:187|98:293,1,186.000001419067,10|2,1:0|3:0,0:0:0:0:
299,363,164803,1,0,0:0:0:0:
299,363,164906,2,0,P|348:337|528:356,1,186.000001419067,4|2,1:2|3:0,0:0:0:0:
490,172,165217,1,4,1:3:0:0:
391,235,165320,2,0,P|318:192|339:113,1,93.0000007095337,14|0,1:2|0:0,0:0:0:0:
187,42,165527,1,2,1:0:0:0:
205,125,165630,1,2,1:0:0:0:
162,199,165734,6,0,L|59:205,1,93.0000007095337,6|0,1:2|0:0,0:0:0:0:
33,343,165941,2,0,P|87:298|61:236,1,93.0000007095337,2|0,3:2|0:0,0:0:0:0:
118,106,166148,1,10,1:0:0:0:
118,106,166251,1,0,0:0:0:0:
118,106,166354,2,0,L|15:112,1,93.0000007095337,2|0,3:2|0:0,0:0:0:0:
237,133,166561,5,2,1:2:0:0:
303,200,166665,2,0,P|337:247|339:311,1,93.0000007095337,2|2,0:0|3:0,0:0:0:0:
389,119,166872,2,0,P|423:72|425:8,1,93.0000007095337,2|8,0:0|1:2,0:0:0:0:
302,0,167079,1,2,0:0:0:0:
239,48,167182,1,2,3:0:0:0:
237,133,167285,1,2,0:0:0:0:
186,207,167389,6,0,P|137:184|110:111,1,93.0000007095337,6|0,1:2|0:0,0:0:0:0:
14,38,167596,1,2,3:2:0:0:
14,38,167699,1,0,0:0:0:0:
14,38,167803,2,0,L|34:168,1,93.0000007095337,10|0,1:0|0:0,0:0:0:0:
77,301,168010,2,0,P|122:286|187:337,1,93.0000007095337,2|0,3:2|0:0,0:0:0:0:
367,296,168217,1,2,1:0:0:0:
284,349,168320,2,0,P|200:284|248:174,1,186.000001419067,2|0,0:0|0:0,0:0:0:0:
282,65,168630,1,10,1:0:0:0:
328,97,168734,1,2,0:0:0:0:
422,108,168837,1,2,1:3:0:0:
474,85,168941,1,2,0:1:0:0:
379,44,169044,6,0,L|366:202,1,93.0000007095337,6|0,1:2|0:0,0:0:0:0:
443,329,169251,2,0,P|384:287|325:310,1,93.0000007095337,2|0,3:2|0:0,0:0:0:0:
224,147,169458,2,0,P|283:189|342:166,1,93.0000007095337,10|0,1:0|0:0,0:0:0:0:
211,280,169665,2,0,L|71:290,1,93.0000007095337,2|0,3:2|0:0,0:0:0:0:
0,154,169872,5,6,1:2:0:0:
22,144,169975,2,0,L|124:161,1,93.0000007095337,0|2,0:0|3:0,0:0:0:0:
274,13,170182,1,2,0:0:0:0:
256,33,170285,2,0,L|238:135,1,93.0000007095337,8|0,1:0|0:0,0:0:0:0:
306,319,170492,5,2,1:3:0:0:
315,245,170596,1,0,1:0:0:0:
377,203,170699,1,0,1:0:0:0:
450,210,170803,1,0,1:0:0:0:
491,275,170906,1,0,1:0:0:0:
136,168,171113,6,0,B|195:221|159:301|159:301|198:331|193:390,1,204.000003890991,12|2,1:2|0:3,0:0:0:0:
311,215,171423,2,0,B|252:162|288:82|288:82|249:52|254:-7,1,204.000003890991,8|0,1:0|0:0,0:0:0:0:
77,233,171734,2,0,P|34:270|43:363,1,102.000001945496,2|0,1:3|0:0,0:0:0:0:
121,93,171941,2,0,P|202:136|204:172,1,102.000001945496,14|0,1:2|0:0,0:0:0:0:
404,302,172148,1,2,1:0:0:0:
320,318,172251,1,2,1:0:0:0:
235,332,172354,6,0,P|232:278|286:228,1,102.000001945496,6|0,1:2|0:0,0:0:0:0:
309,103,172561,2,0,P|373:137|382:201,1,102.000001945496,2|0,3:2|0:0,0:0:0:0:
130,228,172768,2,0,P|66:194|57:130,1,102.000001945496,10|0,1:0|0:0,0:0:0:0:
175,14,172975,2,0,P|178:68|124:118,1,102.000001945496,2|0,3:2|0:0,0:0:0:0:
46,324,173182,5,2,1:0:0:0:
46,324,173285,2,0,P|124:309|149:344,1,102.000001945496,2|2,0:0|3:0,0:0:0:0:
255,158,173492,2,0,P|231:230|254:288,1,102.000001945496,2|8,0:0|1:0,0:0:0:0:
434,371,173699,1,2,0:0:0:0:
419,276,173803,1,2,3:0:0:0:
340,223,173906,1,2,0:0:0:0:
235,253,174010,6,0,L|105:262,1,102.000001945496,2|0,1:0|0:0,0:0:0:0:
77,54,174217,2,0,P|65:147|20:175,1,102.000001945496,2|0,3:2|0:0,0:0:0:0:
110,375,174423,1,10,1:0:0:0:
131,364,174527,1,0,0:0:0:0:
150,355,174630,2,0,P|143:273|91:232,1,102.000001945496,2|0,3:2|0:0,0:0:0:0:
320,93,174837,1,2,1:0:0:0:
237,149,174941,2,0,P|213:242|261:337,1,204.000003890991,2|0,0:0|0:0,0:0:0:0:
398,253,175251,1,10,1:0:0:0:
466,292,175354,1,2,0:0:0:0:
393,332,175458,1,2,1:3:0:0:
323,368,175561,1,2,0:1:0:0:
319,291,175665,6,0,P|331:208|375:165,1,102.000001945496,6|0,1:2|0:0,0:0:0:0:
322,0,175872,2,0,P|310:83|266:126,1,102.000001945496,2|0,3:2|0:0,0:0:0:0:
199,270,176079,1,10,1:0:0:0:
199,270,176182,1,0,0:0:0:0:
199,270,176285,2,0,L|56:278,1,102.000001945496,2|0,3:2|0:2,0:2:0:0:
32,68,176492,5,2,1:0:0:0:
60,68,176596,2,0,L|129:159,1,102.000001945496,2|2,0:0|3:0,0:0:0:0:
35,356,176803,2,0,L|104:265,1,102.000001945496,2|8,0:0|1:0,0:0:0:0:
300,143,177010,1,2,0:0:0:0:
376,206,177113,1,2,3:0:0:0:
339,305,177217,1,2,0:0:0:0:
272,245,177320,6,0,P|391:225|496:285,1,204.000003890991,6|2,1:2|3:0,0:0:0:0:
512,161,177630,1,2,0:0:0:0:
462,72,177734,2,0,P|343:92|238:32,1,204.000003890991,10|2,1:0|3:0,0:0:0:0:
46,158,178044,1,0,0:0:0:0:
46,158,178148,2,0,P|178:143|297:151,1,204.000003890991,6|2,1:2|3:0,0:0:0:0:
361,324,178458,1,4,3:0:0:0:
274,239,178561,2,0,P|179:229|119:243,1,102.000001945496,14|0,1:2|0:0,0:0:0:0:
16,64,178768,1,2,0:0:0:0:
46,158,178872,1,2,0:0:0:0:
74,251,178975,6,0,L|53:359,1,102.000001945496,6|0,1:2|0:0,0:0:0:0:
222,165,179182,2,0,L|202:265,1,102.000001945496,2|0,3:2|0:0,0:0:0:0:
373,71,179389,2,0,L|352:179,1,102.000001945496,10|0,1:0|0:0,0:0:0:0:
445,347,179596,2,0,L|464:246,1,102.000001945496,2|0,3:2|0:0,0:0:0:0:
499,30,179803,5,2,1:0:0:0:
474,59,179906,2,0,L|341:74,1,102.000001945496,2|2,0:0|3:0,0:0:0:0:
181,73,180113,2,0,L|48:88,1,102.000001945496,2|8,0:0|1:0,0:0:0:0:
37,213,180320,1,2,0:0:0:0:
126,183,180423,1,2,3:0:0:0:
199,246,180527,1,2,0:0:0:0:
168,346,180630,6,0,P|120:302|121:229,1,102.000001945496,2|0,1:0|0:0,0:0:0:0:
399,267,180837,2,0,P|384:315|344:346,1,102.000001945496,2|0,3:2|0:0,0:0:0:0:
177,132,181044,2,0,L|148:-10,1,102.000001945496,10|0,1:0|0:0,0:0:0:0:
355,32,181251,2,0,L|335:132,1,102.000001945496,2|0,3:2|0:0,0:0:0:0:
255,357,181458,1,2,1:0:0:0:
247,253,181561,2,0,B|221:151|294:173|257:19,1,204.000003890991,2|0,0:0|0:0,0:0:0:0:
30,58,181872,5,10,1:2:0:0:
101,90,181975,1,2,0:0:0:0:
96,233,182079,1,2,1:3:0:0:
25,265,182182,1,2,0:1:0:0:
78,158,182285,6,0,P|171:167|191:227,1,102.000001945496,6|0,1:2|0:0,0:0:0:0:
360,132,182492,2,0,P|373:237|359:272,1,102.000001945496,2|0,3:2|0:0,0:0:0:0:
208,356,182699,1,10,1:0:0:0:
231,345,182803,1,0,0:0:0:0:
255,333,182906,2,0,L|282:195,1,102.000001945496,2|0,3:2|0:0,0:0:0:0:
365,15,183113,1,6,1:2:0:0:
374,57,183217,2,0,P|424:78|495:71,1,102.000001945496,2|2,0:0|3:0,0:0:0:0:
247,135,183423,1,2,0:0:0:0:
238,93,183527,2,0,P|188:72|117:79,1,102.000001945496,8|0,1:0|0:0,0:0:0:0:
45,211,183734,5,2,1:3:0:0:
119,195,183837,1,0,1:0:0:0:
193,227,183941,1,8,1:0:0:0:
201,303,184044,1,8,1:0:0:0:
265,345,184148,1,0,1:0:0:0:
331,35,184354,6,0,P|303:149|292:266,1,204.000003890991,14|2,1:2|3:0,0:0:0:0:
461,361,184665,2,0,P|448:259|423:161,1,204.000003890991,8|0,1:0|0:0,0:0:0:0:
314,313,184975,2,0,P|227:279|219:226,1,102.000001945496,2|0,1:3|0:0,0:0:0:0:
40,12,185182,2,0,P|93:41|89:108,1,102.000001945496,12|0,1:2|0:0,0:0:0:0:
213,69,185389,1,2,1:0:0:0:
213,69,185492,1,2,1:0:0:0:
213,69,185596,6,0,B|162:70|162:70|154:79|153:79|87:79,1,113.999996955872,6|0,1:2|0:0,0:0:0:0:
18,171,185803,2,0,B|69:170|69:170|77:161|78:161|144:161,1,113.999996955872,2|0,3:0|0:0,0:0:0:0:
293,66,186010,2,0,B|344:65|344:65|352:56|353:56|419:56,1,113.999996955872,10|0,1:0|0:0,0:0:0:0:
498,263,186217,1,2,3:2:0:0:
498,263,186320,1,2,0:0:0:0:
410,242,186423,1,2,1:0:0:0:
410,242,186527,2,0,B|333:222|377:252|297:242,1,113.999996955872,2|2,0:0|3:0,0:0:0:0:
50,273,186734,2,0,B|127:253|83:283|162:273,1,113.999996955872,2|8,0:0|1:0,0:0:0:0:
279,353,186941,1,2,0:0:0:0:
279,353,187044,1,2,3:0:0:0:
279,353,187148,1,2,0:0:0:0:
279,353,187251,6,0,B|267:294|275:245|323:227,1,113.999996955872,2|0,1:2|0:0,0:0:0:0:
245,129,187458,2,0,B|294:103|345:100|375:135,1,113.999996955872,2|0,3:0|0:0,0:0:0:0:
511,50,187665,2,0,B|523:109|515:158|467:176,1,113.999996955872,10|0,1:2|0:0,0:0:0:0:
409,372,187872,5,2,3:2:0:0:
456,301,187975,1,2,0:0:0:0:
456,301,188079,2,0,L|311:315,1,113.999996955872,2|0,1:0|0:0,0:0:0:0:
152,278,188285,1,2,0:0:0:0:
152,278,188389,2,0,L|7:292,2,113.999996955872,2|8|0,0:0|1:0|0:0,0:0:0:0:
289,355,188699,1,2,3:2:0:0:
289,355,188803,1,0,0:0:0:0:
289,355,188906,6,0,B|274:304|318:295|287:225,1,113.999996955872,6|0,1:2|0:0,0:0:0:0:
250,24,189113,2,0,B|265:75|221:84|252:154,1,113.999996955872,2|0,3:0|0:0,0:0:0:0:
147,277,189320,2,0,B|162:226|118:217|149:147,1,113.999996955872,10|0,1:0|0:0,0:0:0:0:
19,20,189527,1,2,3:2:0:0:
19,20,189630,1,2,0:0:0:0:
11,118,189734,1,2,1:0:0:0:
11,118,189837,2,0,B|5:180|30:209|89:208,1,113.999996955872,2|2,0:0|3:0,0:0:0:0:
243,138,190044,2,0,B|305:121|354:126|355:129,1,113.999996955872,2|8,0:0|1:0,0:0:0:0:
381,345,190251,1,2,0:0:0:0:
381,345,190354,1,2,3:0:0:0:
381,345,190458,1,2,0:0:0:0:
381,345,190561,6,0,B|364:305|376:263|397:239,1,113.999996955872,6|0,1:2|0:0,0:0:0:0:
459,32,190768,2,0,B|434:80|383:85|327:89,1,113.999996955872,2|0,3:2|0:0,0:0:0:0:
53,32,190975,2,0,B|78:80|129:85|185:89,1,113.999996955872,10|0,1:0|0:0,0:0:0:0:
131,340,191182,2,0,B|149:300|137:258|115:234,1,113.999996955872,2|0,3:2|0:0,0:0:0:0:
28,303,191389,6,0,P|121:291|265:291,1,227.999993911743,6|2,1:2|3:0,0:0:0:0:
434,215,191699,1,4,1:3:0:0:
451,334,191803,2,0,P|401:337|311:355,1,113.999996955872,14|0,1:2|0:0,0:0:0:0:
254,186,192010,1,2,1:0:0:0:
254,186,192113,1,2,1:0:0:0:
254,186,192217,6,0,P|304:183|394:165,1,113.999996955872,6|0,1:2|0:0,0:0:0:0:
510,171,192423,2,0,P|461:139|429:68,1,113.999996955872,2|0,3:0|0:0,0:0:0:0:
355,5,192630,2,0,P|326:53|278:84,1,113.999996955872,10|0,1:0|0:0,0:0:0:0:
65,33,192837,1,2,3:2:0:0:
65,33,192941,1,2,0:0:0:0:
84,137,193044,1,2,1:0:0:0:
84,137,193148,2,0,B|93:233|82:242|66:275,1,113.999996955872,2|2,0:0|3:0,0:0:0:0:
177,375,193354,2,0,B|168:279|179:270|195:237,1,113.999996955872,2|8,0:0|1:2,0:0:0:0:
222,170,193561,1,2,0:0:0:0:
222,170,193665,1,2,3:0:0:0:
222,170,193768,1,2,0:0:0:0:
222,170,193872,6,0,B|273:207|273:243|259:311,1,113.999996955872,6|0,1:2|0:0,0:0:0:0:
309,109,194079,2,0,B|295:155|261:170|184:172,1,113.999996955872,2|0,3:0|0:0,0:0:0:0:
377,358,194285,2,0,L|245:346,1,113.999996955872,10|0,1:2|0:0,0:0:0:0:
189,278,194492,1,2,3:2:0:0:
113,344,194596,1,2,0:0:0:0:
113,344,194699,2,0,L|-19:332,1,113.999996955872,2|0,1:0|0:0,0:0:0:0:
21,214,194906,1,2,0:0:0:0:
21,214,195010,2,0,L|153:226,2,113.999996955872,2|8|0,0:0|1:0|0:0,0:0:0:0:
137,242,195320,2,0,L|269:254,1,113.999996955872,2|0,1:2|0:0,0:0:0:0:
366,333,195527,6,0,B|353:290|392:228|440:223,1,113.999996955872,6|0,1:2|0:0,0:0:0:0:
350,51,195734,2,0,B|417:27|487:36|502:49,1,113.999996955872,2|0,3:0|0:0,0:0:0:0:
287,144,195941,2,0,B|220:168|150:159|135:146,1,113.999996955872,10|0,1:0|0:0,0:0:0:0:
51,141,196148,1,2,3:2:0:0:
51,141,196251,1,2,0:0:0:0:
97,260,196354,1,6,1:2:0:0:
97,260,196458,2,0,B|164:236|234:245|249:258,1,113.999996955872,2|2,0:0|3:0,0:0:0:0:
347,260,196665,2,0,B|305:289|295:348|303:390,2,113.999996955872,2|8|0,0:0|1:0|0:0,0:0:0:0:
475,95,196975,5,2,1:2:0:0:
388,109,197079,1,0,1:0:0:0:
301,123,197182,1,8,1:0:0:0:
210,135,197285,1,2,1:2:0:0:
123,146,197389,1,8,1:0:0:0:
292,352,197596,6,0,P|322:211|293:86,1,227.999993911743,14|2,1:2|3:0,0:0:0:0:
56,75,197906,2,0,P|26:216|55:341,1,227.999993911743,10|0,1:0|0:0,0:0:0:0:
138,379,198217,2,0,L|156:239,1,113.999996955872,2|0,1:3|0:0,0:0:0:0:
309,129,198423,2,0,L|514:144,1,113.999996955872,12|0,1:2|0:0,0:0:0:0:
512,218,198630,1,2,1:0:0:0:
512,218,198734,1,2,1:0:0:0:
512,218,198837,6,0,B|447:216|415:227|369:262,1,138.000002632141,6|0,1:2|0:0,0:0:0:0:
302,373,199044,2,0,B|324:297|298:228|271:202,1,138.000002632141,2|0,3:2|0:0,0:0:0:0:
280,45,199251,2,0,B|228:83|219:129|223:191,1,138.000002632141,10|0,1:0|0:0,0:0:0:0:
156,347,199458,1,2,3:2:0:0:
156,347,199561,1,2,0:0:0:0:
124,236,199665,1,2,1:0:0:0:
72,295,199768,2,0,B|123:277|164:309|220:279,1,138.000002632141,2|2,0:0|3:0,0:0:0:0:
399,229,199975,2,0,B|410:281|373:318|396:377,1,138.000002632141,2|8,0:0|1:2,0:0:0:0:
309,242,200182,1,2,0:0:0:0:
309,242,200285,1,2,3:0:0:0:
309,242,200389,1,2,0:0:0:0:
309,242,200492,6,0,B|309:183|345:145|422:150,1,138.000002632141,2|0,1:0|0:0,0:0:0:0:
505,91,200699,2,0,B|469:86|409:64|353:50,1,138.000002632141,2|0,3:2|0:0,0:0:0:0:
215,145,200906,2,0,B|179:140|119:118|63:104,1,138.000002632141,10|0,1:2|0:0,0:0:0:0:
23,315,201113,1,2,3:2:0:0:
126,243,201217,1,2,0:0:0:0:
126,243,201320,2,0,L|89:383,1,138.000002632141,2|0,1:0|0:0,0:0:0:0:
298,149,201527,1,2,0:0:0:0:
298,227,201630,1,2,0:0:0:0:
235,279,201734,1,8,1:2:0:0:
415,241,201941,1,2,1:3:0:0:
420,17,202148,6,0,B|377:56|371:106|390:179,1,138.000002632141,6|0,1:2|0:0,0:0:0:0:
488,263,202354,2,0,B|396:246|356:267|331:303,1,138.000002632141,2|0,3:2|0:0,0:0:0:0:
196,376,202561,2,0,B|234:310|232:262|219:209,1,138.000002632141,10|0,1:0|0:0,0:0:0:0:
281,61,202768,1,2,3:2:0:0:
281,61,202872,1,2,0:0:0:0:
216,125,202975,1,2,1:0:0:0:
151,39,203079,2,0,B|84:-7|26:21|-28:45,1,138.000002632141,2|2,0:0|3:0,0:0:0:0:
106,179,203285,2,0,B|133:244|73:249|114:369,2,138.000002632141,2|8|2,0:0|1:0|0:0,0:0:0:0:
223,132,203596,1,2,3:0:0:0:
223,132,203699,1,2,0:0:0:0:
223,132,203803,6,0,B|273:183|310:178|352:164,1,138.000002632141,6|0,1:2|0:0,0:0:0:0:
472,13,204010,2,0,B|332:27|310:68|309:81,1,138.000002632141,2|0,3:2|0:0,0:0:0:0:
332,302,204217,2,0,B|335:240|339:214|351:137,1,138.000002632141,10|0,1:2|0:0,0:0:0:0:
476,121,204423,2,0,B|473:183|469:209|457:286,1,138.000002632141,2|0,3:2|0:0,0:0:0:0:
436,368,204630,6,0,B|404:264|231:235|135:312,1,276.000005264282,6|2,1:2|3:0,0:0:0:0:
62,296,204941,1,4,1:3:0:0:
72,122,205044,2,0,B|120:158|133:232|120:297,1,138.000002632141,14|0,1:2|0:0,0:0:0:0:
134,384,205251,1,2,1:0:0:0:
134,384,205354,1,2,1:0:0:0:
134,384,205458,6,0,B|212:381|268:354|290:326,1,138.000002632141,6|0,1:2|0:0,0:0:0:0:
512,344,205665,2,0,B|434:341|378:314|356:286,1,138.000002632141,2|0,3:2|0:0,0:0:0:0:
303,143,205872,2,0,B|342:211|267:207|323:329,1,138.000002632141,10|0,1:0|0:0,0:0:0:0:
436,222,206079,1,2,3:2:0:0:
436,222,206182,1,2,0:0:0:0:
460,100,206285,1,2,1:0:0:0:
380,139,206389,2,0,B|484:128|515:172|530:203,1,138.000002632141,2|2,0:0|3:0,0:0:0:0:
300,33,206596,2,0,B|195:43|164:0|149:-31,1,138.000002632141,2|8,0:0|1:0,0:0:0:0:
17,162,206803,1,2,0:0:0:0:
17,162,206906,1,2,3:0:0:0:
126,116,207010,1,2,0:0:0:0:
126,116,207113,6,0,L|75:261,1,138.000002632141,6|0,1:2|0:0,0:0:0:0:
258,205,207320,2,0,L|303:74,1,138.000002632141,2|0,3:2|0:0,0:0:0:0:
382,220,207527,2,0,L|331:365,1,138.000002632141,10|0,1:0|0:0,0:0:0:0:
102,330,207734,1,2,3:2:0:0:
212,335,207837,1,2,0:0:0:0:
212,335,207941,2,0,L|257:204,1,138.000002632141,2|0,1:0|0:0,0:0:0:0:
339,135,208148,1,2,0:0:0:0:
382,220,208251,2,0,B|415:183|482:188|530:180,2,138.000002632141,2|8|0,0:0|1:0|0:0,0:0:0:0:
257,118,208561,1,2,1:0:0:0:
257,118,208665,1,2,0:0:0:0:
257,118,208768,6,0,B|270:61|311:31|384:32,1,138.000002632141,6|0,1:2|0:0,0:0:0:0:
310,218,208975,2,0,B|255:184|199:187|154:207,1,138.000002632141,2|0,3:2|0:0,0:0:0:0:
31,60,209182,2,0,L|55:232,1,138.000002632141,10|0,1:0|0:0,0:0:0:0:
113,364,209389,1,2,3:2:0:0:
113,364,209493,1,2,0:0:0:0:
128,265,209596,1,6,1:2:0:0:
50,313,209699,2,0,B|135:285|140:348|221:308,1,138.000002632141,2|2,0:0|3:0,0:0:0:0:
408,257,209906,2,0,B|372:292|356:349|398:413,2,138.000002632141,2|8|0,0:0|1:0|0:0,0:0:0:0:
252,27,210217,5,2,1:0:0:0:
254,110,210320,1,0,1:0:0:0:
254,201,210423,1,8,1:0:0:0:
252,287,210527,1,2,1:0:0:0:
262,366,210630,1,8,1:0:0:0:
46,54,210837,6,0,B|171:58|205:203|141:290,1,276.000005264282,14|2,1:2|3:0,0:0:0:0:
466,330,211148,2,0,B|341:326|307:181|371:94,1,276.000005264282,10|0,1:0|0:0,0:0:0:0:
334,17,211458,2,0,B|391:19|424:53|446:126,1,138.000002632141,2|0,1:3|0:0,0:0:0:0:
178,367,211665,2,0,B|121:365|88:331|66:258,1,138.000002632141,14|0,1:2|0:0,0:0:0:0:
255,190,211872,1,2,1:0:0:0:
255,190,211975,1,2,1:0:0:0:
255,190,212079,1,4,1:2:0:0:
