osu file format v14

[General]
AudioFilename: audio.mp3
AudioLeadIn: 0
PreviewTime:53130
Countdown: 0
SampleSet: Soft
StackLeniency: 0.7
Mode: 0
LetterboxInBreaks: 0
WidescreenStoryboard: 1

[Editor]
Bookmarks:13458,26699,39941,53182,79665,92906,106148,112768,119389,132630,145872,172354,198837,212079,225217
DistanceSpacing: 0.8
BeatDivisor: 4
GridSize: 4
TimelineZoom: 2.1

[Metadata]
Title:Segments Blue
TitleUnicode:Segments Blue
Artist:seleP
ArtistUnicode:seleP
Creator:Okoratu
Version:Expert
Source:
Tags:osu! featured artist fa electronic japanese Okorin hamburger CUL Vocaloid もぐ
BeatmapID:2927129
BeatmapSetID:1406043

[Difficulty]
HPDrainRate:5
CircleSize:4
OverallDifficulty:8
ApproachRate:9
SliderMultiplier:2
SliderTickRate:1

[Events]
//Background and Video events
0,0,"burger2.jpg",0,0
//Break Periods
2,79865,92306
//Storyboard Layer 0 (Background)
//Storyboard Layer 1 (Fail)
//Storyboard Layer 2 (Pass)
//Storyboard Layer 3 (Foreground)
//Storyboard Layer 4 (Overlay)
//Storyboard Sound Samples

[TimingPoints]
217,413.793103448276,4,2,2,10,1,0
217,-166.666666666667,4,2,2,10,0,0
1872,-166.666666666667,4,2,2,15,0,0
3527,-125,4,2,2,25,0,0
6837,-111.111111111111,4,2,2,50,0,0
11803,-111.111111111111,4,2,1,60,0,0
13458,-100,4,2,1,80,0,0
26699,-83.3333333333333,4,2,1,80,0,0
39941,-76.9230769230769,4,2,1,80,0,0
53182,-66.6666666666667,4,2,1,90,0,1
56130,-66.6666666666667,4,2,2,90,0,1
56234,-66.6666666666667,4,2,1,90,0,1
56337,-66.6666666666667,4,2,2,90,0,1
56441,-66.6666666666667,4,2,1,90,0,1
62958,-66.6666666666667,4,2,2,90,0,1
63062,-66.6666666666667,4,2,1,90,0,1
65182,-58.8235294117647,4,2,1,90,0,1
66423,-66.6666666666667,4,2,1,90,0,1
69579,-66.6666666666667,4,2,2,90,0,1
69683,-66.6666666666667,4,2,1,90,0,1
76199,-66.6666666666667,4,2,2,90,0,1
76303,-66.6666666666667,4,2,1,90,0,1
78423,-58.8235294117647,4,2,1,90,0,1
79665,-100,4,2,1,90,0,0
92906,-100,4,2,1,70,0,0
106148,-133.333333333333,4,2,1,70,0,1
106251,-133.333333333333,4,2,1,70,0,0
112768,-83.3333333333333,4,2,1,80,0,0
119389,-76.9230769230769,4,2,1,80,0,0
132630,-100,4,2,1,70,0,1
132734,-100,4,2,1,70,0,0
139148,-71.4285714285714,4,2,1,90,0,0
145872,-66.6666666666667,4,2,1,90,0,1
149027,-66.6666666666667,4,2,2,90,0,1
149130,-66.6666666666667,4,2,1,90,0,1
155648,-66.6666666666667,4,2,2,90,0,1
155751,-66.6666666666667,4,2,1,90,0,1
159113,-64.5161290322581,4,2,1,90,0,1
162268,-64.5161290322581,4,2,2,90,0,1
162372,-64.5161290322581,4,2,1,90,0,1
168889,-64.5161290322581,4,2,2,90,0,1
168992,-64.5161290322581,4,2,1,90,0,1
171113,-58.8235294117647,4,2,1,90,0,1
172251,-100,4,2,1,90,0,0
172354,-58.8235294117647,4,2,1,90,0,1
175510,-58.8235294117647,4,2,2,90,0,1
175613,-58.8235294117647,4,2,1,90,0,1
182130,-58.8235294117647,4,2,2,90,0,1
182234,-58.8235294117647,4,2,1,90,0,1
185596,-52.6315789473684,4,2,1,90,0,1
198734,-100,4,2,1,90,0,0
198837,-43.4782608695652,4,2,1,90,0,1
212079,-100,4,2,1,90,0,0

[Colours]
Combo1 : 17,254,176
Combo2 : 173,255,95
Combo3 : 255,88,100
Combo4 : 255,94,55

[HitObjects]
85,93,217,6,0,L|169:103,1,59.9999981689454,2|0,0:0|0:0,0:0:0:0:
254,75,630,1,0,0:0:0:0:
254,75,837,1,0,0:0:0:0:
198,198,1044,1,2,0:0:0:0:
198,198,1148,2,0,L|128:189,1,59.9999981689454,2|2,0:0|0:0,0:0:0:0:
11,254,1561,2,0,L|19:305,1,29.9999990844727,2|0,0:0|0:0,0:0:0:0:
76,334,1768,1,0,0:0:0:0:
76,334,1872,6,0,P|117:333|151:338,1,59.9999981689454,2|0,0:0|0:0,0:0:0:0:
233,356,2285,1,0,0:0:0:0:
233,356,2492,1,0,0:0:0:0:
217,246,2699,1,2,0:0:0:0:
217,246,2803,1,2,0:0:0:0:
331,273,3010,1,2,0:0:0:0:
301,161,3217,1,0,0:0:0:0:
301,161,3320,1,0,0:0:0:0:
301,161,3423,1,0,0:0:0:0:
301,161,3527,6,0,P|343:171|391:178,1,80,2|0,0:0|0:0,0:0:0:0:
478,111,3941,1,0,0:0:0:0:
371,39,4148,1,0,0:0:0:0:
458,203,4354,1,2,0:0:0:0:
458,203,4458,2,0,P|454:262|452:292,1,80,2|2,0:0|0:0,0:0:0:0:
340,365,4872,5,2,0:0:0:0:
354,349,4975,1,0,0:0:0:0:
368,331,5079,1,0,0:0:0:0:
387,337,5182,1,2,0:0:0:0:
243,345,5389,1,2,0:0:0:0:
97,181,5596,1,2,0:0:0:0:
318,234,5803,1,2,0:0:0:0:
71,320,6010,1,2,0:0:0:0:
71,320,6113,1,2,0:0:0:0:
224,159,6320,1,2,0:0:0:0:
169,342,6527,1,2,0:0:0:0:
180,322,6630,1,0,0:0:0:0:
172,297,6734,1,2,0:0:0:0:
199,279,6837,6,0,P|274:283|314:294,1,89.999997253418,2|0,0:0|0:0,0:0:0:0:
453,325,7251,1,2,0:0:0:0:
429,166,7458,1,0,0:0:0:0:
360,354,7665,1,2,0:0:0:0:
360,354,7768,2,0,L|379:240,1,89.999997253418,2|2,0:0|0:0,0:0:0:0:
308,21,8182,1,0,0:0:0:0:
308,21,8285,2,0,L|245:25,1,44.999998626709,2|0,0:0|0:0,0:0:0:0:
190,101,8492,5,2,0:0:0:0:
230,221,8699,1,0,0:0:0:0:
103,292,8906,1,2,0:0:0:0:
63,172,9113,1,0,0:0:0:0:
272,141,9320,1,2,0:0:0:0:
272,141,9423,1,2,0:0:0:0:
146,209,9630,1,2,0:0:0:0:
226,344,9837,2,0,P|272:363|292:363,1,44.999998626709
360,333,10044,1,0,0:0:0:0:
360,333,10148,6,0,P|343:251|341:214,1,89.999997253418,2|0,0:0|0:0,0:0:0:0:
494,52,10561,2,0,P|486:113|473:156,1,89.999997253418,2|0,0:0|0:0,0:0:0:0:
243,271,10975,1,2,0:0:0:0:
243,271,11079,2,0,L|149:265,1,89.999997253418,2|2,0:0|0:0,0:0:0:0:
33,49,11492,1,2,0:0:0:0:
72,73,11596,1,0,0:0:0:0:
64,114,11699,1,2,0:0:0:0:
53,186,11803,6,0,P|71:265|71:388,1,179.999994506836,6|2,0:0|3:0,0:0:0:0:
176,77,12630,2,0,L|233:89,1,44.999998626709,2|2,0:0|0:0,0:0:0:0:
336,307,12941,2,0,L|279:295,1,44.999998626709,2|0,0:0|0:0,0:0:0:0:
206,341,13148,1,2,0:0:0:0:
206,341,13251,1,2,0:0:0:0:
206,341,13354,1,0,0:0:0:0:
206,341,13458,6,0,L|193:272,1,50,6|0,1:2|0:0,0:0:0:0:
243,203,13665,2,0,L|161:195,1,50,2|0,3:0|0:0,0:0:0:0:
30,249,13872,2,0,P|110:254|161:259,2,100,8|2|2,1:0|3:0|1:2,0:0:0:0:
68,164,14389,2,0,L|150:172,1,50,2|2,0:0|3:0,0:0:0:0:
193,198,14596,2,0,L|275:206,1,50,2|8,0:0|1:0,0:0:0:0:
316,281,14803,1,2,0:0:0:0:
316,281,14906,1,2,3:0:0:0:
316,281,15010,1,2,0:0:0:0:
316,281,15113,6,0,P|335:223|358:191,1,100,2|2,1:2|3:0,0:0:0:0:
420,117,15423,1,0,0:0:0:0:
420,117,15527,2,0,L|428:200,1,50,8|0,1:0|0:0,0:0:0:0:
485,235,15734,2,0,L|475:329,1,50,2|0,3:0|0:0,0:0:0:0:
389,325,15941,1,2,1:2:0:0:
389,325,16044,1,2,0:0:0:0:
492,69,16251,1,2,0:0:0:0:
492,69,16354,2,0,P|443:42|410:40,1,50,8|0,1:0|0:0,0:0:0:0:
332,19,16561,2,0,P|312:72|315:95,1,50,2|2,1:2|0:0,0:0:0:0:
254,161,16768,6,0,L|326:148,1,50,6|0,1:2|0:0,0:0:0:0:
168,55,16975,2,0,L|96:68,1,50,2|0,3:3|0:0,0:0:0:0:
141,215,17182,1,10,1:2:0:0:
141,215,17285,1,0,0:0:0:0:
141,215,17389,2,0,L|150:290,1,50,2|0,3:3|0:0,0:0:0:0:
48,360,17596,1,2,1:2:0:0:
48,360,17699,2,0,P|59:283|63:253,1,100,2|2,0:0|0:0,0:0:0:0:
18,165,18010,2,0,L|90:171,1,50,10|2,1:2|0:0,0:0:0:0:
192,89,18217,1,2,3:0:0:0:
192,89,18320,1,2,0:0:0:0:
192,89,18423,6,0,L|264:93,1,50,6|0,1:2|0:0,0:0:0:0:
388,42,18630,2,0,L|358:107,1,50,2|0,3:0|0:0,0:0:0:0:
235,285,18837,2,0,L|265:220,1,50,8|0,1:0|0:0,0:0:0:0:
425,238,19044,2,0,L|497:242,1,50,2|0,3:0|0:0,0:0:0:0:
447,113,19251,6,0,B|444:191|346:139|353:239,1,150,6|2,1:2|1:2,0:0:0:0:
315,354,19665,2,0,L|379:346,1,50,8|0,1:0|0:0,0:0:0:0:
205,292,19872,1,8,1:0:0:0:
205,292,19975,1,8,1:0:0:0:
205,292,20079,6,0,L|125:306,1,50,6|0,1:2|0:0,0:0:0:0:
35,361,20285,1,2,3:0:0:0:
58,348,20389,1,0,0:0:0:0:
83,336,20492,2,0,L|71:261,1,50,10|0,1:0|0:0,0:0:0:0:
131,100,20699,2,0,L|127:164,1,50,2|0,3:0|0:0,0:0:0:0:
60,210,20906,1,2,1:2:0:0:
33,203,21010,1,2,0:0:0:0:
211,48,21217,1,2,0:0:0:0:
238,55,21320,2,0,P|266:63|306:67,1,50,8|2,1:0|0:0,0:0:0:0:
426,31,21527,1,2,3:0:0:0:
426,31,21630,1,2,0:0:0:0:
426,31,21734,6,0,L|395:93,1,50,6|0,1:2|0:0,0:0:0:0:
328,208,21941,2,0,L|410:214,1,50,2|0,3:0|0:0,0:0:0:0:
512,157,22148,2,0,P|455:147|395:144,2,100,10|2|2,1:0|3:0|1:2,0:0:0:0:
401,62,22665,2,0,P|343:94|313:138,1,100,2|2,0:0|0:0,0:0:0:0:
239,137,22975,2,0,L|252:215,1,50,8|0,1:0|0:0,0:0:0:0:
138,279,23182,2,0,L|125:357,1,50,2|2,1:2|0:0,0:0:0:0:
45,195,23389,6,0,L|125:194,1,50,6|0,1:2|0:0,0:0:0:0:
215,256,23596,1,2,3:0:0:0:
215,256,23699,1,0,0:0:0:0:
215,256,23803,1,10,1:0:0:0:
132,77,24010,1,2,3:0:0:0:
308,17,24217,1,6,1:2:0:0:
308,17,24320,2,0,P|368:26|428:19,1,100,2|2,0:0|0:0,0:0:0:0:
498,102,24630,2,0,P|456:107|411:121,1,50,8|0,1:0|0:0,0:0:0:0:
325,174,24837,2,0,P|369:183|391:200,1,50,2|0,1:2|1:0,0:0:0:0:
470,272,25044,1,6,1:2:0:0:
446,289,25148,1,0,1:0:0:0:
425,306,25251,1,2,1:2:0:0:
258,117,25458,6,0,P|191:124|172:178,1,100,12|0,1:0|0:0,0:0:0:0:
14,225,25768,2,0,P|81:218|100:164,1,100,8|0,1:0|0:0,0:0:0:0:
184,244,26079,2,0,L|254:260,1,50,8|0,1:0|0:0,0:0:0:0:
103,62,26285,2,0,L|91:136,1,50,12|0,1:0|0:0,0:0:0:0:
52,327,26492,1,8,1:0:0:0:
52,327,26596,1,8,1:0:0:0:
52,327,26699,6,0,P|95:319|143:324,1,59.9999981689454,6|0,1:2|0:0,0:0:0:0:
204,360,26906,2,0,L|280:364,1,59.9999981689454,2|0,3:0|0:0,0:0:0:0:
358,375,27113,1,10,1:2:0:0:
297,140,27320,1,2,3:0:0:0:
297,140,27423,1,2,0:0:0:0:
297,140,27527,2,0,P|287:181|298:227,1,59.9999981689454,2|2,1:2|0:0,0:0:0:0:
436,284,27734,1,2,3:0:0:0:
436,284,27837,2,0,L|337:272,1,59.9999981689454,2|8,0:0|1:2,0:0:0:0:
395,136,28044,1,0,0:0:0:0:
395,136,28148,1,2,3:0:0:0:
395,136,28251,1,0,0:0:0:0:
395,136,28354,6,0,L|484:144,1,59.9999981689454,2|0,1:2|0:0,0:0:0:0:
400,50,28561,2,0,L|303:42,1,59.9999981689454,2|2,3:0|0:0,0:0:0:0:
253,150,28768,2,0,P|257:213|257:278,1,119.999996337891,10|2,1:2|3:0,0:0:0:0:
169,351,29079,1,0,3:0:0:0:
169,351,29182,2,0,P|203:340|251:340,1,59.9999981689454,2|0,1:2|0:0,0:0:0:0:
348,282,29389,1,2,3:0:0:0:
348,282,29492,2,0,P|398:306|429:343,2,59.9999981689454,2|8|0,0:0|1:0|0:0,0:0:0:0:
411,321,29803,2,0,L|476:311,1,59.9999981689454,2|0,3:0|0:0,0:0:0:0:
493,204,30010,5,2,1:2:0:0:
243,125,30217,1,2,3:0:0:0:
61,344,30423,2,0,L|84:275,1,59.9999981689454,10|0,1:2|0:0,0:0:0:0:
200,256,30630,2,0,L|223:187,1,59.9999981689454,2|0,3:0|0:0,0:0:0:0:
120,124,30837,1,0,1:0:0:0:
120,124,30941,2,0,L|25:132,1,59.9999981689454,2|2,0:0|3:0,0:0:0:0:
184,29,31148,2,0,L|260:36,1,59.9999981689454,2|8,0:0|1:0,0:0:0:0:
382,22,31354,1,2,0:0:0:0:
361,92,31458,1,2,3:0:0:0:
423,131,31561,1,2,0:0:0:0:
404,204,31665,5,2,1:2:0:0:
404,204,31872,1,2,3:0:0:0:
93,148,32079,1,10,1:0:0:0:
225,85,32286,1,2,3:0:0:0:
225,85,32389,1,2,0:0:0:0:
225,85,32492,2,0,L|232:152,1,59.9999981689454,2|0,1:2|0:0,0:0:0:0:
293,313,32699,2,0,L|204:306,1,59.9999981689454,2|2,3:0|0:0,0:0:0:0:
40,238,32906,2,0,P|104:263|122:318,1,119.999996337891,8|2,1:0|3:0,0:0:0:0:
40,320,33217,1,2,1:3:0:0:
40,238,33320,6,0,L|53:153,1,59.9999981689454,6|0,1:2|0:0,0:0:0:0:
6,65,33527,2,0,L|92:75,1,59.9999981689454,2|0,3:0|0:0,0:0:0:0:
216,147,33734,1,10,1:2:0:0:
216,147,33837,1,0,0:0:0:0:
216,147,33941,2,0,L|130:137,1,59.9999981689454,2|2,3:0|0:0,0:0:0:0:
230,260,34148,1,2,1:2:0:0:
230,260,34251,2,0,L|296:267,1,59.9999981689454,2|2,0:0|3:0,0:0:0:0:
404,154,34458,2,0,P|376:209|390:238,1,59.9999981689454,2|8,0:0|1:2,0:0:0:0:
368,348,34665,1,0,0:0:0:0:
368,348,34768,1,2,3:0:0:0:
368,348,34872,1,2,0:0:0:0:
368,348,34975,6,0,L|356:259,1,59.9999981689454,2|0,1:2|0:0,0:0:0:0:
465,211,35182,2,0,L|526:221,1,59.9999981689454,2|0,3:0|0:0,0:0:0:0:
328,127,35389,2,0,L|214:141,1,59.9999981689454,10|0,1:2|0:0,0:0:0:0:
162,196,35596,1,2,3:0:0:0:
162,196,35699,1,2,0:0:0:0:
162,196,35803,2,0,L|172:113,1,59.9999981689454,0|0,1:0|0:0,0:0:0:0:
51,32,36010,2,0,P|62:98|58:164,1,119.999996337891,2|8,3:2|1:0,0:0:0:0:
23,273,36320,1,0,0:0:0:0:
23,273,36423,2,0,P|61:248|106:252,1,59.9999981689454,2|0,3:2|0:0,0:0:0:0:
235,264,36630,6,0,L|227:337,1,59.9999981689454,2|0,1:2|0:0,0:0:0:0:
120,374,36837,2,0,L|113:314,1,59.9999981689454,2|0,3:0|0:0,0:0:0:0:
228,323,37044,2,0,L|315:333,1,59.9999981689454,10|0,1:2|0:0,0:0:0:0:
403,362,37251,2,0,L|391:296,1,59.9999981689454,2|2,3:0|0:0,0:0:0:0:
441,218,37458,1,2,1:2:0:0:
441,218,37561,2,0,L|429:152,1,59.9999981689454,2|2,0:0|3:0,0:0:0:0:
389,25,37768,2,0,L|383:102,2,59.9999981689454,2|8|2,0:0|1:0|0:0,0:0:0:0:
314,127,38079,1,2,3:0:0:0:
314,127,38182,6,0,L|250:116,1,59.9999981689454,10|0,1:0|1:0,0:0:0:0:
194,32,38389,2,0,P|184:108|152:180,1,119.999996337891,10|0,1:0|0:0,0:0:0:0:
190,340,38699,2,0,P|200:264|232:192,1,119.999996337891,10|2,1:0|3:0,0:0:0:0:
49,152,39010,1,2,1:0:0:0:
89,220,39113,1,2,1:0:0:0:
423,220,39320,1,10,1:0:0:0:
89,220,39527,1,8,1:0:0:0:
423,220,39734,1,2,1:3:0:0:
471,278,39837,1,0,1:0:0:0:
431,341,39941,6,0,L|354:326,1,64.9999970245363,6|0,1:0|0:0,0:0:0:0:
298,233,40148,2,0,L|221:218,1,64.9999970245363,2|0,1:3|0:0,0:0:0:0:
118,337,40354,2,0,L|195:322,1,64.9999970245363,10|0,1:0|0:0,0:0:0:0:
184,132,40561,1,2,3:0:0:0:
151,155,40665,1,2,0:0:0:0:
118,178,40768,1,6,1:0:0:0:
85,201,40872,1,2,0:0:0:0:
91,52,41079,1,2,0:2:0:0:
258,201,41285,1,2,0:0:0:0:
258,201,41389,1,2,3:0:0:0:
258,201,41492,1,2,0:0:0:0:
258,201,41596,6,0,P|300:144|337:136,1,64.9999970245363,6|0,1:2|0:0,0:0:0:0:
395,0,41803,2,0,P|423:64|411:100,1,64.9999970245363,2|0,3:0|0:0,0:0:0:0:
512,213,42010,2,0,P|441:205|416:177,1,64.9999970245363,14|0,1:2|0:0,0:0:0:0:
196,81,42217,2,0,P|125:88|100:116,1,64.9999970245363,2|0,3:0|0:0,0:0:0:0:
70,279,42423,1,6,1:2:0:0:
65,266,42527,2,0,P|132:217|202:229,1,129.999994049073,10|2,1:0|0:0,0:0:0:0:
361,324,42837,1,8,1:0:0:0:
347,330,42941,1,2,0:0:0:0:
334,332,43044,1,2,0:0:0:0:
321,331,43148,1,2,0:0:0:0:
308,321,43251,6,0,L|347:259,1,64.9999970245363,6|0,1:2|0:0,0:0:0:0:
500,192,43458,2,0,L|435:203,1,64.9999970245363,2|0,3:0|0:0,0:0:0:0:
299,138,43665,2,0,L|234:149,1,64.9999970245363,10|0,1:0|0:0,0:0:0:0:
38,257,43872,1,2,3:0:0:0:
28,295,43975,1,2,0:0:0:0:
18,333,44079,1,2,1:2:0:0:
8,371,44182,1,2,0:0:0:0:
161,261,44389,1,2,0:0:0:0:
34,99,44596,1,2,0:0:0:0:
34,99,44699,1,0,0:0:0:0:
34,99,44803,1,2,0:0:0:0:
34,99,44906,6,0,P|104:120|118:156,1,64.9999970245363,6|0,1:2|0:0,0:0:0:0:
294,32,45113,2,0,L|257:113,1,64.9999970245363,2|0,3:0|0:0,0:0:0:0:
218,352,45320,2,0,L|255:271,1,64.9999970245363,6|0,1:2|0:0,0:0:0:0:
349,129,45527,1,2,3:0:0:0:
349,129,45630,1,0,0:0:0:0:
287,182,45734,1,6,1:2:0:0:
287,182,45837,2,0,P|385:181|444:193,1,129.999994049073,10|0,1:0|0:0,0:0:0:0:
361,324,46148,1,8,1:0:0:0:
347,330,46252,1,2,0:0:0:0:
334,332,46355,1,2,3:0:0:0:
321,331,46459,1,10,1:0:0:0:
308,321,46562,6,0,L|347:259,1,64.9999970245363,6|0,1:2|0:0,0:0:0:0:
478,191,46768,2,0,P|404:178|388:159,1,64.9999970245363,2|0,3:0|0:0,0:0:0:0:
287,182,46975,2,0,P|213:169|197:150,1,64.9999970245363,10|0,1:0|0:0,0:0:0:0:
105,104,47182,1,2,3:0:0:0:
117,181,47285,1,0,0:0:0:0:
40,212,47389,1,6,1:2:0:0:
40,212,47492,2,0,P|39:141|27:58,2,129.999994049073,2|2|2,0:0|0:0|0:0,0:0:0:0:
38,327,48010,1,2,3:0:0:0:
38,327,48113,1,2,0:0:0:0:
38,327,48217,6,0,P|94:344|133:371,1,64.9999970245363,6|0,1:2|0:0,0:0:0:0:
256,286,48423,2,0,L|256:221,1,64.9999970245363,2|0,3:0|0:0,0:0:0:0:
474,327,48630,2,0,P|418:344|379:371,1,64.9999970245363,10|0,1:0|0:0,0:0:0:0:
256,139,48837,2,0,L|256:74,1,64.9999970245363,2|0,3:0|0:0,0:0:0:0:
486,125,49044,1,6,1:2:0:0:
471,107,49148,2,0,P|402:97|356:141,1,129.999994049073,10|0,1:0|0:0,0:0:0:0:
361,324,49458,1,8,1:0:0:0:
347,330,49562,1,2,0:0:0:0:
334,332,49665,1,2,3:0:0:0:
321,331,49769,1,2,0:0:0:0:
308,321,49872,6,0,L|347:259,2,64.9999970245363,4|8|2,1:0|1:0|3:0,0:0:0:0:
408,153,50182,1,2,0:0:0:0:
408,153,50285,2,0,L|327:291,1,129.999994049073,12|2,1:2|3:0,0:0:0:0:
129,366,50596,2,0,L|168:304,1,64.9999970245363,2|4,0:0|1:2,0:0:0:0:
51,159,50803,2,0,P|46:258|99:323,1,129.999994049073,10|2,1:0|0:0,0:0:0:0:
196,132,51113,2,0,P|201:33|148:-32,1,129.999994049073,12|2,1:2|3:2,0:0:0:0:
123,216,51423,5,2,1:0:0:0:
205,214,51527,1,8,1:0:0:0:
222,295,51630,2,0,B|293:271|290:338|370:309,1,129.999994049073,0|0,1:0|0:0,0:0:0:0:
466,97,51941,2,0,B|374:123|473:206|344:232,1,194.999991073609,4|0,1:2|0:0,0:0:0:0:
267,66,52354,5,0,1:0:0:0:
215,71,52458,1,0,1:0:0:0:
184,113,52561,1,2,1:3:0:0:
195,164,52665,1,0,1:0:0:0:
203,214,52768,1,4,1:3:0:0:
150,211,52872,1,0,1:0:0:0:
102,275,52975,1,4,1:3:0:0:
49,272,53079,1,0,1:0:0:0:
12,199,53182,6,0,L|33:95,1,75.0000028610231,6|0,1:2|0:0,0:0:0:0:
186,281,53389,2,0,P|213:372|191:393,1,75.0000028610231,2|0,3:2|0:0,0:0:0:0:
87,348,53596,2,0,L|108:244,1,75.0000028610231,10|0,1:0|0:0,0:0:0:0:
102,144,53803,2,0,L|200:140,1,75.0000028610231,2|0,3:2|0:0,0:0:0:0:
312,64,54010,1,2,1:3:0:0:
296,77,54113,2,0,P|278:150|290:241,2,150.000005722046,2|2|2,0:0|0:0|0:0,0:0:0:0:
380,158,54630,1,2,3:0:0:0:
380,158,54734,1,2,0:0:0:0:
380,158,54837,6,0,L|481:166,1,75.0000028610231,2|0,1:2|0:0,0:0:0:0:
470,26,55044,2,0,P|426:73|452:124,1,75.0000028610231,2|0,3:2|0:0,0:0:0:0:
487,229,55251,2,0,L|499:332,1,75.0000028610231,10|0,1:0|0:0,0:0:0:0:
296,77,55458,2,0,L|183:69,1,75.0000028610231,2|0,3:2|0:0,0:0:0:0:
335,219,55665,1,2,1:3:0:0:
329,240,55768,2,0,P|240:254|185:196,1,150.000005722046,2|2,0:0|0:0,0:0:0:0:
166,123,56079,1,8,1:0:0:0:
117,120,56182,1,2,0:2:0:0:
69,144,56285,1,8,1:0:0:0:
20,141,56388,1,2,0:1:0:0:
5,215,56492,6,0,L|12:306,1,75.0000028610231,6|0,1:2|0:0,0:0:0:0:
126,346,56699,2,0,P|118:274|154:258,1,75.0000028610231,2|0,3:2|0:0,0:0:0:0:
199,203,56906,2,0,P|207:275|171:291,1,75.0000028610231,10|0,1:0|0:0,0:0:0:0:
317,353,57113,2,0,L|324:268,1,75.0000028610231,2|0,3:2|0:0,0:0:0:0:
450,185,57320,1,2,1:2:0:0:
450,185,57423,2,0,L|358:180,1,75.0000028610231,2|2,0:0|3:0,0:0:0:0:
276,105,57630,2,0,L|184:100,1,75.0000028610231,2|8,0:0|1:0,0:0:0:0:
93,54,57837,1,0,0:0:0:0:
105,131,57941,1,2,0:0:0:0:
43,174,58044,1,2,0:0:0:0:
51,246,58148,5,14,1:2:0:0:
320,190,58354,1,2,3:2:0:0:
15,90,58561,1,10,1:0:0:0:
410,202,58768,1,2,0:0:0:0:
181,297,58975,1,6,1:2:0:0:
181,297,59079,2,0,P|271:301|271:302,1,75.0000028610231,0|2,0:0|3:0,0:0:0:0:
308,204,59285,1,4,1:3:0:0:
365,272,59389,2,0,P|439:278|472:249,1,75.0000028610231,12|0,1:2|0:0,0:0:0:0:
507,177,59596,1,0,1:0:0:0:
507,177,59699,1,8,1:0:0:0:
507,177,59803,6,0,L|407:184,1,75.0000028610231,6|0,1:2|0:0,0:0:0:0:
315,108,60010,2,0,L|337:12,1,75.0000028610231,2|0,3:2|0:0,0:0:0:0:
181,34,60217,2,0,L|203:130,1,75.0000028610231,10|0,1:0|0:0,0:0:0:0:
238,219,60423,2,0,L|144:228,1,75.0000028610231,2|0,3:2|0:0,0:0:0:0:
30,220,60630,1,2,1:2:0:0:
30,220,60734,2,0,P|78:285|55:356,2,150.000005722046,2|2|2,0:0|0:0|0:0,0:0:0:0:
43,88,61251,1,2,3:0:0:0:
58,103,61354,1,2,0:0:0:0:
71,116,61458,6,0,L|173:123,1,75.0000028610231,6|0,1:2|0:0,0:0:0:0:
289,40,61665,2,0,L|245:117,1,75.0000028610231,2|0,3:2|0:0,0:0:0:0:
152,279,61872,2,0,L|196:202,1,75.0000028610231,10|0,1:0|0:0,0:0:0:0:
317,201,62079,2,0,L|419:208,1,75.0000028610231,2|0,3:2|0:0,0:0:0:0:
486,66,62285,1,2,1:2:0:0:
486,66,62389,2,0,P|438:131|442:163,1,75.0000028610231,2|0,0:0|0:0,0:0:0:0:
455,262,62596,2,0,L|467:359,2,75.0000028610231,2|8|2,0:0|1:0|0:0,0:0:0:0:
354,124,62906,1,8,1:0:0:0:
354,124,63010,1,2,0:1:0:0:
354,124,63113,6,0,L|262:113,1,75.0000028610231,6|0,1:2|0:0,0:0:0:0:
166,60,63320,2,0,P|190:129|170:173,1,75.0000028610231,2|0,3:2|0:0,0:0:0:0:
107,272,63527,2,0,L|14:277,1,75.0000028610231,8|0,1:0|0:0,0:0:0:0:
132,197,63734,2,0,L|236:209,1,75.0000028610231,2|0,3:2|0:0,0:0:0:0:
312,341,63941,1,6,1:2:0:0:
306,329,64044,2,0,P|305:252|330:166,1,150.000005722046,2|2,0:0|0:0,0:0:0:0:
394,53,64354,2,0,L|278:47,1,75.0000028610231,8|0,1:0|0:0,0:0:0:0:
117,34,64561,5,0,1:0:0:0:
152,103,64665,1,8,1:0:0:0:
111,167,64768,1,2,1:2:0:0:
94,243,64872,1,8,1:0:0:0:
118,315,64975,1,2,1:2:0:0:
251,172,65182,6,0,P|350:158|397:231,1,170.000003242493,6|2,1:2|3:0,0:0:0:0:
509,323,65492,2,0,P|410:337|363:264,1,170.000003242493,8|0,1:0|0:0,0:0:0:0:
252,248,65803,2,0,L|144:260,1,85.0000016212464,2|0,1:3|0:0,0:0:0:0:
45,317,66010,2,0,L|60:205,1,85.0000016212464,12|2,1:2|0:0,0:0:0:0:
7,141,66217,1,2,1:0:0:0:
7,141,66320,1,8,1:0:0:0:
7,141,66423,6,0,P|83:155|98:152,1,75.0000028610231,6|0,1:2|0:0,0:0:0:0:
163,71,66630,2,0,P|137:-1|127:-13,1,75.0000028610231,2|0,3:2|0:0,0:0:0:0:
28,29,66837,2,0,L|99:94,1,75.0000028610231,10|0,1:0|0:0,0:0:0:0:
260,96,67044,2,0,L|214:164,1,75.0000028610231,2|0,3:2|0:0,0:0:0:0:
80,273,67251,2,0,P|166:235|227:267,1,150.000005722046,2|2,1:2|3:0,0:0:0:0:
310,367,67561,1,2,0:0:0:0:
310,367,67665,2,0,L|435:370,1,75.0000028610231,8|2,1:0|0:0,0:0:0:0:
470,249,67872,1,2,3:0:0:0:
470,249,67975,1,2,0:0:0:0:
470,249,68079,6,0,P|442:182|466:143,1,75.0000028610231,2|0,1:2|0:0,0:0:0:0:
467,41,68285,2,0,L|412:124,1,75.0000028610231,2|0,3:2|0:0,0:0:0:0:
318,193,68492,2,0,L|263:276,1,75.0000028610231,10|0,1:0|0:0,0:0:0:0:
209,381,68699,2,0,L|154:298,1,75.0000028610231,2|0,3:2|0:0,0:0:0:0:
123,118,68906,1,2,1:0:0:0:
123,118,69010,2,0,L|208:253,1,150.000005722046,2|0,0:0|0:0,0:0:0:0:
266,86,69320,2,0,P|215:57|168:67,1,75.0000028610231,10|2,1:0|0:0,0:0:0:0:
40,54,69527,2,0,P|22:156|46:177,1,75.0000028610231,2|2,1:3|0:1,0:0:0:0:
76,203,69734,6,0,P|87:288|85:371,2,150.000005722046,6|2|10,1:2|3:2|1:0,0:0:0:0:
180,148,70251,1,0,0:0:0:0:
180,148,70354,2,0,P|248:219|279:217,1,75.0000028610231,2|0,3:2|0:0,0:0:0:0:
284,269,70561,1,2,1:2:0:0:
325,191,70665,2,0,P|393:120|424:122,1,75.0000028610231,2|0,0:0|0:0,0:0:0:0:
464,54,70872,2,0,L|458:149,1,75.0000028610231,2|8,0:0|1:0,0:0:0:0:
404,261,71079,1,0,0:0:0:0:
412,340,71182,1,2,3:2:0:0:
481,290,71285,1,2,0:0:0:0:
470,206,71389,5,6,1:2:0:0:
244,330,71596,1,2,3:2:0:0:
42,157,71803,1,10,1:0:0:0:
268,33,72010,1,2,0:0:0:0:
348,209,72217,6,0,P|270:164|189:203,1,150.000005722046,4|2,1:2|3:0,0:0:0:0:
271,249,72527,1,4,1:3:0:0:
348,209,72630,2,0,L|366:101,1,75.0000028610231,12|0,1:2|0:0,0:0:0:0:
425,46,72837,1,0,1:0:0:0:
425,46,72941,1,8,1:0:0:0:
425,46,73044,6,0,P|494:73|505:104,1,75.0000028610231,6|0,1:2|0:0,0:0:0:0:
440,151,73251,2,0,L|427:224,1,75.0000028610231,2|0,3:2|0:0,0:0:0:0:
390,351,73458,2,0,L|473:343,1,75.0000028610231,10|0,1:0|0:0,0:0:0:0:
320,268,73665,2,0,L|237:276,1,75.0000028610231,2|0,0:0|0:0,0:0:0:0:
140,322,73872,1,2,1:2:0:0:
140,322,73975,2,0,P|162:274|162:220,1,75.0000028610231,2|2,0:0|3:0,0:0:0:0:
241,184,74182,2,0,P|201:129|170:121,1,75.0000028610231,2|8,0:0|1:0,0:0:0:0:
26,187,74389,1,2,0:0:0:0:
26,187,74492,1,2,3:0:0:0:
26,187,74596,1,2,0:0:0:0:
26,187,74699,6,0,L|102:176,1,75.0000028610231,6|0,1:2|0:0,0:0:0:0:
155,44,74906,2,0,P|241:53|261:73,1,75.0000028610231,2|0,3:2|0:0,0:0:0:0:
385,101,75113,2,0,P|299:92|279:72,1,75.0000028610231,10|0,1:0|0:0,0:0:0:0:
238,171,75320,2,0,L|222:272,1,75.0000028610231,2|0,3:2|0:0,0:0:0:0:
301,349,75527,1,2,1:2:0:0:
301,349,75630,2,0,P|211:325|138:330,1,150.000005722046,2|2,0:0|0:0,0:0:0:0:
47,352,75941,2,0,P|74:278|116:257,1,75.0000028610231,10|2,1:2|0:0,0:0:0:0:
238,171,76148,2,0,P|315:196|333:225,1,75.0000028610231,2|2,1:3|0:1,0:0:0:0:
432,149,76354,6,0,P|414:240|410:328,2,150.000005722046,6|2|10,1:2|3:2|1:0,0:0:0:0:
497,62,76872,1,0,0:0:0:0:
497,62,76975,2,0,P|428:44|388:57,1,75.0000028610231,2|0,3:2|0:0,0:0:0:0:
328,121,77182,1,6,1:2:0:0:
315,134,77285,2,0,P|222:120|128:118,1,150.000005722046,2|2,0:0|0:0,0:0:0:0:
51,75,77596,2,0,P|66:154|66:197,1,75.0000028610231,8|0,1:0|0:0,0:0:0:0:
26,266,77803,5,2,1:2:0:0:
98,232,77906,1,2,1:0:0:0:
178,247,78010,1,8,1:0:0:0:
239,297,78113,1,0,1:0:0:0:
318,295,78217,1,10,1:0:0:0:
501,180,78423,6,0,P|387:175|292:183,1,170.000003242493,12|2,1:2|3:0,0:0:0:0:
234,50,78734,2,0,P|348:55|443:47,1,170.000003242493,8|0,1:0|0:0,0:0:0:0:
495,18,79044,2,0,L|470:114,1,85.0000016212464,2|0,1:3|0:0,0:0:0:0:
246,158,79251,2,0,L|271:254,1,85.0000016212464,12|0,1:2|0:0,0:0:0:0:
401,339,79458,1,0,1:0:0:0:
401,339,79561,1,0,1:0:0:0:
401,339,79665,1,6,1:2:0:0:
61,239,92906,6,0,P|127:230|179:230,1,100,6|2,1:2|3:0,0:0:0:0:
328,223,93320,1,10,1:2:0:0:
328,223,93527,1,2,3:2:0:0:
225,66,93734,1,2,0:0:0:0:
225,66,93837,2,0,L|236:176,1,100,2|2,0:0|0:0,0:0:0:0:
328,223,94148,2,0,L|335:298,1,50,8|2,1:0|0:0,0:0:0:0:
501,181,94354,1,2,3:0:0:0:
501,181,94458,1,2,0:0:0:0:
501,181,94561,6,0,P|435:172|383:172,1,100,6|2,1:2|3:0,0:0:0:0:
234,165,94975,1,10,1:2:0:0:
234,165,95182,1,2,3:2:0:0:
337,8,95389,1,2,0:0:0:0:
337,8,95492,2,0,L|326:118,1,100,2|2,0:0|0:0,0:0:0:0:
234,165,95803,2,0,L|227:240,1,50,8|2,1:0|0:0,0:0:0:0:
55,288,96010,1,2,1:0:0:0:
55,288,96114,1,2,0:0:0:0:
55,288,96217,6,0,P|121:279|173:279,1,100,6|2,1:2|3:0,0:0:0:0:
322,272,96631,1,10,1:2:0:0:
322,272,96838,1,2,3:2:0:0:
219,115,97045,1,2,0:0:0:0:
219,115,97148,2,0,L|230:225,1,100,2|2,0:0|0:0,0:0:0:0:
322,272,97459,2,0,L|329:347,1,50,8|2,1:0|0:0,0:0:0:0:
495,230,97665,1,2,3:3:0:0:
495,230,97768,1,2,0:0:0:0:
495,230,97872,6,0,P|429:221|377:221,1,100,6|2,1:2|3:0,0:0:0:0:
228,214,98286,1,10,1:2:0:0:
228,214,98493,1,2,3:2:0:0:
331,57,98700,1,6,1:2:0:0:
331,57,98803,2,0,L|248:53,1,50,2|0,0:0|0:0,0:0:0:0:
201,24,99010,1,2,0:0:0:0:
201,24,99113,1,6,1:2:0:0:
16,257,99320,5,0,1:0:0:0:
16,257,99423,1,0,1:0:0:0:
16,257,99527,1,6,1:2:0:0:
255,198,99734,1,0,1:0:0:0:
100,111,99941,1,6,1:2:0:0:
164,340,100148,1,2,1:3:0:0:
494,257,100354,5,6,1:0:0:0:
255,198,100561,1,0,1:0:0:0:
410,111,100768,1,6,1:2:0:0:
346,340,100975,1,2,1:3:0:0:
255,198,101182,5,6,1:2:0:0:
16,257,101389,1,0,1:0:0:0:
100,111,101596,1,6,1:2:0:0:
164,340,101803,1,2,1:3:0:0:
255,198,102010,5,6,1:2:0:0:
494,257,102217,1,0,1:0:0:0:
410,111,102424,1,6,1:2:0:0:
346,340,102631,1,2,1:3:0:0:
323,128,102837,5,6,1:2:0:0:
289,105,102941,1,2,1:2:0:0:
250,98,103044,1,6,1:2:0:0:
214,107,103148,1,2,1:2:0:0:
130,104,103251,5,4,1:0:0:0:
136,147,103354,1,2,1:2:0:0:
142,190,103458,1,4,1:2:0:0:
148,233,103561,1,2,1:2:0:0:
233,235,103665,5,4,1:0:0:0:
227,278,103768,1,2,1:2:0:0:
221,321,103872,1,6,1:2:0:0:
215,364,103975,1,2,1:2:0:0:
297,338,104079,5,4,1:0:0:0:
350,324,104182,1,2,1:2:0:0:
404,339,104285,1,6,1:2:0:0:
445,377,104389,1,2,1:2:0:0:
487,304,104492,5,6,1:2:0:0:
487,304,104596,1,2,1:2:0:0:
487,304,104699,1,6,1:2:0:0:
487,304,104803,1,2,1:2:0:0:
421,228,104906,5,6,1:2:0:0:
421,228,105010,1,2,1:2:0:0:
421,228,105113,1,6,1:2:0:0:
421,228,105217,1,2,1:2:0:0:
502,169,105320,5,6,1:2:0:0:
502,169,105424,1,2,1:2:0:0:
502,169,105527,1,6,1:2:0:0:
502,169,105631,1,2,1:2:0:0:
378,126,105734,5,6,1:2:0:0:
378,126,105838,1,2,1:2:0:0:
378,126,105941,1,6,1:2:0:0:
378,126,106045,1,2,1:2:0:0:
463,80,106148,6,0,P|453:226|453:252,1,150.000005722046,6|8,1:0|0:1,0:0:0:0:
331,354,106768,2,0,P|341:208|341:182,1,150.000005722046,0|0,1:0|0:0,0:0:0:0:
197,3,107389,2,0,P|192:64|190:88,1,75.0000028610231,8|0,1:0|0:0,0:0:0:0:
260,120,107699,1,2,0:3:0:0:
260,120,107803,6,0,P|198:117|85:133,1,150.000005722046,2|8,1:2|1:0,0:0:0:0:
0,225,108423,2,0,P|62:222|175:238,1,150.000005722046,0|0,1:0|0:0,0:0:0:0:
340,344,109044,2,0,P|279:331|236:313,1,75.0000028610231,0|2,1:0|0:2,0:0:0:0:
475,154,109458,6,0,P|458:197|441:311,1,150.000005722046,0|8,1:0|1:0,0:0:0:0:
374,144,110079,1,0,0:0:0:0:
340,341,110285,2,0,P|323:298|306:184,1,150.000005722046,0|8,0:0|1:0,0:0:0:0:
242,52,110906,2,0,L|200:62,1,37.5000014305115,2|0,0:3|0:0,0:0:0:0:
94,46,111113,5,2,1:3:0:0:
116,76,111217,1,0,1:0:0:0:
118,113,111320,1,2,1:3:0:0:
103,147,111423,1,0,1:0:0:0:
75,172,111527,1,2,1:3:0:0:
65,208,111630,1,0,1:0:0:0:
73,244,111734,1,2,1:3:0:0:
95,273,111837,1,0,1:0:0:0:
98,317,111941,1,2,1:2:0:0:
138,313,112044,1,0,1:0:0:0:
176,297,112148,1,0,1:0:0:0:
203,267,112251,1,2,1:3:0:0:
243,248,112354,1,0,1:0:0:0:
288,244,112458,1,0,1:0:0:0:
329,261,112561,1,2,1:2:0:0:
347,303,112665,1,0,1:0:0:0:
329,350,112768,6,0,L|429:368,1,59.9999981689454,6|0,1:2|0:0,0:0:0:0:
442,262,112975,2,0,L|452:186,1,59.9999981689454,2|0,3:0|0:0,0:0:0:0:
378,92,113182,1,10,1:0:0:0:
378,92,113285,1,0,0:0:0:0:
378,92,113389,2,0,L|361:200,1,59.9999981689454,2|0,3:0|0:0,0:0:0:0:
291,228,113596,1,2,1:2:0:0:
291,228,113699,2,0,L|211:215,1,59.9999981689454,2|2,0:0|3:0,0:0:0:0:
128,260,113906,2,0,L|48:247,1,59.9999981689454,2|8,0:0|1:2,0:0:0:0:
17,93,114113,1,0,0:0:0:0:
56,105,114217,1,2,3:0:0:0:
95,117,114320,1,2,0:0:0:0:
144,106,114423,5,2,1:2:0:0:
99,22,114630,1,2,3:0:0:0:
128,260,114837,2,0,P|211:209|278:230,1,119.999996337891,10|2,1:0|3:0,0:0:0:0:
304,286,115148,1,2,0:0:0:0:
304,286,115251,2,0,L|296:361,2,59.9999981689454,2|0|2,1:2|0:0|3:0,0:0:0:0:
389,230,115561,1,2,0:0:0:0:
389,230,115665,2,0,L|467:242,1,59.9999981689454,8|0,1:0|0:0,0:0:0:0:
512,151,115872,2,0,L|434:139,1,59.9999981689454,2|0,3:0|0:0,0:0:0:0:
393,36,116079,6,0,L|364:98,1,59.9999981689454,2|0,1:2|0:0,0:0:0:0:
267,65,116285,2,0,L|238:127,1,59.9999981689454,2|0,3:0|0:0,0:0:0:0:
141,94,116492,2,0,L|112:156,1,59.9999981689454,10|0,1:2|0:0,0:0:0:0:
9,257,116699,2,0,L|87:248,1,59.9999981689454,2|0,3:0|0:0,0:0:0:0:
192,337,116906,1,2,1:2:0:0:
192,337,117010,2,0,P|181:249|207:182,2,119.999996337891,2|2|0,0:0|0:2|0:0,0:0:0:0:
267,183,117527,2,0,P|300:190|336:196,1,59.9999981689454,2|0,3:0|0:0,0:0:0:0:
462,118,117734,5,2,1:2:0:0:
438,133,117837,2,0,P|401:193|422:265,1,119.999996337891,8|0,1:0|0:0,0:0:0:0:
351,61,118148,2,0,L|207:70,1,119.999996337891,10|2,1:2|3:0,0:0:0:0:
155,37,118458,1,2,1:2:0:0:
163,124,118561,1,2,1:2:0:0:
362,337,118768,1,10,1:0:0:0:
163,124,118975,1,8,1:0:0:0:
362,337,119182,2,0,L|377:248,1,59.9999981689454,2|0,3:0|1:0,0:0:0:0:
438,184,119389,6,0,L|361:177,1,64.9999970245363,6|0,1:2|0:0,0:0:0:0:
262,266,119596,2,0,P|240:330|226:344,1,64.9999970245363,2|0,1:3|0:0,0:0:0:0:
41,157,119803,2,0,P|112:169|156:268,1,129.999994049073,10|0,1:2|3:0,0:0:0:0:
138,308,120113,1,2,0:0:0:0:
138,308,120217,1,6,1:2:0:0:
138,308,120320,2,0,L|70:313,1,64.9999970245363,2|0,0:0|0:0,0:0:0:0:
148,210,120527,2,0,L|212:214,1,64.9999970245363,2|8,0:0|1:0,0:0:0:0:
286,341,120734,1,2,0:0:0:0:
286,341,120837,1,2,3:0:0:0:
286,341,120941,1,2,0:0:0:0:
286,341,121044,6,0,L|317:244,1,64.9999970245363,6|0,1:2|0:0,0:0:0:0:
258,98,121251,2,0,L|348:118,1,64.9999970245363,2|0,1:3|0:0,0:0:0:0:
488,234,121458,2,0,P|440:240|396:252,1,64.9999970245363,14|0,1:2|0:0,0:0:0:0:
251,17,121665,2,0,P|203:23|159:35,1,64.9999970245363,2|0,3:0|0:0,0:0:0:0:
74,147,121872,1,6,1:2:0:0:
98,131,121975,2,0,P|180:156|202:241,1,129.999994049073,2|0,1:2|0:0,0:0:0:0:
361,324,122285,1,10,1:2:0:0:
347,330,122389,1,2,0:0:0:0:
334,332,122492,1,2,3:0:0:0:
321,331,122596,1,2,0:0:0:0:
307,324,122699,6,0,P|314:281|319:234,1,64.9999970245363,6|0,1:2|0:0,0:0:0:0:
407,114,122906,2,0,P|400:157|395:204,1,64.9999970245363,2|0,1:3|0:0,0:0:0:0:
276,128,123113,2,0,P|214:120|165:130,1,64.9999970245363,10|0,1:0|0:0,0:0:0:0:
109,35,123320,1,2,3:0:0:0:
88,76,123423,1,2,0:0:0:0:
74,112,123527,1,6,1:2:0:0:
111,105,123630,1,2,0:0:0:0:
294,222,123837,1,2,0:0:0:0:
294,222,123941,2,0,L|208:216,1,64.9999970245363,8|2,1:0|0:0,0:0:0:0:
104,359,124148,1,2,3:0:0:0:
104,359,124251,1,2,0:0:0:0:
104,359,124354,6,0,P|142:322|203:322,1,64.9999970245363,6|0,1:2|0:0,0:0:0:0:
380,182,124561,2,0,P|414:251|409:275,1,64.9999970245363,2|0,1:3|0:0,0:0:0:0:
228,364,124768,2,0,P|233:327|239:269,1,64.9999970245363,14|0,1:2|0:0,0:0:0:0:
120,40,124975,2,0,P|139:120|158:144,1,64.9999970245363,2|0,3:0|0:0,0:0:0:0:
34,261,125182,1,6,1:2:0:0:
50,236,125285,2,0,P|140:193|207:207,1,129.999994049073,2|0,1:2|0:0,0:0:0:0:
361,324,125596,1,10,1:2:0:0:
347,330,125700,1,2,0:0:0:0:
334,332,125803,1,2,3:0:0:0:
321,331,125907,1,10,1:0:0:0:
307,324,126010,6,0,P|314:281|319:234,1,64.9999970245363,6|0,1:2|0:0,0:0:0:0:
472,209,126217,2,0,L|392:201,1,64.9999970245363,2|0,1:3|0:0,0:0:0:0:
254,88,126423,2,0,P|278:182|268:197,1,64.9999970245363,10|0,1:2|0:0,0:0:0:0:
227,283,126630,1,2,3:0:0:0:
153,259,126734,1,2,0:0:0:0:
122,194,126837,1,4,1:2:0:0:
122,194,126941,2,0,P|128:290|115:372,2,129.999994049073,10|2|0,1:0|0:0|0:0,0:0:0:0:
151,69,127458,1,2,3:0:0:0:
151,69,127561,1,2,0:0:0:0:
151,69,127665,6,0,L|56:80,1,64.9999970245363,6|0,1:2|0:0,0:0:0:0:
277,217,127872,2,0,L|372:228,1,64.9999970245363,2|0,1:3|0:0,0:0:0:0:
472,55,128079,2,0,P|430:119|441:163,1,64.9999970245363,10|0,1:2|0:0,0:0:0:0:
439,366,128285,2,0,L|444:273,1,64.9999970245363,2|0,3:0|0:0,0:0:0:0:
288,76,128492,1,6,1:2:0:0:
270,79,128596,2,0,P|254:172|287:261,1,129.999994049073,2|0,1:2|0:0,0:0:0:0:
361,324,128906,1,10,1:2:0:0:
347,330,129010,1,2,0:0:0:0:
334,332,129113,1,2,3:0:0:0:
321,331,129217,1,2,0:0:0:0:
307,324,129320,6,0,P|314:281|319:234,2,64.9999970245363,4|10|2,1:2|1:0|3:0,0:0:0:0:
360,113,129630,1,2,0:0:0:0:
360,113,129734,2,0,L|337:285,1,129.999994049073,12|2,1:2|3:0,0:0:0:0:
428,316,130044,2,0,L|510:300,1,64.9999970245363,2|4,0:0|1:2,0:0:0:0:
271,216,130251,2,0,P|192:217|162:276,1,129.999994049073,2|2,1:2|0:0,0:0:0:0:
33,361,130561,2,0,P|112:360|142:301,1,129.999994049073,12|2,1:2|3:0,0:0:0:0:
14,128,130872,1,2,1:0:0:0:
57,194,130975,1,4,1:2:0:0:
116,142,131079,6,0,P|193:115|245:156,1,129.999994049073,0|0,1:0|0:0,0:0:0:0:
291,309,131389,2,0,B|274:193|380:243|352:97,1,194.999991073609,12|0,1:2|0:0,0:0:0:0:
423,27,131803,1,0,1:2:0:0:
371,33,131906,1,0,1:0:0:0:
320,20,132010,1,0,1:0:0:0:
272,39,132113,1,0,1:0:0:0:
236,109,132217,1,4,1:3:0:0:
184,116,132320,1,0,1:0:0:0:
122,162,132423,1,4,1:3:0:0:
70,169,132526,1,0,1:0:0:0:
12,116,132630,5,6,1:2:0:0:
96,59,132837,1,0,3:0:0:0:
256,192,133044,1,10,1:0:0:0:
441,94,133251,1,2,3:0:0:0:
491,185,133458,1,2,0:0:0:0:
491,185,133561,2,0,L|431:177,1,50,2|2,0:0|3:0,0:0:0:0:
363,130,133768,2,0,L|373:200,1,50,2|8,0:0|1:0,0:0:0:0:
256,192,133975,12,0,135837,0:0:0:0:
149,162,135941,5,6,0:0:0:0:
223,265,136148,1,2,3:0:0:0:
299,140,136354,1,10,1:0:0:0:
376,270,136561,1,2,3:0:0:0:
170,37,136768,1,2,0:0:0:0:
170,37,136872,2,0,L|81:41,1,50,2|2,0:0|3:0,0:0:0:0:
45,129,137079,2,0,L|50:200,1,50,2|8,0:0|1:0,0:0:0:0:
256,192,137285,12,0,139044,0:0:0:0:
256,191,139148,5,0,0:0:0:0:
256,191,139251,2,0,L|151:181,1,69.9999978637696,0|0,1:0|0:0,0:0:0:0:
88,60,139458,2,0,L|125:156,1,69.9999978637696,2|0,0:3|0:0,0:0:0:0:
88,324,139665,2,0,L|125:228,1,69.9999978637696,0|0,1:0|0:0,0:0:0:0:
8,195,139872,2,0,L|113:185,1,69.9999978637696,2|0,0:3|0:0,0:0:0:0:
256,191,140079,6,0,L|361:181,1,69.9999978637696,0|0,1:0|0:0,0:0:0:0:
424,60,140286,2,0,L|387:156,1,69.9999978637696,2|0,0:3|0:0,0:0:0:0:
424,324,140493,2,0,L|387:228,1,69.9999978637696,0|0,1:0|0:0,0:0:0:0:
504,195,140700,2,0,L|399:185,1,69.9999978637696,2|0,0:3|0:0,0:0:0:0:
256,191,140906,6,0,P|267:269|251:290,1,69.9999978637696,4|0,1:2|0:0,0:0:0:0:
190,356,141113,1,2,0:3:0:0:
190,356,141217,1,2,0:0:0:0:
190,356,141320,2,0,P|179:278|195:257,1,69.9999978637696,2|0,1:2|0:0,0:0:0:0:
91,206,141527,2,0,L|3:213,1,69.9999978637696,2|0,0:3|0:0,0:0:0:0:
163,114,141734,1,6,1:2:0:0:
163,114,141837,2,0,L|251:107,1,69.9999978637696,0|2,0:0|0:3,0:0:0:0:
345,9,142044,2,0,L|329:84,2,69.9999978637696,2|2|0,0:0|1:2|0:0,0:0:0:0:
411,145,142354,2,0,L|398:229,1,69.9999978637696,2|0,0:3|0:0,0:0:0:0:
481,329,142561,5,4,1:2:0:0:
481,329,142665,1,2,1:3:0:0:
99,143,142872,1,0,1:0:0:0:
103,222,142975,1,0,1:3:0:0:
163,271,143079,1,2,1:3:0:0:
349,113,143285,1,0,1:0:0:0:
409,162,143389,1,0,1:0:0:0:
413,241,143492,1,2,1:3:0:0:
31,55,143699,1,0,1:0:0:0:
31,55,143803,1,2,1:3:0:0:
133,226,144010,1,2,0:3:0:0:
133,226,144113,1,0,0:0:0:0:
133,226,144217,6,0,P|184:219|241:237,1,69.9999978637696,6|0,1:2|1:0,1:0:0:0:
379,158,144423,2,0,P|328:165|271:147,1,69.9999978637696,2|0,1:0|1:0,1:0:0:0:
51,226,144630,2,0,L|135:235,1,69.9999978637696,6|0,1:2|1:0,1:0:0:0:
461,158,144837,2,0,L|377:149,1,69.9999978637696,2|0,1:0|1:0,1:0:0:0:
133,67,145044,2,0,L|200:139,1,69.9999978637696,4|0,1:2|1:0,1:0:0:0:
379,317,145251,2,0,L|312:245,1,69.9999978637696,0|0,1:0|1:0,1:0:0:0:
255,190,145458,1,6,0:2:0:0:
255,190,145561,1,2,0:0:0:0:
255,190,145665,1,2,3:0:0:0:
255,190,145768,1,2,0:0:0:0:
255,190,145872,6,0,P|272:116|266:78,1,75.0000028610231,6|0,1:2|0:0,0:0:0:0:
325,13,146079,2,0,L|433:25,1,75.0000028610231,2|0,3:2|0:0,0:0:0:0:
497,124,146285,2,0,L|368:129,1,75.0000028610231,10|0,1:2|0:0,0:0:0:0:
272,117,146492,2,0,L|143:122,1,75.0000028610231,2|0,3:2|0:0,0:0:0:0:
17,55,146699,1,2,1:0:0:0:
17,55,146803,2,0,P|62:81|66:137,1,75.0000028610231,2|2,0:0|3:0,0:0:0:0:
84,259,147010,2,0,P|110:196|151:174,2,75.0000028610231,2|8|0,0:0|1:0|0:0,0:0:0:0:
124,370,147320,1,2,3:0:0:0:
124,370,147423,1,0,0:0:0:0:
124,370,147527,6,0,L|221:363,1,75.0000028610231,2|0,1:2|0:0,0:0:0:0:
268,185,147734,2,0,L|253:292,1,75.0000028610231,2|2,3:0|0:0,0:0:0:0:
356,368,147941,2,0,L|371:261,1,75.0000028610231,8|0,1:0|0:0,0:0:0:0:
342,176,148148,2,0,P|237:185|236:185,1,75.0000028610231,2|0,3:2|0:0,0:0:0:0:
63,91,148354,1,2,1:2:0:0:
136,46,148458,2,0,P|202:100|173:190,1,150.000005722046,2|2,0:0|0:0,0:0:0:0:
106,248,148768,2,0,L|82:158,1,75.0000028610231,10|2,1:0|0:0,0:0:0:0:
315,182,148975,2,0,L|291:272,1,75.0000028610231,0|2,1:0|0:2,0:0:0:0:
195,346,149182,6,0,L|104:337,1,75.0000028610231,6|0,1:2|0:0,0:0:0:0:
106,248,149389,2,0,L|15:239,1,75.0000028610231,2|0,3:2|0:0,0:0:0:0:
295,254,149596,2,0,L|386:263,1,75.0000028610231,10|0,1:2|0:0,0:0:0:0:
428,178,149803,2,0,L|519:187,1,75.0000028610231,2|0,3:2|0:0,0:0:0:0:
415,66,150010,1,2,1:0:0:0:
415,66,150113,2,0,P|307:55|231:42,1,150.000005722046,2|2,0:0|0:0,0:0:0:0:
132,24,150423,2,0,P|161:105|142:140,1,75.0000028610231,8|0,1:0|0:0,0:0:0:0:
87,192,150630,1,2,3:0:0:0:
87,192,150734,1,2,0:0:0:0:
87,192,150837,5,6,1:2:0:0:
425,173,151044,1,2,3:0:0:0:
108,311,151251,1,10,1:0:0:0:
416,300,151458,1,2,3:0:0:0:
257,194,151665,2,0,P|232:266|253:346,1,150.000005722046,6|2,1:2|3:0,0:0:0:0:
328,267,151975,1,4,3:0:0:0:
257,194,152079,2,0,L|152:188,1,75.0000028610231,14|0,1:2|0:0,0:0:0:0:
49,216,152285,1,2,1:2:0:0:
31,133,152389,1,0,1:0:0:0:
93,76,152492,6,0,P|145:64|190:68,1,75.0000028610231,6|0,1:2|0:0,0:0:0:0:
311,18,152699,2,0,L|279:103,1,75.0000028610231,2|0,3:2|0:0,0:0:0:0:
369,168,152906,2,0,L|337:253,1,75.0000028610231,10|0,1:0|0:0,0:0:0:0:
224,329,153113,2,0,L|252:249,1,75.0000028610231,2|0,3:2|0:0,0:0:0:0:
212,170,153320,1,0,1:0:0:0:
212,170,153423,2,0,P|282:168|318:197,1,75.0000028610231,2|2,0:0|3:0,0:0:0:0:
436,123,153630,2,0,P|487:174|496:235,2,75.0000028610231,2|8|0,0:0|1:0|0:0,0:0:0:0:
321,62,153941,1,2,3:0:0:0:
321,62,154044,1,0,0:0:0:0:
321,62,154148,6,0,L|198:72,1,75.0000028610231,6|0,1:2|0:0,0:0:0:0:
88,16,154354,2,0,L|118:130,1,75.0000028610231,2|0,3:2|0:0,0:0:0:0:
267,221,154561,2,0,L|144:231,1,75.0000028610231,10|0,1:0|0:0,0:0:0:0:
34,175,154768,2,0,L|64:289,1,75.0000028610231,2|0,3:2|0:0,0:0:0:0:
171,372,154975,1,2,1:2:0:0:
141,295,155079,2,0,B|124:183|179:106,1,150.000005722046,2|0,0:2|0:0,0:0:0:0:
246,108,155389,1,10,1:0:0:0:
284,114,155492,1,2,0:0:0:0:
334,145,155596,1,2,1:3:0:0:
372,151,155699,1,2,0:1:0:0:
431,210,155803,6,0,L|452:101,1,75.0000028610231,4|0,1:2|0:0,0:0:0:0:
296,32,156010,2,0,P|240:36|174:31,1,75.0000028610231,2|0,3:2|0:0,0:0:0:0:
73,127,156217,2,0,P|129:123|195:128,1,75.0000028610231,10|0,1:0|0:0,0:0:0:0:
274,223,156423,2,0,P|218:227|152:222,1,75.0000028610231,2|0,3:2|0:0,0:0:0:0:
36,334,156630,1,6,1:2:0:0:
36,334,156734,2,0,P|120:322|201:331,1,150.000005722046,2|2,0:0|0:0,0:0:0:0:
279,304,157044,2,0,P|321:307|376:315,1,75.0000028610231,8|0,1:0|0:0,0:0:0:0:
495,240,157251,5,2,1:3:0:0:
426,226,157354,1,0,1:0:0:0:
394,160,157458,1,8,1:2:0:0:
404,89,157561,1,8,1:0:0:0:
461,42,157665,1,0,1:0:0:0:
239,255,157872,6,0,P|307:202|294:86,1,150.000005722046,12|2,1:2|3:0,0:0:0:0:
206,67,158182,2,0,P|138:120|151:236,1,150.000005722046,8|0,1:0|0:0,0:0:0:0:
131,285,158492,2,0,L|38:292,1,75.0000028610231,2|0,1:2|0:0,0:0:0:0:
318,142,158699,2,0,L|411:149,1,75.0000028610231,12|0,1:2|0:0,0:0:0:0:
471,244,158906,1,2,1:2:0:0:
471,244,159010,1,0,1:0:0:0:
471,244,159113,6,0,P|479:161|497:142,1,77.5000005912781,6|0,1:2|0:0,0:0:0:0:
501,43,159320,2,0,P|429:47|410:62,1,77.5000005912781,2|0,3:2|0:0,0:0:0:0:
318,142,159527,1,10,1:0:0:0:
318,142,159630,1,0,0:0:0:0:
318,142,159734,2,0,L|230:145,1,77.5000005912781,2|0,3:2|0:0,0:0:0:0:
83,59,159941,1,2,1:0:0:0:
95,66,160044,2,0,P|119:159|101:248,2,155.000001182556,2|2|2,0:0|0:0|0:0,0:0:0:0:
20,181,160561,1,2,3:0:0:0:
20,181,160665,1,2,0:0:0:0:
20,181,160768,6,0,L|33:272,1,77.5000005912781,2|0,1:0|0:0,0:0:0:0:
119,369,160975,2,0,L|127:281,1,77.5000005912781,2|0,3:2|0:0,0:0:0:0:
239,212,161182,2,0,P|324:223|340:223,1,77.5000005912781,10|0,1:0|2:0,2:0:0:0:
507,167,161389,2,0,P|461:231|460:284,1,77.5000005912781,2|0,3:2|2:0,2:0:0:0:
411,337,161596,1,2,1:0:0:0:
420,324,161699,2,0,P|430:236|383:187,1,155.000001182556,2|0,0:0|0:0,0:0:0:0:
429,82,162010,2,0,P|357:96|329:102,1,77.5000005912781,10|2,1:0|0:0,0:0:0:0:
248,67,162217,2,0,P|176:81|148:87,1,77.5000005912781,2|2,1:3|0:1,0:0:0:0:
38,67,162423,6,0,P|73:95|90:173,1,77.5000005912781,6|0,1:2|0:0,0:0:0:0:
228,255,162630,2,0,P|186:271|110:247,1,77.5000005912781,2|0,3:2|0:0,0:0:0:0:
7,332,162837,1,10,1:0:0:0:
7,332,162941,1,0,0:0:0:0:
7,332,163044,2,0,P|13:287|72:233,1,77.5000005912781,2|0,3:2|0:0,0:0:0:0:
173,151,163251,1,2,1:2:0:0:
251,178,163354,2,0,L|352:186,1,77.5000005912781,2|2,0:0|3:0,0:0:0:0:
465,114,163561,2,0,P|378:109|290:100,1,155.000001182556,2|2,0:0|0:0,0:0:0:0:
198,15,163872,1,2,3:0:0:0:
206,87,163975,1,2,0:0:0:0:
173,151,164079,5,6,1:2:0:0:
86,60,164285,1,2,3:0:0:0:
396,16,164492,2,0,L|384:108,1,77.5000005912781,10|0,1:0|0:0,0:0:0:0:
422,176,164699,2,0,L|406:293,1,77.5000005912781,2|0,3:0|0:0,0:0:0:0:
307,363,164906,6,0,P|327:281|318:183,1,155.000001182556,4|2,1:2|3:0,0:0:0:0:
285,137,165217,1,4,1:3:0:0:
238,271,165320,2,0,L|114:277,1,77.5000005912781,14|0,1:2|0:0,0:0:0:0:
20,131,165527,1,2,1:0:0:0:
20,131,165630,1,2,1:0:0:0:
20,131,165734,6,0,P|48:169|46:234,1,77.5000005912781,6|0,1:2|0:0,0:0:0:0:
190,19,165941,2,0,P|142:66|89:64,1,77.5000005912781,2|0,3:2|0:0,0:0:0:0:
320,203,166148,2,0,P|292:165|294:100,1,77.5000005912781,10|0,1:0|0:0,0:0:0:0:
150,315,166355,2,0,P|198:268|251:270,1,77.5000005912781,2|0,3:2|0:0,0:0:0:0:
404,136,166561,1,2,1:2:0:0:
382,136,166665,2,0,P|358:238|363:319,2,155.000001182556,2|2|2,0:0|0:0|0:0,0:0:0:0:
356,34,167182,1,2,3:0:0:0:
356,34,167285,1,2,0:0:0:0:
356,34,167389,6,0,L|490:52,1,77.5000005912781,6|0,1:2|0:0,0:0:0:0:
295,112,167596,2,0,L|183:124,1,77.5000005912781,2|0,3:2|0:0,0:0:0:0:
69,43,167803,2,0,P|107:71|109:138,1,77.5000005912781,10|0,1:0|0:0,0:0:0:0:
90,268,168010,2,0,L|3:280,1,77.5000005912781,2|0,3:2|0:0,0:0:0:0:
117,175,168217,1,2,1:0:0:0:
144,196,168320,2,0,L|235:211,2,77.5000005912781,2|0|0,0:0|0:0|0:0,0:0:0:0:
342,107,168630,1,10,1:0:0:0:
328,153,168734,1,2,0:0:0:0:
314,199,168837,1,2,1:3:0:0:
300,245,168941,1,2,0:1:0:0:
261,325,169044,6,0,L|355:329,1,77.5000005912781,6|0,1:2|0:0,0:0:0:0:
456,218,169251,2,0,P|413:231|384:267,1,77.5000005912781,2|0,3:2|0:0,0:0:0:0:
158,246,169458,2,0,P|201:233|230:197,1,77.5000005912781,10|0,1:0|0:0,0:0:0:0:
133,61,169665,2,0,P|90:74|61:110,1,77.5000005912781,2|0,3:2|0:0,0:0:0:0:
11,243,169872,1,6,1:2:0:0:
85,193,169975,2,0,L|246:95,1,155.000001182556,0|2,0:0|0:0,0:0:0:0:
264,24,170285,2,0,P|314:81|318:120,1,77.5000005912781,8|0,1:0|0:0,0:0:0:0:
301,188,170492,5,2,1:3:0:0:
369,154,170596,1,0,1:0:0:0:
442,180,170699,1,0,1:0:0:0:
469,254,170803,1,0,1:0:0:0:
427,318,170906,1,0,1:0:0:0:
354,31,171113,6,0,P|328:149|260:221,1,170.000003242493,12|2,1:2|0:3,0:0:0:0:
276,376,171423,2,0,P|250:258|182:186,1,170.000003242493,8|0,1:0|0:0,0:0:0:0:
114,106,171734,2,0,P|106:182|65:244,1,85.0000016212464,2|0,1:3|0:0,0:0:0:0:
133,343,171941,2,0,P|141:267|182:205,1,85.0000016212464,14|0,1:2|0:0,0:0:0:0:
29,100,172148,1,2,1:0:0:0:
29,100,172251,1,2,1:0:0:0:
29,100,172354,6,0,L|128:106,1,85.0000016212464,6|0,1:2|0:0,0:0:0:0:
113,105,172561,2,0,L|212:111,1,85.0000016212464,2|0,3:2|0:0,0:0:0:0:
483,100,172768,2,0,L|384:106,1,85.0000016212464,10|0,1:0|0:0,0:0:0:0:
399,105,172975,2,0,L|300:111,1,85.0000016212464,2|0,3:2|0:0,0:0:0:0:
176,23,173182,1,2,1:0:0:0:
259,48,173285,2,0,B|288:155|187:103|257:278,1,170.000003242493,2|2,0:0|0:0,0:0:0:0:
233,329,173596,2,0,P|268:281|341:283,1,85.0000016212464,8|2,1:0|0:0,0:0:0:0:
447,209,173803,1,2,3:0:0:0:
464,280,173906,1,2,0:0:0:0:
421,343,174010,6,0,L|327:346,1,85.0000016212464,2|0,1:0|0:0,0:0:0:0:
341,130,174217,2,0,L|356:223,1,85.0000016212464,2|0,3:2|0:0,0:0:0:0:
233,329,174423,1,10,1:0:0:0:
233,329,174527,1,0,0:0:0:0:
233,329,174630,2,0,L|245:233,1,85.0000016212464,2|0,3:2|0:0,0:0:0:0:
255,156,174837,1,2,1:0:0:0:
174,189,174941,2,0,L|64:197,1,85.0000016212464,2|0,0:0|0:0,0:0:0:0:
3,86,175148,2,0,L|113:78,1,85.0000016212464,0|10,0:0|1:0,0:0:0:0:
203,43,175354,1,2,0:0:0:0:
273,64,175458,1,2,1:3:0:0:
343,47,175561,1,2,0:1:0:0:
413,68,175665,5,6,1:2:0:0:
239,250,175872,1,2,3:2:0:0:
14,199,176079,2,0,P|82:212|120:265,1,85.0000016212464,10|0,1:0|0:0,0:0:0:0:
239,250,176285,2,0,P|265:323|218:377,1,85.0000016212464,2|0,3:2|0:2,0:2:0:0:
171,154,176492,1,2,1:0:0:0:
187,164,176596,2,0,P|268:158|385:157,1,170.000003242493,2|2,0:0|0:0,0:0:0:0:
470,70,176906,2,0,P|406:72|345:71,1,85.0000016212464,8|2,1:0|0:0,0:0:0:0:
310,26,177113,1,2,3:0:0:0:
236,35,177217,1,2,0:0:0:0:
166,48,177320,5,6,1:2:0:0:
358,165,177527,1,2,3:0:0:0:
217,335,177734,1,10,1:0:0:0:
25,218,177941,1,2,3:0:0:0:
310,260,178148,1,6,1:2:0:0:
310,260,178251,2,0,P|209:246|183:252,1,85.0000016212464,0|2,0:0|3:0,0:0:0:0:
155,198,178458,1,4,3:0:0:0:
139,281,178561,2,0,P|90:334|28:320,1,85.0000016212464,14|0,1:2|0:0,0:0:0:0:
32,226,178768,1,2,0:0:0:0:
32,226,178872,1,2,0:0:0:0:
32,226,178975,6,0,P|42:119|41:24,2,170.000003242493,6|2|10,1:2|3:2|1:0,0:0:0:0:
129,129,179492,1,0,0:0:0:0:
129,129,179596,2,0,L|246:139,1,85.0000016212464,2|0,3:2|0:0,0:0:0:0:
423,60,179803,1,2,1:0:0:0:
345,67,179906,2,0,L|224:75,1,85.0000016212464,2|2,0:0|3:0,0:0:0:0:
332,209,180113,2,0,L|341:306,2,85.0000016212464,2|8|2,0:0|1:0|0:0,0:0:0:0:
382,150,180423,1,2,3:0:0:0:
459,149,180527,1,2,0:0:0:0:
459,149,180630,6,0,L|468:246,1,85.0000016212464,2|0,1:0|0:0,0:0:0:0:
339,293,180837,2,0,L|225:289,1,85.0000016212464,2|0,3:2|0:0,0:0:0:0:
138,124,181044,1,10,1:0:0:0:
138,124,181148,1,0,0:0:0:0:
138,124,181251,2,0,L|147:230,1,85.0000016212464,2|0,3:2|0:0,0:0:0:0:
49,337,181458,1,2,1:0:0:0:
59,326,181561,2,0,P|72:223|63:153,1,170.000003242493,2|0,0:0|0:0,0:0:0:0:
25,66,181872,1,10,1:2:0:0:
71,56,181975,1,2,0:0:0:0:
127,65,182079,1,2,1:3:0:0:
172,55,182182,1,2,0:1:0:0:
238,19,182285,6,0,L|339:26,1,85.0000016212464,6|0,1:2|0:0,0:0:0:0:
250,153,182492,2,0,L|237:249,1,85.0000016212464,2|0,3:2|0:0,0:0:0:0:
332,346,182699,2,0,P|345:262|386:251,1,85.0000016212464,10|0,1:0|0:0,0:0:0:0:
379,115,182906,2,0,P|366:199|325:210,1,85.0000016212464,2|0,3:2|0:0,0:0:0:0:
237,309,183113,1,6,1:2:0:0:
223,319,183217,2,0,P|132:310|49:318,1,170.000003242493,2|2,0:0|0:0,0:0:0:0:
11,184,183527,2,0,P|72:141|155:153,1,85.0000016212464,8|0,1:0|0:0,0:0:0:0:
267,61,183734,5,2,1:3:0:0:
285,133,183837,1,0,1:0:0:0:
257,203,183941,1,8,1:0:0:0:
188,220,184044,1,8,1:0:0:0:
118,246,184148,1,0,1:0:0:0:
318,357,184354,6,0,P|319:257|371:185,1,170.000003242493,14|2,1:2|3:0,0:0:0:0:
456,62,184665,2,0,B|356:59|394:142|296:125,1,170.000003242493,8|0,1:0|0:0,0:0:0:0:
196,294,184975,2,0,P|236:349|219:401,1,85.0000016212464,2|0,1:3|0:0,0:0:0:0:
167,166,185182,2,0,P|82:146|34:184,1,85.0000016212464,12|0,1:2|0:0,0:0:0:0:
36,330,185389,1,2,1:0:0:0:
36,330,185492,1,2,1:0:0:0:
36,330,185596,6,0,P|84:309|149:336,1,94.9999974632264,6|0,1:2|0:0,0:0:0:0:
264,254,185803,2,0,L|394:272,1,94.9999974632264,2|0,3:0|0:0,0:0:0:0:
451,325,186010,2,0,L|438:193,1,94.9999974632264,10|0,1:0|0:0,0:0:0:0:
282,57,186217,1,2,3:0:0:0:
282,57,186320,1,2,0:0:0:0:
323,136,186423,1,2,1:0:0:0:
323,136,186527,6,0,B|233:159|235:76|94:123,2,189.999994926453,2|2|2,0:0|0:0|0:0,0:0:0:0:
226,309,187044,1,2,3:0:0:0:
226,309,187148,1,2,0:0:0:0:
226,309,187251,6,0,P|301:349|288:424,1,94.9999974632264,2|0,1:2|0:0,0:0:0:0:
459,268,187458,2,0,P|410:275|349:293,1,94.9999974632264,2|0,3:0|0:0,0:0:0:0:
212,223,187665,2,0,P|163:230|102:248,1,94.9999974632264,10|0,1:2|0:0,0:0:0:0:
0,127,187872,1,2,3:0:0:0:
13,209,187975,1,2,0:0:0:0:
13,209,188079,2,0,P|27:123|126:120,1,189.999994926453,2|2,1:0|0:0,0:0:0:0:
183,71,188389,1,2,0:0:0:0:
254,104,188492,1,8,1:0:0:0:
256,342,188699,1,2,3:2:0:0:
254,104,188906,6,0,L|361:95,1,94.9999974632264,6|0,1:2|0:0,0:0:0:0:
443,88,189113,2,0,L|336:97,1,94.9999974632264,2|0,3:0|0:0,0:0:0:0:
254,104,189320,2,0,L|147:113,1,94.9999974632264,10|0,1:0|0:0,0:0:0:0:
64,145,189527,1,2,3:0:0:0:
64,145,189630,1,2,0:0:0:0:
101,232,189734,1,2,1:0:0:0:
101,232,189837,2,0,L|110:349,1,94.9999974632264,2|2,0:0|3:0,0:0:0:0:
201,192,190044,2,0,L|210:309,1,94.9999974632264,2|8,0:0|1:0,0:0:0:0:
324,321,190251,1,2,0:0:0:0:
324,321,190354,1,2,3:0:0:0:
324,321,190458,1,2,0:0:0:0:
324,321,190561,6,0,P|384:282|462:287,1,94.9999974632264,6|0,1:2|0:0,0:0:0:0:
188,63,190768,2,0,P|128:102|50:97,1,94.9999974632264,2|0,3:2|0:0,0:0:0:0:
188,321,190975,2,0,P|128:282|50:287,1,94.9999974632264,10|0,1:0|0:0,0:0:0:0:
324,63,191182,2,0,P|384:102|462:97,1,94.9999974632264,2|0,3:2|0:0,0:0:0:0:
404,373,191389,6,0,P|341:274|352:177,1,189.999994926453,6|2,1:2|3:0,0:0:0:0:
255,127,191699,1,4,1:3:0:0:
169,204,191803,2,0,P|160:303|141:329,1,94.9999974632264,14|0,1:2|0:0,0:0:0:0:
35,109,192010,1,2,1:0:0:0:
35,109,192113,1,2,1:0:0:0:
35,109,192217,6,0,P|101:117|164:120,1,94.9999974632264,6|0,1:2|0:0,0:0:0:0:
193,31,192423,2,0,P|259:39|322:42,1,94.9999974632264,2|0,3:0|0:0,0:0:0:0:
474,117,192630,2,0,P|408:125|345:128,1,94.9999974632264,10|0,1:0|0:0,0:0:0:0:
279,144,192837,1,2,3:0:0:0:
279,144,192941,1,2,0:0:0:0:
294,239,193044,1,2,1:0:0:0:
294,239,193148,2,0,P|198:242|104:257,2,189.999994926453,2|2|2,0:0|0:0|0:0,0:0:0:0:
278,142,193665,1,2,3:0:0:0:
188,148,193768,1,2,0:0:0:0:
97,153,193872,6,0,L|-5:162,1,94.9999974632264,6|0,1:2|0:0,0:0:0:0:
162,46,194079,2,0,L|264:37,1,94.9999974632264,2|0,3:0|0:0,0:0:0:0:
398,93,194285,2,0,L|380:209,1,94.9999974632264,10|0,1:2|0:0,0:0:0:0:
365,281,194492,1,2,3:0:0:0:
458,298,194596,1,2,0:0:0:0:
458,298,194699,2,0,L|476:182,2,94.9999974632264,2|0|2,1:0|0:0|0:0,0:0:0:0:
277,174,195010,1,2,0:0:0:0:
277,174,195113,2,0,L|259:290,1,94.9999974632264,8|0,1:0|0:0,0:0:0:0:
291,80,195320,2,0,L|273:196,1,94.9999974632264,2|0,1:2|0:0,0:0:0:0:
195,327,195527,6,0,P|149:217|140:217,1,94.9999974632264,6|0,1:2|0:0,0:0:0:0:
195,57,195734,2,0,P|149:167|140:167,1,94.9999974632264,2|0,3:0|0:0,0:0:0:0:
29,202,195941,2,0,L|141:189,1,94.9999974632264,10|0,1:0|0:0,0:0:0:0:
361,145,196148,1,2,3:0:0:0:
361,145,196251,1,2,0:0:0:0:
337,238,196354,1,6,1:2:0:0:
337,238,196458,6,0,B|459:251|410:143|517:158,1,189.999994926453,2|2,0:0|0:0,0:0:0:0:
301,59,196768,2,0,P|269:154|283:193,1,94.9999974632264,8|0,1:0|0:0,0:0:0:0:
252,241,196975,5,2,1:2:0:0:
198,188,197079,1,0,1:0:0:0:
124,200,197182,1,8,1:0:0:0:
94,269,197285,1,2,1:2:0:0:
129,334,197389,1,8,1:0:0:0:
38,113,197596,6,0,P|93:52|203:88,1,189.999994926453,14|2,1:2|3:0,0:0:0:0:
426,93,197906,2,0,P|371:154|261:118,1,189.999994926453,10|0,1:0|0:0,0:0:0:0:
37,113,198217,2,0,B|52:150|54:177|43:234,1,94.9999974632264,2|0,1:3|0:0,0:0:0:0:
48,360,198423,2,0,B|76:308|119:297|148:305,1,94.9999974632264,12|0,1:2|0:0,0:0:0:0:
212,239,198630,1,2,1:0:0:0:
212,239,198734,1,2,1:0:0:0:
212,239,198837,6,0,B|253:255|296:258|363:245,1,115.000002193451,6|0,1:2|0:0,0:0:0:0:
405,360,199044,2,0,B|396:293|409:248|440:212,1,115.000002193451,2|0,3:2|0:0,0:0:0:0:
512,112,199251,2,0,B|521:179|508:224|477:260,1,115.000002193451,10|0,1:0|0:0,0:0:0:0:
417,53,199458,1,2,3:2:0:0:
417,53,199561,1,2,0:0:0:0:
375,151,199665,1,2,1:0:0:0:
375,151,199768,2,0,B|313:160|286:161|235:159,1,115.000002193451,2|2,0:0|3:0,0:0:0:0:
139,49,199975,2,0,B|175:97|186:131|175:203,2,115.000002193451,2|8|2,0:0|1:2|0:0,0:0:0:0:
52,205,200285,1,2,3:0:0:0:
52,205,200389,1,2,0:0:0:0:
52,205,200492,6,0,B|133:216|206:243|206:243,1,115.000002193451,2|0,1:0|0:0,0:0:0:0:
249,343,200699,2,0,B|236:277|248:223|278:186,1,115.000002193451,2|0,3:2|0:0,0:0:0:0:
195,74,200906,2,0,B|276:85|349:112|349:112,1,115.000002193451,10|0,1:2|0:0,0:0:0:0:
484,142,201113,1,2,3:2:0:0:
456,232,201217,1,2,0:0:0:0:
456,232,201320,2,0,B|398:142|461:92|409:-4,1,230.000004386902,2|2,1:0|0:0,0:0:0:0:
347,183,201630,1,2,0:0:0:0:
377,265,201734,1,8,1:2:0:0:
188,74,201941,1,2,1:3:0:0:
37,325,202148,6,0,B|44:284|84:243|142:243,1,115.000002193451,6|0,1:2|0:0,0:0:0:0:
209,147,202354,2,0,B|241:173|256:228|227:278,1,115.000002193451,2|0,3:2|0:0,0:0:0:0:
141,336,202561,2,0,B|180:323|225:349|285:328,1,115.000002193451,10|0,1:0|0:0,0:0:0:0:
450,209,202768,1,2,3:2:0:0:
450,209,202872,1,2,0:0:0:0:
374,282,202975,1,2,1:0:0:0:
374,282,203079,2,0,P|356:173|366:92,1,115.000002193451,2|2,0:0|3:0,0:0:0:0:
246,62,203285,2,0,B|208:59|167:61|131:69,1,115.000002193451,2|8,0:0|1:0,0:0:0:0:
46,173,203492,1,2,0:0:0:0:
46,173,203596,1,2,3:0:0:0:
46,173,203699,1,2,0:0:0:0:
46,173,203803,6,0,B|85:181|116:215|123:249,1,115.000002193451,6|0,1:2|0:0,0:0:0:0:
199,173,204010,2,0,B|191:211|157:242|123:249,1,115.000002193451,2|0,3:2|0:0,0:0:0:0:
199,326,204217,2,0,B|160:318|129:284|122:250,1,115.000002193451,10|0,1:2|0:0,0:0:0:0:
45,326,204423,2,0,B|52:287|86:256|120:249,1,115.000002193451,2|0,3:2|0:0,0:0:0:0:
118,29,204630,2,0,B|79:124|84:197|121:248,1,230.000004386902,6|2,1:2|3:0,0:0:0:0:
197,65,204941,1,4,1:3:0:0:
297,75,205044,2,0,B|359:108|370:151|361:198,1,115.000002193451,14|0,1:2|0:0,0:0:0:0:
353,318,205251,1,2,1:0:0:0:
353,318,205354,1,2,1:0:0:0:
353,318,205458,6,0,B|370:264|424:241|484:227,1,115.000002193451,6|0,1:2|0:0,0:0:0:0:
444,86,205665,2,0,B|427:140|373:163|313:177,1,115.000002193451,2|0,3:2|0:0,0:0:0:0:
236,255,205872,2,0,B|185:247|140:245|111:252,1,115.000002193451,10|0,1:0|0:0,0:0:0:0:
69,65,206079,1,2,3:2:0:0:
69,65,206182,1,2,0:0:0:0:
13,156,206285,1,2,1:0:0:0:
13,156,206389,2,0,B|64:148|109:146|138:153,1,115.000002193451,2|2,0:0|3:0,0:0:0:0:
245,35,206596,2,0,B|223:95|214:153|229:183,2,115.000002193451,2|8|2,0:0|1:0|0:0,0:0:0:0:
367,48,206906,1,2,3:0:0:0:
321,128,207010,1,2,0:0:0:0:
321,128,207113,6,0,B|311:198|315:244|318:288,1,115.000002193451,6|0,1:2|0:0,0:0:0:0:
504,277,207320,2,0,B|475:239|431:234|393:254,1,115.000002193451,2|0,3:2|0:0,0:0:0:0:
242,288,207527,2,0,B|213:326|169:331|131:311,1,115.000002193451,10|0,1:0|0:0,0:0:0:0:
41,181,207734,1,2,3:2:0:0:
45,274,207837,1,2,0:0:0:0:
45,274,207941,2,0,B|51:173|149:136|228:162,1,230.000004386902,2|2,1:0|0:0,0:0:0:0:
330,137,208251,1,2,0:0:0:0:
303,224,208354,1,8,1:0:0:0:
169,42,208561,1,2,1:0:0:0:
377,32,208768,6,0,B|427:91|418:139|404:191,1,115.000002193451,6|0,1:2|0:0,0:0:0:0:
493,271,208975,2,0,B|449:237|388:225|359:253,1,115.000002193451,2|0,3:2|0:0,0:0:0:0:
224,307,209182,2,0,B|282:286|314:211|297:181,1,115.000002193451,10|0,1:0|0:0,0:0:0:0:
254,50,209389,1,2,3:2:0:0:
254,50,209492,1,2,0:0:0:0:
323,132,209596,1,6,1:2:0:0:
323,132,209699,2,0,B|231:142|189:176|188:211,1,115.000002193451,2|2,0:0|3:0,0:0:0:0:
64,79,209906,1,2,0:0:0:0:
64,79,210010,2,0,B|83:136|68:194|52:236,1,115.000002193451,8|0,1:0|0:0,0:0:0:0:
54,342,210217,5,2,1:0:0:0:
113,288,210320,1,0,1:0:0:0:
191,271,210423,1,8,1:0:0:0:
260,306,210527,1,2,1:0:0:0:
343,300,210630,1,8,1:0:0:0:
467,90,210837,6,0,P|377:43|269:123,1,230.000004386902,14|2,1:2|3:0,0:0:0:0:
98,25,211148,2,0,P|250:49|270:164,1,230.000004386902,10|0,1:0|0:0,0:0:0:0:
158,210,211458,2,0,P|153:135|180:76,1,115.000002193451,2|0,1:3|0:0,0:0:0:0:
375,132,211665,2,0,P|364:188|333:235,1,115.000002193451,14|0,1:2|0:0,0:0:0:0:
233,312,211872,1,2,1:0:0:0:
233,312,211975,1,2,1:0:0:0:
233,312,212079,1,4,1:2:0:0:
