osu file format v14

[General]
AudioFilename: Scarlet Rose.mp3
AudioLeadIn: 2007
PreviewTime: 127927
Countdown: 0
SampleSet: Normal
StackLeniency: 0.7
Mode: 0
LetterboxInBreaks: 0
WidescreenStoryboard: 0

[Editor]
Bookmarks: 19084,30735,54641,67084,91084,103084
DistanceSpacing: 1
BeatDivisor: 4
GridSize: 4
TimelineZoom: 1

[Metadata]
Title:Scarlet Rose
TitleUnicode:Scarlet Rose
Artist:seleP
ArtistUnicode:seleP
Creator:smallboat
Version:Normal
Source:
Tags:original lilium doll 2nd album vocaloid lily yellow blue eye electric bomb music
BeatmapID:359195
BeatmapSetID:129795

[Difficulty]
HPDrainRate:4
CircleSize:3
OverallDifficulty:5
ApproachRate:6
SliderMultiplier:1.00000000596046
SliderTickRate:1

[Events]
//Background and Video events
0,0,"Vocaloid_lily .jpg",0,0
//Break Periods
2,31471,42034
2,91471,102034
2,212034,216784
//Storyboard Layer 0 (Background)
//Storyboard Layer 1 (Fail)
//Storyboard Layer 2 (Pass)
//Storyboard Layer 3 (Foreground)
//Storyboard Layer 4 (Overlay)
//Storyboard Sound Samples

[TimingPoints]
7084,375,4,2,1,75,1,0
7084,-100,4,2,1,75,0,0
7271,-100,4,1,1,75,0,0
8584,-100,4,2,1,75,0,0
8771,-100,4,1,1,75,0,0
10084,-100,4,2,1,75,0,0
10271,-100,4,1,1,75,0,0
11584,-100,4,2,1,75,0,0
11771,-100,4,1,1,75,0,0
12334,-100,4,2,1,75,0,0
12521,-100,4,1,1,75,0,0
13084,-100,4,2,1,75,0,0
13271,-100,4,2,1,75,0,0
13459,-100,4,2,1,75,0,0
13834,-100,4,2,1,75,0,0
14209,-100,4,2,1,75,0,0
14584,-100,4,2,1,75,0,0
14771,-100,4,2,1,75,0,0
16084,-100,4,2,1,75,0,0
16271,-100,4,2,1,75,0,0
16834,-100,4,2,1,75,0,0
17021,-100,4,2,1,75,0,0
17584,-100,4,2,1,75,0,0
17677,-100,4,2,1,75,0,0
18334,-100,4,2,1,75,0,0
18521,-100,4,2,1,75,0,0
19084,-100,4,2,1,85,0,1
19271,-100,4,1,1,85,0,1
19834,-100,4,2,1,85,0,1
20021,-100,4,1,1,85,0,1
20584,-100,4,2,1,85,0,1
20677,-100,4,1,1,85,0,1
21334,-100,4,2,1,85,0,1
21521,-100,4,1,1,85,0,1
22084,-100,4,2,1,85,0,1
22271,-100,4,1,1,85,0,1
22834,-100,4,2,1,85,0,1
23021,-100,4,1,1,85,0,1
23584,-100,4,2,1,85,0,1
23771,-100,4,1,1,85,0,1
24334,-100,4,2,1,85,0,1
24521,-100,4,1,1,85,0,1
25084,-100,4,2,1,85,0,1
25271,-100,4,1,1,85,0,1
25834,-100,4,2,1,85,0,1
26021,-100,4,1,1,85,0,1
26584,-100,4,2,1,85,0,1
26771,-100,4,1,1,85,0,1
27334,-100,4,2,1,85,0,1
27521,-100,4,1,1,85,0,1
28084,-100,4,2,1,85,0,1
28271,-100,4,1,1,85,0,1
28834,-100,4,2,1,85,0,1
29209,-100,4,1,1,85,0,1
29584,-100,4,2,1,85,0,1
29771,-100,4,1,1,85,0,1
30334,-100,4,2,1,85,0,1
31084,-100,4,2,1,85,0,0
32584,-100,4,2,1,85,0,0
32771,-100,4,2,1,75,0,0
34084,-100,4,2,1,75,0,0
34271,-100,4,2,1,75,0,0
35584,-100,4,2,1,75,0,0
35771,-100,4,2,1,75,0,0
36334,-100,4,2,1,75,0,0
36521,-100,4,2,1,75,0,0
37084,-100,4,2,1,75,0,0
37271,-100,4,2,1,75,0,0
37459,-100,4,2,1,75,0,0
38584,-100,4,2,1,75,0,0
38771,-100,4,2,1,75,0,0
40084,-100,4,2,1,75,0,0
40271,-100,4,2,1,75,0,0
41584,-100,4,2,1,75,0,0
41771,-100,4,2,1,75,0,0
42334,-100,4,2,1,75,0,0
42521,-100,4,1,1,75,0,0
43084,-100,4,2,1,75,0,0
43271,-100,4,1,1,75,0,0
44584,-100,4,2,1,75,0,0
44771,-100,4,1,1,75,0,0
46084,-100,4,2,1,75,0,0
46271,-100,4,1,1,75,0,0
47584,-100,4,2,1,75,0,0
47771,-100,4,1,1,75,0,0
48334,-100,4,2,1,75,0,0
48521,-100,4,1,1,75,0,0
49084,-100,4,2,1,75,0,0
49271,-100,4,1,1,75,0,0
49834,-100,4,2,1,75,0,0
50021,-100,4,1,1,75,0,0
50584,-100,4,2,1,75,0,0
50771,-100,4,1,1,75,0,0
51334,-100,4,2,1,75,0,0
51521,-100,4,1,1,75,0,0
52084,-100,4,2,1,75,0,0
52271,-100,4,1,1,75,0,0
52834,-100,4,2,1,75,0,0
53021,-100,4,1,1,75,0,0
53584,-100,4,2,1,75,0,0
53771,-100,4,1,1,75,0,0
54334,-100,4,2,1,75,0,0
54521,-100,4,1,1,75,0,0
54709,-100,4,2,1,75,0,0
54896,-100,4,1,1,75,0,0
55084,-100,4,2,1,75,0,0
55271,-100,4,1,1,75,0,0
56584,-100,4,2,1,75,0,0
56771,-100,4,1,1,75,0,0
57334,-100,4,2,1,75,0,0
57521,-100,4,1,1,75,0,0
58084,-100,4,2,1,75,0,0
58271,-100,4,1,1,75,0,0
59584,-100,4,2,1,75,0,0
59771,-100,4,1,1,75,0,0
60334,-100,4,2,1,75,0,0
60521,-100,4,1,1,75,0,0
61084,-100,4,2,1,75,0,0
61271,-100,4,1,1,75,0,0
61834,-100,4,2,1,75,0,0
62209,-100,4,1,1,75,0,0
62584,-100,4,2,1,75,0,0
62771,-100,4,1,1,75,0,0
64084,-100,4,2,1,75,0,0
64271,-100,4,1,1,75,0,0
64834,-100,4,2,1,75,0,0
65209,-100,4,1,1,75,0,0
67084,-100,4,2,1,85,0,1
67271,-100,4,1,1,85,0,1
68584,-100,4,2,1,85,0,1
68771,-100,4,1,1,85,0,1
69334,-100,4,2,1,85,0,1
69521,-100,4,1,1,85,0,1
70084,-100,4,2,1,85,0,1
70271,-100,4,1,1,85,0,1
71584,-100,4,2,1,85,0,1
71771,-100,4,1,1,85,0,1
72334,-100,4,2,1,85,0,1
72521,-100,4,1,1,85,0,1
72709,-100,4,2,1,85,0,1
72896,-100,4,1,1,85,0,1
73084,-100,4,2,1,85,0,1
73271,-100,4,1,1,85,0,1
74584,-100,4,2,1,85,0,1
74771,-100,4,1,1,85,0,1
76084,-100,4,2,1,85,0,1
76271,-100,4,1,1,85,0,1
76834,-100,4,2,1,85,0,1
77021,-100,4,1,1,85,0,1
77584,-100,4,2,1,85,0,1
77771,-100,4,1,1,85,0,1
77959,-100,4,2,1,85,0,1
78146,-100,4,1,1,85,0,1
78334,-100,4,2,1,85,0,1
78521,-100,4,1,1,85,0,1
79084,-100,4,2,1,85,0,1
79271,-100,4,1,1,85,0,1
80584,-100,4,2,1,85,0,1
80771,-100,4,1,1,85,0,1
81334,-100,4,2,1,85,0,1
81521,-100,4,1,1,85,0,1
82084,-100,4,2,1,85,0,1
82271,-100,4,1,1,85,0,1
83584,-100,4,2,1,85,0,1
83771,-100,4,1,1,85,0,1
84334,-100,4,2,1,85,0,1
84521,-100,4,1,1,85,0,1
85084,-100,4,2,1,85,0,1
85271,-100,4,1,1,85,0,1
86584,-100,4,2,1,85,0,1
86771,-100,4,1,1,85,0,1
88084,-100,4,2,1,85,0,1
88459,-100,4,1,1,85,0,1
88834,-100,4,2,1,85,0,1
89021,-100,4,1,1,85,0,1
89209,-100,4,2,1,85,0,1
89396,-100,4,1,1,85,0,1
89584,-100,4,2,1,85,0,1
89771,-100,4,1,1,85,0,1
90334,-100,4,2,1,85,0,1
90521,-100,4,1,1,85,0,1
91084,-100,4,2,1,75,0,0
91271,-100,4,1,1,75,0,0
92584,-100,4,2,1,75,0,0
92771,-100,4,1,1,75,0,0
94084,-100,4,2,1,75,0,0
94271,-100,4,1,1,75,0,0
95584,-100,4,2,1,75,0,0
95771,-100,4,1,1,75,0,0
96334,-100,4,2,1,75,0,0
96521,-100,4,1,1,75,0,0
97084,-100,4,2,1,75,0,0
97271,-100,4,1,1,75,0,0
97459,-100,4,1,1,75,0,0
98584,-100,4,2,1,75,0,0
98771,-100,4,1,1,75,0,0
100084,-100,4,2,1,75,0,0
100271,-100,4,1,1,75,0,0
101584,-100,4,2,1,75,0,0
101771,-100,4,1,1,75,0,0
101959,-100,4,2,1,75,0,0
102146,-100,4,1,1,75,0,0
102334,-100,4,2,1,75,0,0
102521,-100,4,1,1,75,0,0
103084,-100,4,2,1,75,0,0
108709,-100,4,2,1,75,0,0
109084,-100,4,2,1,80,0,0
127459,375,4,2,2,75,1,0
127459,-100,4,2,2,75,0,0
139459,-100,4,2,1,65,0,0
139834,375,4,2,1,65,1,0
139834,-100,4,2,1,65,0,0
145459,-100,4,2,1,65,0,0
151834,-100,4,2,1,75,0,0
163834,-100,4,2,1,85,0,1
164021,-100,4,1,1,85,0,1
164209,-100,4,2,1,85,0,1
164396,-100,4,1,1,85,0,1
164584,-100,4,2,1,85,0,1
164771,-100,4,1,1,85,0,1
165334,-100,4,2,1,85,0,1
165521,-100,4,1,1,85,0,1
166084,-100,4,2,1,85,0,1
166834,-100,4,2,1,85,0,1
167021,-100,4,1,1,85,0,1
168334,-100,4,2,1,85,0,1
168521,-100,4,1,1,85,0,1
169084,-100,4,2,1,85,0,1
169271,-100,4,1,1,85,0,1
169834,-100,4,2,1,85,0,1
170021,-100,4,1,1,85,0,1
171334,-100,4,2,1,85,0,1
171521,-100,4,1,1,85,0,1
172834,-100,4,2,1,85,0,1
173021,-100,4,1,1,85,0,1
173584,-100,4,2,1,85,0,1
173959,-100,4,1,1,85,0,1
174334,-100,4,2,1,85,0,1
175084,-100,4,2,1,85,0,1
175271,-100,4,2,1,85,0,1
175834,375,4,2,1,85,1,0
175834,-100,4,2,1,85,0,1
176021,-100,4,1,1,85,0,1
177334,-100,4,2,1,85,0,1
177521,-100,4,1,1,85,0,1
178084,-100,4,2,1,85,0,1
178271,-100,4,1,1,85,0,1
178834,-100,4,2,1,85,0,1
178927,-100,4,1,1,85,0,1
180334,-100,4,2,1,85,0,1
180521,-100,4,1,1,85,0,1
181084,-100,4,2,1,85,0,1
181177,-100,4,1,1,85,0,1
181459,-100,4,2,1,85,0,1
181646,-100,4,1,1,85,0,1
181834,-100,4,2,1,85,0,1
182209,-100,4,1,1,85,0,1
182584,-100,4,2,1,85,0,1
182959,-100,4,1,1,85,0,1
183334,-100,4,2,1,85,0,1
183521,-100,4,1,1,85,0,1
184084,-100,4,2,1,85,0,1
184271,-100,4,1,1,85,0,1
184834,-100,4,2,1,85,0,1
185021,-100,4,1,1,85,0,1
185584,-100,4,2,1,85,0,1
185959,-100,4,1,1,85,0,1
186334,-100,4,2,1,85,0,1
186709,-100,4,1,1,85,0,1
187459,-100,4,2,1,85,0,0
187834,-100,4,2,1,85,0,1
187927,-100,4,1,1,85,0,1
189334,-100,4,2,1,85,0,1
189521,-100,4,1,1,85,0,1
190834,-100,4,2,1,85,0,1
191021,-100,4,1,1,85,0,1
192334,-100,4,2,1,85,0,1
192521,-100,4,1,1,85,0,1
193084,-100,4,2,1,85,0,1
193271,-100,4,1,1,85,0,1
193459,-100,4,2,1,85,0,1
193646,-100,4,1,1,85,0,1
193834,-100,4,2,1,85,0,1
194021,-100,4,1,1,85,0,1
195334,-100,4,2,1,85,0,1
195521,-100,4,1,1,85,0,1
196834,-100,4,2,1,85,0,1
197021,-100,4,1,1,85,0,1
198334,-100,4,2,1,85,0,1
198521,-100,4,1,1,85,0,1
199084,-100,4,2,1,85,0,1
199271,-100,4,1,1,85,0,1
199459,-100,4,2,1,85,0,0
199834,-100,4,1,1,85,0,1
201334,-100,4,2,1,85,0,1
201521,-100,4,1,1,85,0,1
202834,-100,4,2,1,85,0,1
203021,-100,4,1,1,85,0,1
204334,-100,4,2,1,85,0,1
204521,-100,4,1,1,85,0,1
205084,-100,4,2,1,85,0,1
205271,-100,4,1,1,85,0,1
205459,-100,4,2,1,85,0,1
205552,-100,4,1,1,85,0,1
205834,-100,4,2,1,85,0,1
206021,-100,4,1,1,85,0,1
207334,-100,4,2,1,85,0,1
207521,-100,4,1,1,85,0,1
208834,-100,4,2,1,85,0,1
209021,-100,4,1,1,85,0,1
209584,-100,4,2,1,85,0,1
209771,-100,4,1,1,85,0,1
210334,-100,4,2,1,85,0,1
210521,-100,4,1,1,85,0,1
210709,-100,4,2,1,85,0,1
210896,-100,4,1,1,85,0,1
211084,-100,4,2,1,85,0,1
211271,-100,4,1,1,85,0,1
211459,-100,4,2,1,85,0,1
211646,-100,4,1,1,85,0,1
211834,-100,4,2,1,90,0,0
212021,-100,4,1,1,90,0,0
213334,-100,4,2,1,90,0,0
213521,-100,4,1,1,90,0,0
214834,-100,4,2,1,90,0,0
215021,-100,4,1,1,90,0,0
216334,-100,4,2,1,90,0,0
216521,-100,4,1,1,90,0,0
217459,-100,4,2,1,90,0,0
217646,-100,4,1,1,90,0,0
217834,-100,4,2,1,80,0,0
218021,-100,4,1,1,80,0,0
219334,-100,4,2,1,80,0,0
219521,-100,4,1,1,80,0,0
220834,-100,4,2,1,80,0,0
221021,-100,4,1,1,80,0,0
222334,-100,4,2,1,80,0,0
222521,-100,4,1,1,80,0,0
222709,-100,4,2,1,80,0,0
222896,-100,4,1,1,80,0,0
223084,-100,4,2,1,80,0,0
223177,-100,4,1,1,80,0,0
223459,-100,4,2,1,80,0,0
223552,-100,4,1,1,80,0,0
223834,-100,4,1,1,60,0,0
224584,-100,4,1,1,50,0,0
225334,-100,4,1,1,40,0,0
226084,-100,4,1,1,30,0,0
226834,-100,4,2,1,15,0,0

[Colours]
Combo1 : 255,206,60
Combo2 : 100,255,100
Combo3 : 70,163,255
Combo4 : 176,11,35

[HitObjects]
80,128,7084,6,0,L|188:128,1,100.000000596046,0|10,0:0|0:0,0:0:0:0:
264,76,7834,1,0,0:0:0:0:
357,111,8209,1,10,0:0:0:0:
452,80,8584,2,0,L|452:188,1,100.000000596046,0|10,0:0|0:0,0:0:0:0:
496,269,9334,1,0,0:0:0:0:
405,310,9709,1,10,0:0:0:0:
311,275,10084,6,0,L|203:275,1,100.000000596046,0|10,0:0|0:0,0:0:0:0:
123,323,10834,1,0,0:0:0:0:
52,252,11209,1,10,0:0:0:0:
11,160,11584,2,0,L|12:55,1,100.000000596046,0|10,0:0|0:0,0:0:0:0:
104,22,12334,1,0,0:0:0:0:
196,56,12709,1,14,0:0:0:0:
292,24,13084,6,0,P|336:14|392:30,1,100.000000596046,0|10,0:0|0:0,0:0:0:0:
458,98,13834,2,0,L|456:152,1,50.000000298023,8|0,0:0|0:0,0:0:0:0:
432,192,14209,2,0,L|408:244,1,50.000000298023,10|0,0:0|0:0,0:0:0:0:
364,256,14584,2,0,L|362:309,2,50.000000298023,0|0|10,0:0|0:0|0:0,0:0:0:0:
258,259,15334,2,0,L|256:208,2,50.000000298023,0|0|10,0:0|0:0|0:0,0:0:0:0:
164,292,16084,2,0,P|119:314|70:311,1,100.000000596046,0|0,0:0|0:0,0:0:0:0:
4,240,16834,2,0,L|4:132,1,100.000000596046,0|10,0:0|0:0,0:0:0:0:
12,40,17584,6,0,P|111:31|168:44,1,150.000000894069,0|0,0:0|0:0,0:0:0:0:
208,56,18334,2,0,P|248:88|268:142,1,100.000000596046,0|0,0:0|0:0,0:0:0:0:
296,220,19084,6,0,P|328:264|380:280,1,100,0|10,0:0|0:0,0:0:0:0:
432,200,19834,2,0,P|400:156|348:140,1,100,0|10,0:0|0:0,0:0:0:0:
264,112,20584,2,0,L|161:112,1,100,0|10,0:0|0:0,0:0:0:0:
64,112,21334,2,0,L|-8:112,2,50,0|0|10,0:0|0:0|0:0,0:0:0:0:
64,212,22084,6,0,L|64:262,1,50,0|0,0:0|0:0,0:0:0:0:
100,296,22459,2,0,L|156:324,1,50,10|0,0:0|0:0,0:0:0:0:
192,340,22834,2,0,P|239:355|287:344,1,100,0|10,0:0|0:0,0:0:0:0:
376,296,23584,6,0,L|464:236,1,100,0|10,0:0|0:0,0:0:0:0:
440,140,24334,1,0,0:0:0:0:
364,76,24709,1,10,0:0:0:0:
272,32,25084,6,0,P|224:20|152:32,1,100,0|10,0:0|0:0,0:0:0:0:
88,76,25834,1,0,0:0:0:0:
52,168,26209,1,10,0:0:0:0:
88,260,26584,6,8,P|136:269|185:258,1,100,0|10,0:0|0:0,0:0:0:0:
285,258,27334,2,8,P|333:267|382:256,1,100,0|10,0:0|0:0,0:0:0:0:
479,228,28084,6,0,P|491:179|481:131,1,100.000000596046,0|10,0:0|0:0,0:0:0:0:
464,84,28646,1,0,0:0:0:0:
432,44,28834,2,0,P|382:35|333:40,1,100.000000596046,0|10,0:0|0:0,0:0:0:0:
232,40,29584,2,0,L|232:104,2,50,0|0|14,0:0|0:0|0:0,0:0:0:0:
184,44,30146,1,0,0:0:0:0:
136,60,30334,2,0,P|91:81|132:200,1,200,0|0,0:0|0:0,0:0:0:0:
368,20,43084,6,0,P|416:32|464:84,1,100,0|10,0:0|0:0,0:0:0:0:
492,156,43834,2,0,L|492:224,2,50,0|0|10,0:0|0:0|0:0,0:0:0:0:
392,144,44584,1,0,0:0:0:0:
408,244,44959,2,0,L|364:296,1,50,10|0,0:0|0:0,0:0:0:0:
332,307,45334,2,0,P|286:328|237:329,1,100,0|10,0:0|0:0,0:0:0:0:
137,338,46084,6,0,L|39:313,1,100,0|10,0:0|0:0,0:0:0:0:
78,221,46834,2,0,L|127:214,2,50.000000298023,0|0|10,0:0|0:0|0:0,0:0:0:0:
88,132,47584,2,0,P|128:108|168:52,1,100,0|10,0:0|0:0,0:0:0:0:
208,48,48146,1,0,0:0:0:0:
256,40,48334,2,0,P|312:28|368:36,1,100,0|10,0:0|0:0,0:0:0:0:
432,92,49084,6,0,P|480:140|484:188,1,100,0|10,0:0|0:0,0:0:0:0:
492,268,49834,2,0,L|492:336,2,50,0|0|10,0:0|0:0|0:0,0:0:0:0:
400,224,50584,2,0,P|332:240|300:276,1,100,0|10,0:0|0:0,0:0:0:0:
272,288,51146,1,0,0:0:0:0:
232,320,51334,2,0,L|200:360,2,50,0|0|10,0:0|0:0|0:0,0:0:0:0:
136,292,52084,6,0,P|88:272|56:232,1,100,0|10,0:0|0:0,0:0:0:0:
44,137,52834,2,0,L|44:73,2,50,0|0|10,0:0|0:0|0:0,0:0:0:0:
135,96,53584,6,0,P|177:68|226:65,1,100,0|10,0:0|0:0,0:0:0:0:
328,64,54334,2,0,P|377:67|418:94,1,100,0|10,0:0|0:0,0:0:0:0:
348,168,55084,6,0,L|348:240,2,50,0|0|10,0:0|0:0|0:0,0:0:0:0:
252,188,55834,2,0,P|204:200|140:188,1,100,0|10,0:0|0:0,0:0:0:0:
112,168,56396,1,0,0:0:0:0:
92,124,56584,2,0,P|116:80|164:52,1,100,0|10,0:0|0:0,0:0:0:0:
257,53,57334,2,0,L|257:121,2,50,0|0|10,0:0|0:0|0:0,0:0:0:0:
356,56,58084,6,0,P|404:65|447:91,1,100,0|10,0:0|0:0,0:0:0:0:
496,180,58834,1,0,0:0:0:0:
480,280,59209,1,10,0:0:0:0:
380,292,59584,6,0,P|338:264|312:222,1,100,0|10,0:0|0:0,0:0:0:0:
296,176,60146,1,0,0:0:0:0:
280,128,60334,2,0,P|252:86|210:60,1,100,0|10,0:0|0:0,0:0:0:0:
112,44,61084,5,0,0:0:0:0:
40,116,61459,1,10,0:0:0:0:
12,212,61834,1,0,0:0:0:0:
48,244,62021,2,0,P|92:268|151:257,1,100,0|0,0:0|0:0,0:0:0:0:
180,232,62584,6,0,L|232:136,1,100,0|10,0:0|0:0,0:0:0:0:
327,144,63334,2,0,L|279:244,1,100,0|10,0:0|0:0,0:0:0:0:
376,268,64084,6,0,L|384:332,2,50,0|0|10,0:0|0:0|0:0,0:0:0:0:
468,228,64834,2,0,L|504:176,1,50,0|0,0:0|0:0,0:0:0:0:
488,136,65209,2,0,L|456:80,1,50,10|0,0:0|0:0,0:0:0:0:
432,52,65584,2,0,P|286:24|139:77,1,300,0|10,0:0|0:0,0:0:0:0:
84,148,67084,6,0,P|68:195|80:246,1,100,0|10,0:0|0:0,0:0:0:0:
168,200,67834,2,0,P|183:247|171:298,1,100,0|10,0:0|0:0,0:0:0:0:
264,336,68584,2,0,P|312:346|359:330,1,100,0|10,0:0|0:0,0:0:0:0:
404,312,69146,1,0,0:0:0:0:
448,288,69334,2,0,P|472:244|468:196,1,100,0|10,0:0|0:0,0:0:0:0:
440,104,70084,6,0,L|492:84,2,50
372,36,70834,2,0,P|324:22|275:33,1,100,0|10,0:0|0:0,0:0:0:0:
320,124,71584,2,0,P|271:134|223:121,1,100,0|10,0:0|0:0,0:0:0:0:
188,84,72146,1,0,0:0:0:0:
140,64,72334,2,0,P|92:50|43:61,1,100,0|10,0:0|0:0,0:0:0:0:
8,156,73084,6,0,P|-2:214|13:263,1,100,0|10,0:0|0:0,0:0:0:0:
76,328,73834,2,0,P|128:356|180:356,1,100,0|10,0:0|0:0,0:0:0:0:
268,358,74584,2,0,P|317:353|360:327,1,100,0|10,0:0|0:0,0:0:0:0:
400,300,75146,1,0,0:0:0:0:
400,248,75334,2,0,L|400:180,2,50
299,248,76084,6,0,P|250:255|201:249,1,100,0|10,0:0|0:0,0:0:0:0:
148,164,76834,2,0,P|197:156|246:162,1,100,0|10,0:0|0:0,0:0:0:0:
348,156,77584,2,0,P|340:106|346:57,1,100,0|10,0:0|0:0,0:0:0:0:
304,28,78146,1,0,0:0:0:0:
256,20,78334,2,0,L|156:20,1,100,0|10,0:0|0:0,0:0:0:0:
60,40,79084,6,0,L|4:140,1,100,0|10,0:0|0:0,0:0:0:0:
11,227,79834,2,0,L|67:327,1,100,0|10,0:0|0:0,0:0:0:0:
152,348,80584,2,0,L|252:308,1,100,0|10,0:0|0:0,0:0:0:0:
291,293,81146,1,0,0:0:0:0:
326,257,81334,2,0,L|384:296,2,50,0|0|10,0:0|0:0|0:0,0:0:0:0:
384,176,82084,6,0,P|396:124|376:72,1,100,0|10,0:0|0:0,0:0:0:0:
296,32,82834,2,0,P|281:79|294:127,1,100,0|10,0:0|0:0,0:0:0:0:
232,208,83584,2,0,P|184:220|136:206,1,100,0|10,0:0|0:0,0:0:0:0:
92,180,84146,1,0,0:0:0:0:
60,140,84334,2,0,P|45:92|58:44,1,100,0|10,0:0|0:0,0:0:0:0:
152,80,85084,6,0,L|260:80,1,100,0|10,0:0|0:0,0:0:0:0:
352,80,85834,2,0,L|464:80,1,100,0|10,0:0|0:0,0:0:0:0:
452,180,86584,2,0,L|452:288,1,100,0|10,0:0|0:0,0:0:0:0:
402,280,87146,1,0,0:0:0:0:
351,280,87334,2,0,L|351:345,2,50,0|0|10,0:0|0:0|0:0,0:0:0:0:
252,280,88084,6,0,P|208:288|148:276,1,100,0|10,0:0|0:0,0:0:0:0:
64,236,88834,2,0,L|8:192,2,50,0|0|10,0:0|0:0|0:0,0:0:0:0:
134,165,89584,2,0,L|173:195,2,50,0|0|14,0:0|0:0|0:0,0:0:0:0:
160,124,90146,1,0,0:0:0:0:
196,88,90334,2,0,P|264:56|380:96,1,200
16,308,103084,6,0,L|16:208,1,100,0|10,0:0|0:0,0:0:0:0:
53,115,103834,2,0,L|153:115,1,100,0|10,0:0|0:0,0:0:0:0:
253,115,104584,1,0,0:0:0:0:
359,115,104959,1,10,0:0:0:0:
307,206,105334,1,0,0:0:0:0:
392,276,105709,1,10,0:0:0:0:
496,308,106084,6,0,L|496:208,1,100,0|10,0:0|0:0,0:0:0:0:
459,115,106834,2,0,L|359:115,1,100,0|10,0:0|0:0,0:0:0:0:
280,176,107584,1,0,0:0:0:0:
196,232,107959,1,10,0:0:0:0:
96,212,108334,1,0,0:0:0:0:
84,116,108709,1,10,0:0:0:0:
172,72,109084,5,4,0:0:0:0:
242,142,109459,1,10,0:0:0:0:
312,71,109834,2,0,L|420:71,1,100,0|10,0:0|0:0,0:0:0:0:
482,141,110584,5,0,0:0:0:0:
456,236,110959,1,10,0:0:0:0:
384,304,111334,2,0,P|340:320|284:308,1,100,0|10,0:0|0:0,0:0:0:0:
204,256,112084,5,0,0:0:0:0:
144,176,112459,1,10,0:0:0:0:
100,84,112834,2,0,L|100:16,2,50,0|0|10,0:0|0:0|0:0,0:0:0:0:
200,84,113584,5,0,0:0:0:0:
270,13,113959,1,10,0:0:0:0:
340,83,114334,1,0,0:0:0:0:
410,12,114709,1,10,0:0:0:0:
472,92,115084,6,0,L|524:128,2,50,0|0|10,0:0|0:0|0:0,0:0:0:0:
400,160,115834,1,0,0:0:0:0:
348,248,116209,1,10,0:0:0:0:
272,312,116584,6,0,P|225:325|164:306,1,100,0|10,0:0|0:0,0:0:0:0:
88,268,117334,2,0,L|36:232,2,50,0|0|10,0:0|0:0|0:0,0:0:0:0:
172,216,118084,5,0,0:0:0:0:
264,192,118459,1,10,0:0:0:0:
356,224,118834,2,0,L|412:136,1,100,0|10,0:0|0:0,0:0:0:0:
504,108,119584,6,0,P|480:64|433:42,1,100,0|10,0:0|0:0,0:0:0:0:
340,72,120334,1,0,0:0:0:0:
244,96,120709,1,10,0:0:0:0:
148,64,121084,6,0,L|132:12,2,50,0|0|10,0:0|0:0|0:0,0:0:0:0:
60,108,121834,1,0,0:0:0:0:
20,200,122209,1,10,0:0:0:0:
56,292,122584,6,0,P|104:304|168:284,1,100,0|10,0:0|0:0,0:0:0:0:
252,293,123334,2,0,P|300:303|348:291,1,100,0|10,0:0|0:0,0:0:0:0:
436,240,124084,2,0,L|452:184,2,50,0|0|10,0:0|0:0|0:0,0:0:0:0:
352,188,124834,1,0,0:0:0:0:
264,144,125209,1,10,0:0:0:0:
264,144,125584,6,0,P|260:80|172:200,1,400.000002384184
256,192,127459,1,14,0:0:0:0:
256,192,127834,6,0,L|312:96,1,100.000000596046,0|10,0:0|0:0,0:0:0:0:
408,100,128584,1,0,0:0:0:0:
484,164,128959,1,10,0:0:0:0:
492,264,129334,6,0,P|460:300|400:308,1,100,0|10,0:0|0:0,0:0:0:0:
320,272,130084,1,0,0:0:0:0:
248,204,130459,1,10,0:0:0:0:
296,116,130834,6,0,L|292:64,2,50,0|0|10,0:0|0:0|0:0,0:0:0:0:
196,116,131584,2,0,P|148:104|96:120,1,100,0|10,0:0|0:0,0:0:0:0:
20,176,132334,1,0,0:0:0:0:
8,276,132709,1,10,0:0:0:0:
64,360,133084,1,0,0:0:0:0:
164,376,133459,5,4,0:0:0:0:
260,344,133834,2,0,L|376:344,1,100.000000596046
460,332,134584,1,0,0:0:0:0:
404,248,134959,5,4,0:0:0:0:
460,164,135334,2,0,P|412:168|356:144,1,100.000000596046
316,60,136084,1,0,0:0:0:0:
216,44,136459,5,4,0:0:0:0:
216,240,137209,1,4,0:0:0:0:
352,92,137959,5,4,0:0:0:0:
440,136,138334,1,14,0:0:0:0:
356,192,138709,1,4,0:0:0:0:
376,288,139084,2,0,L|276:340,1,100,14|10,0:0|0:0,0:0:0:0:
187,334,139834,6,0,L|99:287,1,100,4|10,0:0|0:0,0:0:0:0:
44,204,140584,1,0,0:0:0:0:
44,104,140959,1,10,0:0:0:0:
124,40,141334,1,0,0:0:0:0:
216,48,141709,1,10,0:0:0:0:
296,96,142084,6,0,P|303:144|339:178,1,100,0|10,0:0|0:0,0:0:0:0:
396,96,142834,1,4,0:0:0:0:
396,96,143209,1,10,0:0:0:0:
484,136,143584,2,0,L|512:240,1,100,0|10,0:0|0:0,0:0:0:0:
440,304,144334,2,0,L|412:200,1,100,4|10,0:0|0:0,0:0:0:0:
320,248,145084,2,0,P|260:268|220:264,1,100,4|14,0:0|0:0,0:0:0:0:
132,224,145834,5,0,0:0:0:0:
64,152,146209,1,10,0:0:0:0:
76,52,146584,2,0,P|116:28|184:24,1,100,0|10,0:0|0:0,0:0:0:0:
264,52,147334,1,4,0:0:0:0:
324,132,147709,1,10,0:0:0:0:
424,136,148084,2,0,P|468:172|483:227,1,100.000000596046,0|10,0:0|0:0,0:0:0:0:
384,224,148834,6,0,P|396:276|384:339,1,100,4|10,0:0|0:0,0:0:0:0:
340,348,149396,1,0,0:0:0:0:
292,368,149584,2,0,P|240:380|177:368,1,100,4|10,0:0|0:0,0:0:0:0:
156,344,150146,1,0,0:0:0:0:
132,296,150334,2,0,P|120:244|132:181,1,100,4|14,0:0|0:0,0:0:0:0:
144,152,150896,1,0,0:0:0:0:
176,112,151084,2,0,P|170:85|173:45,2,50
272,80,151834,6,0,P|316:104|380:100,1,100,4|10,0:0|0:0,0:0:0:0:
456,148,152584,2,0,P|483:201|471:248,1,100,0|10,0:0|0:0,0:0:0:0:
380,216,153334,1,0,0:0:0:0:
400,312,153709,2,0,P|340:312|304:280,1,100,10|0,0:0|0:0,0:0:0:0:
264,204,154459,2,0,L|264:136,1,50,10|0,0:0|0:0,0:0:0:0:
268,104,154834,6,0,P|244:60|192:36,1,100,0|10,0:0|0:0,0:0:0:0:
103,60,155584,2,0,P|66:104|61:150,1,100,0|10,0:0|0:0,0:0:0:0:
152,184,156334,1,4,0:0:0:0:
104,272,156709,2,0,P|160:284|204:268,1,100,10|0,0:0|0:0,0:0:0:0:
288,224,157459,2,0,L|340:184,1,50,10|0,0:0|0:0,0:0:0:0:
368,164,157834,6,0,L|484:144,1,100,4|10,0:0|0:0,0:0:0:0:
428,56,158584,2,0,L|312:76,1,100,0|10,0:0|0:0,0:0:0:0:
236,104,159334,1,4,0:0:0:0:
160,168,159709,2,0,P|202:198|263:202,1,100,10|0,0:0|0:0,0:0:0:0:
340,168,160459,2,0,L|360:224,1,50,10|0,0:0|0:0,0:0:0:0:
368,264,160834,6,0,P|345:312|294:338,1,100,4|10,0:0|0:0,0:0:0:0:
256,348,161396,1,0,0:0:0:0:
205,335,161584,2,0,P|163:308|143:263,1,100,0|10,0:0|0:0,0:0:0:0:
128,216,162146,1,0,0:0:0:0:
144,168,162334,2,0,P|164:123|205:96,1,100,0|10,0:0|0:0,0:0:0:0:
256,84,162896,1,0,0:0:0:0:
304,96,163084,2,0,P|346:123|366:168,1,100,0|10,0:0|0:0,0:0:0:0:
460,136,163834,6,0,L|508:112,2,50,4|0|10,0:0|0:0|0:0,0:0:0:0:
448,236,164584,2,0,P|459:273|443:332,1,100,0|10,0:0|0:0,0:0:0:0:
348,360,165334,2,0,L|352:290,2,50.000000298023,0|0|10,0:0|0:0|0:0,0:0:0:0:
298,368,165896,1,0,0:0:0:0:
247,369,166084,2,0,P|196:360|155:309,1,100.000000596046
98,250,166834,6,0,L|49:273,2,50.000000298023,0|0|10,0:0|0:0|0:0,0:0:0:0:
98,150,167584,2,8,P|114:103|163:75,1,100.000000596046,0|10,0:0|0:0,0:0:0:0:
254,65,168334,2,0,L|279:6,2,50.000000298023,0|0|10,0:0|0:0|0:0,0:0:0:0:
296,90,168896,1,0,0:0:0:0:
325,130,169084,2,0,P|360:163|409:171,1,100.000000596046
501,132,169834,6,0,L|501:68,2,50,0|0|10,0:0|0:0|0:0,0:0:0:0:
495,232,170584,2,0,P|475:276|432:306,1,100.000000596046,0|10,3:0|0:0,0:0:0:0:
339,336,171334,2,0,L|329:268,2,50.000000298023,0|0|10,0:0|0:0|0:0,0:0:0:0:
289,345,171896,1,0,0:0:0:0:
238,348,172084,2,0,P|189:346|150:309,1,100.000000596046
86,238,172834,6,0,P|128:218|199:231,1,100.000000596046,0|0,3:0|0:0,0:0:0:0:
275,252,173584,2,0,L|339:264,2,50,0|0|10,0:0|0:0|0:0,0:0:0:0:
258,153,174334,2,0,L|211:108,2,50.000000298023,0|0|10,0:0|0:0|0:0,0:0:0:0:
304,135,174896,1,0,0:0:0:0:
351,118,175084,2,0,P|400:114|447:129,1,100.000000596046,0|0,3:0|0:0,0:0:0:0:
495,217,175834,6,0,L|495:275,1,50.000000298023
475,313,176209,2,0,P|436:341|371:347,1,100,10|0,0:0|0:0,0:0:0:0:
336,345,176771,1,0,0:0:0:0:
287,334,176959,1,10,0:0:0:0:
213,266,177334,2,0,P|250:232|313:222,1,100.000000596046,0|10,0:0|0:0,0:0:0:0:
346,228,177896,1,0,0:0:0:0:
395,231,178084,2,0,P|431:193|442:129,1,100.000000596046,0|10,0:0|0:0,0:0:0:0:
408,53,178834,6,0,L|349:37,1,50.000000298023
309,42,179209,2,0,P|269:68|209:66,1,100.000000596046,10|0,0:0|0:0,0:0:0:0:
169,56,179771,1,0,0:0:0:0:
119,46,179959,1,10,0:0:0:0:
28,88,180334,2,0,P|34:139|77:192,1,100.000000596046,0|10,0:0|0:0,0:0:0:0:
99,209,180896,1,0,0:0:0:0:
148,217,181084,2,0,P|209:232|239:264,1,100.000000596046,0|10,0:0|0:0,0:0:0:0:
301,331,181834,6,0,L|362:344,1,50.000000298023
399,346,182209,2,0,P|440:320|470:255,1,100.000000596046,10|0,0:0|0:0,0:0:0:0:
475,227,182771,1,0,0:0:0:0:
467,177,182959,1,10,0:0:0:0:
422,87,183334,2,0,P|375:65|309:75,1,100.000000596046,10|10,0:0|0:0,0:0:0:0:
281,86,183896,1,0,0:0:0:0:
238,112,184084,2,0,P|194:135|131:135,1,100.000000596046,0|0,0:0|0:0,0:0:0:0:
46,115,184834,6,0,L|2:56,2,50.000000298023,0|0|10,0:0|0:0|0:0,0:0:0:0:
68,212,185584,2,0,L|17:243,2,50.000000298023,0|0|10,0:0|0:0|0:0,0:0:0:0:
158,254,186334,2,0,L|205:278,1,50.000000298023
250,262,186709,2,0,L|304:251,1,50.000000298023
347,261,187084,2,0,P|380:295|425:279,1,100.000000596046,0|0,0:0|0:0,0:0:0:0:
483,197,187834,6,0,L|468:132,1,50.000000298023
447,104,188209,2,0,L|448:44,2,50.000000298023
346,101,188959,1,0,0:0:0:0:
257,45,189334,2,0,L|189:53,1,50.000000298023
159,64,189709,2,0,P|113:83|87:125,1,100.000000596046,10|0,0:0|0:0,0:0:0:0:
79,223,190459,1,10,0:0:0:0:
127,310,190834,6,0,L|200:319,1,50.000000298023
226,323,191209,2,0,L|240:391,2,50.000000298023
315,277,191959,1,0,0:0:0:0:
411,301,192334,2,0,L|457:249,1,50.000000298023
473,223,192709,2,0,P|480:173|457:129,1,100.000000596046,10|0,0:0|0:0,0:0:0:0:
387,60,193459,1,10,0:0:0:0:
288,40,193834,6,0,L|218:51,1,50.000000298023
188,54,194209,2,0,L|154:0,2,50.000000298023
108,115,194959,1,0,0:0:0:0:
48,195,195334,2,0,L|32:262,1,50.000000298023
43,293,195709,2,0,P|79:327|128:333,1,100.000000596046,10|0,0:0|0:0,0:0:0:0:
222,302,196459,1,10,0:0:0:0:
315,265,196834,6,0,L|370:288,1,50.000000298023
409,297,197209,2,0,L|421:363,2,50.000000298023
475,222,197959,1,0,0:0:0:0:
436,129,198334,2,0,L|375:163,1,50.000000298023
344,168,198709,2,0,P|294:166|255:137,1,100.000000596046,10|0,0:0|0:0,0:0:0:0:
184,67,199459,1,10,0:0:0:0:
84,67,199834,6,0,P|69:115|84:161,1,100.000000596046
184,161,200584,2,0,P|199:114|184:67,1,100.000000596046,0|0,0:0|0:0,0:0:0:0:
284,56,201334,1,0,0:0:0:0:
376,92,201709,1,10,0:0:0:0:
452,156,202084,2,0,L|520:156,2,50.000000298023
384,228,202834,6,0,P|336:213|290:228,1,100.000000596046
291,328,203584,2,0,P|338:343|385:328,1,100.000000596046,0|0,0:0|0:0,0:0:0:0:
384,228,204334,1,0,0:0:0:0:
452,156,204709,1,0,0:0:0:0:
432,60,205084,2,0,L|500:60,2,50.000000298023
336,24,205834,6,0,P|285:21|244:47,1,100.000000596046
220,90,206396,1,0,0:0:0:0:
210,139,206584,2,0,P|180:177|133:193,1,100.000000596046,0|0,0:0|0:0,0:0:0:0:
83,195,207146,1,0,0:0:0:0:
35,211,207334,1,0,0:0:0:0:
3,305,207709,1,0,0:0:0:0:
98,333,208084,2,0,L|89:382,2,50.000000298023
187,288,208834,6,0,L|192:238,2,50.000000298023
282,317,209584,2,0,L|277:377,2,50.000000298023
359,254,210334,2,0,L|362:204,2,50.000000298023
451,292,211084,2,0,L|448:341,2,50.000000298023
438,192,211834,5,0,0:0:0:0:
348,336,217834,5,0,0:0:0:0:
432,284,218209,2,0,B|456:256|456:256|460:176,1,100.000000596046
452,144,218771,1,0,0:0:0:0:
416,108,218959,2,0,L|368:88,1,50.000000298023
320,76,219334,5,0,0:0:0:0:
284,168,219709,2,0,B|244:188|244:188|168:176,1,100.000000596046
140,164,220271,1,0,0:0:0:0:
92,148,220459,2,0,L|44:188,1,50.000000298023
20,216,220834,5,0,0:0:0:0:
44,312,221209,2,0,B|96:332|96:332|156:320,1,100.000000596046
188,312,221771,1,0,0:0:0:0:
236,300,221959,2,0,L|296:316,1,50.000000298023
332,328,222334,5,0,0:0:0:0:
416,272,222709,2,0,B|428:212|428:212|404:160,1,100.000000596046
388,132,223271,1,0,0:0:0:0:
360,92,223459,2,0,L|310:101,1,50.000000298023
256,192,223834,12,0,226834,0:0:0:0:
