osu file format v14

[General]
AudioFilename: Scarlet Rose.mp3
AudioLeadIn: 2007
PreviewTime: 127927
Countdown: 0
SampleSet: Normal
StackLeniency: 0.7
Mode: 0
LetterboxInBreaks: 0
WidescreenStoryboard: 0

[Editor]
Bookmarks: 19084,30709,54641,67084,72334,91084,103084,127084,139834,151834,163834,171334,187459,199834,211834
DistanceSpacing: 0.8
BeatDivisor: 4
GridSize: 8
TimelineZoom: 2

[Metadata]
Title:Scarlet Rose
TitleUnicode:Scarlet Rose
Artist:seleP
ArtistUnicode:seleP
Creator:smallboat
Version:Lily Rose
Source:
Tags:original lilium doll 2nd album vocaloid lily yellow blue eye electric bomb music
BeatmapID:834504
BeatmapSetID:129795

[Difficulty]
HPDrainRate:6
CircleSize:4
OverallDifficulty:8.5
ApproachRate:9
SliderMultiplier:1.80000000596046
SliderTickRate:2

[Events]
//Background and Video events
0,0,"BG2.png",0,0
//Break Periods
//Storyboard Layer 0 (Background)
//Storyboard Layer 1 (Fail)
//Storyboard Layer 2 (Pass)
//Storyboard Layer 3 (Foreground)
//Storyboard Layer 4 (Overlay)
//Storyboard Sound Samples

[TimingPoints]
7084,375,4,2,1,75,1,0
7271,-100,4,1,1,75,0,0
8584,-100,4,2,1,75,0,0
8771,-100,4,1,1,75,0,0
10084,-100,4,2,1,75,0,0
10271,-100,4,1,1,75,0,0
11584,-100,4,2,1,75,0,0
11771,-100,4,1,1,75,0,0
12334,-100,4,2,1,75,0,0
12521,-100,4,1,1,75,0,0
13084,-100,4,2,1,75,0,0
13271,-66.6666666666667,4,2,1,75,0,0
13459,-66.6666666666667,4,2,1,75,0,0
14584,-66.6666666666667,4,2,1,75,0,0
14771,-66.6666666666667,4,2,1,75,0,0
16084,-66.6666666666667,4,2,1,75,0,0
16271,-66.6666666666667,4,2,1,75,0,0
16834,-62.5,4,2,1,75,0,0
17021,-62.5,4,2,1,75,0,0
17584,-100,4,2,1,75,0,0
17677,-58.8235294117647,4,2,1,75,0,0
18334,-55.5555555555556,4,2,1,75,0,0
18521,-55.5555555555556,4,2,1,75,0,0
19084,-76.9230769230769,4,2,1,85,0,1
19271,-76.9230769230769,4,1,1,85,0,1
19834,-76.9230769230769,4,2,1,85,0,1
20021,-76.9230769230769,4,1,1,85,0,1
20584,-76.9230769230769,4,2,1,85,0,1
20677,-76.9230769230769,4,1,1,85,0,1
21334,-76.9230769230769,4,2,1,85,0,1
21521,-76.9230769230769,4,1,1,85,0,1
22084,-76.9230769230769,4,2,1,85,0,1
22271,-76.9230769230769,4,1,1,85,0,1
22834,-76.9230769230769,4,2,1,85,0,1
23021,-76.9230769230769,4,1,1,85,0,1
23584,-62.5,4,2,1,85,0,1
23771,-62.5,4,1,1,85,0,1
24334,-58.8235294117647,4,2,1,85,0,1
24521,-58.8235294117647,4,1,1,85,0,1
25084,-76.9230769230769,4,2,1,85,0,1
25271,-76.9230769230769,4,1,1,85,0,1
25834,-76.9230769230769,4,2,1,85,0,1
26021,-76.9230769230769,4,1,1,85,0,1
26584,-76.9230769230769,4,2,1,85,0,1
26771,-76.9230769230769,4,1,1,85,0,1
27334,-76.9230769230769,4,2,1,85,0,1
27521,-76.9230769230769,4,1,1,85,0,1
28084,-66.6666666666667,4,2,1,85,0,1
28271,-66.6666666666667,4,1,1,85,0,1
28834,-66.6666666666667,4,2,1,85,0,1
29209,-66.6666666666667,4,1,1,85,0,1
29584,-58.8235294117647,4,2,1,85,0,1
29771,-58.8235294117647,4,1,1,85,0,1
30334,-55.5555555555556,4,2,1,85,0,1
31084,-90.9090909090909,4,1,1,85,0,0
32584,-90.9090909090909,4,2,1,85,0,0
32771,-90.9090909090909,4,1,1,75,0,0
34084,-90.9090909090909,4,2,1,75,0,0
34271,-90.9090909090909,4,1,1,75,0,0
35584,-90.9090909090909,4,2,1,75,0,0
35771,-90.9090909090909,4,1,1,75,0,0
36334,-90.9090909090909,4,2,1,75,0,0
36521,-90.9090909090909,4,1,1,75,0,0
37084,-90.9090909090909,4,2,1,75,0,0
37271,-90.9090909090909,4,1,1,75,0,0
38584,-90.9090909090909,4,2,1,75,0,0
38771,-90.9090909090909,4,1,1,75,0,0
40084,-90.9090909090909,4,2,1,75,0,0
40271,-90.9090909090909,4,1,1,75,0,0
41584,-90.9090909090909,4,2,1,75,0,0
41771,-90.9090909090909,4,1,1,75,0,0
42334,-90.9090909090909,4,2,1,75,0,0
42521,-90.9090909090909,4,1,1,75,0,0
43084,-90.9090909090909,4,2,1,75,0,0
43271,-90.9090909090909,4,1,1,75,0,0
44584,-90.9090909090909,4,2,1,75,0,0
44771,-90.9090909090909,4,1,1,75,0,0
46084,-90.9090909090909,4,2,1,75,0,0
46271,-90.9090909090909,4,1,1,75,0,0
47584,-90.9090909090909,4,2,1,75,0,0
47771,-90.9090909090909,4,1,1,75,0,0
48334,-90.9090909090909,4,2,1,75,0,0
48521,-90.9090909090909,4,1,1,75,0,0
49084,-90.9090909090909,4,2,1,75,0,0
49271,-90.9090909090909,4,1,1,75,0,0
49834,-90.9090909090909,4,2,1,75,0,0
50021,-90.9090909090909,4,1,1,75,0,0
50584,-90.9090909090909,4,2,1,75,0,0
50771,-90.9090909090909,4,1,1,75,0,0
51334,-90.9090909090909,4,2,1,75,0,0
51521,-90.9090909090909,4,1,1,75,0,0
52084,-90.9090909090909,4,2,1,75,0,0
52271,-90.9090909090909,4,1,1,75,0,0
52834,-90.9090909090909,4,2,1,75,0,0
53021,-90.9090909090909,4,1,1,75,0,0
53584,-90.9090909090909,4,2,1,75,0,0
53771,-90.9090909090909,4,1,1,75,0,0
54334,-90.9090909090909,4,2,1,75,0,0
54521,-90.9090909090909,4,1,1,75,0,0
54709,-90.9090909090909,4,2,1,75,0,0
54896,-90.9090909090909,4,1,1,75,0,0
55084,-90.9090909090909,4,2,1,75,0,0
55271,-90.9090909090909,4,1,1,75,0,0
56584,-90.9090909090909,4,2,1,75,0,0
56771,-90.9090909090909,4,1,1,75,0,0
57334,-90.9090909090909,4,2,1,75,0,0
57521,-90.9090909090909,4,1,1,75,0,0
58084,-90.9090909090909,4,2,1,75,0,0
58271,-90.9090909090909,4,1,1,75,0,0
59584,-90.9090909090909,4,2,1,75,0,0
59771,-90.9090909090909,4,1,1,75,0,0
60334,-90.9090909090909,4,2,1,75,0,0
60521,-90.9090909090909,4,1,1,75,0,0
61084,-90.9090909090909,4,2,1,75,0,0
61271,-90.9090909090909,4,1,1,75,0,0
61834,-90.9090909090909,4,2,1,75,0,0
62209,-90.9090909090909,4,1,1,75,0,0
62584,-90.9090909090909,4,2,1,75,0,0
62771,-90.9090909090909,4,1,1,75,0,0
64084,-90.9090909090909,4,2,1,75,0,0
64271,-90.9090909090909,4,1,1,75,0,0
64834,-90.9090909090909,4,2,1,75,0,0
65209,-90.9090909090909,4,1,1,75,0,0
67084,-76.9230769230769,4,2,1,85,0,1
67271,-76.9230769230769,4,1,1,85,0,1
68584,-76.9230769230769,4,2,1,85,0,1
68771,-76.9230769230769,4,1,1,85,0,1
69334,-76.9230769230769,4,2,1,85,0,1
69521,-76.9230769230769,4,1,1,85,0,1
70084,-76.9230769230769,4,2,1,85,0,1
70271,-76.9230769230769,4,1,1,85,0,1
71584,-76.9230769230769,4,2,1,85,0,1
71771,-76.9230769230769,4,1,1,85,0,1
72334,-76.9230769230769,4,2,1,85,0,1
72521,-76.9230769230769,4,1,1,85,0,1
72709,-76.9230769230769,4,2,1,85,0,1
72896,-76.9230769230769,4,1,1,85,0,1
73084,-76.9230769230769,4,2,1,85,0,1
73271,-76.9230769230769,4,1,1,85,0,1
74584,-76.9230769230769,4,2,1,85,0,1
74771,-76.9230769230769,4,1,1,85,0,1
76084,-76.9230769230769,4,2,1,85,0,1
76271,-76.9230769230769,4,1,1,85,0,1
76834,-76.9230769230769,4,2,1,85,0,1
77021,-76.9230769230769,4,1,1,85,0,1
77584,-76.9230769230769,4,2,1,85,0,1
77771,-76.9230769230769,4,1,1,85,0,1
77959,-76.9230769230769,4,2,1,85,0,1
78146,-76.9230769230769,4,1,1,85,0,1
78334,-76.9230769230769,4,2,1,85,0,1
78521,-76.9230769230769,4,1,1,85,0,1
79084,-76.9230769230769,4,2,1,85,0,1
79271,-76.9230769230769,4,1,1,85,0,1
80584,-76.9230769230769,4,2,1,85,0,1
80771,-76.9230769230769,4,1,1,85,0,1
81334,-76.9230769230769,4,2,1,85,0,1
81521,-76.9230769230769,4,1,1,85,0,1
82084,-76.9230769230769,4,2,1,85,0,1
82271,-76.9230769230769,4,1,1,85,0,1
83584,-76.9230769230769,4,2,1,85,0,1
83771,-76.9230769230769,4,1,1,85,0,1
84334,-76.9230769230769,4,2,1,85,0,1
84521,-76.9230769230769,4,1,1,85,0,1
85084,-76.9230769230769,4,2,1,85,0,1
85271,-76.9230769230769,4,1,1,85,0,1
86584,-76.9230769230769,4,2,1,85,0,1
86771,-76.9230769230769,4,1,1,85,0,1
88084,-76.9230769230769,4,2,1,85,0,1
88459,-76.9230769230769,4,1,1,85,0,1
88834,-76.9230769230769,4,2,1,85,0,1
89021,-76.9230769230769,4,1,1,85,0,1
89209,-76.9230769230769,4,2,1,85,0,1
89396,-76.9230769230769,4,1,1,85,0,1
89584,-76.9230769230769,4,2,1,85,0,1
89771,-76.9230769230769,4,1,1,85,0,1
90334,-76.9230769230769,4,2,1,85,0,1
90521,-76.9230769230769,4,1,1,85,0,1
91084,-90.9090909090909,4,2,1,75,0,0
91271,-90.9090909090909,4,1,1,75,0,0
92584,-90.9090909090909,4,2,1,75,0,0
92771,-90.9090909090909,4,1,1,75,0,0
94084,-90.9090909090909,4,2,1,75,0,0
94271,-90.9090909090909,4,1,1,75,0,0
95584,-90.9090909090909,4,2,1,75,0,0
95771,-90.9090909090909,4,1,1,75,0,0
96334,-90.9090909090909,4,2,1,75,0,0
96521,-90.9090909090909,4,1,1,75,0,0
97084,-90.9090909090909,4,2,1,75,0,0
97271,-90.9090909090909,4,1,1,75,0,0
98584,-90.9090909090909,4,2,1,75,0,0
98771,-90.9090909090909,4,1,1,75,0,0
100084,-90.9090909090909,4,2,1,75,0,0
100271,-90.9090909090909,4,1,1,75,0,0
101584,-90.9090909090909,4,2,1,75,0,0
101771,-90.9090909090909,4,1,1,75,0,0
101959,-90.9090909090909,4,2,1,75,0,0
102146,-90.9090909090909,4,1,1,75,0,0
102334,-90.9090909090909,4,2,1,75,0,0
102521,-90.9090909090909,4,1,1,75,0,0
103084,-90.9090909090909,4,2,1,75,0,0
108709,-181.818181818182,4,2,1,75,0,0
109084,-90.9090909090909,4,2,1,80,0,0
127459,375,4,2,2,75,1,0
127459,-100,4,2,2,75,0,0
139459,-200,4,2,1,65,0,0
139834,375,4,2,1,65,1,0
139834,-100,4,2,1,65,0,0
145459,-100,4,2,1,65,0,0
151834,-86.9565217391304,4,2,1,75,0,0
163834,-76.9230769230769,4,2,1,85,0,1
164021,-76.9230769230769,4,1,1,85,0,1
164209,-76.9230769230769,4,2,1,85,0,1
164396,-76.9230769230769,4,1,1,85,0,1
164584,-76.9230769230769,4,2,1,85,0,1
164771,-76.9230769230769,4,1,1,85,0,1
165334,-76.9230769230769,4,2,1,85,0,1
165521,-76.9230769230769,4,1,1,85,0,1
166084,-76.9230769230769,4,2,1,85,0,1
166834,-76.9230769230769,4,2,1,85,0,1
167021,-76.9230769230769,4,1,1,85,0,1
168334,-76.9230769230769,4,2,1,85,0,1
168521,-76.9230769230769,4,1,1,85,0,1
169084,-76.9230769230769,4,2,1,85,0,1
169271,-76.9230769230769,4,1,1,85,0,1
169834,-76.9230769230769,4,2,1,85,0,1
170021,-76.9230769230769,4,1,1,85,0,1
171334,-76.9230769230769,4,2,1,85,0,1
171521,-76.9230769230769,4,1,1,85,0,1
172834,-76.9230769230769,4,2,1,85,0,1
173021,-76.9230769230769,4,1,1,85,0,1
173584,-76.9230769230769,4,2,1,85,0,1
173959,-76.9230769230769,4,1,1,85,0,1
174334,-76.9230769230769,4,2,1,85,0,1
175084,-76.9230769230769,4,2,1,85,0,1
175271,-76.9230769230769,4,2,1,85,0,1
175834,375,4,2,1,85,1,1
175834,-71.4285714285714,4,2,1,85,0,1
176021,-71.4285714285714,4,1,1,85,0,1
177334,-71.4285714285714,4,2,1,85,0,1
177521,-71.4285714285714,4,1,1,85,0,1
178084,-71.4285714285714,4,2,1,85,0,1
178271,-71.4285714285714,4,1,1,85,0,1
178834,-71.4285714285714,4,2,1,85,0,1
178927,-71.4285714285714,4,1,1,85,0,1
180334,-71.4285714285714,4,2,1,85,0,1
180521,-71.4285714285714,4,1,1,85,0,1
181084,-71.4285714285714,4,2,1,85,0,1
181177,-71.4285714285714,4,1,1,85,0,1
181459,-71.4285714285714,4,2,1,85,0,1
181646,-71.4285714285714,4,1,1,85,0,1
181834,-71.4285714285714,4,2,1,85,0,1
182209,-71.4285714285714,4,1,1,85,0,1
182584,-71.4285714285714,4,2,1,85,0,1
182959,-71.4285714285714,4,1,1,85,0,1
183334,-71.4285714285714,4,2,1,85,0,1
183521,-71.4285714285714,4,1,1,85,0,1
184084,-71.4285714285714,4,2,1,85,0,1
184271,-71.4285714285714,4,1,1,85,0,1
184834,-71.4285714285714,4,2,1,85,0,1
185021,-71.4285714285714,4,1,1,85,0,1
185584,-71.4285714285714,4,2,1,85,0,1
185959,-71.4285714285714,4,1,1,85,0,1
186334,-71.4285714285714,4,2,1,85,0,1
186709,-71.4285714285714,4,1,1,85,0,1
187459,-62.5,4,2,1,85,0,0
187834,-71.4285714285714,4,2,1,85,0,1
187927,-71.4285714285714,4,1,1,85,0,1
189334,-71.4285714285714,4,2,1,85,0,1
189521,-71.4285714285714,4,1,1,85,0,1
190834,-71.4285714285714,4,2,1,85,0,1
191021,-71.4285714285714,4,1,1,85,0,1
192334,-71.4285714285714,4,2,1,85,0,1
192521,-71.4285714285714,4,1,1,85,0,1
193084,-71.4285714285714,4,2,1,85,0,1
193271,-71.4285714285714,4,1,1,85,0,1
193459,-71.4285714285714,4,2,1,85,0,1
193646,-71.4285714285714,4,1,1,85,0,1
193834,-71.4285714285714,4,2,1,85,0,1
194021,-71.4285714285714,4,1,1,85,0,1
195334,-71.4285714285714,4,2,1,85,0,1
195521,-71.4285714285714,4,1,1,85,0,1
196834,-71.4285714285714,4,2,1,85,0,1
197021,-71.4285714285714,4,1,1,85,0,1
198334,-71.4285714285714,4,2,1,85,0,1
198521,-71.4285714285714,4,1,1,85,0,1
199084,-71.4285714285714,4,2,1,85,0,1
199271,-71.4285714285714,4,1,1,85,0,1
199459,-76.9230769230769,4,2,1,85,0,0
199834,-71.4285714285714,4,1,1,85,0,1
201334,-71.4285714285714,4,2,1,85,0,1
201521,-71.4285714285714,4,1,1,85,0,1
202834,-71.4285714285714,4,2,1,85,0,1
203021,-71.4285714285714,4,1,1,85,0,1
204334,-71.4285714285714,4,2,1,85,0,1
204521,-71.4285714285714,4,1,1,85,0,1
205084,-71.4285714285714,4,2,1,85,0,1
205271,-71.4285714285714,4,1,1,85,0,1
205459,-71.4285714285714,4,2,1,85,0,1
205552,-71.4285714285714,4,1,1,85,0,1
205834,-71.4285714285714,4,2,1,85,0,1
206021,-71.4285714285714,4,1,1,85,0,1
207334,-71.4285714285714,4,2,1,85,0,1
207521,-71.4285714285714,4,1,1,85,0,1
208834,-71.4285714285714,4,2,1,85,0,1
209021,-71.4285714285714,4,1,1,85,0,1
209584,-71.4285714285714,4,2,1,85,0,1
209771,-71.4285714285714,4,1,1,85,0,1
210334,-71.4285714285714,4,2,1,85,0,1
210521,-71.4285714285714,4,1,1,85,0,1
210709,-71.4285714285714,4,2,1,85,0,1
210896,-71.4285714285714,4,1,1,85,0,1
211084,-71.4285714285714,4,2,1,85,0,1
211271,-71.4285714285714,4,1,1,85,0,1
211459,-71.4285714285714,4,2,1,85,0,1
211646,-71.4285714285714,4,1,1,85,0,1
211834,-83.3333333333333,4,2,1,90,0,0
212021,-83.3333333333333,4,1,1,90,0,0
213334,-83.3333333333333,4,2,1,90,0,0
213521,-83.3333333333333,4,1,1,90,0,0
214834,-83.3333333333333,4,2,1,90,0,0
215021,-83.3333333333333,4,1,1,90,0,0
216334,-83.3333333333333,4,2,1,90,0,0
216521,-83.3333333333333,4,1,1,90,0,0
217459,-83.3333333333333,4,2,1,90,0,0
217646,-83.3333333333333,4,1,1,90,0,0
217834,-76.9230769230769,4,2,1,80,0,0
218021,-76.9230769230769,4,1,1,80,0,0
219334,-76.9230769230769,4,2,1,80,0,0
219521,-76.9230769230769,4,1,1,80,0,0
220834,-76.9230769230769,4,2,1,80,0,0
221021,-76.9230769230769,4,1,1,80,0,0
222334,-76.9230769230769,4,2,1,80,0,0
222521,-76.9230769230769,4,1,1,80,0,0
222709,-76.9230769230769,4,2,1,80,0,0
222896,-76.9230769230769,4,1,1,80,0,0
223084,-76.9230769230769,4,2,1,80,0,0
223177,-76.9230769230769,4,1,1,80,0,0
223459,-76.9230769230769,4,2,1,80,0,0
223552,-76.9230769230769,4,1,1,80,0,0
223834,-100,4,1,1,60,0,0
224584,-100,4,1,1,50,0,0
225334,-100,4,1,1,40,0,0
226084,-100,4,1,1,30,0,0
226834,-100,4,2,1,15,0,0

[Colours]
Combo1 : 255,206,60
Combo2 : 100,255,100
Combo3 : 70,163,255
Combo4 : 176,11,35

[HitObjects]
179,65,334,5,0,0:0:0:0:
256,32,521,1,0,0:0:0:0:
333,65,709,1,0,0:0:0:0:
481,145,896,5,0,0:0:0:0:
404,112,1084,1,0,0:0:0:0:
327,145,1271,1,0,0:0:0:0:
31,145,1459,5,0,0:0:0:0:
108,112,1647,1,0,0:0:0:0:
176,228,1834,5,0,0:0:0:0:
99,195,2022,1,0,0:0:0:0:
31,310,2209,5,0,0:0:0:0:
108,277,2397,1,0,0:0:0:0:
333,319,2584,5,0,0:0:0:0:
256,352,2771,1,0,0:0:0:0:
179,319,2959,1,0,0:0:0:0:
31,239,3146,5,0,0:0:0:0:
108,272,3334,1,0,0:0:0:0:
185,239,3521,1,0,0:0:0:0:
481,239,3709,5,0,0:0:0:0:
404,272,3897,1,0,0:0:0:0:
336,156,4084,5,0,0:0:0:0:
413,189,4272,1,0,0:0:0:0:
481,74,4459,5,0,0:0:0:0:
404,107,4646,1,0,0:0:0:0:
321,78,4834,5,0,0:0:0:0:
487,155,5021,1,0,0:0:0:0:
332,307,5209,1,0,0:0:0:0:
172,144,5396,2,0,L|143:135,2,30.000000099341
221,199,5584,1,0,0:0:0:0:
39,184,5771,2,0,L|10:175,2,30.000000099341
85,239,5959,1,0,0:0:0:0:
187,327,6146,5,0,0:0:0:0:
205,265,6334,1,0,0:0:0:0:
221,199,6521,1,0,0:0:0:0:
154,215,6709,1,0,0:0:0:0:
138,278,6896,1,0,0:0:0:0:
265,118,7084,6,0,L|263:73,1,45.0000001490115,14|0,0:0|0:0,0:0:0:0:
372,29,7271,2,0,L|435:44,1,45.0000001490115
488,122,7459,2,0,B|485:182|485:182|466:218|466:218|468:276,1,135.000000447034,10|0,0:0|0:0,0:0:0:0:
362,274,7834,1,0,0:0:0:0:
362,274,7927,2,0,B|321:269|321:269|254:222,1,90.000000298023,0|0,0:0|0:0,0:0:0:0:
238,159,8209,2,0,B|206:144|206:144|159:168|100:153,1,135.000000447034,10|0,0:0|0:0,0:0:0:0:
15,225,8584,5,14,0:0:0:0:
4,241,8677,1,0,0:0:0:0:
0,261,8771,2,0,L|6:321,1,45.0000001490115,0|0,0:0|0:0,0:0:0:0:
159,354,8959,2,0,B|154:308|176:274|176:274|170:219,1,135.000000447034,10|0,0:0|0:0,0:0:0:0:
270,320,9334,1,0,0:0:0:0:
253,300,9427,2,0,P|206:280|140:272,1,90.000000298023
78,248,9709,2,0,B|69:230|69:230|8:222|19:170|52:105,1,135.000000447034,10|0,0:0|0:0,0:0:0:0:
131,67,10084,6,0,L|138:14,1,45.0000001490115,14|0,0:0|0:0,0:0:0:0:
216,146,10271,2,0,L|226:210,1,45.0000001490115
253,300,10459,2,0,B|305:285|305:285|340:292|340:292|414:284,1,135.000000447034,10|0,0:0|0:0,0:0:0:0:
512,232,10834,1,0,0:0:0:0:
495,205,10927,2,0,P|442:204|382:177,1,90.000000298023,0|0,0:0|0:0,0:0:0:0:
312,116,11209,2,0,B|353:121|353:121|399:91|442:109,1,135.000000447034,10|0,0:0|0:0,0:0:0:0:
505,29,11584,5,14,0:0:0:0:
487,18,11677,1,0,0:0:0:0:
469,11,11771,2,0,L|412:-2,1,45.0000001490115,0|0,0:0|0:0,0:0:0:0:
327,24,11959,2,0,B|274:13|240:45|240:45|192:36,1,135.000000447034,8|0,0:0|0:0,0:0:0:0:
65,95,12334,1,14,0:0:0:0:
80,133,12427,2,0,B|105:121|105:121|194:130,1,90.000000298023
59,239,12709,2,0,L|15:243,1,45.0000001490115,8|0,0:0|0:0,0:0:0:0:
146,303,12896,2,0,L|190:299,1,45.0000001490115
182,260,13084,5,14,0:0:0:0:
170,225,13177,1,0,0:0:0:0:
159,194,13271,2,0,L|167:119,1,67.500002798438
349,137,13459,6,0,L|283:126,1,67.500002798438,8|0,0:0|0:0,0:0:0:0:
442,199,13646,2,0,L|521:186,1,67.500002798438
343,220,13834,2,0,L|277:209,1,67.500002798438,8|0,0:0|0:0,0:0:0:0:
436,282,14021,2,0,L|515:269,1,67.500002798438
334,302,14209,2,0,L|268:291,1,67.500002798438,8|0,0:0|0:0,0:0:0:0:
427,364,14396,2,0,L|506:351,1,67.500002798438
334,302,14584,6,0,L|339:369,1,67.500002798438,14|0,0:0|0:0,0:0:0:0:
442,199,14771,2,0,L|436:131,1,67.500002798438
381,39,14959,2,0,B|344:61|344:61|270:32|270:32|203:56,1,135.000005596876
182,80,15240,1,0,0:0:0:0:
182,80,15334,6,0,L|184:147,1,67.500002798438
100,131,15521,2,0,L|97:64,1,67.500002798438
13,46,15709,2,0,L|16:113,1,67.500002798438,8|0,0:0|0:0,0:0:0:0:
16,191,15896,1,0,0:0:0:0:
29,195,15990,1,0,0:0:0:0:
42,199,16084,6,0,L|48:284,1,67.500002798438,14|0,0:0|0:0,0:0:0:0:
60,276,16271,2,0,L|57:209,1,67.500002798438
68,212,16459,2,0,B|71:283|71:283|192:333,1,202.500008395314,8|0,0:0|0:0,0:0:0:0:
211,258,16834,6,0,L|144:229,1,72.0000002384184
301,258,17021,2,0,L|367:230,1,72.0000002384184
256,192,17209,2,0,L|256:100,1,72.0000002384184,10|0,0:0|0:0,0:0:0:0:
256,48,17396,2,0,L|256:120,1,72.0000002384184
344,159,17584,5,14,0:0:0:0:
357,136,17677,1,0,0:0:0:0:
367,113,17771,2,0,L|356:18,1,76.5000017124413
154,37,17959,2,0,L|145:113,1,76.5000017124413,10|0,0:0|0:0,0:0:0:0:
154,347,18146,2,0,L|144:271,1,76.5000017124413
61,65,18334,6,0,L|49:147,1,80.9999977962969,14|0,0:0|0:0,0:0:0:0:
61,319,18521,2,0,L|48:238,1,80.9999977962969
132,190,18709,1,10,0:0:0:0:
171,182,18802,1,0,0:0:0:0:
210,173,18896,1,0,0:0:0:0:
249,164,18990,1,0,0:0:0:0:
289,157,19084,6,0,L|368:142,1,58.4999975157976,14|0,0:0|0:0,0:0:0:0:
432,93,19271,2,0,L|449:38,1,58.4999975157976
319,197,19459,2,0,L|384:185,1,58.4999975157976,10|0,0:0|0:0,0:0:0:0:
462,133,19646,2,0,L|487:54,1,58.4999975157976
485,225,19834,5,14,0:0:0:0:
458,270,19927,2,0,B|394:258|394:258|327:276,1,116.999995031595
305,288,20209,1,10,0:0:0:0:
271,318,20302,1,0,0:0:0:0:
234,296,20396,1,0,0:0:0:0:
241,255,20490,1,0,0:0:0:0:
286,252,20584,5,14,0:0:0:0:
304,276,20677,2,0,B|251:285|251:285|178:271,1,116.999995031595,0|0,0:0|0:0,0:0:0:0:
89,260,20959,2,0,B|84:288|84:288|100:314,1,58.4999975157976,10|0,0:0|0:0,0:0:0:0:
30,192,21146,2,0,B|35:164|35:164|19:138,1,58.4999975157976
66,59,21334,5,14,0:0:0:0:
97,30,21427,2,0,B|135:15|176:24|176:24|226:12,1,116.999995031595
321,28,21709,2,0,L|314:86,1,58.4999975157976,10|0,0:0|0:0,0:0:0:0:
392,146,21896,1,0,0:0:0:0:
431,189,21990,1,0,0:0:0:0:
462,238,22084,6,0,B|400:238|377:226|377:226|328:240,1,116.999995031595,14|0,0:0|0:0,0:0:0:0:
50,238,22459,2,0,B|112:238|135:226|135:226|184:240,1,116.999995031595,10|0,0:0|0:0,0:0:0:0:
325,315,22834,1,14,0:0:0:0:
359,358,22927,2,0,B|321:358|321:358|278:340|243:353,1,116.999995031595,0|0,0:0|0:0,0:0:0:0:
165,343,23209,1,10,0:0:0:0:
115,323,23302,1,0,0:0:0:0:
78,284,23396,1,0,0:0:0:0:
50,238,23490,1,0,0:0:0:0:
29,187,23584,6,0,L|23:113,1,72.0000002384184,14|0,0:0|0:0,0:0:0:0:
22,114,23771,2,0,L|18:43,1,72.0000002384184
109,150,23959,2,0,L|101:51,1,72.0000002384184,10|0,0:0|0:0,0:0:0:0:
103,78,24146,2,0,L|98:7,1,72.0000002384184
187,49,24334,5,14,0:0:0:0:
187,49,24427,2,0,L|194:128,1,76.5000017124413
274,93,24615,2,0,L|268:7,1,76.5000017124413,0|10,0:0|0:0,0:0:0:0:
352,42,24802,2,0,B|388:26|388:26|423:35,1,76.5000017124413
464,72,24990,1,0,0:0:0:0:
487,117,25084,6,0,L|499:197,1,58.4999975157976,14|0,0:0|0:0,0:0:0:0:
374,191,25271,2,0,L|365:122,1,58.4999975157976
264,184,25459,2,0,L|273:254,1,58.4999975157976,10|0,0:0|0:0,0:0:0:0:
162,264,25646,2,0,L|154:190,1,58.4999975157976
47,305,25834,1,14,0:0:0:0:
68,350,25927,2,0,B|118:336|118:336|149:351|149:351|182:348,1,116.999995031595
299,364,26209,1,10,0:0:0:0:
332,356,26302,1,0,0:0:0:0:
357,331,26396,1,0,0:0:0:0:
374,298,26490,1,0,0:0:0:0:
384,265,26584,5,14,0:0:0:0:
391,231,26677,2,0,B|398:195|398:195|449:184|464:133,1,116.999995031595
319,164,26959,2,0,L|264:183,1,58.4999975157976
145,240,27146,2,0,L|127:297,1,58.4999975157976
57,351,27334,5,14,0:0:0:0:
57,351,27427,2,0,B|18:305|45:253|45:253|39:222,1,116.999995031595
35,73,27709,2,0,B|33:99|33:99|64:140,1,58.4999975157976,10|0,0:0|0:0,0:0:0:0:
145,144,27896,1,0,0:0:0:0:
204,164,27990,1,0,0:0:0:0:
263,183,28084,6,0,B|269:218|269:218|256:247,1,67.500002798438,14|0,0:0|0:0,0:0:0:0:
328,319,28271,2,0,B|322:284|322:284|334:254,1,67.500002798438
256,247,28459,2,0,B|243:276|243:276|249:311,1,67.500002798438,10|0,0:0|0:0,0:0:0:0:
334,383,28646,2,0,B|340:348|340:348|327:318,1,67.500002798438
411,291,28834,5,14,0:0:0:0:
411,291,28927,2,0,B|437:304|437:304|430:243|430:243|456:188,1,135.000005596876
464,150,29209,1,10,0:0:0:0:
458,96,29302,1,0,0:0:0:0:
428,50,29396,1,0,0:0:0:0:
382,20,29490,1,0,0:0:0:0:
320,24,29584,6,0,L|307:99,1,76.5000017124413,14|0,0:0|0:0,0:0:0:0:
203,99,29771,2,0,L|191:24,1,76.5000017124413
307,99,29959,2,0,L|318:174,1,76.5000017124413,10|0,0:0|0:0,0:0:0:0:
192,174,30146,2,0,L|205:99,1,76.5000017124413
256,235,30334,5,14,0:0:0:0:
256,235,30427,2,0,P|289:256|329:262,1,80.9999977962969
398,207,30615,1,0,0:0:0:0:
398,207,30802,2,0,P|429:159|461:240,1,161.999995592594
428,285,31084,5,0,0:0:0:0:
269,106,31271,1,0,0:0:0:0:
410,68,31459,1,10,0:0:0:0:
141,196,31646,1,0,0:0:0:0:
371,196,31834,1,0,0:0:0:0:
371,196,31927,2,0,B|404:201|404:201|433:228|433:228|490:240,1,99.0000033490656,0|0,0:0|0:0,0:0:0:0:
511,318,32209,1,10,0:0:0:0:
472,355,32302,1,0,0:0:0:0:
418,366,32396,1,0,0:0:0:0:
363,359,32490,1,0,0:0:0:0:
323,320,32584,5,4,0:0:0:0:
275,48,32771,1,0,0:0:0:0:
470,114,32959,1,10,0:0:0:0:
445,288,33146,1,0,0:0:0:0:
348,110,33334,1,0,0:0:0:0:
348,110,33427,2,0,B|330:91|330:91|306:84|306:84|294:64|294:64|272:46,1,99.0000033490656,0|0,0:0|0:0,0:0:0:0:
149,13,33709,1,10,0:0:0:0:
110,20,33802,1,0,0:0:0:0:
73,34,33896,1,0,0:0:0:0:
44,61,33990,1,0,0:0:0:0:
21,93,34084,5,14,0:0:0:0:
75,335,34271,1,0,0:0:0:0:
164,110,34459,1,10,0:0:0:0:
259,304,34646,1,0,0:0:0:0:
55,180,34834,1,0,0:0:0:0:
79,142,34927,2,0,B|98:124|98:124|121:124|121:124|135:107|135:107|194:112,1,99.0000033490656,0|0,0:0|0:0,0:0:0:0:
302,215,35209,1,10,0:0:0:0:
329,261,35302,1,0,0:0:0:0:
368,298,35396,1,0,0:0:0:0:
419,316,35490,1,0,0:0:0:0:
473,317,35584,5,14,0:0:0:0:
473,67,35771,1,0,0:0:0:0:
292,138,35959,1,10,0:0:0:0:
510,254,36146,1,0,0:0:0:0:
373,33,36334,1,14,0:0:0:0:
337,52,36427,2,0,B|324:51|324:51|302:63|302:63|281:58|281:58|259:69|259:69|235:64|235:64,1,99.0000033490656,0|0,0:0|0:0,0:0:0:0:
112,132,36709,1,10,0:0:0:0:
87,171,36802,1,0,0:0:0:0:
73,220,36896,1,0,0:0:0:0:
73,274,36990,1,0,0:0:0:0:
93,316,37084,5,14,0:0:0:0:
289,112,37271,1,0,0:0:0:0:
370,382,37459,1,10,0:0:0:0:
157,187,37646,1,0,0:0:0:0:
379,234,37834,5,0,0:0:0:0:
215,371,38021,1,0,0:0:0:0:
412,61,38209,1,10,0:0:0:0:
503,372,38396,1,0,0:0:0:0:
171,110,38584,5,14,0:0:0:0:
398,297,38771,1,0,0:0:0:0:
21,377,38959,1,10,0:0:0:0:
200,82,39146,1,0,0:0:0:0:
94,379,39334,5,0,0:0:0:0:
68,102,39521,1,0,0:0:0:0:
256,271,39709,1,10,0:0:0:0:
7,304,39896,1,0,0:0:0:0:
204,30,40084,5,14,0:0:0:0:
316,333,40271,1,0,0:0:0:0:
6,294,40459,1,10,0:0:0:0:
338,213,40646,1,0,0:0:0:0:
4,282,40834,5,0,0:0:0:0:
263,82,41021,1,0,0:0:0:0:
223,371,41209,1,10,0:0:0:0:
68,102,41396,1,0,0:0:0:0:
300,233,41584,5,14,0:0:0:0:
48,351,41771,1,0,0:0:0:0:
150,25,41959,1,10,0:0:0:0:
367,202,42146,1,0,0:0:0:0:
139,272,42334,6,0,B|137:255|137:255|144:238|144:238|141:217|141:217|149:199|149:199|143:177|143:177|156:158|156:158|156:140|156:140|158:133,1,148.500005023598,14|0,0:0|0:0,0:0:0:0:
353,133,42709,2,0,B|356:140|356:140|356:158|356:158|369:177|369:177|363:199|363:199|371:217|371:217|368:238|368:238|375:255|375:255|372:272,1,148.500005023598,10|0,0:0|0:0,0:0:0:0:
256,374,43084,6,0,B|247:348|247:348|261:323|261:323|254:286|254:286|255:281,1,99.0000033490656,14|0,0:0|0:0,0:0:0:0:
255,102,43459,2,0,B|254:98|254:98|261:61|261:61|247:36|247:36|256:10,1,99.0000033490656,10|0,0:0|0:0,0:0:0:0:
460,119,43834,1,0,0:0:0:0:
471,161,43927,2,0,B|472:165|472:165|465:202|465:202|479:227|479:227|470:253,1,99.0000033490656,0|0,0:0|0:0,0:0:0:0:
418,362,44209,1,10,0:0:0:0:
378,358,44302,1,0,0:0:0:0:
339,348,44396,1,0,0:0:0:0:
308,322,44490,1,0,0:0:0:0:
283,290,44584,6,0,B|251:277|251:277|228:248|177:258,1,99.0000033490656,14|0,0:0|0:0,0:0:0:0:
3,315,44959,1,10,0:0:0:0:
3,69,45146,1,0,0:0:0:0:
193,128,45334,1,0,0:0:0:0:
193,128,45427,2,0,B|228:136|251:107|251:107|283:94,1,99.0000033490656,0|0,0:0|0:0,0:0:0:0:
394,45,45709,1,10,0:0:0:0:
431,45,45802,1,0,0:0:0:0:
467,58,45896,1,0,0:0:0:0:
485,92,45990,1,0,0:0:0:0:
456,131,46084,6,0,B|427:122|427:122|410:135|410:135|386:128|386:128|348:136,1,99.0000033490656,14|0,0:0|0:0,0:0:0:0:
224,234,46459,1,10,0:0:0:0:
493,258,46646,1,0,0:0:0:0:
326,361,46834,1,0,0:0:0:0:
292,351,46927,2,0,B|270:355|270:355|246:348|246:348|229:361|229:361|200:352,1,99.0000033490656,0|0,0:0|0:0,0:0:0:0:
59,339,47209,1,10,0:0:0:0:
34,322,47302,1,0,0:0:0:0:
22,294,47396,1,0,0:0:0:0:
14,265,47490,1,0,0:0:0:0:
30,228,47584,6,0,B|46:244|46:244|78:249|78:249|86:276|116:275|116:275|167:258,1,148.500005023598,14|0,0:0|0:0,0:0:0:0:
212,135,47959,2,0,B|196:151|196:151|164:156|164:156|156:183|126:182|126:182|85:168,1,148.500005023598,10|0,0:0|0:0,0:0:0:0:
30,46,48334,2,0,B|46:62|46:62|78:67|78:67|86:94|116:93|116:93|167:76,1,148.500005023598,14|0,0:0|0:0,0:0:0:0:
338,101,48709,2,0,B|322:117|322:117|290:122|290:122|282:149|252:148|252:148|211:134,1,148.500005023598,10|0,0:0|0:0,0:0:0:0:
228,289,49084,6,0,B|252:275|281:276|281:276|288:244|288:244|316:227|316:227|337:198,1,148.500005023598,14|0,0:0|0:0,0:0:0:0:
399,161,49459,1,10,0:0:0:0:
512,328,49646,1,0,0:0:0:0:
332,204,49834,2,0,L|346:274,1,49.5000016745328,14|0,0:0|0:0,0:0:0:0:
235,360,50021,1,0,0:0:0:0:
177,360,50115,1,0,0:0:0:0:
130,344,50209,1,10,0:0:0:0:
41,113,50396,1,0,0:0:0:0:
80,70,50490,1,0,0:0:0:0:
130,40,50584,5,14,0:0:0:0:
382,40,50771,1,0,0:0:0:0:
256,207,50959,1,10,0:0:0:0:
256,9,51146,1,0,0:0:0:0:
447,152,51334,1,14,0:0:0:0:
447,152,51427,2,0,B|413:144|413:144|376:153|376:153|349:144,1,99.0000033490656,0|0,0:0|0:0,0:0:0:0:
256,207,51709,1,10,0:0:0:0:
65,152,51896,1,0,0:0:0:0:
177,360,52084,6,0,B|181:414|230:347|175:240,1,148.500005023598,14|0,0:0|0:0,0:0:0:0:
86,253,52459,2,0,B|32:257|99:306|206:251,1,148.500005023598,10|0,0:0|0:0,0:0:0:0:
256,207,52834,1,14,0:0:0:0:
185,260,52927,2,0,B|181:314|132:247|187:140,1,148.500005023598,0|10,0:0|0:0,0:0:0:0:
307,113,53302,1,0,0:0:0:0:
353,109,53396,1,0,0:0:0:0:
392,115,53490,1,0,0:0:0:0:
400,67,53584,6,0,B|393:54|393:54|370:58|370:58|348:43|348:43|319:46|319:46|301:27|301:27|258:31|258:31,1,148.500005023598,14|0,0:0|0:0,0:0:0:0:
85,150,53959,2,0,B|92:137|92:137|115:141|115:141|137:126|137:126|166:129|166:129|184:110|184:110|227:114|227:114,1,148.500005023598,10|0,0:0|0:0,0:0:0:0:
383,244,54334,2,0,B|376:231|376:231|353:235|353:235|331:220|331:220|302:223|302:223|284:204|284:204|241:208|241:208,1,148.500005023598,14|0,0:0|0:0,0:0:0:0:
57,297,54709,2,0,B|64:284|64:284|87:288|87:288|109:273|109:273|138:276|138:276|156:257|156:257|199:261|199:261,1,148.500005023598,14|0,0:0|0:0,0:0:0:0:
7,218,55084,5,14,0:0:0:0:
217,352,55271,1,0,0:0:0:0:
241,325,55365,1,0,0:0:0:0:
260,296,55459,2,0,B|275:270|275:270|275:255|275:255|255:221|255:221|255:197,1,99.0000033490656,10|0,0:0|0:0,0:0:0:0:
57,297,55834,1,0,0:0:0:0:
323,371,56021,5,0,0:0:0:0:
142,211,56209,1,10,0:0:0:0:
370,211,56396,1,0,0:0:0:0:
102,144,56584,2,0,B|89:115|40:106|40:106|16:75,1,99.0000033490656,14|0,0:0|0:0,0:0:0:0:
410,144,56959,2,0,B|422:115|471:106|471:106|495:75,1,99.0000033490656,10|0,0:0|0:0,0:0:0:0:
246,100,57334,5,14,0:0:0:0:
308,261,57521,1,0,0:0:0:0:
308,261,57615,1,0,0:0:0:0:
308,261,57709,2,0,L|291:325,1,49.5000016745328,10|0,0:0|0:0,0:0:0:0:
228,357,57896,1,0,0:0:0:0:
95,217,58084,5,14,0:0:0:0:
149,24,58271,1,0,0:0:0:0:
196,17,58365,1,0,0:0:0:0:
237,33,58459,2,0,B|264:37|264:37|284:27|284:27|305:34|305:34|325:26|325:26|359:25,1,99.0000033490656,10|0,0:0|0:0,0:0:0:0:
441,151,58834,1,0,0:0:0:0:
394,162,58928,1,0,0:0:0:0:
344,176,59021,5,0,0:0:0:0:
168,176,59209,1,10,0:0:0:0:
118,371,59396,1,0,0:0:0:0:
337,322,59584,6,0,B|352:299|400:301|400:301|426:285,1,99.0000033490656,14|0,0:0|0:0,0:0:0:0:
256,177,59959,1,10,0:0:0:0:
174,322,60146,1,0,0:0:0:0:
174,322,60240,1,0,0:0:0:0:
174,322,60334,6,0,B|159:298|111:300|111:300|84:285,1,99.0000033490656,14|0,0:0|0:0,0:0:0:0:
256,62,60709,1,10,0:0:0:0:
93,221,60896,1,0,0:0:0:0:
419,221,61084,5,14,0:0:0:0:
256,375,61271,1,0,0:0:0:0:
256,375,61365,1,0,0:0:0:0:
256,375,61459,2,0,B|264:344|264:344|249:309|249:309|256:267,1,99.0000033490656,10|0,0:0|0:0,0:0:0:0:
364,102,61834,1,14,0:0:0:0:
75,190,62021,5,0,0:0:0:0:
437,190,62209,1,10,0:0:0:0:
148,102,62396,1,0,0:0:0:0:
200,320,62584,6,0,P|255:361|311:320,1,148.500005023598,14|0,0:0|0:0,0:0:0:0:
201,235,62959,2,0,B|186:236|186:236|159:225|159:225|135:237|135:237|112:223|112:223|85:236|85:236|53:222,1,148.500005023598,10|0,0:0|0:0,0:0:0:0:
143,117,63334,5,0,0:0:0:0:
311,235,63521,1,0,0:0:0:0:
311,235,63615,1,0,0:0:0:0:
311,235,63709,2,0,B|326:236|326:236|353:225|353:225|377:237|377:237|400:223|400:223|427:236|427:236|459:222,1,148.500005023598,10|0,0:0|0:0,0:0:0:0:
369,267,64084,5,14,0:0:0:0:
256,151,64271,1,0,0:0:0:0:
256,151,64365,1,0,0:0:0:0:
256,151,64459,2,0,B|257:136|257:136|246:109|246:109|258:85|258:85|244:62|244:62|257:35|257:35|243:3,1,148.500005023598,10|0,0:0|0:0,0:0:0:0:
361,9,64834,1,14,0:0:0:0:
409,11,64927,1,0,0:0:0:0:
444,43,65021,5,0,0:0:0:0:
256,93,65209,1,10,0:0:0:0:
122,86,65396,1,0,0:0:0:0:
122,86,65584,6,0,L|165:142,1,49.5000016745328,0|0,0:0|0:0,0:0:0:0:
359,125,65771,2,0,L|390:86,1,49.5000016745328,0|0,0:0|0:0,0:0:0:0:
96,188,65959,6,0,L|126:227,1,49.5000016745328,0|0,0:0|0:0,0:0:0:0:
385,227,66146,2,0,L|416:188,1,49.5000016745328,0|0,0:0|0:0,0:0:0:0:
63,278,66334,6,0,L|106:334,1,49.5000016745328,0|0,0:0|0:0,0:0:0:0:
418,317,66521,2,0,L|449:278,1,49.5000016745328,0|0,0:0|0:0,0:0:0:0:
256,93,66709,2,0,L|256:143,1,49.5000016745328,0|0,0:0|0:0,0:0:0:0:
256,290,66896,2,0,L|256:241,1,49.5000016745328,0|0,0:0|0:0,0:0:0:0:
318,193,67084,5,14,0:0:0:0:
202,87,67271,1,0,0:0:0:0:
86,17,67459,1,10,0:0:0:0:
426,17,67646,1,0,0:0:0:0:
194,193,67834,1,0,0:0:0:0:
194,193,67927,2,0,B|166:183|166:183|145:192|145:192|118:202|77:186,1,116.999995031595
22,289,68209,1,10,0:0:0:0:
25,329,68302,1,0,0:0:0:0:
53,358,68396,1,0,0:0:0:0:
93,364,68490,1,0,0:0:0:0:
133,360,68584,5,14,0:0:0:0:
171,337,68677,2,0,B|199:321|237:339|237:339|266:322|266:322|297:332,1,116.999995031595
332,221,68959,2,0,B|360:215|360:215|382:194,1,58.4999975157976,10|0,0:0|0:0,0:0:0:0:
202,87,69146,2,0,B|188:118|188:118|188:142,1,58.4999975157976
133,239,69334,5,14,0:0:0:0:
133,239,69427,2,0,B|169:213|208:239|208:239|262:221,1,116.999995031595,0|0,0:0|0:0,0:0:0:0:
306,134,69709,2,0,B|308:111|308:111|295:88|295:88|295:64,1,58.4999975157976,10|0,0:0|0:0,0:0:0:0:
199,1,69896,1,0,0:0:0:0:
147,11,69990,1,0,0:0:0:0:
107,36,70084,6,0,B|95:79|95:79|57:106|57:106|52:131,1,116.999995031595,14|0,0:0|0:0,0:0:0:0:
107,348,70459,2,0,B|95:304|95:304|57:277|57:277|52:252,1,116.999995031595,10|0,0:0|0:0,0:0:0:0:
195,77,70834,1,0,0:0:0:0:
230,55,70927,2,0,B|263:42|306:60|306:60|344:60,1,116.999995031595,0|0,0:0|0:0,0:0:0:0:
485,125,71209,1,14,0:0:0:0:
491,170,71302,1,0,0:0:0:0:
494,214,71396,1,0,0:0:0:0:
485,260,71490,1,0,0:0:0:0:
457,297,71584,5,14,0:0:0:0:
400,143,71771,1,0,0:0:0:0:
256,268,71959,1,10,0:0:0:0:
112,143,72146,1,0,0:0:0:0:
128,321,72334,5,14,0:0:0:0:
128,321,72427,2,0,B|152:325|152:325|174:311|174:311|204:306,1,58.4999975157976,0|0,0:0|0:0,0:0:0:0:
384,321,72615,2,0,B|360:325|360:325|338:311|338:311|308:306,1,58.4999975157976,0|14,0:0|0:0,0:0:0:0:
103,219,72802,2,0,B|127:223|127:223|149:209|149:209|179:204,1,58.4999975157976,0|0,0:0|0:0,0:0:0:0:
198,179,72990,1,0,0:0:0:0:
237,134,73084,5,14,0:0:0:0:
66,15,73271,1,0,0:0:0:0:
11,290,73459,1,2,0:0:0:0:
290,229,73646,1,0,0:0:0:0:
101,142,73834,1,0,0:0:0:0:
101,142,73927,2,0,B|113:114|113:114|141:100|141:100|144:61|165:49,1,116.999995031595
329,42,74209,1,10,0:0:0:0:
358,42,74302,1,0,0:0:0:0:
386,49,74396,1,0,0:0:0:0:
412,62,74490,1,0,0:0:0:0:
439,80,74584,5,14,0:0:0:0:
437,120,74677,2,0,B|420:147|384:131|384:131|350:146|350:146|315:140,1,116.999995031595
262,115,74959,1,2,0:0:0:0:
476,254,75146,1,0,0:0:0:0:
230,367,75334,1,0,0:0:0:0:
191,353,75427,2,0,B|151:342|123:311|123:311|72:312,1,116.999995031595,0|0,0:0|0:0,0:0:0:0:
19,239,75709,2,0,B|17:206|17:206|44:170,1,58.4999975157976,10|0,0:0|0:0,0:0:0:0:
79,105,75896,1,0,0:0:0:0:
96,74,75990,1,0,0:0:0:0:
116,48,76084,6,0,B|146:55|146:55|154:88|211:107,1,116.999995031595,14|0,0:0|0:0,0:0:0:0:
396,48,76459,2,0,B|366:55|366:55|358:88|301:107,1,116.999995031595,10|0,0:0|0:0,0:0:0:0:
253,304,76834,1,14,0:0:0:0:
253,304,76927,2,0,B|253:266|253:266|271:223|258:188,1,116.999995031595
391,153,77209,1,10,0:0:0:0:
432,174,77302,1,0,0:0:0:0:
457,213,77396,1,0,0:0:0:0:
470,257,77490,1,0,0:0:0:0:
460,302,77584,5,14,0:0:0:0:
256,112,77771,1,0,0:0:0:0:
125,324,77959,1,14,0:0:0:0:
330,246,78146,1,0,0:0:0:0:
25,121,78334,5,14,0:0:0:0:
25,121,78427,2,0,P|24:90|43:51,1,58.4999975157976
104,12,78615,1,0,0:0:0:0:
408,12,78802,1,0,0:0:0:0:
408,12,78896,1,0,0:0:0:0:
256,324,79084,5,14,0:0:0:0:
354,144,79271,1,0,0:0:0:0:
158,144,79459,1,10,0:0:0:0:
371,339,79646,1,0,0:0:0:0:
141,339,79834,1,0,0:0:0:0:
141,339,79927,2,0,B|112:344|112:344|86:334|86:334|53:341|53:341|11:327,1,116.999995031595,0|0,0:0|0:0,0:0:0:0:
7,210,80209,1,10,0:0:0:0:
56,192,80302,1,0,0:0:0:0:
105,173,80396,1,0,0:0:0:0:
153,152,80490,1,0,0:0:0:0:
202,133,80584,5,14,0:0:0:0:
252,119,80677,2,0,B|285:88|330:116|330:116|373:106,1,116.999995031595,0|0,0:0|0:0,0:0:0:0:
482,159,80959,2,0,P|497:133|500:99,1,58.4999975157976,10|0,0:0|0:0,0:0:0:0:
397,182,81146,2,0,L|402:240,1,58.4999975157976
288,188,81334,5,14,0:0:0:0:
288,188,81427,2,0,B|319:198|319:198|343:183|343:183|371:189|371:189|417:177,1,116.999995031595
478,265,81709,2,0,B|485:275|485:275|475:295|475:295|486:316,1,58.4999975157976,10|0,0:0|0:0,0:0:0:0:
405,380,81896,1,0,0:0:0:0:
352,380,81990,1,0,0:0:0:0:
304,357,82084,6,0,B|242:357|219:345|219:345|170:359,1,116.999995031595,14|0,0:0|0:0,0:0:0:0:
208,27,82459,2,0,B|270:27|293:39|293:39|342:25,1,116.999995031595,10|0,0:0|0:0,0:0:0:0:
236,245,82834,1,0,0:0:0:0:
236,245,82927,2,0,B|198:245|198:245|155:227|120:240,1,116.999995031595,0|0,0:0|0:0,0:0:0:0:
35,286,83209,1,0,0:0:0:0:
27,246,83302,1,0,0:0:0:0:
22,205,83396,1,0,0:0:0:0:
12,165,83490,1,0,0:0:0:0:
4,124,83584,5,14,0:0:0:0:
267,158,83771,1,0,0:0:0:0:
129,336,83959,1,10,0:0:0:0:
50,67,84146,1,0,0:0:0:0:
304,233,84334,5,4,0:0:0:0:
304,233,84427,2,0,L|368:227,1,58.4999975157976,0|0,0:0|0:0,0:0:0:0:
508,141,84615,2,0,L|443:148,1,58.4999975157976,0|0,0:0|0:0,0:0:0:0:
366,320,84802,2,0,L|426:314,1,58.4999975157976,0|8,0:0|0:0,0:0:0:0:
462,330,84990,1,0,0:0:0:0:
496,352,85084,5,14,0:0:0:0:
387,122,85271,1,0,0:0:0:0:
209,206,85459,1,10,0:0:0:0:
366,320,85646,1,0,0:0:0:0:
418,56,85834,1,0,0:0:0:0:
395,49,85927,2,0,B|374:47|374:47|363:30|363:30|345:32|345:32|326:20|326:20|303:25|303:25|285:6,1,116.999995031595,0|0,0:0|0:0,0:0:0:0:
128,16,86209,1,10,0:0:0:0:
99,16,86302,1,0,0:0:0:0:
74,21,86396,1,0,0:0:0:0:
45,28,86490,1,0,0:0:0:0:
12,45,86584,5,14,0:0:0:0:
0,90,86677,2,0,B|30:88|30:88|54:74|54:74|86:84|86:84|132:80,1,116.999995031595
212,128,86959,1,10,0:0:0:0:
480,121,87146,1,0,0:0:0:0:
353,315,87334,5,0,0:0:0:0:
353,315,87427,2,0,B|338:277|338:277|349:251|349:251|337:214|337:214|335:186,1,116.999995031595,0|0,0:0|0:0,0:0:0:0:
418,24,87709,2,0,P|422:52|417:81,1,58.4999975157976,2|0,0:0|0:0,0:0:0:0:
298,138,87896,1,0,0:0:0:0:
256,137,87990,1,0,0:0:0:0:
214,135,88084,6,0,B|157:116|149:83|149:83|119:76,1,116.999995031595,14|0,0:0|0:0,0:0:0:0:
327,252,88459,2,0,B|334:222|334:222|367:214|386:157,1,116.999995031595,10|0,0:0|0:0,0:0:0:0:
151,347,88834,1,14,0:0:0:0:
119,338,88927,2,0,B|81:338|81:338|38:320|3:333,1,116.999995031595,0|0,0:0|0:0,0:0:0:0:
7,197,89209,1,14,0:0:0:0:
51,182,89302,1,0,0:0:0:0:
96,169,89396,1,0,0:0:0:0:
141,157,89490,1,0,0:0:0:0:
186,144,89584,5,14,0:0:0:0:
442,280,89771,1,0,0:0:0:0:
171,381,89959,1,10,0:0:0:0:
186,70,90146,1,0,0:0:0:0:
449,202,90334,5,14,0:0:0:0:
449,202,90427,2,0,B|463:194|463:194|466:182|466:182|482:172|482:172|498:138,1,58.4999975157976,0|0,0:0|0:0,0:0:0:0:
418,125,90615,1,0,0:0:0:0:
29,115,90802,1,0,0:0:0:0:
29,115,90896,1,0,0:0:0:0:
256,363,91084,5,14,0:0:0:0:
373,184,91271,1,0,0:0:0:0:
139,184,91459,1,0,0:0:0:0:
381,300,91646,1,0,0:0:0:0:
87,269,91834,1,0,0:0:0:0:
65,260,91927,2,0,B|60:231|60:231|43:215|43:215|45:189|45:189|33:165,1,99.0000033490656,0|0,0:0|0:0,0:0:0:0:
30,34,92209,1,0,0:0:0:0:
69,14,92302,1,0,0:0:0:0:
113,19,92396,1,0,0:0:0:0:
155,33,92490,1,0,0:0:0:0:
184,66,92584,5,14,0:0:0:0:
355,271,92771,1,0,0:0:0:0:
116,328,92959,1,0,0:0:0:0:
264,117,93146,1,0,0:0:0:0:
456,337,93334,1,0,0:0:0:0:
470,322,93427,2,0,B|477:296|477:296|471:272|471:272|482:252|482:252|487:224,1,99.0000033490656,0|0,0:0|0:0,0:0:0:0:
512,75,93709,1,0,0:0:0:0:
479,63,93802,1,0,0:0:0:0:
445,52,93896,1,0,0:0:0:0:
411,44,93990,1,0,0:0:0:0:
377,35,94084,5,14,0:0:0:0:
339,263,94271,1,0,0:0:0:0:
164,110,94459,1,0,0:0:0:0:
431,148,94646,1,0,0:0:0:0:
204,196,94834,1,0,0:0:0:0:
219,161,94927,2,0,B|238:143|238:143|261:143|261:143|275:126|275:126|302:128,1,99.0000033490656,0|0,0:0|0:0,0:0:0:0:
436,227,95209,1,0,0:0:0:0:
432,275,95302,1,0,0:0:0:0:
411,320,95396,1,0,0:0:0:0:
371,349,95490,1,0,0:0:0:0:
323,361,95584,5,14,0:0:0:0:
413,103,95771,1,0,0:0:0:0:
490,346,95959,1,0,0:0:0:0:
270,161,96146,1,0,0:0:0:0:
469,253,96334,1,14,0:0:0:0:
432,275,96427,2,0,B|419:274|419:274|397:286|397:286|376:281|376:281|354:292|354:292|330:287|330:287,1,99.0000033490656,0|0,0:0|0:0,0:0:0:0:
213,267,96709,1,0,0:0:0:0:
183,227,96802,1,0,0:0:0:0:
171,178,96896,1,0,0:0:0:0:
170,128,96990,1,0,0:0:0:0:
186,81,97084,5,14,0:0:0:0:
405,362,97271,1,0,0:0:0:0:
67,251,97459,1,0,0:0:0:0:
442,138,97646,1,0,0:0:0:0:
153,374,97834,1,0,0:0:0:0:
331,44,98021,1,0,0:0:0:0:
92,145,98209,1,0,0:0:0:0:
445,251,98396,1,0,0:0:0:0:
134,35,98584,5,14,0:0:0:0:
256,296,98771,1,0,3:0:0:0:
418,110,98959,1,0,0:0:0:0:
65,45,99146,1,0,3:0:0:0:
447,45,99334,5,0,0:0:0:0:
94,110,99521,1,0,0:0:0:0:
296,322,99709,1,0,0:0:0:0:
296,62,99896,1,0,0:0:0:0:
94,262,100084,5,14,0:0:0:0:
418,262,100271,1,0,3:0:0:0:
262,29,100459,1,0,0:0:0:0:
262,312,100646,1,0,3:0:0:0:
106,101,100834,5,0,0:0:0:0:
466,193,101021,1,0,0:0:0:0:
156,332,101209,1,0,0:0:0:0:
406,101,101396,1,0,0:0:0:0:
340,352,101584,5,12,0:0:0:0:
67,278,101771,1,0,0:0:0:0:
156,13,101959,1,14,0:0:0:0:
425,93,102146,1,0,0:0:0:0:
204,146,102334,6,0,B|187:148|187:148|176:136|176:136|160:145|160:145|147:134|147:134|129:140|129:140|114:129|114:129|93:135,1,99.0000033490657,12|0,0:0|0:0,0:0:0:0:
202,232,102584,2,0,B|197:241|197:241|200:251|200:251|195:262,1,33.0000011163552
308,238,102709,2,0,B|325:236|325:236|342:243|342:243|363:240|363:240|381:248|381:248|403:242|403:242|422:255|422:255|440:255|440:255|447:257,1,148.500005023598
497,378,103084,6,0,B|490:375|490:375|481:382|481:382|465:373|465:373|450:381|450:381|434:373|434:373|418:378|418:378|408:370,1,99.0000033490656,0|0,0:0|0:0,0:0:0:0:
275,345,103459,1,10,0:0:0:0:
275,345,103646,1,0,0:0:0:0:
384,212,103834,1,0,0:0:0:0:
384,212,103927,2,0,B|378:181|339:162|339:162|308:160,1,99.0000033490656,0|0,0:0|0:0,0:0:0:0:
464,246,104209,5,10,0:0:0:0:
498,227,104302,1,0,0:0:0:0:
506,188,104396,1,0,0:0:0:0:
501,148,104490,1,0,0:0:0:0:
479,115,104584,6,0,L|424:96,1,49.5000016745328,0|0,0:0|0:0,0:0:0:0:
277,6,104771,2,0,L|325:20,1,49.5000016745328,0|0,0:0|0:0,0:0:0:0:
309,160,104959,2,0,L|254:141,1,49.5000016745328,10|0,0:0|0:0,0:0:0:0:
128,37,105146,2,0,L|175:50,1,49.5000016745328,0|0,0:0|0:0,0:0:0:0:
196,120,105334,1,0,0:0:0:0:
161,183,105427,2,0,L|32:153,1,99.0000033490656,0|0,0:0|0:0,0:0:0:0:
61,209,105709,2,0,L|65:152,1,49.5000016745328,10|0,0:0|0:0,0:0:0:0:
262,143,105896,2,0,L|267:192,1,49.5000016745328
203,246,106084,6,0,L|205:296,1,49.5000016745328,12|0,0:0|0:0,0:0:0:0:
123,310,106271,1,0,0:0:0:0:
123,310,106365,1,0,0:0:0:0:
123,310,106459,2,0,L|121:260,1,49.5000016745328,10|0,0:0|0:0,0:0:0:0:
283,291,106646,2,0,L|281:341,1,49.5000016745328
386,266,106834,5,0,0:0:0:0:
386,266,106927,2,0,L|387:198,1,49.5000016745328
437,119,107115,1,0,0:0:0:0:
424,92,107209,1,10,0:0:0:0:
406,68,107302,1,0,0:0:0:0:
379,54,107396,1,0,0:0:0:0:
349,49,107490,1,0,0:0:0:0:
297,111,107584,6,0,P|370:136|464:101,1,148.500005023598,12|0,0:0|0:0,0:0:0:0:
215,111,107959,2,0,P|142:136|48:101,1,148.500005023598,10|0,0:0|0:0,0:0:0:0:
52,286,108334,2,0,P|110:235|191:243,1,148.500005023598,0|0,0:0|0:0,0:0:0:0:
253,263,108709,6,0,P|233:294|201:311,1,74.2500025117992,10|0,0:0|0:0,0:0:0:0:
237,192,109084,6,0,P|286:164|401:190,1,148.500005023598,14|0,0:0|0:0,0:0:0:0:
253,263,109459,1,14,0:0:0:0:
170,161,109646,1,0,0:0:0:0:
344,68,109834,1,0,0:0:0:0:
344,68,109927,2,0,B|372:61|372:61|387:44|387:44|411:52|411:52|456:50,1,99.0000033490656,0|0,0:0|0:0,0:0:0:0:
471,153,110209,1,14,0:0:0:0:
462,186,110302,1,0,0:0:0:0:
450,218,110396,1,0,0:0:0:0:
423,240,110490,1,0,0:0:0:0:
380,255,110584,5,14,0:0:0:0:
95,256,110771,1,0,0:0:0:0:
344,68,110959,1,10,0:0:0:0:
429,341,111146,1,0,0:0:0:0:
186,259,111334,5,14,0:0:0:0:
186,259,111427,2,0,B|171:255|171:255|145:268|145:268|113:251|113:251|66:265,1,99.0000033490656,0|0,0:0|0:0,0:0:0:0:
213,186,111709,6,0,L|279:193,1,49.5000016745328,10|0,0:0|0:0,0:0:0:0:
246,364,111896,2,0,L|198:356,1,49.5000016745328
56,302,112084,6,0,B|77:297|77:297|117:283|117:283|157:291|157:291|192:251,1,148.500005023598,14|0,0:0|0:0,0:0:0:0:
315,135,112459,5,10,0:0:0:0:
315,135,112552,2,0,B|332:112|332:112|371:123|416:85,1,99.0000033490656,0|0,0:0|0:0,0:0:0:0:
434,192,112834,1,12,0:0:0:0:
398,286,112927,2,0,B|371:261|332:272|332:272|315:249,1,99.0000033490656,0|0,0:0|0:0,0:0:0:0:
193,164,113209,5,14,0:0:0:0:
163,159,113302,1,0,0:0:0:0:
134,149,113396,1,0,0:0:0:0:
105,138,113490,1,0,0:0:0:0:
83,113,113584,6,0,B|95:115|95:115|120:98|120:98|143:103|143:103|168:80,1,99.0000033490656,12|0,0:0|0:0,0:0:0:0:
428,113,113959,2,0,B|417:115|417:115|392:98|392:98|369:103|369:103|344:80,1,99.0000033490656,14|0,0:0|0:0,0:0:0:0:
54,252,114334,6,0,B|65:253|65:253|90:236|90:236|113:241|113:241|138:218,1,99.0000033490656,12|0,0:0|0:0,0:0:0:0:
458,252,114709,2,0,B|446:253|446:253|421:236|421:236|398:241|398:241|373:218,1,99.0000033490656,12|0,0:0|0:0,0:0:0:0:
255,88,115084,6,0,L|255:36,1,49.5000016745328,14|0,0:0|0:0,0:0:0:0:
285,158,115271,1,0,0:0:0:0:
285,158,115365,1,0,0:0:0:0:
285,158,115459,2,0,B|309:149|309:149|334:158|334:158|361:144|361:144|379:144,1,99.0000033490656,10|0,0:0|0:0,0:0:0:0:
509,223,115834,1,0,0:0:0:0:
357,321,116021,5,0,0:0:0:0:
256,219,116209,1,10,0:0:0:0:
155,321,116396,1,0,0:0:0:0:
31,147,116584,2,0,B|28:132|28:132|46:107|46:107|38:74|38:74|55:40|55:40|35:16,1,148.500005023598,12|0,0:0|0:0,0:0:0:0:
160,237,116959,2,0,B|157:205|157:205|191:188|191:188|204:156|204:156|233:147|233:147|240:133,1,148.500005023598,10|0,0:0|0:0,0:0:0:0:
377,212,117334,2,0,L|328:201,1,49.5000016745328,12|0,0:0|0:0,0:0:0:0:
345,91,117521,1,0,0:0:0:0:
345,91,117615,2,0,B|372:76|372:76|402:100|402:100|436:99|436:99|451:111,1,99.0000033490656,0|0,0:0|0:0,0:0:0:0:
507,220,117896,2,0,L|510:287,1,49.5000016745328,0|0,0:0|0:0,0:0:0:0:
413,364,118084,5,14,0:0:0:0:
374,321,118177,1,0,0:0:0:0:
336,280,118271,2,0,L|263:269,1,49.5000016745328
117,203,118459,2,0,L|109:251,1,49.5000016745328,10|0,0:0|0:0,0:0:0:0:
157,137,118646,1,0,0:0:0:0:
132,94,118740,1,0,0:0:0:0:
105,51,118834,1,12,0:0:0:0:
63,24,118927,1,0,0:0:0:0:
14,13,119021,5,0,0:0:0:0:
185,15,119209,1,10,0:0:0:0:
224,227,119396,1,0,0:0:0:0:
371,138,119584,6,0,B|355:128|355:128|341:112|341:112|306:117|306:117|283:97|283:97|253:107|253:107|232:92,1,148.500005023598,14|0,0:0|0:0,0:0:0:0:
79,231,119959,2,0,L|81:288,1,49.5000016745328,10|0,0:0|0:0,0:0:0:0:
212,332,120146,1,0,0:0:0:0:
253,355,120240,1,0,0:0:0:0:
294,365,120334,1,14,0:0:0:0:
338,350,120427,2,0,B|342:337|342:337|354:340|354:340|374:325|374:325|397:326|397:326|415:314|415:314|430:320|430:320,1,99.0000033490656,0|0,0:0|0:0,0:0:0:0:
481,202,120709,5,10,0:0:0:0:
260,17,120896,1,0,0:0:0:0:
188,264,121084,1,14,0:0:0:0:
401,185,121271,1,0,0:0:0:0:
433,146,121365,1,0,0:0:0:0:
446,97,121459,5,0,0:0:0:0:
161,45,121646,1,0,0:0:0:0:
320,268,121834,1,14,0:0:0:0:
366,29,122021,5,0,0:0:0:0:
187,227,122209,1,10,0:0:0:0:
422,263,122396,1,0,0:0:0:0:
103,242,122584,6,0,B|103:226|103:226|110:215|110:215|109:199|109:199|119:189|119:189|116:175|116:175|138:148|198:152,1,148.500005023598,14|0,0:0|0:0,0:0:0:0:
409,242,122959,2,0,B|409:226|409:226|401:215|401:215|402:199|402:199|392:189|392:189|395:175|395:175|373:148|313:152,1,148.500005023598,10|0,0:0|0:0,0:0:0:0:
195,312,123334,6,0,B|200:305|200:305|212:303|212:303|220:295|220:295|230:294|230:294|246:281,1,49.5000016745328,14|0,0:0|0:0,0:0:0:0:
263,184,123521,1,0,0:0:0:0:
263,184,123615,1,0,0:0:0:0:
263,184,123709,2,0,L|254:133,1,49.5000016745328,10|0,0:0|0:0,0:0:0:0:
306,254,123896,1,0,0:0:0:0:
326,296,123990,1,0,0:0:0:0:
342,343,124084,6,0,L|267:336,1,49.5000016745328,14|0,0:0|0:0,0:0:0:0:
122,329,124271,1,0,0:0:0:0:
115,272,124365,1,0,0:0:0:0:
108,219,124459,2,0,P|106:170|132:129,1,99.0000033490656,10|0,0:0|0:0,0:0:0:0:
304,50,124834,1,14,0:0:0:0:
352,41,124927,1,0,0:0:0:0:
401,45,125021,5,0,0:0:0:0:
324,243,125209,1,10,0:0:0:0:
196,80,125396,1,0,0:0:0:0:
196,80,125584,6,0,L|182:32,1,49.5000016745328,0|0,0:0|0:0,0:0:0:0:
316,80,125771,2,0,L|329:32,1,49.5000016745328,0|0,0:0|0:0,0:0:0:0:
119,96,125959,6,0,L|133:144,1,49.5000016745328,0|0,0:0|0:0,0:0:0:0:
379,144,126146,2,0,L|392:96,1,49.5000016745328,0|0,0:0|0:0,0:0:0:0:
196,304,126334,6,0,L|182:351,1,49.5000016745328,0|0,0:0|0:0,0:0:0:0:
329,351,126521,2,0,L|316:304,1,49.5000016745328,0|0,0:0|0:0,0:0:0:0:
133,240,126709,6,0,L|119:287,1,49.5000016745328,0|0,0:0|0:0,0:0:0:0:
392,287,126896,2,0,L|379:240,1,49.5000016745328,0|0,0:0|0:0,0:0:0:0:
303,133,127084,5,14,0:0:0:0:
209,133,127271,1,0,0:0:0:0:
256,365,127459,5,14,0:0:0:0:
116,151,127646,1,0,0:0:0:0:
55,346,127834,1,2,0:0:0:0:
195,250,128021,1,0,0:0:0:0:
351,328,128209,1,2,0:0:0:0:
351,328,128302,2,0,B|368:329|368:329|388:318|388:318|407:324|407:324|423:315|423:315|444:319,1,90.000000298023,0|0,0:0|0:0,0:0:0:0:
478,209,128584,1,0,0:0:0:0:
479,191,128677,1,0,0:0:0:0:
481,173,128771,1,2,0:0:0:0:
483,155,128865,1,0,0:0:0:0:
485,137,128959,6,0,L|482:71,1,45.0000001490115,14|0,0:0|0:0,0:0:0:0:
392,37,129146,2,0,L|395:82,1,45.0000001490115,0|0,0:0|0:0,0:0:0:0:
306,137,129334,2,0,L|303:92,1,45.0000001490115,2|0,0:0|0:0,0:0:0:0:
208,92,129521,2,0,L|206:137,1,45.0000001490115,0|0,0:0|0:0,0:0:0:0:
97,128,129709,1,14,0:0:0:0:
74,114,129802,1,0,0:0:0:0:
54,98,129896,2,0,L|44:197,1,90.000000298023,0|8,0:0|0:0,0:0:0:0:
47,281,130177,1,0,0:0:0:0:
55,297,130271,1,2,0:0:0:0:
67,309,130365,1,0,0:0:0:0:
89,316,130459,5,14,0:0:0:0:
128,323,130552,1,0,0:0:0:0:
164,318,130646,2,0,L|231:316,1,45.0000001490115
344,272,130834,2,0,L|300:274,1,45.0000001490115,10|0,0:0|0:0,0:0:0:0:
222,214,131021,1,0,0:0:0:0:
182,215,131115,1,0,0:0:0:0:
147,200,131209,1,10,0:0:0:0:
116,173,131302,6,0,B|117:156|117:156|106:136|106:136|112:117|112:117|103:101|103:101|107:80,1,90.000000298023
230,12,131584,1,0,0:0:0:0:
274,11,131677,1,0,0:0:0:0:
318,14,131771,1,2,0:0:0:0:
357,36,131865,1,0,0:0:0:0:
375,72,131959,6,0,L|377:116,1,45.0000001490115,14|0,0:0|0:0,0:0:0:0:
450,210,132146,2,0,L|452:254,1,45.0000001490115
333,284,132334,2,0,L|330:239,1,45.0000001490115,10|0,0:0|0:0,0:0:0:0:
182,239,132521,2,0,L|179:283,1,45.0000001490115
93,358,132709,1,14,0:0:0:0:
72,330,132802,1,0,0:0:0:0:
54,299,132896,6,0,L|63:209,1,90.000000298023,0|8,0:0|0:0,0:0:0:0:
137,70,133177,1,0,0:0:0:0:
106,35,133271,1,2,0:0:0:0:
62,17,133365,1,0,0:0:0:0:
25,26,133459,5,14,0:0:0:0:
8,62,133552,1,0,0:0:0:0:
8,102,133646,1,0,0:0:0:0:
17,141,133740,1,0,0:0:0:0:
40,174,133834,1,10,0:0:0:0:
70,209,133927,1,0,0:0:0:0:
109,226,134021,1,0,0:0:0:0:
150,235,134115,1,0,0:0:0:0:
195,224,134209,6,0,L|208:282,1,45.0000001490115,10|0,0:0|0:0,0:0:0:0:
247,346,134396,2,0,L|203:357,1,45.0000001490115,2|0,0:0|0:0,0:0:0:0:
334,320,134584,5,0,0:0:0:0:
355,323,134677,1,0,0:0:0:0:
375,333,134771,1,2,0:0:0:0:
391,348,134865,1,0,0:0:0:0:
417,368,134959,5,4,0:0:0:0:
464,323,135052,1,0,0:0:0:0:
507,275,135146,1,0,0:0:0:0:
412,199,135334,1,10,0:0:0:0:
511,113,135521,1,0,0:0:0:0:
406,64,135709,1,10,0:0:0:0:
406,64,135802,2,0,B|390:63|390:63|367:43|367:43|334:42|334:42|302:24,1,90.000000298023,0|0,0:0|0:0,0:0:0:0:
174,18,136084,1,0,0:0:0:0:
149,13,136177,1,0,0:0:0:0:
126,13,136271,1,2,0:0:0:0:
103,16,136365,1,0,0:0:0:0:
79,60,136459,5,6,0:0:0:0:
94,97,136552,2,0,B|114:103|114:103|142:92|142:92|169:102|169:102|195:96,1,90.000000298023,0|0,0:0|0:0,0:0:0:0:
316,110,136834,1,10,0:0:0:0:
368,118,136927,1,0,0:0:0:0:
417,138,137021,1,0,0:0:0:0:
444,186,137115,1,0,0:0:0:0:
437,236,137209,5,6,0:0:0:0:
395,264,137302,2,0,B|375:258|375:258|347:269|347:269|320:259|320:259|294:265,1,90.000000298023,0|0,0:0|0:0,0:0:0:0:
197,239,137584,1,10,0:0:0:0:
143,232,137677,1,0,0:0:0:0:
93,209,137771,1,0,0:0:0:0:
55,169,137865,1,0,0:0:0:0:
29,125,137959,6,0,B|25:102|25:102|47:75|47:75|52:43,1,90.000000298023,6|0,0:0|0:0,0:0:0:0:
460,43,138334,2,0,B|465:75|465:75|487:102|487:102|483:125,1,90.000000298023,14|0,0:0|0:0,0:0:0:0:
276,384,138709,5,4,0:0:0:0:
302,91,138896,1,0,0:0:0:0:
359,362,139084,5,14,0:0:0:0:
387,54,139271,1,0,0:0:0:0:
173,226,139459,6,0,B|169:214|169:214|179:195|179:195|174:178|174:178|186:167,1,67.5000002235172,0|0,0:3|0:0,0:0:0:0:
224,79,139834,5,14,0:0:0:0:
260,201,140021,1,0,0:0:0:0:
85,186,140209,1,10,0:0:0:0:
90,351,140396,1,0,0:3:0:0:
145,335,140490,1,0,0:0:0:0:
198,315,140584,1,0,0:0:0:0:
250,293,140677,2,0,B|266:279|266:279|292:280|292:280|311:260|311:260|337:251,1,90.000000298023
411,274,140959,1,10,0:0:0:0:
428,286,141052,1,0,0:0:0:0:
441,299,141146,1,0,0:3:0:0:
450,315,141240,1,0,0:0:0:0:
457,328,141334,5,0,0:0:0:0:
454,344,141427,2,0,B|435:344|435:344|419:333|419:333|400:336|400:336|380:321|380:321|361:319|361:319|347:305,1,90.000000298023
325,255,141709,1,10,0:0:0:0:
325,255,141896,1,0,0:0:0:0:
360,109,142084,1,0,0:0:0:0:
360,109,142177,2,0,B|345:71|354:30|354:30|351:20,1,90.000000298023
228,12,142459,2,0,L|222:70,1,45.0000001490115,10|0,0:0|0:0,0:0:0:0:
131,135,142646,1,0,0:0:0:0:
117,138,142740,1,0,0:0:0:0:
103,139,142834,6,0,B|85:136|85:136|63:121|63:121|40:123|40:123|17:110|17:110|-6:113,1,90.000000298023,4|0,0:0|0:0,0:0:0:0:
194,233,143209,2,0,B|211:230|211:230|233:215|233:215|256:217|256:217|279:204|279:204|303:207,1,90.000000298023,10|0,0:0|0:0,0:0:0:0:
458,232,143584,1,0,0:0:0:0:
458,232,143677,2,0,B|437:226|437:226|420:232|420:232|383:209|350:209,1,90.000000298023
271,134,143959,1,10,0:0:0:0:
255,130,144052,1,0,0:0:0:0:
241,129,144146,1,0,0:0:0:0:
227,132,144240,1,0,0:0:0:0:
211,134,144334,5,4,0:0:0:0:
77,58,144521,1,0,0:0:0:0:
252,55,144709,1,10,0:0:0:0:
203,241,144896,1,0,0:0:0:0:
105,351,145084,5,6,0:0:0:0:
105,351,145177,2,0,L|56:343,1,45.0000001490115
203,241,145365,2,0,L|248:249,1,45.0000001490115,0|14,0:0|0:0,0:0:0:0:
393,362,145552,2,0,L|437:354,1,45.0000001490115,0|0,0:0|0:0,0:0:0:0:
477,322,145740,1,0,0:0:0:0:
500,279,145834,5,14,0:0:0:0:
332,135,146021,1,0,0:0:0:0:
203,241,146209,1,10,0:0:0:0:
372,192,146396,1,0,0:0:0:0:
265,89,146584,1,0,0:0:0:0:
265,89,146677,2,0,B|272:81|272:81|290:80|290:80|308:66|308:66|328:65|328:65|344:52|344:52|360:47,1,90.000000298023,0|0,0:0|0:0,0:0:0:0:
456,72,146959,1,10,0:0:0:0:
468,75,147052,1,0,0:0:0:0:
478,83,147146,1,0,0:0:0:0:
488,92,147240,1,0,0:0:0:0:
492,106,147334,5,4,0:0:0:0:
489,124,147427,2,0,B|476:139|476:139|430:147|430:147|408:178|413:187,1,90.000000298023
397,242,147709,1,10,0:0:0:0:
221,164,147896,1,0,0:0:0:0:
307,372,148084,1,0,0:0:0:0:
307,372,148177,2,0,B|269:387|228:378|228:378|186:389,1,90.000000298023,0|0,0:0|0:0,0:0:0:0:
76,339,148459,2,0,B|96:334|96:334|106:323|106:323|146:303,1,45.0000001490115
116,208,148646,1,0,0:0:0:0:
108,200,148740,1,0,0:0:0:0:
101,192,148834,6,0,B|71:185|71:185|63:165|63:165|46:155|46:155|41:138|41:138|11:135,1,90.000000298023,4|0,0:0|0:0,0:0:0:0:
198,60,149209,2,0,B|228:53|228:53|236:33|236:33|253:23|253:23|258:6|258:6|288:3,1,90.000000298023,10|0,0:0|0:0,0:0:0:0:
224,131,149584,1,4,0:0:0:0:
224,131,149677,2,0,B|250:126|250:126|266:110|266:110|289:103|289:103|300:86|327:82,1,90.000000298023,0|0,0:0|0:0,0:0:0:0:
394,61,149959,1,10,0:0:0:0:
398,73,150052,1,0,0:0:0:0:
401,86,150146,1,0,0:0:0:0:
402,99,150240,1,0,0:0:0:0:
401,117,150334,5,4,0:0:0:0:
258,241,150521,1,0,0:0:0:0:
413,317,150709,1,14,0:0:0:0:
188,369,150896,1,0,0:0:0:0:
324,341,151084,5,4,0:0:0:0:
324,341,151177,2,0,L|328:289,1,45.0000001490115
258,241,151365,1,0,0:0:0:0:
116,114,151552,1,0,0:0:0:0:
79,102,151646,1,0,0:0:0:0:
271,15,151834,5,12,0:0:0:0:
283,17,151927,1,0,0:0:0:0:
293,20,152021,2,0,L|354:11,1,51.7500011584162,0|0,0:0|0:0,0:0:0:0:
413,49,152209,1,10,0:0:0:0:
447,198,152396,2,0,B|456:184|456:184|469:177|469:177|478:154,1,51.7500011584162
371,260,152584,1,0,0:0:0:0:
371,260,152677,2,0,B|368:240|368:240|356:227|356:227|363:212|363:212|351:199|351:199|356:181|356:181|344:169|344:169|344:148,1,103.500002316832,0|0,0:0|0:0,0:0:0:0:
244,78,152959,1,10,0:0:0:0:
223,73,153052,1,0,0:0:0:0:
202,70,153146,1,0,0:0:0:0:
181,70,153240,1,0,0:0:0:0:
150,74,153334,5,12,0:0:0:0:
122,87,153427,1,0,0:0:0:0:
97,106,153521,2,0,L|87:183,1,51.7500011584162,0|0,0:0|0:0,0:0:0:0:
37,264,153709,2,0,B|59:267|59:267|87:259,1,51.7500011584162,10|0,0:0|0:0,0:0:0:0:
188,355,153896,2,0,B|170:349|170:349|143:348|143:348|130:339,1,51.7500011584162
268,328,154084,5,0,0:0:0:0:
268,328,154177,2,0,B|281:328|281:328|295:316|295:316|320:322|320:322|344:307|344:307|361:309|361:308,1,103.500002316832,0|0,0:0|0:0,0:0:0:0:
480,225,154459,1,10,0:0:0:0:
480,194,154552,1,0,0:0:0:0:
476,163,154646,1,0,0:0:0:0:
462,134,154740,1,0,0:0:0:0:
443,109,154834,6,0,L|373:98,1,51.7500011584162,4|0,0:0|0:0,0:0:0:0:
192,186,155021,2,0,L|274:170,1,51.7500011584162,0|0,0:0|0:0,0:0:0:0:
406,189,155209,6,0,L|336:178,1,51.7500011584162,10|0,0:0|0:0,0:0:0:0:
183,258,155396,2,0,L|127:273,1,51.7500011584162
36,200,155584,1,0,0:0:0:0:
43,160,155677,2,0,P|70:116|117:98,1,103.500002316832
291,100,155959,1,10,0:0:0:0:
307,94,156052,1,0,0:0:0:0:
324,86,156146,1,0,0:0:0:0:
337,77,156240,1,0,0:0:0:0:
346,58,156334,5,4,0:0:0:0:
454,320,156521,1,0,0:0:0:0:
230,186,156709,1,10,0:0:0:0:
482,199,156896,1,0,0:0:0:0:
248,337,157084,1,4,0:0:0:0:
248,337,157177,2,0,B|233:331|233:331|208:331|208:331|196:307|196:307|173:299|173:299|157:274,1,103.500002316832
306,145,157459,1,10,0:0:0:0:
306,145,157552,2,0,P|325:126|306:100,1,51.7500011584162
167,94,157834,5,4,0:0:0:0:
167,290,158021,1,0,0:0:0:0:
408,193,158209,1,10,0:0:0:0:
255,43,158396,1,0,0:0:0:0:
104,193,158584,5,0,0:0:0:0:
345,290,158771,1,0,0:0:0:0:
345,94,158959,1,10,0:0:0:0:
255,341,159146,1,0,0:0:0:0:
452,292,159334,5,4,0:0:0:0:
256,132,159521,1,0,0:0:0:0:
60,292,159709,1,10,0:0:0:0:
256,252,159896,1,0,0:0:0:0:
97,69,160084,5,0,0:0:0:0:
167,290,160271,1,0,0:0:0:0:
376,148,160459,1,10,0:0:0:0:
136,148,160646,1,0,0:0:0:0:
40,64,160834,6,0,L|104:49,1,51.7500011584162,12|0,0:0|0:0,0:0:0:0:
186,136,161021,2,0,L|136:148,1,51.7500011584162,0|0,0:0|0:0,0:0:0:0:
325,136,161209,6,0,L|376:148,1,51.7500011584162,10|0,0:0|0:0,0:0:0:0:
472,64,161396,2,0,L|421:52,1,51.7500011584162,0|0,0:0|0:0,0:0:0:0:
256,41,161584,1,12,0:0:0:0:
256,84,161677,1,0,0:0:0:0:
256,124,161771,1,0,0:0:0:0:
256,164,161865,1,0,0:0:0:0:
256,204,161959,1,10,0:0:0:0:
256,244,162052,1,0,0:0:0:0:
256,284,162146,1,0,0:0:0:0:
256,324,162240,1,0,0:0:0:0:
192,368,162334,6,0,L|132:376,1,51.7500011584162,12|0,0:0|0:0,0:0:0:0:
320,368,162521,2,0,L|371:374,1,51.7500011584162,0|0,0:0|0:0,0:0:0:0:
152,288,162709,6,0,L|100:281,1,51.7500011584162,10|0,0:0|0:0,0:0:0:0:
360,288,162896,2,0,L|411:281,1,51.7500011584162,0|0,0:0|0:0,0:0:0:0:
502,155,163084,5,12,0:0:0:0:
499,137,163177,1,0,0:0:0:0:
256,19,163365,1,0,0:0:0:0:
13,137,163552,1,0,0:0:0:0:
10,155,163645,1,0,0:0:0:0:
249,263,163834,5,14,0:0:0:0:
206,117,164021,1,0,0:0:0:0:
157,359,164209,1,14,0:0:0:0:
73,249,164396,1,0,0:0:0:0:
355,333,164584,1,4,0:0:0:0:
355,333,164677,2,0,B|379:303|378:274|378:274|376:251|376:251|394:228,1,116.999995031595,0|0,0:0|0:0,0:0:0:0:
461,109,164959,1,10,0:0:0:0:
434,71,165052,1,0,0:0:0:0:
396,42,165146,1,0,0:0:0:0:
344,35,165240,1,0,0:0:0:0:
298,48,165334,5,14,0:0:0:0:
280,96,165427,2,0,B|310:116|332:97|332:97|359:96|359:96|375:81|375:81|406:91,1,116.999995031595,0|0,0:0|0:0,0:0:0:0:
490,185,165709,2,0,B|500:217|500:217|488:267,1,58.4999975157976,10|0,0:0|0:0,0:0:0:0:
359,286,165896,2,0,B|332:295|332:295|303:291,1,58.4999975157976
291,205,166084,1,4,0:0:0:0:
291,205,166177,2,0,B|265:169|291:130|291:130|273:76,1,116.999995031595
412,156,166459,2,0,B|389:154|389:154|366:167|366:167|357:167,1,58.4999975157976,10|0,0:0|0:0,0:0:0:0:
224,258,166646,1,0,0:0:0:0:
183,280,166740,1,0,0:0:0:0:
137,292,166834,6,0,B|112:287|112:287|104:263|104:263|82:256|82:256|68:239|68:239|42:237,1,116.999995031595,14|0,0:0|0:0,0:0:0:0:
375,92,167209,2,0,B|400:97|400:97|408:121|408:121|430:128|430:128|444:145|444:145|465:146,1,116.999995031595,10|0,0:0|0:0,0:0:0:0:
284,376,167584,1,0,0:0:0:0:
284,376,167677,2,0,B|254:381|254:381|233:373|233:373|207:380|207:380|197:368|197:368|173:362,1,116.999995031595
36,318,167959,1,10,0:0:0:0:
86,303,168052,1,0,0:0:0:0:
125,267,168146,1,0,0:0:0:0:
149,220,168240,1,0,0:0:0:0:
149,170,168334,5,14,0:0:0:0:
329,8,168521,1,0,0:0:0:0:
345,221,168709,1,10,0:0:0:0:
190,36,168896,1,0,0:0:0:0:
425,86,169084,5,6,0:0:0:0:
425,86,169177,2,0,B|421:70|421:70|428:57|428:57|419:41|419:41|423:26|423:26|410:10,1,58.4999975157976,0|0,0:0|0:0,0:0:0:0:
460,183,169365,2,0,B|456:199|456:199|463:212|463:212|454:228|454:228|458:243|458:243|445:259,1,58.4999975157976
342,337,169552,2,0,B|338:321|338:321|345:308|345:308|336:292|336:292|340:277|340:277|327:261,1,58.4999975157976
292,266,169740,1,0,0:0:0:0:
249,248,169834,5,14,0:0:0:0:
69,268,170021,1,0,0:0:0:0:
180,342,170209,1,10,0:0:0:0:
170,160,170396,1,0,0:0:0:0:
342,160,170584,1,0,0:0:0:0:
342,160,170677,2,0,B|352:140|352:140|369:133|369:133|371:111|371:111|389:100|389:100|393:80|393:80|406:67,1,116.999995031595
460,203,170959,1,10,0:0:0:0:
461,249,171052,1,0,0:0:0:0:
456,295,171146,1,0,0:0:0:0:
432,335,171240,1,0,0:0:0:0:
398,367,171334,5,14,0:0:0:0:
358,379,171427,2,0,B|346:374|346:374|323:378|323:378|307:359|307:359|281:356|281:356|268:338|268:338|243:336,1,116.999995031595
180,342,171709,1,10,0:0:0:0:
48,112,171896,1,0,0:0:0:0:
294,251,172084,1,0,0:0:0:0:
294,251,172177,2,0,B|336:239|341:191|341:191|389:158,1,116.999995031595,0|0,0:0|0:0,0:0:0:0:
486,272,172459,2,0,L|425:260,1,58.4999975157976,10|0,0:0|0:0,0:0:0:0:
260,178,172646,1,0,0:0:0:0:
202,167,172740,1,0,0:0:0:0:
143,171,172834,6,0,B|113:164|113:164|105:131|67:147|48:112,1,116.999995031595,14|0,0:0|0:0,0:0:0:0:
369,171,173209,2,0,B|399:164|399:164|407:131|445:147|464:112,1,116.999995031595,10|0,0:0|0:0,0:0:0:0:
191,53,173584,1,4,0:0:0:0:
154,69,173677,2,0,B|117:63|117:63|94:22|45:28,1,116.999995031595,0|0,0:0|0:0,0:0:0:0:
217,120,173959,1,10,0:0:0:0:
256,112,174052,1,0,0:0:0:0:
296,103,174146,1,0,0:0:0:0:
336,94,174240,1,0,0:0:0:0:
372,82,174334,5,14,0:0:0:0:
484,338,174521,1,0,0:0:0:0:
287,288,174709,1,10,0:0:0:0:
506,180,174896,1,0,0:0:0:0:
292,346,175084,5,14,0:0:0:0:
292,346,175177,2,0,L|285:275,1,58.4999975157976
316,208,175365,1,0,0:0:0:0:
85,185,175552,1,0,0:0:0:0:
85,185,175646,1,0,0:0:0:0:
28,46,175834,5,14,0:0:0:0:
137,259,176021,1,0,0:0:0:0:
257,27,176209,1,0,0:0:0:0:
335,224,176396,1,0,0:0:0:0:
113,106,176584,1,0,0:0:0:0:
145,65,176677,2,0,B|157:60|157:60|180:60|180:60|198:42|198:42|225:41|225:41|240:27|240:27|266:26,1,125.999996572017
423,87,176959,1,10,0:0:0:0:
464,114,177052,1,0,0:0:0:0:
484,160,177146,1,0,0:0:0:0:
497,208,177240,1,0,0:0:0:0:
503,249,177334,5,14,0:0:0:0:
491,295,177427,2,0,B|446:303|429:285|429:285|423:255|423:255|379:248,1,125.999996572017
318,195,177709,2,0,L|307:132,1,62.9999982860087,10|0,0:0|0:0,0:0:0:0:
143,64,177896,2,0,L|153:126,1,62.9999982860087
72,30,178084,5,14,0:0:0:0:
143,64,178177,2,0,B|159:63|159:63|181:71|181:71|198:59|198:59|226:65|226:65|247:54|247:54|272:53,1,125.999996572017
364,125,178459,2,0,B|354:132|354:132|334:122|334:122|306:134,1,62.9999982860087,10|0,0:0|0:0,0:0:0:0:
225,210,178646,1,0,0:0:0:0:
176,206,178740,1,0,0:0:0:0:
125,203,178834,6,0,B|91:197|91:197|63:210|63:210|40:191|40:191|20:206|20:206|-9:205,1,125.999996572017,14|0,0:0|0:0,0:0:0:0:
294,241,179209,2,0,B|322:231|322:231|351:255|379:253|379:253|428:239,1,125.999996572017,10|0,0:0|0:0,0:0:0:0:
411,243,179584,1,0,0:0:0:0:
411,243,179677,2,0,B|393:211|393:211|374:197|374:197|374:168|360:151|360:151|326:137,1,125.999996572017
222,100,179959,1,10,0:0:0:0:
175,81,180052,1,0,0:0:0:0:
125,69,180146,1,0,0:0:0:0:
74,71,180240,1,0,0:0:0:0:
33,89,180334,5,14,0:0:0:0:
58,343,180521,1,0,0:0:0:0:
259,213,180709,1,10,0:0:0:0:
2,220,180896,1,0,0:0:0:0:
259,213,181084,5,0,0:0:0:0:
259,213,181177,2,0,L|248:130,1,62.9999982860087
399,18,181365,2,0,L|407:80,1,62.9999982860087
368,309,181552,2,0,L|316:273,1,62.9999982860087
176,197,181740,1,0,0:0:0:0:
176,197,181834,5,14,0:0:0:0:
365,174,182021,1,0,0:0:0:0:
291,355,182209,1,10,0:0:0:0:
87,327,182396,1,0,0:0:0:0:
100,144,182584,1,0,0:0:0:0:
131,112,182677,2,0,B|152:110|152:110|163:93|163:93|181:95|181:95|200:83|200:83|223:88|223:88|241:69,1,125.999996572017
335,63,182959,1,10,0:0:0:0:
383,58,183052,1,0,0:0:0:0:
431,73,183146,1,0,0:3:0:0:
472,101,183240,1,0,0:0:0:0:
487,138,183334,5,14,0:0:0:0:
454,173,183427,2,0,B|428:169|428:169|405:155|405:155|381:164|381:164|358:157|358:157|338:167|338:167|327:153,1,125.999996572017
228,237,183709,1,10,0:0:0:0:
452,368,183896,1,0,0:0:0:0:
243,356,184084,5,12,0:0:0:0:
243,356,184177,2,0,B|228:318|228:318|239:292|239:292|227:255|227:255|230:225,1,125.999996572017
94,126,184459,2,0,B|99:140|99:140|91:156|91:156|93:176|93:176|84:194,1,62.9999982860087
158,231,184646,1,0,0:0:0:0:
176,193,184740,1,0,0:0:0:0:
186,152,184834,6,0,B|189:133|189:133|179:113|179:113|189:102|189:102|185:85|185:85|189:33,1,125.999996572017,14|0,0:0|0:0,0:0:0:0:
322,350,185209,2,0,B|326:298|326:298|322:281|322:281|332:270|332:270|322:250|322:250|326:232,1,125.999996572017,10|0,0:0|0:0,0:0:0:0:
440,350,185584,1,14,0:0:0:0:
440,350,185677,2,0,B|402:354|402:354|380:345|380:345|358:355|358:355|335:344|335:344|310:355,1,125.999996572017
180,331,185959,1,10,0:0:0:0:
177,293,186052,1,0,0:0:0:0:
180,255,186146,1,0,0:0:0:0:
197,221,186240,1,0,0:0:0:0:
231,189,186334,5,14,0:0:0:0:
191,22,186521,1,0,0:0:0:0:
2,68,186709,1,10,0:0:0:0:
7,247,186896,1,0,0:0:0:0:
120,352,187084,5,0,0:0:0:0:
171,349,187177,2,0,B|185:341|185:341|188:329|188:329|204:319|204:319|208:303,1,62.9999982860087
219,190,187365,1,0,0:0:0:0:
226,140,187459,1,0,0:0:0:0:
247,91,187552,1,0,0:0:0:0:
277,52,187646,1,0,0:0:0:0:
325,32,187740,1,0,0:0:0:0:
370,25,187834,5,4,0:0:0:0:
511,311,188021,1,0,0:0:0:0:
332,187,188209,1,0,0:0:0:0:
501,88,188396,1,0,0:0:0:0:
439,276,188584,1,0,0:0:0:0:
406,313,188677,2,0,B|379:306|379:306|366:293|366:293|340:288|340:288|324:262|324:262|293:259|293:259|284:236,1,125.999996572017
169,234,188959,1,0,0:0:0:0:
139,256,189052,1,0,0:0:0:0:
104,271,189146,1,0,0:0:0:0:
66,273,189240,1,0,0:0:0:0:
29,257,189334,5,14,0:0:0:0:
8,216,189427,2,0,B|-8:188|-8:188|10:150|10:150|-7:121|-7:121|3:82,1,125.999996572017
217,75,189709,2,0,L|230:10,1,62.9999982860087,10|0,0:0|0:0,0:0:0:0:
4,26,189896,2,0,L|84:43,1,62.9999982860087
135,72,190084,5,4,0:0:0:0:
135,72,190177,2,0,B|179:69|181:51|181:51|200:43|200:43|203:20|203:20|256:8,1,125.999996572017
311,115,190459,2,0,B|289:123|289:123|281:143|281:143|256:146|256:146|240:156,1,62.9999982860087
140,177,190646,1,0,0:0:0:0:
118,204,190740,1,0,0:0:0:0:
102,233,190834,6,0,B|141:213|141:213|187:223|187:223|222:199,1,125.999996572017,12|0,0:0|0:0,0:0:0:0:
333,345,191209,2,0,B|293:325|293:325|247:335|247:335|212:311,1,125.999996572017
3,194,191584,1,0,0:0:0:0:
16,177,191677,2,0,B|49:164|85:182|85:182|143:176,1,125.999996572017
283,157,191959,1,0,0:0:0:0:
325,148,192052,1,0,0:0:0:0:
363,125,192146,1,0,0:0:0:0:
392,91,192240,1,0,0:0:0:0:
413,52,192334,5,14,0:0:0:0:
180,26,192521,1,0,0:0:0:0:
388,215,192709,1,0,0:0:0:0:
224,167,192896,1,0,0:0:0:0:
407,292,193084,5,12,0:0:0:0:
407,292,193177,2,0,B|430:285|430:285|438:267|438:267|463:260|463:260|482:246,1,62.9999982860087
509,102,193365,2,0,B|485:106|485:106|463:92|463:92|421:91,1,62.9999982860087
224,167,193552,2,0,B|248:171|248:171|270:157|270:157|307:156,1,62.9999982860087
360,143,193740,1,0,0:0:0:0:
435,159,193834,5,12,0:0:0:0:
252,1,194021,1,0,0:0:0:0:
388,215,194209,1,0,0:0:0:0:
183,294,194396,1,0,0:0:0:0:
417,338,194584,1,0,0:0:0:0:
417,338,194677,2,0,B|427:319|427:319|427:297|427:297|442:285|442:285|444:263|444:263|456:246|456:246|459:218,1,125.999996572017
409,113,194959,1,0,0:0:0:0:
392,85,195052,1,0,0:0:0:0:
368,64,195146,1,0,0:0:0:0:
340,47,195240,1,0,0:0:0:0:
297,52,195334,5,12,0:0:0:0:
258,68,195427,2,0,B|233:91|233:91|205:79|205:79|189:92|189:92|161:72|161:72|134:81,1,125.999996572017
42,70,195709,1,0,0:0:0:0:
213,162,195896,1,0,0:0:0:0:
139,300,196084,1,12,0:0:0:0:
171,272,196177,2,0,B|184:255|184:255|208:232|198:203|198:203|213:185|213:185|213:141,1,125.999996572017
326,247,196459,2,0,B|290:242|290:242|286:229|286:229|269:222,1,62.9999982860087
167,100,196646,1,0,0:0:0:0:
163,60,196740,1,0,0:0:0:0:
189,28,196834,6,0,B|219:23|219:23|238:51|312:39,1,125.999996572017,12|0,0:0|0:0,0:0:0:0:
399,201,197209,2,0,B|351:201|328:146|328:146|298:139,1,125.999996572017
404,335,197584,1,0,0:0:0:0:
445,354,197677,2,0,B|469:349|469:349|471:337|471:337|484:338|484:338|507:305|486:249,1,125.999996572017
456,120,197959,1,0,0:0:0:0:
416,100,198052,1,0,0:0:0:0:
372,93,198146,1,0,0:0:0:0:
329,105,198240,1,0,0:0:0:0:
299,140,198334,5,12,0:0:0:0:
200,352,198521,1,0,0:0:0:0:
443,307,198709,1,0,0:0:0:0:
299,140,198896,1,0,0:0:0:0:
56,263,199084,5,12,0:0:0:0:
56,263,199177,2,0,L|50:185,1,62.9999982860087
75,158,199365,1,0,0:0:0:0:
242,19,199552,1,0,0:0:0:0:
284,11,199646,1,0,0:0:0:0:
387,142,199834,5,0,0:0:0:0:
394,198,199927,1,0,0:0:0:0:
399,250,200021,1,0,0:0:0:0:
197,121,200209,1,0,0:0:0:0:
478,167,200396,1,0,0:0:0:0:
298,313,200584,1,0,0:0:0:0:
259,344,200677,2,0,B|225:335|225:335|208:312|208:312|188:315|188:315|178:301|178:301|152:285,1,125.999996572017
114,160,200959,1,0,0:0:0:0:
146,164,201052,1,0,0:0:0:0:
174,154,201146,1,0,0:0:0:0:
203,129,201240,1,0,0:0:0:0:
221,96,201334,5,12,0:0:0:0:
237,61,201427,2,0,B|204:30|157:56|157:56|106:46,1,125.999996572017
28,104,201709,2,0,L|15:166,1,62.9999982860087,10|0,0:0|0:0,0:0:0:0:
101,221,201896,2,0,L|114:159,1,62.9999982860087,10|0,0:0|0:0,0:0:0:0:
200,260,202084,5,0,0:0:0:0:
210,249,202177,1,0,0:0:0:0:
304,95,202365,1,0,0:0:0:0:
304,95,202552,1,0,0:0:0:0:
378,117,202646,2,0,L|440:109,1,62.9999982860087
457,310,202834,6,0,B|395:310|372:298|372:298|312:313,1,125.999996572017,4|0,0:0|0:0,0:0:0:0:
10,206,203209,2,0,B|72:206|95:218|95:218|155:202,1,125.999996572017
399,169,203584,1,0,0:0:0:0:
375,133,203677,2,0,B|337:133|337:133|294:115|241:134,1,125.999996572017
133,207,203959,1,0,0:0:0:0:
108,243,204052,1,0,0:0:0:0:
102,286,204146,1,0,0:0:0:0:
109,329,204240,1,0,0:0:0:0:
139,366,204334,5,12,0:0:0:0:
333,202,204521,1,0,0:0:0:0:
14,191,204709,1,0,0:0:0:0:
209,281,204896,1,0,0:0:0:0:
24,54,205084,5,12,0:0:0:0:
79,27,205177,1,0,0:0:0:0:
256,147,205365,1,0,0:0:0:0:
433,27,205552,1,0,0:0:0:0:
488,54,205646,2,0,B|487:72|487:72|475:94|475:94|474:115,1,62.9999982860087
504,182,205834,5,12,0:0:0:0:
340,90,206021,1,0,0:0:0:0:
413,339,206209,1,0,0:0:0:0:
504,182,206396,1,0,0:0:0:0:
311,340,206584,1,0,0:0:0:0:
263,355,206677,2,0,B|242:353|242:353|231:336|231:336|213:338|213:338|194:326|194:326|171:331|171:331|145:310,1,125.999996572017
77,210,206959,1,0,0:0:0:0:
65,174,207052,1,0,0:0:0:0:
66,137,207146,1,0,0:0:0:0:
83,103,207240,1,0,0:0:0:0:
119,77,207334,5,12,0:0:0:0:
158,65,207427,2,0,B|176:59|176:59|195:63|195:63|212:49|212:49|242:58|242:58|262:47|262:47|298:55,1,125.999996572017
352,92,207709,1,0,0:0:0:0:
262,240,207896,1,0,0:0:0:0:
411,337,208084,1,0,0:0:0:0:
419,366,208177,1,0,0:0:0:0:
428,144,208365,1,0,0:0:0:0:
230,304,208552,1,0,0:0:0:0:
169,340,208646,2,0,P|156:309|179:266,1,62.9999982860087
327,205,208834,6,0,B|376:199|392:153|392:153|433:144,1,125.999996572017,12|0,0:0|0:0,0:0:0:0:
147,161,209209,2,0,B|147:197|147:197|120:223|96:237|96:237|86:265,1,125.999996572017
314,354,209584,1,12,0:0:0:0:
355,361,209677,2,0,B|376:347|376:347|388:329|388:329|411:324|411:324|420:306|420:306|440:303|440:303|454:287,1,125.999996572017
428,144,209959,1,0,0:0:0:0:
412,103,210052,1,0,0:0:0:0:
391,63,210146,1,0,0:0:0:0:
354,37,210240,1,0,0:0:0:0:
312,18,210334,5,12,0:0:0:0:
60,109,210521,1,0,0:0:0:0:
290,225,210709,1,12,0:0:0:0:
25,352,210896,1,0,0:0:0:0:
177,336,211084,5,12,0:0:0:0:
177,336,211177,2,0,B|192:332|192:332|199:322|199:322|217:319|217:319|225:303|225:303|237:296,1,62.9999982860087
379,245,211365,2,0,B|405:261|405:261|449:271,1,62.9999982860087
496,133,211552,1,0,0:0:0:0:
496,133,211646,2,0,B|497:101|497:101|459:71,1,62.9999982860087
367,49,211834,5,12,0:0:0:0:
185,30,212021,1,0,0:0:0:0:
284,225,212209,1,10,0:0:0:0:
41,159,212396,1,0,0:0:0:0:
48,331,212584,1,0,0:0:0:0:
63,323,212677,2,0,B|87:314|87:314|119:322|119:322|140:346|140:346|165:340,1,107.999997061729
276,355,212959,1,10,0:0:0:0:
312,348,213052,1,0,0:0:0:0:
345,329,213146,1,0,0:0:0:0:
366,297,213240,1,0,0:0:0:0:
382,265,213334,5,12,0:0:0:0:
467,5,213521,1,0,0:0:0:0:
238,82,213709,1,10,0:0:0:0:
486,185,213896,1,0,0:0:0:0:
291,270,214084,1,0,0:0:0:0:
291,270,214177,2,0,B|273:271|273:271|260:267|260:267|247:275|247:275|228:256|228:256|205:210,1,107.999997061729
166,58,214459,1,10,0:0:0:0:
142,22,214552,1,0,0:0:0:0:
101,7,214646,1,0,0:0:0:0:
58,14,214740,1,0,0:0:0:0:
25,42,214834,5,12,0:0:0:0:
244,152,215021,1,0,0:0:0:0:
0,246,215209,1,10,0:0:0:0:
257,366,215396,1,0,0:0:0:0:
30,312,215584,1,0,0:0:0:0:
30,312,215677,2,0,B|51:304|51:304|66:288|66:288|85:285|85:285|96:274|96:274|116:274|116:274|131:260,1,107.999997061729
267,228,215959,1,10,0:0:0:0:
320,225,216052,1,0,0:0:0:0:
372,240,216146,1,0,0:0:0:0:
414,273,216240,1,0,0:0:0:0:
433,323,216334,5,12,0:0:0:0:
139,366,216521,1,0,0:0:0:0:
231,68,216709,1,10,0:0:0:0:
493,272,216896,1,0,0:0:0:0:
190,260,217084,1,10,0:0:0:0:
190,260,217177,2,0,B|191:270|186:236|186:236|167:220|167:220|165:198|165:198|146:182|146:182|142:169,1,107.999997061729
112,22,217459,1,14,0:0:0:0:
170,11,217552,1,0,0:0:0:0:
229,14,217646,1,0,0:0:0:0:
283,39,217740,1,0,0:0:0:0:
323,79,217834,6,0,L|322:147,1,58.4999975157976,12|0,0:0|0:0,0:0:0:0:
390,209,218021,2,0,L|389:267,1,58.4999975157976
222,176,218209,2,0,L|222:117,1,58.4999975157976,10|0,0:0|0:0,0:0:0:0:
298,240,218396,2,0,L|298:299,1,58.4999975157976
322,136,218584,1,0,0:0:0:0:
322,136,218677,2,0,B|334:128|334:128|339:120|339:120|353:123|353:123|361:115|361:115|396:127|435:103,1,116.999995031595
503,18,218959,1,10,0:0:0:0:
433,18,219052,1,0,0:0:0:0:
362,23,219146,1,0,0:0:0:0:
292,31,219240,1,0,0:0:0:0:
217,41,219334,6,0,L|198:110,1,58.4999975157976,12|0,0:0|0:0,0:0:0:0:
89,128,219521,2,0,L|53:202,1,58.4999975157976
171,204,219709,2,0,L|189:260,1,58.4999975157976,10|0,0:0|0:0,0:0:0:0:
238,343,219896,2,0,L|303:371,1,58.4999975157976
136,340,220084,5,0,0:0:0:0:
136,340,220177,2,0,B|120:363|120:363|104:357|104:357|93:343|93:343|81:336|81:336|73:304|73:304|54:284,1,116.999995031595
63,181,220459,1,10,0:0:0:0:
15,113,220552,1,0,0:0:0:0:
38,42,220646,1,0,0:0:0:0:
106,14,220740,1,0,0:0:0:0:
184,28,220834,6,0,L|196:85,1,58.4999975157976,12|0,0:0|0:0,0:0:0:0:
225,218,221021,2,0,L|212:160,1,58.4999975157976
266,67,221209,2,0,L|278:124,1,58.4999975157976,10|0,0:0|0:0,0:0:0:0:
309,253,221396,2,0,L|296:195,1,58.4999975157976
370,153,221584,1,0,0:0:0:0:
370,153,221677,2,0,B|364:143|364:143|351:153|351:153|328:144|328:144|312:123|312:123|293:115|293:115|258:135,1,116.999995031595
212,160,221959,1,10,0:0:0:0:
137,146,222052,1,0,0:0:0:0:
65,173,222146,1,0,0:0:0:0:
27,106,222240,1,0,0:0:0:0:
39,30,222334,6,0,L|103:16,1,58.4999975157976,12|0,0:0|0:0,0:0:0:0:
212,160,222521,2,0,L|226:224,1,58.4999975157976
442,193,222709,2,0,L|506:179,1,58.4999975157976,12|0,0:0|0:0,0:0:0:0:
395,331,222896,2,0,P|367:341|338:343,1,58.4999975157976
145,230,223084,6,0,B|137:224|137:224|128:228|128:228|120:220|120:220|110:224|110:224|103:216|103:216|94:219|94:219|74:206|65:173,1,116.999995031595,12|0,0:0|0:0,0:0:0:0:
183,302,223334,2,0,B|192:308|192:308|200:314|200:314|210:311|210:311|219:317|219:317|227:313|227:313|235:315,1,38.9999983438651
329,232,223459,2,0,B|327:215|327:215|334:198|334:198|331:177|331:177|339:159|339:159|333:137|333:137|346:118|346:118|340:96|340:96|356:76|356:76|360:58,1,175.499992547393,12|0,0:0|0:0,0:0:0:0:
256,118,223834,5,0,0:0:0:0:
256,192,223927,12,0,226834,0:0:0:0:
