osu file format v14

[General]
AudioFilename: Scarlet Rose.mp3
AudioLeadIn: 2007
PreviewTime: 127927
Countdown: 0
SampleSet: Normal
StackLeniency: 0.7
Mode: 0
LetterboxInBreaks: 0
WidescreenStoryboard: 0

[Editor]
Bookmarks: 19084,30709,54641,67084,72334,91084,103084,127084,139834,151834,163834,171334,187459,211834
DistanceSpacing: 1.4
BeatDivisor: 4
GridSize: 4
TimelineZoom: 1

[Metadata]
Title:Scarlet Rose
TitleUnicode:Scarlet Rose
Artist:seleP
ArtistUnicode:seleP
Creator:smallboat
Version:Hyper
Source:
Tags:original lilium doll 2nd album vocaloid lily yellow blue eye electric bomb music
BeatmapID:359194
BeatmapSetID:129795

[Difficulty]
HPDrainRate:5
CircleSize:4
OverallDifficulty:6
ApproachRate:8
SliderMultiplier:1.30000000596046
SliderTickRate:1

[Events]
//Background and Video events
0,0,"BG2.png",0,0
//Break Periods
//Storyboard Layer 0 (Background)
//Storyboard Layer 1 (Fail)
//Storyboard Layer 2 (Pass)
//Storyboard Layer 3 (Foreground)
//Storyboard Layer 4 (Overlay)
//Storyboard Sound Samples

[TimingPoints]
7084,375,4,2,1,75,1,0
7084,-100,4,2,1,75,0,0
7271,-100,4,1,1,75,0,0
8584,-100,4,2,1,75,0,0
8771,-100,4,1,1,75,0,0
10084,-100,4,2,1,75,0,0
10271,-100,4,1,1,75,0,0
11584,-100,4,2,1,75,0,0
11771,-100,4,1,1,75,0,0
12334,-100,4,2,1,75,0,0
12521,-100,4,1,1,75,0,0
13084,-100,4,2,1,75,0,0
13271,-100,4,2,1,75,0,0
13459,-100,4,2,1,75,0,0
13834,-100,4,2,1,75,0,0
14209,-100,4,2,1,75,0,0
14584,-100,4,2,1,75,0,0
14771,-100,4,2,1,75,0,0
16084,-100,4,2,1,75,0,0
16271,-100,4,2,1,75,0,0
16834,-100,4,2,1,75,0,0
17021,-100,4,2,1,75,0,0
17584,-100,4,2,1,75,0,0
17677,-100,4,2,1,75,0,0
18334,-100,4,2,1,75,0,0
18521,-100,4,2,1,75,0,0
19084,-76.9230769230769,4,2,1,85,0,1
19271,-76.9230769230769,4,1,1,85,0,1
19834,-76.9230769230769,4,2,1,85,0,1
20021,-76.9230769230769,4,1,1,85,0,1
20584,-76.9230769230769,4,2,1,85,0,1
20677,-76.9230769230769,4,1,1,85,0,1
21334,-76.9230769230769,4,2,1,85,0,1
21521,-76.9230769230769,4,1,1,85,0,1
22084,-76.9230769230769,4,2,1,85,0,1
22271,-76.9230769230769,4,1,1,85,0,1
22834,-76.9230769230769,4,2,1,85,0,1
23021,-76.9230769230769,4,1,1,85,0,1
23584,-76.9230769230769,4,2,1,85,0,1
23771,-76.9230769230769,4,1,1,85,0,1
24334,-76.9230769230769,4,2,1,85,0,1
24521,-76.9230769230769,4,1,1,85,0,1
25084,-76.9230769230769,4,2,1,85,0,1
25271,-76.9230769230769,4,1,1,85,0,1
25834,-76.9230769230769,4,2,1,85,0,1
26021,-76.9230769230769,4,1,1,85,0,1
26584,-76.9230769230769,4,2,1,85,0,1
26771,-76.9230769230769,4,1,1,85,0,1
27334,-76.9230769230769,4,2,1,85,0,1
27521,-76.9230769230769,4,1,1,85,0,1
28084,-76.9230769230769,4,2,1,85,0,1
28271,-76.9230769230769,4,1,1,85,0,1
28834,-76.9230769230769,4,2,1,85,0,1
29209,-76.9230769230769,4,1,1,85,0,1
29584,-76.9230769230769,4,2,1,85,0,1
29771,-76.9230769230769,4,1,1,85,0,1
30334,-76.9230769230769,4,2,1,85,0,1
31084,-100,4,2,1,85,0,0
32584,-100,4,2,1,85,0,0
32771,-100,4,2,1,75,0,0
34084,-100,4,2,1,75,0,0
34271,-100,4,2,1,75,0,0
35584,-100,4,2,1,75,0,0
35771,-100,4,2,1,75,0,0
36334,-100,4,2,1,75,0,0
36521,-100,4,2,1,75,0,0
37084,-100,4,2,1,75,0,0
37271,-100,4,2,1,75,0,0
37459,-100,4,2,1,75,0,0
38584,-100,4,2,1,75,0,0
38771,-100,4,2,1,75,0,0
40084,-100,4,2,1,75,0,0
40271,-100,4,2,1,75,0,0
41584,-100,4,2,1,75,0,0
41771,-100,4,2,1,75,0,0
42334,-100,4,2,1,75,0,0
42521,-100,4,1,1,75,0,0
43084,-100,4,2,1,75,0,0
43271,-100,4,1,1,75,0,0
44584,-100,4,2,1,75,0,0
44771,-100,4,1,1,75,0,0
46084,-100,4,2,1,75,0,0
46271,-100,4,1,1,75,0,0
47584,-100,4,2,1,75,0,0
47771,-100,4,1,1,75,0,0
48334,-100,4,2,1,75,0,0
48521,-100,4,1,1,75,0,0
49084,-100,4,2,1,75,0,0
49271,-100,4,1,1,75,0,0
49834,-100,4,2,1,75,0,0
50021,-100,4,1,1,75,0,0
50584,-100,4,2,1,75,0,0
50771,-100,4,1,1,75,0,0
51334,-100,4,2,1,75,0,0
51521,-100,4,1,1,75,0,0
52084,-100,4,2,1,75,0,0
52271,-100,4,1,1,75,0,0
52834,-100,4,2,1,75,0,0
53021,-100,4,1,1,75,0,0
53584,-100,4,2,1,75,0,0
53771,-100,4,1,1,75,0,0
54334,-100,4,2,1,75,0,0
54521,-100,4,1,1,75,0,0
54709,-100,4,2,1,75,0,0
54896,-100,4,1,1,75,0,0
55084,-100,4,2,1,75,0,0
55271,-100,4,1,1,75,0,0
56584,-100,4,2,1,75,0,0
56771,-100,4,1,1,75,0,0
57334,-100,4,2,1,75,0,0
57521,-100,4,1,1,75,0,0
58084,-100,4,2,1,75,0,0
58271,-100,4,1,1,75,0,0
59584,-100,4,2,1,75,0,0
59771,-100,4,1,1,75,0,0
60334,-100,4,2,1,75,0,0
60521,-100,4,1,1,75,0,0
61084,-100,4,2,1,75,0,0
61271,-100,4,1,1,75,0,0
61834,-100,4,2,1,75,0,0
62209,-100,4,1,1,75,0,0
62584,-100,4,2,1,75,0,0
62771,-100,4,1,1,75,0,0
64084,-100,4,2,1,75,0,0
64271,-100,4,1,1,75,0,0
64834,-100,4,2,1,75,0,0
65209,-100,4,1,1,75,0,0
67084,-76.9230769230769,4,2,1,85,0,1
67271,-76.9230769230769,4,1,1,85,0,1
68584,-76.9230769230769,4,2,1,85,0,1
68771,-76.9230769230769,4,1,1,85,0,1
69334,-76.9230769230769,4,2,1,85,0,1
69521,-76.9230769230769,4,1,1,85,0,1
70084,-76.9230769230769,4,2,1,85,0,1
70271,-76.9230769230769,4,1,1,85,0,1
71584,-76.9230769230769,4,2,1,85,0,1
71771,-76.9230769230769,4,1,1,85,0,1
72334,-76.9230769230769,4,2,1,85,0,1
72521,-76.9230769230769,4,1,1,85,0,1
72709,-76.9230769230769,4,2,1,85,0,1
72896,-76.9230769230769,4,1,1,85,0,1
73084,-76.9230769230769,4,2,1,85,0,1
73271,-76.9230769230769,4,1,1,85,0,1
74584,-76.9230769230769,4,2,1,85,0,1
74771,-76.9230769230769,4,1,1,85,0,1
76084,-76.9230769230769,4,2,1,85,0,1
76271,-76.9230769230769,4,1,1,85,0,1
76834,-76.9230769230769,4,2,1,85,0,1
77021,-76.9230769230769,4,1,1,85,0,1
77584,-76.9230769230769,4,2,1,85,0,1
77771,-76.9230769230769,4,1,1,85,0,1
77959,-76.9230769230769,4,2,1,85,0,1
78146,-76.9230769230769,4,1,1,85,0,1
78334,-76.9230769230769,4,2,1,85,0,1
78521,-76.9230769230769,4,1,1,85,0,1
79084,-76.9230769230769,4,2,1,85,0,1
79271,-76.9230769230769,4,1,1,85,0,1
80584,-76.9230769230769,4,2,1,85,0,1
80771,-76.9230769230769,4,1,1,85,0,1
81334,-76.9230769230769,4,2,1,85,0,1
81521,-76.9230769230769,4,1,1,85,0,1
82084,-76.9230769230769,4,2,1,85,0,1
82271,-76.9230769230769,4,1,1,85,0,1
83584,-76.9230769230769,4,2,1,85,0,1
83771,-76.9230769230769,4,1,1,85,0,1
84334,-76.9230769230769,4,2,1,85,0,1
84521,-76.9230769230769,4,1,1,85,0,1
85084,-76.9230769230769,4,2,1,85,0,1
85271,-76.9230769230769,4,1,1,85,0,1
86584,-76.9230769230769,4,2,1,85,0,1
86771,-76.9230769230769,4,1,1,85,0,1
88084,-76.9230769230769,4,2,1,85,0,1
88459,-76.9230769230769,4,1,1,85,0,1
88834,-76.9230769230769,4,2,1,85,0,1
89021,-76.9230769230769,4,1,1,85,0,1
89209,-76.9230769230769,4,2,1,85,0,1
89396,-76.9230769230769,4,1,1,85,0,1
89584,-76.9230769230769,4,2,1,85,0,1
89771,-76.9230769230769,4,1,1,85,0,1
90334,-76.9230769230769,4,2,1,85,0,1
90521,-76.9230769230769,4,1,1,85,0,1
91084,-100,4,2,1,75,0,0
91271,-100,4,1,1,75,0,0
92584,-100,4,2,1,75,0,0
92771,-100,4,1,1,75,0,0
94084,-100,4,2,1,75,0,0
94271,-100,4,1,1,75,0,0
95584,-100,4,2,1,75,0,0
95771,-100,4,1,1,75,0,0
96334,-100,4,2,1,75,0,0
96521,-100,4,1,1,75,0,0
97084,-100,4,2,1,75,0,0
97271,-100,4,1,1,75,0,0
97459,-100,4,1,1,75,0,0
98584,-100,4,2,1,75,0,0
98771,-100,4,1,1,75,0,0
100084,-100,4,2,1,75,0,0
100271,-100,4,1,1,75,0,0
101584,-100,4,2,1,75,0,0
101771,-100,4,1,1,75,0,0
101959,-100,4,2,1,75,0,0
102146,-100,4,1,1,75,0,0
102334,-100,4,2,1,75,0,0
102521,-100,4,1,1,75,0,0
103084,-100,4,2,1,75,0,0
108709,-100,4,2,1,75,0,0
109084,-100,4,2,1,80,0,0
127459,375,4,2,2,75,1,0
127459,-100,4,2,2,75,0,0
139459,-66.6666666666667,4,2,1,65,0,0
139834,375,4,2,1,65,1,0
139834,-100,4,2,1,65,0,0
145459,-100,4,2,1,65,0,0
151834,-100,4,2,1,75,0,0
163834,-76.9230769230769,4,2,1,85,0,1
164021,-76.9230769230769,4,1,1,85,0,1
164209,-76.9230769230769,4,2,1,85,0,1
164396,-76.9230769230769,4,1,1,85,0,1
164584,-76.9230769230769,4,2,1,85,0,1
164771,-76.9230769230769,4,1,1,85,0,1
165334,-76.9230769230769,4,2,1,85,0,1
165521,-76.9230769230769,4,1,1,85,0,1
166084,-76.9230769230769,4,2,1,85,0,1
166834,-76.9230769230769,4,2,1,85,0,1
167021,-76.9230769230769,4,1,1,85,0,1
168334,-76.9230769230769,4,2,1,85,0,1
168521,-76.9230769230769,4,1,1,85,0,1
169084,-76.9230769230769,4,2,1,85,0,1
169271,-76.9230769230769,4,1,1,85,0,1
169834,-76.9230769230769,4,2,1,85,0,1
170021,-76.9230769230769,4,1,1,85,0,1
171334,-76.9230769230769,4,2,1,85,0,1
171521,-76.9230769230769,4,1,1,85,0,1
172834,-76.9230769230769,4,2,1,85,0,1
173021,-76.9230769230769,4,1,1,85,0,1
173584,-76.9230769230769,4,2,1,85,0,1
173959,-76.9230769230769,4,1,1,85,0,1
174334,-76.9230769230769,4,2,1,85,0,1
175084,-76.9230769230769,4,2,1,85,0,1
175271,-76.9230769230769,4,2,1,85,0,1
175834,375,4,2,1,85,1,0
175834,-71.4285714285714,4,2,1,85,0,1
176021,-71.4285714285714,4,1,1,85,0,1
177334,-71.4285714285714,4,2,1,85,0,1
177521,-71.4285714285714,4,1,1,85,0,1
178084,-71.4285714285714,4,2,1,85,0,1
178271,-71.4285714285714,4,1,1,85,0,1
178834,-71.4285714285714,4,2,1,85,0,1
178927,-71.4285714285714,4,1,1,85,0,1
180334,-71.4285714285714,4,2,1,85,0,1
180521,-71.4285714285714,4,1,1,85,0,1
181084,-71.4285714285714,4,2,1,85,0,1
181177,-71.4285714285714,4,1,1,85,0,1
181459,-71.4285714285714,4,2,1,85,0,1
181646,-71.4285714285714,4,1,1,85,0,1
181834,-71.4285714285714,4,2,1,85,0,1
182209,-71.4285714285714,4,1,1,85,0,1
182584,-71.4285714285714,4,2,1,85,0,1
182959,-71.4285714285714,4,1,1,85,0,1
183334,-71.4285714285714,4,2,1,85,0,1
183521,-71.4285714285714,4,1,1,85,0,1
184084,-71.4285714285714,4,2,1,85,0,1
184271,-71.4285714285714,4,1,1,85,0,1
184834,-71.4285714285714,4,2,1,85,0,1
185021,-71.4285714285714,4,1,1,85,0,1
185584,-71.4285714285714,4,2,1,85,0,1
185959,-71.4285714285714,4,1,1,85,0,1
186334,-71.4285714285714,4,2,1,85,0,1
186709,-71.4285714285714,4,1,1,85,0,1
187459,-62.5,4,2,1,85,0,0
187834,-71.4285714285714,4,2,1,85,0,1
187927,-71.4285714285714,4,1,1,85,0,1
189334,-71.4285714285714,4,2,1,85,0,1
189521,-71.4285714285714,4,1,1,85,0,1
190834,-71.4285714285714,4,2,1,85,0,1
191021,-71.4285714285714,4,1,1,85,0,1
192334,-71.4285714285714,4,2,1,85,0,1
192521,-71.4285714285714,4,1,1,85,0,1
193084,-71.4285714285714,4,2,1,85,0,1
193271,-71.4285714285714,4,1,1,85,0,1
193459,-71.4285714285714,4,2,1,85,0,1
193646,-71.4285714285714,4,1,1,85,0,1
193834,-71.4285714285714,4,2,1,85,0,1
194021,-71.4285714285714,4,1,1,85,0,1
195334,-71.4285714285714,4,2,1,85,0,1
195521,-71.4285714285714,4,1,1,85,0,1
196834,-71.4285714285714,4,2,1,85,0,1
197021,-71.4285714285714,4,1,1,85,0,1
198334,-71.4285714285714,4,2,1,85,0,1
198521,-71.4285714285714,4,1,1,85,0,1
199084,-71.4285714285714,4,2,1,85,0,1
199271,-71.4285714285714,4,1,1,85,0,1
199459,-76.9230769230769,4,2,1,85,0,0
199834,-71.4285714285714,4,1,1,85,0,1
201334,-71.4285714285714,4,2,1,85,0,1
201521,-71.4285714285714,4,1,1,85,0,1
202834,-71.4285714285714,4,2,1,85,0,1
203021,-71.4285714285714,4,1,1,85,0,1
204334,-71.4285714285714,4,2,1,85,0,1
204521,-71.4285714285714,4,1,1,85,0,1
205084,-71.4285714285714,4,2,1,85,0,1
205271,-71.4285714285714,4,1,1,85,0,1
205459,-71.4285714285714,4,2,1,85,0,1
205552,-71.4285714285714,4,1,1,85,0,1
205834,-71.4285714285714,4,2,1,85,0,1
206021,-71.4285714285714,4,1,1,85,0,1
207334,-71.4285714285714,4,2,1,85,0,1
207521,-71.4285714285714,4,1,1,85,0,1
208834,-71.4285714285714,4,2,1,85,0,1
209021,-71.4285714285714,4,1,1,85,0,1
209584,-71.4285714285714,4,2,1,85,0,1
209771,-71.4285714285714,4,1,1,85,0,1
210334,-71.4285714285714,4,2,1,85,0,1
210521,-71.4285714285714,4,1,1,85,0,1
210709,-71.4285714285714,4,2,1,85,0,1
210896,-71.4285714285714,4,1,1,85,0,1
211084,-71.4285714285714,4,2,1,85,0,1
211271,-71.4285714285714,4,1,1,85,0,1
211459,-71.4285714285714,4,2,1,85,0,1
211646,-71.4285714285714,4,1,1,85,0,1
211834,-100,4,2,1,90,0,0
212021,-100,4,1,1,90,0,0
213334,-100,4,2,1,90,0,0
213521,-100,4,1,1,90,0,0
214834,-100,4,2,1,90,0,0
215021,-100,4,1,1,90,0,0
216334,-100,4,2,1,90,0,0
216521,-100,4,1,1,90,0,0
217459,-100,4,2,1,90,0,0
217646,-100,4,1,1,90,0,0
217834,-90.9090909090909,4,2,1,80,0,0
218021,-90.9090909090909,4,1,1,80,0,0
219334,-90.9090909090909,4,2,1,80,0,0
219521,-90.9090909090909,4,1,1,80,0,0
220834,-90.9090909090909,4,2,1,80,0,0
221021,-90.9090909090909,4,1,1,80,0,0
222334,-90.9090909090909,4,2,1,80,0,0
222521,-90.9090909090909,4,1,1,80,0,0
222709,-90.9090909090909,4,2,1,80,0,0
222896,-90.9090909090909,4,1,1,80,0,0
223084,-90.9090909090909,4,2,1,80,0,0
223177,-90.9090909090909,4,1,1,80,0,0
223459,-90.9090909090909,4,2,1,80,0,0
223552,-90.9090909090909,4,1,1,80,0,0
223834,-100,4,1,1,60,0,0
224584,-100,4,1,1,50,0,0
225334,-100,4,1,1,40,0,0
226084,-100,4,1,1,30,0,0
226834,-100,4,2,1,15,0,0

[Colours]
Combo1 : 255,206,60
Combo2 : 100,255,100
Combo3 : 70,163,255
Combo4 : 176,11,35

[HitObjects]
88,184,7084,6,0,P|148:204|210:186,1,130,14|10,0:0|0:0,0:0:0:0:
356,272,7834,2,0,P|294:253|233:273,1,130,0|10,0:0|0:0,0:0:0:0:
296,332,8396,1,0,0:0:0:0:
296,332,8584,2,0,B|288:292|288:292|304:236|304:236|296:200,1,130.000000596046,14|10,0:0|0:0,0:0:0:0:
172,320,9334,2,0,B|149:328|149:328|133:342|133:342|96:347,2,65.000000298023,0|0|10,0:0|0:0|0:0,0:0:0:0:
132,248,9896,1,0,0:0:0:0:
92,172,10084,2,0,L|144:112,1,65,14|0,0:0|0:0,0:0:0:0:
219,122,10459,2,0,L|261:171,1,65,10|0,0:0|0:0,0:0:0:0:
346,171,10834,2,0,B|376:176|376:176|408:160|408:160|432:180|432:180|480:172,1,130.000000596046,0|10,0:0|0:0,0:0:0:0:
348,52,11584,6,0,P|368:92|340:176,1,130,14|10,0:0|0:0,0:0:0:0:
166,170,12334,2,0,P|142:111|164:52,1,130,14|14,0:0|0:0,0:0:0:0:
348,52,13084,1,14,0:0:0:0:
428,76,13271,1,0,0:0:0:0:
484,140,13459,6,0,L|484:208,1,65.000000298023,8|0,0:0|0:0,0:0:0:0:
399,205,13834,2,0,L|331:205,1,65.000000298023,8|0,0:0|0:0,0:0:0:0:
274,264,14209,2,0,L|274:336,1,65.000000298023,8|0,0:0|0:0,0:0:0:0:
214,384,14584,2,0,L|122:384,1,65.000000298023,14|0,0:0|0:0,0:0:0:0:
32,292,14959,1,10,0:0:0:0:
32,292,15334,6,0,L|100:292,1,65.000000298023,0|0,0:0|0:0,0:0:0:0:
97,200,15709,2,0,L|97:119,1,65.000000298023,8|0,0:0|0:0,0:0:0:0:
161,70,16084,2,0,L|237:70,1,65.000000298023,14|0,0:0|0:0,0:0:0:0:
290,134,16459,2,0,L|290:218,1,65.000000298023,8|0,0:0|0:0,0:0:0:0:
290,134,16834,2,0,L|370:134,1,65.000000298023,14|0,0:0|0:0,0:0:0:0:
384,48,17209,2,0,L|396:8,2,32.5000001490115,10|0|0,0:0|0:0|0:0,0:0:0:0:
448,112,17584,5,14,0:0:0:0:
448,112,17677,1,0,0:0:0:0:
448,112,17771,1,0,0:0:0:0:
430,242,17959,2,0,L|504:220,1,65.000000298023,10|0,0:0|0:0,0:0:0:0:
384,344,18334,2,0,P|329:311|312:250,1,130.000000596046,14|10,0:0|0:0,0:0:0:0:
190,61,19084,6,0,P|128:42|38:90,1,168.999992263794,14|10,0:0|0:0,0:0:0:0:
112,148,19646,1,0,0:0:0:0:
107,303,19834,2,0,P|36:263|24:183,1,168.999993038654,14|10,0:0|0:0,0:0:0:0:
40,88,20396,1,0,0:0:0:0:
112,148,20584,1,14,0:0:0:0:
112,148,20677,1,0,0:0:0:0:
112,148,20771,1,0,0:0:0:0:
223,193,20959,2,0,P|264:200|305:193,1,84.499996519327,10|0,0:0|0:0,0:0:0:0:
263,100,21334,2,0,B|281:137|281:137|257:167|257:167|277:202|277:202|268:237|268:237|263:276,1,168.999993038654,14|10,0:0|0:0,0:0:0:0:
348,292,21896,1,2,0:0:0:0:
348,292,22084,6,0,L|348:383,1,84.4999961318971,14|0,0:0|0:0,0:0:0:0:
448,336,22459,2,0,L|448:251,1,84.4999961318971,10|0,0:0|0:0,0:0:0:0:
492,160,22834,1,14,0:0:0:0:
492,160,23021,1,0,0:0:0:0:
428,80,23209,1,10,0:0:0:0:
344,28,23395,1,0,0:0:0:0:
256,68,23584,6,0,B|250:92|250:92|260:123|260:123|249:168,2,84.499996519327,14|0|10,0:0|0:0|0:0,0:0:0:0:
255,68,24146,1,0,0:0:0:0:
80,68,24334,2,0,P|28:124|19:214,1,168.999992263794,14|10,0:0|0:0,0:0:0:0:
52,288,24896,1,2,0:0:0:0:
100,220,25084,6,0,P|179:197|261:232,1,168.999992263794,14|10,0:0|0:0,0:0:0:0:
224,304,25646,1,0,0:0:0:0:
164,363,25834,2,0,P|107:303|101:214,1,168.999992263794,14|10,0:0|0:0,0:0:0:0:
137,117,26396,1,0,0:0:0:0:
137,117,26490,1,0,0:0:0:0:
137,117,26584,1,14,0:0:0:0:
246,169,26771,1,0,0:0:0:0:
248,48,26959,2,0,B|283:58|283:58|306:46|306:46|332:48,1,84.499996519327,10|0,0:0|0:0,0:0:0:0:
424,92,27334,2,0,P|440:160|409:255,1,168.999992263794,14|10,0:0|0:0,0:0:0:0:
320,204,27896,1,2,0:0:0:0:
320,204,28084,6,0,L|320:112,1,84.4999961318971,14|0,0:0|0:0,0:0:0:0:
408,32,28459,2,0,L|408:120,1,84.4999961318971,10|0,0:0|0:0,0:0:0:0:
320,204,28834,1,14,0:0:0:0:
242,126,29021,1,4,0:0:0:0:
164,203,29209,1,10,0:0:0:0:
86,125,29395,1,0,0:0:0:0:
86,124,29584,6,0,B|57:154|57:154|52:196,2,84.4999961318971,14|0|14,0:0|0:0|0:0,0:0:0:0:
164,204,30146,1,0,0:0:0:0:
256,260,30334,2,0,P|312:209|320:113,1,168.999993038654,14|10,0:0|0:0,0:0:0:0:
296,36,30896,1,0,0:0:0:0:
388,56,31084,5,0,0:0:0:0:
388,56,31271,1,0,0:0:0:0:
388,56,31459,2,0,L|412:128,1,65.000000298023,10|0,0:0|0:0,0:0:0:0:
368,200,31834,2,0,B|388:204|388:204|404:220|404:220|434:230,2,65.000000298023,0|0|10,0:0|0:0|0:0,0:0:0:0:
220,284,32584,5,4,0:0:0:0:
268,352,32771,1,0,0:0:0:0:
220,284,32959,2,0,B|188:296|188:296|136:300,1,65.000000298023,10|0,0:0|0:0,0:0:0:0:
88,272,33334,2,0,B|75:274|75:274|47:250|47:250|15:246,2,65.000000298023,0|0|10,0:0|0:0|0:0,0:0:0:0:
52,108,34084,5,14,0:0:0:0:
52,108,34271,1,0,0:0:0:0:
52,108,34459,2,0,B|56:80|56:80|72:64|72:64|81:40,1,65.000000298023,10|0,0:0|0:0,0:0:0:0:
160,52,34834,2,0,B|180:52|180:52|200:36|200:36|241:33,2,65.000000298023,0|0|10,0:0|0:0|0:0,0:0:0:0:
52,192,35584,5,14,0:0:0:0:
52,192,35771,1,0,0:0:0:0:
52,192,35959,2,0,B|80:180|80:180|144:188,1,65.000000298023,10|0,0:0|0:0,0:0:0:0:
156,256,36334,2,0,B|162:275|162:275|181:289|181:289|188:310,2,65.000000298023,14|0|10,0:0|0:0|0:0,0:0:0:0:
52,108,37084,5,14,0:0:0:0:
111,48,37271,1,0,0:0:0:0:
170,107,37459,1,10,0:0:0:0:
229,47,37646,1,0,0:0:0:0:
288,106,37834,2,0,B|302:91|302:91|305:57|305:57|327:35,2,65.000000298023,0|0|10,0:0|0:0|0:0,0:0:0:0:
372,116,38396,1,0,0:0:0:0:
452,136,38584,5,14,0:0:0:0:
444,220,38771,1,0,0:0:0:0:
360,204,38959,1,10,0:0:0:0:
444,220,39146,1,0,0:0:0:0:
388,284,39334,2,0,B|394:304|394:304|386:328|386:328|392:352,2,65.000000298023,0|0|10,0:0|0:0|0:0,0:0:0:0:
304,272,39896,1,0,0:0:0:0:
308,356,40084,5,14,0:0:0:0:
232,316,40271,1,0,0:0:0:0:
160,360,40459,1,10,0:0:0:0:
96,304,40646,1,0,0:0:0:0:
56,228,40834,2,0,B|45:217|45:217|37:185|37:185|19:175,2,65.000000298023,0|0|10,0:0|0:0|0:0,0:0:0:0:
96,304,41396,1,0,0:0:0:0:
160,360,41584,5,14,0:0:0:0:
232,316,41771,1,0,0:0:0:0:
220,232,41959,1,10,0:0:0:0:
136,224,42146,1,0,0:0:0:0:
184,152,42334,2,0,B|170:140|170:140|163:115|163:115|145:103,2,65.000000298023,14|0|10,0:0|0:0|0:0,0:0:0:0:
236,76,42896,1,0,0:0:0:0:
392,160,43084,6,0,P|329:174|266:159,1,130,14|10,0:0|0:0,0:0:0:0:
112,76,43834,2,0,P|174:61|237:76,1,130,0|10,0:0|0:0,0:0:0:0:
267,159,44396,1,0,0:0:0:0:
239,239,44584,2,0,P|176:253|113:238,1,130,14|10,0:0|0:0,0:0:0:0:
73,163,45146,1,0,0:0:0:0:
142,119,45334,2,0,B|136:100|136:100|148:80|148:80|144:59,1,65.000000298023,0|0,0:0|0:0,0:0:0:0:
216,168,45709,1,10,0:0:0:0:
216,168,46084,6,0,B|256:169|256:169|278:182|278:182|318:157|318:157|342:162,1,130.000000596046,14|10,0:0|0:0,0:0:0:0:
500,104,46834,2,0,P|515:166|500:229,1,130,0|10,0:0|0:0,0:0:0:0:
440,288,47396,1,0,0:0:0:0:
380,228,47584,2,0,P|366:165|381:102,1,130,14|10,0:0|0:0,0:0:0:0:
446,22,48146,1,0,0:0:0:0:
380,103,48334,2,8,P|356:84|338:47,1,65,14|0,0:0|0:0,0:0:0:0:
380,228,48709,1,10,0:0:0:0:
380,228,49084,6,0,P|317:242|254:227,1,130,14|10,0:0|0:0,0:0:0:0:
129,65,49834,2,0,P|190:49|253:64,1,130,14|10,0:0|0:0,0:0:0:0:
316,152,50396,1,0,0:0:0:0:
254,227,50584,2,0,P|191:241|128:226,1,130,14|10,0:0|0:0,0:0:0:0:
96,144,51146,1,0,0:0:0:0:
129,65,51334,2,0,B|151:53|151:53|179:58|179:58|201:46,1,65.000000298023,14|0,0:0|0:0,0:0:0:0:
296,80,51709,1,10,0:0:0:0:
296,80,52084,6,0,P|310:143|295:206,1,130,14|10,0:0|0:0,0:0:0:0:
96,144,52834,2,0,P|158:129|221:144,1,130,14|10,0:0|0:0,0:0:0:0:
296,208,53396,1,0,0:0:0:0:
356,296,53584,2,0,P|293:310|230:295,1,130,14|10,0:0|0:0,0:0:0:0:
164,244,54146,1,0,0:0:0:0:
96,144,54334,2,0,B|92:117|92:117|100:100|100:100|96:76,1,65.000000298023,14|0,0:0|0:0,0:0:0:0:
240,20,54709,2,0,B|243:38|243:38|235:55|235:55|239:82,1,65.000000298023,14|0,0:0|0:0,0:0:0:0:
296,208,55084,6,0,B|296:224|296:224|288:244|288:244|300:264|300:264|322:281,2,65.000000298023,14|0|10,0:0|0:0|0:0,0:0:0:0:
464,216,55834,1,0,0:0:0:0:
388,64,56209,1,10,0:0:0:0:
236,140,56584,2,0,P|218:187|234:277,1,130,14|10,0:0|0:0,0:0:0:0:
380,188,57334,2,0,P|397:140|381:50,1,130,14|10,0:0|0:0,0:0:0:0:
324,8,57896,1,0,0:0:0:0:
263,66,58084,2,0,B|247:66|247:66|223:78|223:78|181:71,2,65.000000298023,14|0|10,0:0|0:0|0:0,0:0:0:0:
380,188,58834,1,0,0:0:0:0:
440,248,59021,1,0,0:0:0:0:
407,323,59209,2,0,P|377:314|344:315,1,65,10|0,0:0|0:0,0:0:0:0:
308,240,59584,6,0,P|268:288|280:368,1,130.000000596046,14|10,0:0|0:0,0:0:0:0:
344,316,60146,1,0,0:0:0:0:
344,316,60334,2,0,B|323:318|323:318|311:325|304:313|304:313|269:288|269:288|225:282,1,130.000000596046,14|10,0:0|0:0,0:0:0:0:
142,289,60896,1,0,0:0:0:0:
72,240,61084,6,0,B|48:224|48:224|44:200|44:200|24:176,2,65.000000298023,14|0|10,0:0|0:0|0:0,0:0:0:0:
200,128,61834,1,14,0:0:0:0:
142,289,62209,1,10,0:0:0:0:
296,212,62584,2,0,B|283:205|283:205|260:215|260:215|232:221|232:221|203:212|203:212|172:218|172:218|160:227,1,130.000000596046,14|10,0:0|0:0,0:0:0:0:
28,132,63334,2,0,B|42:132|42:132|58:112|58:112|80:94|80:94|110:89|110:89|135:70|135:70|142:56,1,130.000000596046,0|10,0:0|0:0,0:0:0:0:
200,128,63896,1,0,0:0:0:0:
280,100,64084,2,0,B|272:80|272:80|284:56|284:56|280:24,2,65.000000298023,14|0|10,0:0|0:0|0:0,0:0:0:0:
383,196,64834,2,0,B|388:220|388:220|379:240|379:240|387:260|384:253,1,65.000000298023,14|0,0:0|0:0,0:0:0:0:
260,252,65209,2,0,B|252:224|252:224|260:204|260:204|252:184|252:184,1,65.000000298023,10|0,0:0|0:0,0:0:0:0:
256,192,65584,12,0,66709,0:0:0:0:
128,58,67084,5,14,0:0:0:0:
43,97,67271,1,0,0:0:0:0:
6,182,67459,2,0,B|34:174|34:174|54:182|54:182|91:174|91:174,1,84.499996519327,10|0,0:0|0:0,0:0:0:0:
199,255,67834,2,0,B|202:254|165:262|165:262|145:254|145:254|117:262,1,84.499996519327,0|0,0:0|0:0,0:0:0:0:
72,328,68209,1,10,0:0:0:0:
72,328,68302,1,0,0:0:0:0:
72,327,68396,1,0,0:0:0:0:
161,353,68584,6,0,B|157:353|194:345|194:345|214:353|214:353|242:345,1,84.499996519327,14|0,0:0|0:0,0:0:0:0:
408,316,68959,2,0,B|380:308|380:308|360:316|360:316|323:308|323:308,1,84.499996519327,10|0,0:0|0:0,0:0:0:0:
449,230,69334,2,0,B|441:202|441:202|449:182|449:182|441:145|441:145,2,84.499996519327,14|0|10,0:0|0:0|0:0,0:0:0:0:
448,230,69896,1,2,0:0:0:0:
338,189,70084,6,0,B|310:197|310:197|290:189|290:189|253:197|253:197,1,84.499996519327,14|0,0:0|0:0,0:0:0:0:
257,196,70459,2,0,B|257:199|249:162|249:162|257:142|257:142|249:114,1,84.499996519327,10|0,0:0|0:0,0:0:0:0:
171,64,70834,1,0,0:0:0:0:
171,64,71021,1,0,0:0:0:0:
160,156,71209,2,0,B|159:152|167:189|167:189|159:209|159:209|167:237,1,84.499996519327,14|0,0:0|0:0,0:0:0:0:
105,305,71584,6,0,B|64:290|64:290|42:249|42:249|64:216|64:216|42:160,1,168.999993038654,14|10,0:0|0:0,0:0:0:0:
83,92,72146,1,0,0:0:0:0:
171,63,72334,2,0,B|199:55|199:55|219:63|219:63|256:55|256:55,2,84.499996519327,14|0|14,0:0|0:0|0:0,0:0:0:0:
172,63,72896,1,2,0:0:0:0:
160,155,73084,5,14,0:0:0:0:
160,155,73271,1,0,0:0:0:0:
213,231,73459,2,0,P|243:261|290:270,1,84.499996519327,10|0,0:0|0:0,0:0:0:0:
372,203,73834,2,0,P|342:173|294:163,1,84.499996519327,0|0,0:0|0:0,0:0:0:0:
213,230,74209,1,10,0:0:0:0:
213,230,74302,1,0,0:0:0:0:
213,230,74396,1,0,0:0:0:0:
360,110,74584,6,0,B|341:95|341:95|322:98|307:92|307:92|288:73,1,84.499996519327,14|0,0:0|0:0,0:0:0:0:
428,10,74959,2,0,B|435:36|435:36|445:48|463:56|463:56|475:82,1,84.499996519327,2|0,0:0|0:0,0:0:0:0:
444,192,75334,2,0,B|451:218|451:218|461:230|479:238|479:238|491:264,2,84.499996519327,0|0|10,0:0|0:0|0:0,0:0:0:0:
444,192,75896,1,2,0:0:0:0:
303,162,76084,6,0,B|312:192|312:192|300:220|300:220|303:273,1,84.499996519327,14|0,0:0|0:0,0:0:0:0:
211,311,76459,2,0,B|202:281|202:281|214:253|214:253|211:200,1,84.499996519327,10|0,0:0|0:0,0:0:0:0:
303,162,76834,5,14,0:0:0:0:
292,44,77021,1,0,0:0:0:0:
197,73,77209,2,0,B|188:103|188:103|200:131|200:131|197:184,1,84.499996519327,10|0,0:0|0:0,0:0:0:0:
302,242,77584,6,0,B|299:220|299:220|311:192|311:192|303:162,1,84.499996519327,14|0,0:0|0:0,0:0:0:0:
292,44,77959,1,10,0:0:0:0:
199,153,78146,1,0,0:0:0:0:
303,161,78334,2,0,B|325:159|325:159|353:171|353:171|383:162,2,84.499996519327,14|0|10,0:0|0:0|0:0,0:0:0:0:
302,242,78896,1,0,0:0:0:0:
414,246,79084,5,14,0:0:0:0:
462,147,79271,1,0,0:0:0:0:
375,78,79459,2,0,B|345:87|345:87|317:75|317:75|264:78,1,84.499996519327,10|0,0:0|0:0,0:0:0:0:
200,152,79834,2,0,B|179:127|179:127|180:97|180:97|170:77,1,84.499996519327,0|0,0:0|0:0,0:0:0:0:
61,47,80209,1,10,0:0:0:0:
61,47,80302,1,0,0:0:0:0:
61,47,80396,1,0,0:0:0:0:
24,150,80584,2,0,B|46:148|46:148|74:160|74:160|104:151,1,84.499996519327,14|0,0:0|0:0,0:0:0:0:
281,155,80959,2,0,B|251:164|251:164|223:152|223:152|200:153,1,84.499996519327,10|0,0:0|0:0,0:0:0:0:
282,250,81334,2,0,B|304:251|304:251|320:260|320:260|338:259|338:259|373:267,2,84.499996519327,14|0|10,0:0|0:0|0:0,0:0:0:0:
282,250,81896,1,2,0:0:0:0:
212,335,82084,6,0,B|183:335|183:335|151:324|151:324|116:335,1,84.499996519327,14|0,0:0|0:0,0:0:0:0:
131,331,82459,2,0,B|124:310|124:310|135:278|135:278|135:249,1,84.499996519327,10|0,0:0|0:0,0:0:0:0:
124,139,82834,1,0,0:0:0:0:
37,206,83021,1,0,0:0:0:0:
35,95,83209,2,0,B|35:66|35:66|46:34|46:34|35:-1,1,84.499996519327,0|0,0:0|0:0,0:0:0:0:
145,42,83584,2,0,B|165:35|165:35|197:46|197:46|226:46,1,84.499996519327,14|0,0:0|0:0,0:0:0:0:
317,109,83959,1,10,0:0:0:0:
414,60,84146,1,0,0:0:0:0:
409,170,84334,2,0,B|415:190|415:190|404:222|404:222|404:251,2,84.499996519327,4|0|0,0:0|0:0|0:0,0:0:0:0:
409,169,84896,1,2,0:0:0:0:
309,215,85084,5,14,0:0:0:0:
309,215,85271,1,0,0:0:0:0:
315,324,85459,2,0,B|294:330|294:330|262:319|262:319|233:319,1,84.499996519327,10|0,0:0|0:0,0:0:0:0:
104,339,85834,2,0,B|97:310|97:310|100:277|100:277|89:258,1,84.499996519327,0|0,0:0|0:0,0:0:0:0:
60,168,86209,1,10,0:0:0:0:
60,168,86302,1,0,0:0:0:0:
60,167,86396,1,0,0:0:0:0:
96,64,86584,2,0,B|116:57|116:57|133:70|148:68|148:68|177:68,1,84.499996519327,14|0,0:0|0:0,0:0:0:0:
236,172,86959,2,0,B|215:178|215:178|183:167|183:167|154:167,1,84.499996519327,10|0,0:0|0:0,0:0:0:0:
179,267,87334,2,0,B|187:287|187:287|171:319|171:319|174:348,2,84.499996519327,0|0|2,0:0|0:0|0:0,0:0:0:0:
179,267,87896,1,2,0:0:0:0:
316,324,88084,5,14,0:0:0:0:
348,324,88459,1,10,0:0:0:0:
376,324,88834,5,14,0:0:0:0:
460,252,89021,1,0,0:0:0:0:
356,216,89209,1,14,0:0:0:0:
356,216,89302,1,0,0:0:0:0:
357,216,89396,1,0,0:0:0:0:
440,144,89584,6,0,B|454:119|454:119|453:77|453:77|477:51,2,84.499996519327,14|0|14,0:0|0:0|0:0,0:0:0:0:
460,252,90146,1,0,0:0:0:0:
356,216,90334,2,0,P|275:197|233:126,1,168.999992263794,14|10,0:0|0:0,0:0:0:0:
234,128,90896,1,2,0:0:0:0:
148,32,91084,5,14,0:0:0:0:
64,64,91271,1,0,0:0:0:0:
20,140,91459,2,0,B|20:156|20:156|40:184|40:184|40:208,1,65.000000298023
120,288,91834,2,0,B|152:296|152:296|204:264|204:264|256:288,1,130.000000596046
392,344,92584,5,14,0:0:0:0:
460,276,92771,1,0,0:0:0:0:
456,180,92959,2,0,B|441:180|441:180|413:200|413:200|397:200,1,65.000000298023
280,212,93334,2,0,B|248:204|248:204|196:236|196:236|144:212,1,130.000000596046
36,108,94084,5,14,0:0:0:0:
120,64,94271,1,0,0:0:0:0:
216,60,94459,2,0,B|229:62|229:62|261:48|261:48|276:51,1,65.000000298023
376,104,94834,2,0,B|386:135|386:135|440:162|440:162|448:219,1,130.000000596046
340,318,95584,5,14,0:0:0:0:
244,336,95771,1,0,0:0:0:0:
152,304,95959,2,0,B|137:304|137:304|109:324|109:324|93:324,1,65.000000298023
48,220,96334,2,0,B|62:190|62:190|43:132|43:132|78:87,1,130.000000596046,14|0,0:0|0:0,0:0:0:0:
224,48,97084,5,14,0:0:0:0:
208,132,97271,2,0,B|176:120|176:120|149:87,2,65.000000298023
308,80,97834,2,0,B|336:102|336:102|394:82|394:82|423:97,1,130.000000596046
472,168,98396,1,0,0:0:0:0:
496,248,98584,5,14,0:0:0:0:
424,292,98771,2,0,B|409:261|409:261|413:219,2,65.000000298023
328,344,99334,2,0,B|299:366|299:366|241:346|241:346|212:361,1,130.000000596046
128,376,99896,1,0,0:0:0:0:
48,344,100084,5,14,0:0:0:0:
20,264,100271,2,0,B|14:230|14:230|29:190,2,65.000000298023,0|0|0,3:0|0:0|3:0,0:0:0:0:
124,232,100834,2,0,B|153:217|153:217|211:236|211:236|239:214,1,130.000000596046
300,156,101396,1,0,0:0:0:0:
340,80,101584,5,12,0:0:0:0:
256,84,101771,1,0,0:0:0:0:
300,156,101959,2,0,B|330:167|330:167|371:163,1,65.000000298023,14|0,0:0|0:0,0:0:0:0:
432,256,102334,2,0,B|423:273|423:273|391:282|391:282|380:308|380:308|338:318,1,97.5000004470345,12|0,0:0|0:0,0:0:0:0:
320,316,102709,2,0,B|305:309|305:309|280:328|280:328|236:328,1,65.000000298023
136,308,103084,6,0,P|104:290|89:262,1,65.000000298023,0|0,0:0|0:0,0:0:0:0:
64,140,103459,2,0,P|75:105|101:87,1,65.000000298023,10|0,0:0|0:0,0:0:0:0:
232,72,103834,2,0,P|257:91|289:93,1,65.000000298023
416,76,104209,2,0,L|404:128,3,32.5000001490115,10|0|0|0,0:0|0:0|0:0|0:0,0:0:0:0:
400,148,104584,2,0,P|421:170|455:179,1,65.000000298023
460,264,104959,2,0,P|431:274|409:301,1,65.000000298023,10|0,0:0|0:0,0:0:0:0:
332,264,105334,2,0,P|340:233|331:202,1,65.000000298023
252,232,105709,1,10,0:0:0:0:
252,232,106084,6,0,P|185:234|118:200,1,130.000000596046,12|10,0:0|0:0,0:0:0:0:
68,148,106646,1,0,0:0:0:0:
152,132,106834,2,0,L|174:102,3,32.5000001490115
212,124,107209,2,0,L|244:88,3,32.5000001490115,10|0|0|0,0:0|0:0|0:0|0:0,0:0:0:0:
264,128,107584,6,0,P|243:67|264:6,1,130,12|10,0:0|0:0,0:0:0:0:
444,192,108334,2,0,P|384:210|320:186,1,130,0|10,0:0|0:0,0:0:0:0:
168,260,109084,5,14,0:0:0:0:
168,260,109459,2,0,P|199:235|216:190,1,65,14|0,0:0|0:0,0:0:0:0:
316,216,109834,2,0,P|314:184|301:154,1,65.000000298023
268,76,110209,2,0,L|236:36,3,32.5000001490115,14|0|0|0,0:0|0:0|0:0|0:0,0:0:0:0:
212,32,110584,2,0,P|180:24|149:31,1,65.000000298023,14|0,0:0|0:0,0:0:0:0:
84,84,110959,1,10,0:0:0:0:
52,164,111146,1,0,0:0:0:0:
80,248,111334,2,0,P|78:279|62:307,2,65.000000298023,14|0|10,0:0|0:0|0:0,0:0:0:0:
211,297,112084,5,14,0:0:0:0:
211,297,112459,2,0,P|271:317|331:295,1,130,10|12,0:0|0:0,0:0:0:0:
224,220,113021,1,0,0:0:0:0:
224,220,113209,2,0,B|243:212|243:212|255:189|255:189|280:176,1,65.000000298023,14|0,0:0|0:0,0:0:0:0:
331,296,113584,6,0,B|335:318|335:318|326:342|326:342|331:361,1,65.000000298023,12|0,0:0|0:0,0:0:0:0:
459,220,113959,2,0,B|454:203|454:203|463:179|463:179|459:157,1,65.000000298023,14|0,0:0|0:0,0:0:0:0:
331,32,114334,2,0,B|335:54|335:54|326:78|326:78|331:97,1,65.000000298023,12|0,0:0|0:0,0:0:0:0:
224,220,114709,2,0,B|220:198|220:198|229:174|229:174|224:155,1,65.000000298023,12|0,0:0|0:0,0:0:0:0:
104,228,115084,6,0,B|121:244|121:244|140:249|140:249|171:269,1,65.000000298023,14|0,0:0|0:0,0:0:0:0:
172,344,115459,2,0,B|128:356|128:356|84:332|84:332|36:344,1,130.000000596046,10|0,0:0|0:0,0:0:0:0:
20,260,116021,1,0,0:0:0:0:
104,228,116209,1,10,0:0:0:0:
40,172,116396,1,0,0:0:0:0:
96,108,116584,2,0,P|159:109|213:74,1,130,12|10,0:0|0:0,0:0:0:0:
360,144,117334,2,0,P|364:216|420:276,1,130,12|10,0:0|0:0,0:0:0:0:
491,259,117896,1,0,0:0:0:0:
444,188,118084,6,0,B|420:185|420:185|401:197|401:197|350:185|350:185|331:200|331:200|298:195,1,130.000000596046,14|10,0:0|0:0,0:0:0:0:
184,84,118834,1,12,0:0:0:0:
183,84,119021,2,0,B|182:54|182:54|203:0,2,65.000000298023,0|10|0,0:0|0:0|0:0,0:0:0:0:
239,148,119584,6,0,B|256:164|256:164|279:166|279:166|313:203|313:203|340:203|340:203|363:216,1,130.000000596046,14|10,0:0|0:0,0:0:0:0:
413,51,120334,2,0,B|394:36|394:36|371:37|371:37|333:4|333:4|306:6|306:6|282:-3,1,130.000000596046,14|10,0:0|0:0,0:0:0:0:
239,147,121084,6,0,B|248:169|248:169|244:186|244:186|253:209,1,65.000000298023,14|0,0:0|0:0,0:0:0:0:
398,263,121459,2,0,B|356:261|356:261|335:295|335:295|272:277,1,130.000000596046,0|14,0:0|0:0,0:0:0:0:
254,209,122021,1,0,0:0:0:0:
171,191,122209,1,10,0:0:0:0:
102,140,122396,1,0,0:0:0:0:
136,48,122584,2,0,P|72:46|19:82,1,130,14|10,0:0|0:0,0:0:0:0:
74,301,123334,2,0,P|137:302|190:266,1,130,14|10,0:0|0:0,0:0:0:0:
254,209,123896,1,0,0:0:0:0:
317,265,124084,6,0,P|370:301|434:301,1,130,14|10,0:0|0:0,0:0:0:0:
332,186,124834,1,14,0:0:0:0:
254,209,125021,1,0,0:0:0:0:
254,209,125209,2,0,B|250:185|250:185|262:157|262:157|259:147,1,65.000000298023,10|0,0:0|0:0,0:0:0:0:
256,192,125584,12,14,127084,0:0:0:0:
56,92,127459,5,14,0:0:0:0:
125,56,127646,1,0,0:0:0:0:
202,41,127834,2,0,B|231:48|231:48|247:63|247:63|271:54|271:54|320:57,1,97.5000004470345,2|0,0:0|0:0,0:0:0:0:
329,59,128209,1,2,0:0:0:0:
346,152,128396,2,0,B|365:155|365:155|388:142|388:142|406:155|406:155|435:157,1,97.5000004470345,2|0,0:0|0:0,0:0:0:0:
469,178,128771,1,2,0:0:0:0:
428,245,128959,5,14,0:0:0:0:
369,300,129146,1,0,0:0:0:0:
275,345,129334,2,0,B|266:319|266:319|259:294|270:271|270:271|262:241,1,97.5000004470345,2|0,0:0|0:0,0:0:0:0:
282,216,129709,2,0,L|328:201,2,32.5000001490115,14|0|0,0:0|0:0|0:0,0:0:0:0:
263,110,130084,2,0,L|225:124,2,32.5000001490115,8|0|2,0:0|0:0|0:0,0:0:0:0:
340,76,130459,5,14,0:0:0:0:
276,32,130646,1,0,0:0:0:0:
200,20,130834,2,0,B|179:22|179:22|148:16|134:43|134:43|92:60,1,97.5000004470345,10|0,0:0|0:0,0:0:0:0:
85,79,131209,1,10,0:0:0:0:
109,173,131396,2,0,B|100:192|100:192|96:223|66:228|66:228|37:263,1,97.5000004470345,2|0,0:0|0:0,0:0:0:0:
26,275,131771,1,2,0:0:0:0:
43,352,131959,5,14,0:0:0:0:
116,324,132146,1,0,0:0:0:0:
180,280,132334,2,0,B|175:251|175:251|180:231|202:214|202:214|209:188,1,97.5000004470345,10|0,0:0|0:0,0:0:0:0:
240,184,132709,2,0,L|288:168,2,32.5000001490115,14|0|0,0:0|0:0|0:0,0:0:0:0:
300,273,133084,2,0,L|348:252,2,32.5000001490115,8|0|2,0:0|0:0|0:0,0:0:0:0:
240,328,133459,5,14,0:0:0:0:
315,352,133646,1,0,0:0:0:0:
392,336,133834,2,0,B|409:328|409:328|414:304|414:304|427:303|429:271|429:271|446:260|446:260|455:242,1,97.5000004470345,10|0,0:0|0:0,0:0:0:0:
456,226,134209,1,10,0:0:0:0:
462,130,134396,2,0,B|448:116|448:116|424:120|424:120|418:109|388:118|388:118|371:106|371:106|351:104,1,97.5000004470345,2|0,0:0|0:0,0:0:0:0:
348,84,134771,1,2,0:0:0:0:
368,12,134959,5,4,0:0:0:0:
424,64,135146,1,0,0:0:0:0:
348,84,135334,2,0,B|333:88|333:88|314:81|314:81|298:92|278:83|278:83|259:85|259:85|233:69,1,97.5000004470345,10|0,0:0|0:0,0:0:0:0:
216,82,135709,1,10,0:0:0:0:
98,95,135896,2,0,B|93:109|93:109|77:121|77:121|76:140|57:151|57:151|48:168|48:168|20:180,1,97.5000004470345,2|0,0:0|0:0,0:0:0:0:
31,207,136271,1,2,0:0:0:0:
80,276,136459,5,6,0:0:0:0:
160,316,136646,1,2,0:0:0:0:
160,316,136740,1,0,0:0:0:0:
160,316,136834,2,0,L|203:267,1,65.000000298023,10|0,0:0|0:0,0:0:0:0:
432,276,137209,5,6,0:0:0:0:
352,316,137396,1,2,0:0:0:0:
352,316,137490,1,0,0:0:0:0:
352,316,137584,2,0,L|308:267,1,65.000000298023,10|0,0:0|0:0,0:0:0:0:
256,188,137959,6,0,L|256:108,1,65.000000298023,6|0,0:0|0:0,0:0:0:0:
224,36,138334,2,0,L|296:36,1,65.000000298023,14|0,0:0|0:0,0:0:0:0:
376,4,138709,2,0,L|376:100,1,65.000000298023,4|0,0:0|0:0,0:0:0:0:
344,156,139084,2,0,L|420:156,1,65.000000298023,14|0,0:0|0:0,0:0:0:0:
354,318,139459,6,0,B|331:288|331:288|317:288|317:288|302:282|302:282|268:290,1,97.5000041663645,0|0,0:3|0:0,0:3:0:0:
188,329,139834,6,0,L|198:369,2,32.5000001490115,14|0|0,0:0|0:0|0:0,0:0:0:0:
200,233,140209,2,0,P|167:244|136:288,1,65.000000298023,10|0,0:0|0:0,0:0:0:0:
71,304,140584,2,0,L|27:317,2,32.5000001490115
75,215,140959,2,0,P|74:182|87:153,1,65.000000298023,10|0,0:0|0:3,0:0:0:0:
71,304,141334,6,0,P|127:338|191:328,1,130.000000596046,0|10,0:0|0:0,0:0:0:0:
340,216,142084,2,0,P|335:149|291:102,1,130.000000596046,0|10,0:0|0:0,0:0:0:0:
295,105,142646,1,0,0:0:0:0:
212,48,142834,6,0,L|124:48,1,65,4|0,0:0|0:0,0:0:0:0:
75,150,143209,2,0,L|75:214,1,65,10|0,0:0|0:0,0:0:0:0:
183,295,143584,2,0,P|239:267|267:209,1,130,0|10,0:0|0:0,0:0:0:0:
267,209,144334,6,0,P|329:195|369:145,1,130,4|10,0:0|0:0,0:0:0:0:
212,47,145084,2,0,B|192:48|192:48|165:40|165:40|125:55,1,65.000000298023,6|0,0:0|0:0,0:0:0:0:
72,151,145459,2,0,B|92:150|92:150|119:158|119:158|159:143,1,65.000000298023,14|0,0:0|0:0,0:0:0:0:
202,262,145834,6,0,B|199:279|199:279|202:305,2,32.5000001490115,14|0|0,0:0|0:0|0:0,0:0:0:0:
267,208,146209,2,0,P|300:212|340:248,1,65.000000298023,10|0,0:0|0:0,0:0:0:0:
366,304,146584,2,0,L|367:350,2,32.5000001490115
406,228,146959,2,0,P|433:210|465:207,1,65.000000298023,10|0,0:0|0:0,0:0:0:0:
430,76,147334,5,4,0:0:0:0:
430,76,147521,1,0,0:0:0:0:
362,36,147709,2,0,P|328:26|274:39,1,65.000000298023,10|0,0:0|0:0,0:0:0:0:
236,82,148084,2,0,L|258:133,2,32.5000001490115
152,69,148459,1,10,0:0:0:0:
152,69,148646,1,0,0:0:0:0:
11,155,148834,5,4,0:0:0:0:
27,237,149021,1,0,0:0:0:0:
78,304,149209,2,0,L|154:257,1,65.000000298023,10|0,0:0|0:0,0:0:0:0:
236,147,149584,2,0,L|236:82,1,65.000000298023,4|0,0:0|0:0,0:0:0:0:
324,64,149959,1,10,0:0:0:0:
324,64,150334,6,0,L|388:64,1,65,4|0,0:0|0:0,0:0:0:0:
476,148,150709,2,0,L|476:224,1,65,14|0,0:0|0:0,0:0:0:0:
388,300,151084,2,0,L|298:300,1,65,4|0,0:0|0:0,0:0:0:0:
236,212,151459,2,0,L|236:132,1,65,14|0,0:0|0:0,0:0:0:0:
172,56,151834,5,12,0:0:0:0:
40,183,152209,1,10,0:0:0:0:
118,332,152584,1,0,0:0:0:0:
236,212,152959,1,10,0:0:0:0:
324,64,153334,5,12,0:0:0:0:
324,64,153521,1,0,0:0:0:0:
324,64,153709,2,0,B|386:76|386:76|426:105|426:105|448:88,1,130.000000596046,10|0,0:0|0:0,0:0:0:0:
508,148,154271,1,0,0:0:0:0:
436,184,154459,2,0,L|448:252,1,65,10|0,0:0|0:0,0:0:0:0:
393,335,154834,5,4,0:0:0:0:
244,232,155209,1,10,0:0:0:0:
93,334,155584,1,0,0:0:0:0:
244,232,155959,1,10,0:0:0:0:
93,123,156334,5,4,0:0:0:0:
166,69,156521,1,0,0:0:0:0:
166,69,156615,1,0,0:0:0:0:
166,69,156709,2,0,L|251:26,1,65.000000298023,10|0,0:0|0:0,0:0:0:0:
355,75,157084,2,0,L|273:116,1,65.000000298023,4|0,0:0|0:0,0:0:0:0:
244,231,157459,2,0,L|306:200,1,65.000000298023,10|0,0:0|0:0,0:0:0:0:
256,332,157834,6,0,L|191:364,1,65.000000298023,4|0,0:0|0:0,0:0:0:0:
103,305,158209,1,10,0:0:0:0:
30,213,158396,1,0,0:0:0:0:
146,197,158584,1,0,0:0:0:0:
127,312,158771,1,0,0:0:0:0:
32,243,158959,1,10,0:0:0:0:
84,138,159146,1,0,0:0:0:0:
205,68,159334,6,0,L|277:68,1,65,4|0,0:0|0:0,0:0:0:0:
423,124,159709,2,0,L|359:124,1,65,10|0,0:0|0:0,0:0:0:0:
274,165,160084,1,0,0:0:0:0:
490,161,160271,1,0,0:0:0:0:
354,221,160459,2,0,B|343:245|343:245|342:273|342:273|320:301,1,65.000000298023,10|0,0:0|0:0,0:0:0:0:
240,348,160834,6,0,P|184:368|116:344,1,130,12|10,0:0|0:0,0:0:0:0:
77,258,161396,1,0,0:0:0:0:
16,84,161584,6,0,P|71:62|140:83,1,130,12|10,0:0|0:0,0:0:0:0:
219,133,162146,1,0,0:0:0:0:
354,221,162334,6,0,P|374:277|350:345,1,130,12|10,0:0|0:0,0:0:0:0:
261,377,162896,1,0,0:0:0:0:
122,341,163084,6,0,P|100:281|121:221,1,130,12|10,0:0|0:0,0:0:0:0:
219,134,163646,1,0,0:0:0:0:
354,221,163834,5,14,0:0:0:0:
260,305,164021,1,0,0:0:0:0:
122,341,164209,2,0,B|94:342|94:342|73:330|73:330|38:341,1,84.499996519327,14|0,0:0|0:0,0:0:0:0:
41,212,164584,2,0,B|70:225|70:225|92:216|92:216|120:220,1,84.499996519327,4|0,0:0|0:0,0:0:0:0:
219,134,164959,1,10,0:0:0:0:
219,134,165052,1,0,0:0:0:0:
219,134,165146,1,0,0:0:0:0:
311,60,165334,6,0,B|343:62|343:62|359:52|359:52|396:60,1,84.499996519327,14|0,0:0|0:0,0:0:0:0:
473,157,165709,2,0,B|440:164|440:164|424:154|424:154|392:156,1,84.499996519327,10|0,0:0|0:0,0:0:0:0:
311,60,166084,2,0,B|278:67|278:67|262:57|262:57|230:59,2,84.499996519327,4|0|10,0:0|0:0|0:0,0:0:0:0:
288,175,166646,1,0,0:0:0:0:
284,285,166834,5,14,0:0:0:0:
177,312,167021,1,0,0:0:0:0:
114,221,167209,2,0,B|94:192|94:192|77:188|77:188|39:148,1,84.499996519327,10|0,0:0|0:0,0:0:0:0:
125,60,167584,2,0,B|145:89|145:89|162:93|162:93|200:133,1,84.499996519327,0|0,0:0|0:0,0:0:0:0:
288,175,167959,1,10,0:0:0:0:
288,175,168052,1,0,0:0:0:0:
288,175,168146,1,0,0:0:0:0:
396,156,168334,6,0,B|406:192|392:216|392:216|396:248,1,84.499996519327,14|0,0:0|0:0,0:0:0:0:
490,362,168709,2,0,B|500:326|486:302|486:302|490:270,1,84.499996519327,10|0,0:0|0:0,0:0:0:0:
395,239,169084,2,0,B|392:261|392:261|406:285|396:321,2,84.499996519327,6|0|0,0:0|0:0|0:0,0:0:0:0:
288,175,169646,1,0,0:0:0:0:
186,267,169834,6,0,B|214:285|214:285|233:279|233:279|265:305,1,84.499996519327,14|0,0:0|0:0,0:0:0:0:
288,174,170209,2,0,B|259:155|259:155|240:161|240:161|208:135,1,84.499996519327,10|0,0:0|0:0,0:0:0:0:
135,102,170584,2,0,P|57:123|29:203,1,168.999993038654,0|10,0:0|0:0,0:0:0:0:
112,184,171146,1,0,0:0:0:0:
112,184,171240,1,0,0:0:0:0:
112,184,171334,6,0,P|112:140|228:91,1,168.999992263794,14|10,0:0|0:0,0:0:0:0:
344,136,171896,1,0,0:0:0:0:
332,277,172084,2,0,P|291:271|259:243,1,84.4999961318971,0|0,0:0|0:0,0:0:0:0:
442,277,172459,2,0,P|483:270|514:243,1,84.4999961318971,10|0,0:0|0:0,0:0:0:0:
465,85,172834,6,0,B|448:113|448:113|450:136|450:136|437:164,1,84.499996519327,14|0,0:0|0:0,0:0:0:0:
344,136,173209,1,10,0:0:0:0:
282,47,173396,1,0,0:0:0:0:
160,47,173584,5,4,0:0:0:0:
86,134,173771,1,4,0:0:0:0:
147,243,173959,1,10,0:0:0:0:
288,244,174146,1,0,0:0:0:0:
344,136,174334,5,14,0:0:0:0:
282,47,174521,1,0,0:0:0:0:
220,152,174709,1,10,0:0:0:0:
288,244,174896,1,0,0:0:0:0:
484,288,175084,2,0,L|455:209,1,84.4999961318971,14|0,0:0|0:0,0:0:0:0:
344,136,175459,2,0,L|375:215,1,84.4999961318971,10|0,0:0|0:0,0:0:0:0:
283,47,175834,6,0,B|254:42|254:42|239:49|239:49|223:48|223:48|197:69,1,90.9999976401327,14|0,0:0|0:0,0:0:0:0:
220,152,176209,1,0,0:0:0:0:
288,244,176396,1,0,0:0:0:0:
176,280,176584,1,0,0:0:0:0:
176,280,176677,1,0,0:0:0:0:
176,280,176771,1,0,0:0:0:0:
82,316,176959,2,0,B|79:283|79:283|53:276|53:276|52:254|52:254|48:245,1,90.9999976401327,10|0,0:0|0:0,0:0:0:0:
37,118,177334,6,0,B|41:89|41:89|34:74|34:74|47:56|47:56|60:22,2,90.9999976401327,14|0|10,0:0|0:0|0:0,0:0:0:0:
134,138,177896,1,0,0:0:0:0:
202,209,178084,2,0,B|225:199|225:199|244:197|244:197|250:180|250:180|274:165,2,90.9999976401327,14|0|10,0:0|0:0|0:0,0:0:0:0:
119,269,178646,1,0,0:0:0:0:
28,220,178834,5,14,0:0:0:0:
28,220,178927,1,0,0:0:0:0:
28,220,179021,1,0,0:0:0:0:
37,118,179209,2,0,B|48:109|48:109|56:94|56:94|74:89|83:71|83:71|96:64|96:64|104:54,1,90.9999976401327,10|0,0:0|0:0,0:0:0:0:
252,124,179584,2,0,P|248:160|222:210,1,90.9999972229005
208,44,179959,2,0,L|300:44,1,90.9999972229005,10|0,0:0|0:0,0:0:0:0:
442,127,180334,2,0,P|446:163|472:213,1,90.9999972229005,14|0,0:0|0:0,0:0:0:0:
485,44,180709,2,0,L|393:44,1,90.9999972229005,10|0,0:0|0:0,0:0:0:0:
350,124,181084,1,0,0:0:0:0:
350,124,181177,1,0,0:0:0:0:
350,124,181271,1,0,0:0:0:0:
237,218,181459,2,0,P|194:229|150:217,1,90.9999972229005,14|0,0:0|0:0,0:0:0:0:
107,69,181834,6,0,P|193:42|276:74,1,181.999994445801,14|10,0:0|0:0,0:0:0:0:
350,124,182396,1,0,0:0:0:0:
364,220,182584,1,0,0:0:0:0:
309,301,182771,1,0,0:0:0:0:
212,340,182959,2,0,P|170:356|128:345,1,90.9999972229005,10|0,0:0|0:3,0:0:0:0:
48,276,183334,5,14,0:0:0:0:
64,136,183521,1,0,0:0:0:0:
156,212,183709,1,10,0:0:0:0:
260,152,183896,1,0,0:0:0:0:
364,220,184084,1,12,0:0:0:0:
460,176,184271,1,0,3:0:0:0:
460,176,184365,1,0,3:0:0:0:
460,176,184459,2,0,B|455:154|455:154|441:138|423:132|423:132|413:116|413:116|392:112,1,90.9999976401327,0|0,0:0|0:0,3:0:0:0:
304,52,184834,6,0,B|312:40|312:40|329:40|329:40|340:25|359:31|359:31|372:21|372:21|405:23,2,90.9999976401327,14|0|10,0:0|0:0|0:0,0:0:0:0:
260,152,185396,1,0,0:0:0:0:
204,248,185584,2,0,B|211:259|211:259|204:274|204:274|213:291|199:306|199:306|204:322|204:322|189:352,2,90.9999976401327,14|0|10,0:0|0:0|0:0,0:0:0:0:
100,208,186146,1,0,0:0:0:0:
21,117,186334,5,14,0:0:0:0:
53,17,186521,1,0,0:0:0:0:
21,117,186709,6,0,P|77:117|158:22,1,181.999994445801,10|0,0:0|0:0,0:0:0:0:
52,16,187459,6,0,P|77:88|148:114,1,156.000000715255,0|10,0:0|0:0,0:0:0:0:
192,104,187834,6,0,B|203:94|203:94|217:98|217:98|231:86|248:89|248:89|257:79|257:79|288:84,2,90.9999976401327,4|0|0,0:0|0:0|0:0,0:0:0:0:
184,194,188396,1,0,0:0:0:0:
145,289,188584,2,0,B|130:286|130:286|121:296|121:296|104:293|90:305|90:305|76:301|76:301|65:311,1,90.9999976401327
8,225,188959,2,0,B|22:227|22:227|31:217|31:217|48:220|62:208|62:208|76:212|76:212|87:202,1,90.9999976401327
184,194,189334,1,14,0:0:0:0:
244,261,189521,1,0,0:0:0:0:
304,192,189709,1,10,0:0:0:0:
244,123,189896,1,0,0:0:0:0:
306,56,190084,2,0,B|317:46|317:46|331:50|331:50|345:38|362:41|362:41|371:31|371:31|402:36,2,90.9999976401327,4|0|0,0:0|0:0|0:0,0:0:0:0:
244,123,190646,1,0,0:0:0:0:
304,192,190834,6,0,B|345:184|359:151|359:151|388:144,2,90.9999976401327,12|0|0,0:0|0:0|0:0,0:0:0:0:
244,261,191396,1,0,0:0:0:0:
184,193,191584,2,0,B|143:185|129:152|129:152|100:145,1,90.9999976401327
19,153,191959,2,0,B|35:162|35:162|40:198|77:217,1,90.9999976401327,0|0,0:0|0:0,0:0:0:0:
153,267,192334,1,14,0:0:0:0:
244,261,192521,1,0,0:0:0:0:
334,269,192709,1,0,0:0:0:0:
244,123,192896,1,0,0:0:0:0:
411,217,193084,2,0,B|448:198|453:162|453:162|470:153,2,90.9999976401327,12|0|12,0:0|0:0|0:0,0:0:0:0:
366,138,193646,1,0,0:0:0:0:
308,72,193834,6,0,B|332:53|332:53|360:46|360:46|404:57,2,90.9999976401327,12|0|0,0:0|0:0|0:0,0:0:0:0:
298,187,194396,1,0,0:0:0:0:
222,232,194584,2,0,B|199:252|199:252|171:260|171:260|126:252,1,90.9999976401327
59,212,194959,2,0,B|40:187|40:187|34:159|34:159|45:114,1,90.9999976401327
118,79,195334,1,12,0:0:0:0:
180,146,195521,1,0,0:0:0:0:
119,79,195709,1,0,0:0:0:0:
181,146,195896,1,0,0:0:0:0:
210,60,196084,2,0,B|233:40|233:40|261:32|261:32|306:40,2,90.9999976401327,12|0|0,0:0|0:0|0:0,0:0:0:0:
269,129,196646,1,0,0:0:0:0:
235,213,196834,6,0,P|247:265|275:297,2,90.9999976401327,12|0|0,0:0|0:0|0:0,0:0:0:0:
269,128,197396,1,0,0:0:0:0:
269,129,197584,2,0,P|317:129|361:157,1,90.9999976401327
478,289,197959,2,0,B|437:265|437:265|419:225,1,90.9999976401327
446,140,198334,1,12,0:0:0:0:
392,66,198521,1,0,0:0:0:0:
354,150,198709,1,0,0:0:0:0:
269,129,198896,1,0,0:0:0:0:
235,213,199084,2,0,B|245:239|245:239|234:273|234:273|243:317,2,90.9999976401327,12|0|12,0:0|0:0|0:0,0:0:0:0:
183,146,199646,1,0,0:0:0:0:
35,189,199834,6,0,L|35:293,1,90.9999976401327
128,372,200209,2,0,L|128:252,1,90.9999976401327
235,213,200584,2,0,L|235:317,1,90.9999976401327
336,372,200959,1,0,0:0:0:0:
388,264,201146,1,0,0:0:0:0:
388,264,201240,1,0,0:0:0:0:
388,264,201334,2,0,B|492:228,1,90.9999976401327,12|0,0:0|0:0,0:0:0:0:
482,96,201709,6,0,P|415:102|356:135,1,136.499996460199,10|0,0:0|0:0,0:0:0:0:
306,156,202084,2,0,P|226:128|202:68,1,136.499996460199
189,37,202459,2,0,L|129:13,2,45.4999988200663
294,66,202834,6,0,L|308:169,1,90.9999976401327,4|0,0:0|0:0,0:0:0:0:
323,341,203209,2,0,L|306:219,1,90.9999976401327
211,120,203584,2,0,L|226:230,1,90.9999976401327
236,320,203959,1,0,0:0:0:0:
136,276,204146,1,0,0:0:0:0:
136,276,204240,1,0,0:0:0:0:
136,276,204334,2,0,B|119:174,1,90.9999976401327,12|0,0:0|0:0,0:0:0:0:
83,79,204709,2,0,P|150:85|209:118,1,136.499996460199
210,119,205084,2,0,L|309:109,1,90.9999976401327,12|0,0:0|0:0,0:0:0:0:
382,16,205459,2,0,L|446:4,2,45.4999988200663,12|0|0,0:0|0:0|0:0,0:0:0:0:
276,45,205834,5,12,0:0:0:0:
382,16,206021,1,0,0:0:0:0:
465,87,206209,2,0,B|466:90|466:90|462:107|462:107|470:128|462:142|462:142|468:160|468:160|464:174,1,90.9999976401327
409,273,206584,5,0,0:0:0:0:
325,356,206771,1,0,0:0:0:0:
241,272,206959,2,0,B|245:258|245:258|239:240|239:240|247:226|239:205|239:205|243:188|243:188|235:174,1,90.9999976401327
138,260,207334,2,0,B|139:263|139:263|135:280|135:280|143:301|135:315|135:315|141:333|141:333|137:347,1,90.9999976401327,12|0,0:0|0:0,0:0:0:0:
32,276,207709,2,0,B|36:262|36:262|30:244|30:244|38:230|30:209|30:209|34:192|34:192|26:178,1,90.9999976401327
138,134,208084,2,0,B|142:120|142:120|136:102|136:102|144:88|136:67|136:67|140:50|140:50|138:46,2,90.9999976401327
263,106,208646,1,0,0:0:0:0:
438,106,208834,6,0,P|459:182|431:285,1,181.999995280265,12|0,0:0|0:0,0:0:0:0:
351,306,209396,1,0,0:0:0:0:
268,280,209584,2,0,P|243:193|264:105,1,181.999995280265,12|0,0:0|0:0,0:0:0:0:
351,74,210146,1,0,0:0:0:0:
439,106,210334,1,12,0:0:0:0:
359,169,210521,1,0,0:0:0:0:
243,187,210709,2,0,B|216:187|216:187|180:205|180:205|145:207,1,90.9999976401327,12|0,0:0|0:0,0:0:0:0:
80,264,211084,1,12,0:0:0:0:
8,212,211271,1,0,0:0:0:0:
68,148,211459,2,0,B|81:127|81:127|88:88|88:88|104:66,1,90.9999976401327,12|0,0:0|0:0,0:0:0:0:
208,24,211834,5,12,0:0:0:0:
288,48,212021,1,0,0:0:0:0:
351,104,212209,2,0,L|359:168,1,65.000000298023,10|0,0:0|0:0,0:0:0:0:
446,193,212584,1,0,0:0:0:0:
446,193,212771,1,0,0:0:0:0:
446,193,212959,2,0,L|438:128,1,65,10|0,0:0|0:0,0:0:0:0:
380,252,213334,5,12,0:0:0:0:
380,252,213521,1,0,0:0:0:0:
380,252,213709,2,0,L|292:252,1,65,10|0,0:0|0:0,0:0:0:0:
235,294,214084,1,0,0:0:0:0:
144,288,214271,1,0,0:0:0:0:
112,204,214459,2,0,L|112:128,1,65,10|0,0:0|0:0,0:0:0:0:
256,80,214834,5,12,0:0:0:0:
256,80,215021,1,0,0:0:0:0:
256,80,215209,2,0,L|256:156,1,65,10|0,0:0|0:0,0:0:0:0:
380,255,215584,2,0,P|412:263|444:255,1,65,0|0,0:0|0:0,0:0:0:0:
410,105,215959,2,0,L|410:173,1,65,10|0,0:0|0:0,0:0:0:0:
312,184,216334,5,12,0:0:0:0:
312,184,216521,1,0,0:0:0:0:
312,184,216709,2,0,B|299:190|299:190|280:195|267:212|267:212|244:216,1,65.000000298023,10|0,0:0|0:0,0:0:0:0:
181,277,217084,2,0,B|160:284|160:284|148:301|148:301|127:279|102:321|61:296,1,130.000000596046,10|14,0:0|0:0,0:0:0:0:
8,228,217646,1,0,0:0:0:0:
56,128,217834,6,0,L|56:40,1,71.5000025098322,12|0,0:0|0:0,0:0:0:0:
156,56,218209,1,10,0:0:0:0:
226,126,218396,1,0,0:0:0:0:
296,55,218584,1,0,0:0:0:0:
366,125,218771,1,0,0:0:0:0:
456,224,218959,2,0,L|456:325,1,71.5000025098322,10|0,0:0|0:0,0:0:0:0:
320,375,219334,6,0,L|320:275,1,71.5000025098322,12|0,0:0|0:0,0:0:0:0:
234,239,219709,1,10,0:0:0:0:
180,327,219896,1,0,0:0:0:0:
87,230,220084,1,0,0:0:0:0:
169,127,220271,1,0,0:0:0:0:
234,239,220459,2,0,L|148:212,1,71.5000025098322,10|0,0:0|0:0,0:0:0:0:
40,112,220834,6,0,L|40:25,1,71.5000025098322,12|0,0:0|0:0,0:0:0:0:
169,56,221209,2,0,L|169:148,1,71.5000025098322,10|0,0:0|0:0,0:0:0:0:
290,131,221584,1,0,0:0:0:0:
349,230,221771,1,0,0:0:0:0:
464,164,221959,1,10,0:0:0:0:
512,36,222146,1,0,0:0:0:0:
411,46,222334,6,0,L|395:138,1,71.5000025098322,12|0,0:0|0:0,0:0:0:0:
349,230,222709,1,12,0:0:0:0:
288,52,222896,1,0,0:0:0:0:
164,160,223084,2,0,L|118:189,3,35.7500012549161,12|0|0|0,0:0|0:0|0:0|0:0,0:0:0:0:
92,240,223459,2,0,L|71:293,3,35.7500012549161,12|0|0|0,0:0|0:0|0:0|0:0,0:0:0:0:
256,192,223834,12,0,226834,0:0:0:0:
