osu file format v14

[General]
AudioFilename: Scarlet Rose.mp3
AudioLeadIn: 2007
PreviewTime: 127927
Countdown: 0
SampleSet: Normal
StackLeniency: 0.7
Mode: 0
LetterboxInBreaks: 0
WidescreenStoryboard: 0

[Editor]
Bookmarks: 19084,30735,54641,67084,91084,103084
DistanceSpacing: 1.1
BeatDivisor: 4
GridSize: 4
TimelineZoom: 1

[Metadata]
Title:Scarlet Rose
TitleUnicode:Scarlet Rose
Artist:seleP
ArtistUnicode:seleP
Creator:smallboat
Version:Easy
Source:
Tags:original lilium doll 2nd album vocaloid lily yellow blue eye electric bomb music
BeatmapID:330861
BeatmapSetID:129795

[Difficulty]
HPDrainRate:3
CircleSize:2
OverallDifficulty:3
ApproachRate:3
SliderMultiplier:0.800000005960464
SliderTickRate:1

[Events]
//Background and Video events
0,0,"Vocaloid_lily .jpg",0,0
//Break Periods
2,31284,41644
2,91284,101644
2,127659,129019
2,212034,216394
//Storyboard Layer 0 (Background)
//Storyboard Layer 1 (Fail)
//Storyboard Layer 2 (Pass)
//Storyboard Layer 3 (Foreground)
//Storyboard Layer 4 (Overlay)
//Storyboard Sound Samples

[TimingPoints]
7084,375,4,2,1,75,1,0
7084,-100,4,2,1,75,0,0
7271,-100,4,1,1,75,0,0
8584,-100,4,2,1,75,0,0
8771,-100,4,1,1,75,0,0
10084,-100,4,2,1,75,0,0
10271,-100,4,1,1,75,0,0
11584,-100,4,2,1,75,0,0
11771,-100,4,1,1,75,0,0
12334,-100,4,2,1,75,0,0
12521,-100,4,1,1,75,0,0
13084,-100,4,2,1,75,0,0
13271,-100,4,2,1,75,0,0
13459,-100,4,2,1,75,0,0
13834,-100,4,2,1,75,0,0
14209,-100,4,2,1,75,0,0
14584,-100,4,2,1,75,0,0
14771,-100,4,2,1,75,0,0
16084,-100,4,2,1,75,0,0
16271,-100,4,2,1,75,0,0
16834,-100,4,2,1,75,0,0
17021,-100,4,2,1,75,0,0
17584,-100,4,2,1,75,0,0
17677,-100,4,2,1,75,0,0
18334,-100,4,2,1,75,0,0
18521,-100,4,2,1,75,0,0
19084,-100,4,2,1,85,0,1
19271,-100,4,1,1,85,0,1
19834,-100,4,2,1,85,0,1
20021,-100,4,1,1,85,0,1
20584,-100,4,2,1,85,0,1
20677,-100,4,1,1,85,0,1
21334,-100,4,2,1,85,0,1
21521,-100,4,1,1,85,0,1
22084,-100,4,2,1,85,0,1
22271,-100,4,1,1,85,0,1
22834,-100,4,2,1,85,0,1
23021,-100,4,1,1,85,0,1
23584,-100,4,2,1,85,0,1
23771,-100,4,1,1,85,0,1
24334,-100,4,2,1,85,0,1
24521,-100,4,1,1,85,0,1
25084,-100,4,2,1,85,0,1
25271,-100,4,1,1,85,0,1
25834,-100,4,2,1,85,0,1
26021,-100,4,1,1,85,0,1
26584,-100,4,2,1,85,0,1
26771,-100,4,1,1,85,0,1
27334,-100,4,2,1,85,0,1
27521,-100,4,1,1,85,0,1
28084,-100,4,2,1,85,0,1
28271,-100,4,1,1,85,0,1
28834,-100,4,2,1,85,0,1
29209,-100,4,1,1,85,0,1
29584,-100,4,2,1,85,0,1
29771,-100,4,1,1,85,0,1
30334,-100,4,2,1,85,0,1
31084,-100,4,2,1,85,0,0
32584,-100,4,2,1,85,0,0
32771,-100,4,2,1,75,0,0
34084,-100,4,2,1,75,0,0
34271,-100,4,2,1,75,0,0
35584,-100,4,2,1,75,0,0
35771,-100,4,2,1,75,0,0
36334,-100,4,2,1,75,0,0
36521,-100,4,2,1,75,0,0
37084,-100,4,2,1,75,0,0
37271,-100,4,2,1,75,0,0
37459,-100,4,2,1,75,0,0
38584,-100,4,2,1,75,0,0
38771,-100,4,2,1,75,0,0
40084,-100,4,2,1,75,0,0
40271,-100,4,2,1,75,0,0
41584,-100,4,2,1,75,0,0
41771,-100,4,2,1,75,0,0
42334,-100,4,2,1,75,0,0
42521,-100,4,1,1,75,0,0
43084,-100,4,2,1,75,0,0
43271,-100,4,1,1,75,0,0
44584,-100,4,2,1,75,0,0
44771,-100,4,1,1,75,0,0
46084,-100,4,2,1,75,0,0
46271,-100,4,1,1,75,0,0
47584,-100,4,2,1,75,0,0
47771,-100,4,1,1,75,0,0
48334,-100,4,2,1,75,0,0
48521,-100,4,1,1,75,0,0
49084,-100,4,2,1,75,0,0
49271,-100,4,1,1,75,0,0
49834,-100,4,2,1,75,0,0
50021,-100,4,1,1,75,0,0
50584,-100,4,2,1,75,0,0
50771,-100,4,1,1,75,0,0
51334,-100,4,2,1,75,0,0
51521,-100,4,1,1,75,0,0
52084,-100,4,2,1,75,0,0
52271,-100,4,1,1,75,0,0
52834,-100,4,2,1,75,0,0
53021,-100,4,1,1,75,0,0
53584,-100,4,2,1,75,0,0
53771,-100,4,1,1,75,0,0
54334,-100,4,2,1,75,0,0
54521,-100,4,1,1,75,0,0
54709,-100,4,2,1,75,0,0
54896,-100,4,1,1,75,0,0
55084,-100,4,2,1,75,0,0
55271,-100,4,1,1,75,0,0
56584,-100,4,2,1,75,0,0
56771,-100,4,1,1,75,0,0
57334,-100,4,2,1,75,0,0
57521,-100,4,1,1,75,0,0
58084,-100,4,2,1,75,0,0
58271,-100,4,1,1,75,0,0
59584,-100,4,2,1,75,0,0
59771,-100,4,1,1,75,0,0
60334,-100,4,2,1,75,0,0
60521,-100,4,1,1,75,0,0
61084,-100,4,2,1,75,0,0
61271,-100,4,1,1,75,0,0
61834,-100,4,2,1,75,0,0
62209,-100,4,1,1,75,0,0
62584,-100,4,2,1,75,0,0
62771,-100,4,1,1,75,0,0
64084,-100,4,2,1,75,0,0
64271,-100,4,1,1,75,0,0
64834,-100,4,2,1,75,0,0
65209,-100,4,1,1,75,0,0
67084,-100,4,2,1,85,0,1
67271,-100,4,1,1,85,0,1
68584,-100,4,2,1,85,0,1
68771,-100,4,1,1,85,0,1
69334,-100,4,2,1,85,0,1
69521,-100,4,1,1,85,0,1
70084,-100,4,2,1,85,0,1
70271,-100,4,1,1,85,0,1
71584,-100,4,2,1,85,0,1
71771,-100,4,1,1,85,0,1
72334,-100,4,2,1,85,0,1
72521,-100,4,1,1,85,0,1
72709,-100,4,2,1,85,0,1
72896,-100,4,1,1,85,0,1
73084,-100,4,2,1,85,0,1
73271,-100,4,1,1,85,0,1
74584,-100,4,2,1,85,0,1
74771,-100,4,1,1,85,0,1
76084,-100,4,2,1,85,0,1
76271,-100,4,1,1,85,0,1
76834,-100,4,2,1,85,0,1
77021,-100,4,1,1,85,0,1
77584,-100,4,2,1,85,0,1
77771,-100,4,1,1,85,0,1
77959,-100,4,2,1,85,0,1
78146,-100,4,1,1,85,0,1
78334,-100,4,2,1,85,0,1
78521,-100,4,1,1,85,0,1
79084,-100,4,2,1,85,0,1
79271,-100,4,1,1,85,0,1
80584,-100,4,2,1,85,0,1
80771,-100,4,1,1,85,0,1
81334,-100,4,2,1,85,0,1
81521,-100,4,1,1,85,0,1
82084,-100,4,2,1,85,0,1
82271,-100,4,1,1,85,0,1
83584,-100,4,2,1,85,0,1
83771,-100,4,1,1,85,0,1
84334,-100,4,2,1,85,0,1
84521,-100,4,1,1,85,0,1
85084,-100,4,2,1,85,0,1
85271,-100,4,1,1,85,0,1
86584,-100,4,2,1,85,0,1
86771,-100,4,1,1,85,0,1
88084,-100,4,2,1,85,0,1
88459,-100,4,1,1,85,0,1
88834,-100,4,2,1,85,0,1
89021,-100,4,1,1,85,0,1
89209,-100,4,2,1,85,0,1
89396,-100,4,1,1,85,0,1
89584,-100,4,2,1,85,0,1
89771,-100,4,1,1,85,0,1
90334,-100,4,2,1,85,0,1
90521,-100,4,1,1,85,0,1
91084,-100,4,2,1,75,0,0
91271,-100,4,1,1,75,0,0
92584,-100,4,2,1,75,0,0
92771,-100,4,1,1,75,0,0
94084,-100,4,2,1,75,0,0
94271,-100,4,1,1,75,0,0
95584,-100,4,2,1,75,0,0
95771,-100,4,1,1,75,0,0
96334,-100,4,2,1,75,0,0
96521,-100,4,1,1,75,0,0
97084,-100,4,2,1,75,0,0
97271,-100,4,1,1,75,0,0
97459,-100,4,1,1,75,0,0
98584,-100,4,2,1,75,0,0
98771,-100,4,1,1,75,0,0
100084,-100,4,2,1,75,0,0
100271,-100,4,1,1,75,0,0
101584,-100,4,2,1,75,0,0
101771,-100,4,1,1,75,0,0
101959,-100,4,2,1,75,0,0
102146,-100,4,1,1,75,0,0
102334,-100,4,2,1,75,0,0
102521,-100,4,1,1,75,0,0
103084,-100,4,2,1,75,0,0
108709,-100,4,2,1,75,0,0
109084,-100,4,2,1,80,0,0
127459,375,4,2,2,75,1,0
127459,-100,4,2,2,75,0,0
139459,-100,4,2,1,65,0,0
139834,375,4,2,1,65,1,0
139834,-100,4,2,1,65,0,0
145459,-100,4,2,1,65,0,0
151834,-100,4,2,1,75,0,0
163834,-100,4,2,1,85,0,1
164021,-100,4,1,1,85,0,1
164209,-100,4,2,1,85,0,1
164396,-100,4,1,1,85,0,1
164584,-100,4,2,1,85,0,1
164771,-100,4,1,1,85,0,1
165334,-100,4,2,1,85,0,1
165521,-100,4,1,1,85,0,1
166084,-100,4,2,1,85,0,1
166834,-100,4,2,1,85,0,1
167021,-100,4,1,1,85,0,1
168334,-100,4,2,1,85,0,1
168521,-100,4,1,1,85,0,1
169084,-100,4,2,1,85,0,1
169271,-100,4,1,1,85,0,1
169834,-100,4,2,1,85,0,1
170021,-100,4,1,1,85,0,1
171334,-100,4,2,1,85,0,1
171521,-100,4,1,1,85,0,1
172834,-100,4,2,1,85,0,1
173021,-100,4,1,1,85,0,1
173584,-100,4,2,1,85,0,1
173959,-100,4,1,1,85,0,1
174334,-100,4,2,1,85,0,1
175084,-100,4,2,1,85,0,1
175271,-100,4,2,1,85,0,1
175834,375,4,2,1,85,1,0
175834,-100,4,2,1,85,0,1
176021,-100,4,1,1,85,0,1
177334,-100,4,2,1,85,0,1
177521,-100,4,1,1,85,0,1
178084,-100,4,2,1,85,0,1
178271,-100,4,1,1,85,0,1
178834,-100,4,2,1,85,0,1
178927,-100,4,1,1,85,0,1
180334,-100,4,2,1,85,0,1
180521,-100,4,1,1,85,0,1
181084,-100,4,2,1,85,0,1
181177,-100,4,1,1,85,0,1
181459,-100,4,2,1,85,0,1
181646,-100,4,1,1,85,0,1
181834,-100,4,2,1,85,0,1
182209,-100,4,1,1,85,0,1
182584,-100,4,2,1,85,0,1
182959,-100,4,1,1,85,0,1
183334,-100,4,2,1,85,0,1
183521,-100,4,1,1,85,0,1
184084,-100,4,2,1,85,0,1
184271,-100,4,1,1,85,0,1
184834,-100,4,2,1,85,0,1
185021,-100,4,1,1,85,0,1
185584,-100,4,2,1,85,0,1
185959,-100,4,1,1,85,0,1
186334,-100,4,2,1,85,0,1
186709,-100,4,1,1,85,0,1
187459,-100,4,2,1,85,0,0
187834,-100,4,2,1,85,0,1
187927,-100,4,1,1,85,0,1
189334,-100,4,2,1,85,0,1
189521,-100,4,1,1,85,0,1
190834,-100,4,2,1,85,0,1
191021,-100,4,1,1,85,0,1
192334,-100,4,2,1,85,0,1
192521,-100,4,1,1,85,0,1
193084,-100,4,2,1,85,0,1
193271,-100,4,1,1,85,0,1
193459,-100,4,2,1,85,0,1
193646,-100,4,1,1,85,0,1
193834,-100,4,2,1,85,0,1
194021,-100,4,1,1,85,0,1
195334,-100,4,2,1,85,0,1
195521,-100,4,1,1,85,0,1
196834,-100,4,2,1,85,0,1
197021,-100,4,1,1,85,0,1
198334,-100,4,2,1,85,0,1
198521,-100,4,1,1,85,0,1
199084,-100,4,2,1,85,0,1
199271,-100,4,1,1,85,0,1
199459,-100,4,2,1,85,0,0
199834,-100,4,1,1,85,0,1
201334,-100,4,2,1,85,0,1
201521,-100,4,1,1,85,0,1
202834,-100,4,2,1,85,0,1
203021,-100,4,1,1,85,0,1
204334,-100,4,2,1,85,0,1
204521,-100,4,1,1,85,0,1
205084,-100,4,2,1,85,0,1
205271,-100,4,1,1,85,0,1
205459,-100,4,2,1,85,0,1
205552,-100,4,1,1,85,0,1
205834,-100,4,2,1,85,0,1
206021,-100,4,1,1,85,0,1
207334,-100,4,2,1,85,0,1
207521,-100,4,1,1,85,0,1
208834,-100,4,2,1,85,0,1
209021,-100,4,1,1,85,0,1
209584,-100,4,2,1,85,0,1
209771,-100,4,1,1,85,0,1
210334,-100,4,2,1,85,0,1
210521,-100,4,1,1,85,0,1
210709,-100,4,2,1,85,0,1
210896,-100,4,1,1,85,0,1
211084,-100,4,2,1,85,0,1
211271,-100,4,1,1,85,0,1
211459,-100,4,2,1,85,0,1
211646,-100,4,1,1,85,0,1
211834,-100,4,2,1,90,0,0
212021,-100,4,1,1,90,0,0
213334,-100,4,2,1,90,0,0
213521,-100,4,1,1,90,0,0
214834,-100,4,2,1,90,0,0
215021,-100,4,1,1,90,0,0
216334,-100,4,2,1,90,0,0
216521,-100,4,1,1,90,0,0
217459,-100,4,2,1,90,0,0
217646,-100,4,1,1,90,0,0
217834,-100,4,2,1,80,0,0
218021,-100,4,1,1,80,0,0
219334,-100,4,2,1,80,0,0
219521,-100,4,1,1,80,0,0
220834,-100,4,2,1,80,0,0
221021,-100,4,1,1,80,0,0
222334,-100,4,2,1,80,0,0
222521,-100,4,1,1,80,0,0
222709,-100,4,2,1,80,0,0
222896,-100,4,1,1,80,0,0
223084,-100,4,2,1,80,0,0
223177,-100,4,1,1,80,0,0
223459,-100,4,2,1,80,0,0
223552,-100,4,1,1,80,0,0
223834,-100,4,1,1,60,0,0
224584,-100,4,1,1,50,0,0
225334,-100,4,1,1,40,0,0
226084,-100,4,1,1,30,0,0
226834,-100,4,2,1,15,0,0

[Colours]
Combo1 : 255,206,60
Combo2 : 100,255,100
Combo3 : 70,163,255
Combo4 : 176,11,35

[HitObjects]
52,80,7084,6,0,L|136:56,2,80.0000005960464,0|10|0,0:0|0:0|0:0,0:0:0:0:
28,164,8209,1,10,0:0:0:0:
56,248,8584,2,0,P|80:272|128:280,1,80.0000005960464,0|10,0:0|0:0,0:0:0:0:
212,280,9334,2,0,P|250:274|280:247,1,80.0000005960464,0|10,0:0|0:0,0:0:0:0:
328,176,10084,6,0,L|348:96,2,80.0000005960464,0|10|0,0:0|0:0|0:0,0:0:0:0:
240,168,11209,1,10,0:0:0:0:
176,108,11584,2,0,P|144:93|100:96,1,80.0000005960464,0|10,0:0|0:0,0:0:0:0:
40,160,12334,2,0,P|27:190|33:239,1,80.0000005960464,0|14,0:0|0:0,0:0:0:0:
116,204,13084,6,0,L|196:176,2,80.0000005960464,0|10|8,0:0|0:0|0:0,0:0:0:0:
172,272,14209,1,10,0:0:0:0:
256,300,14584,2,0,L|332:336,1,80.0000005960464,0|10,0:0|0:0,0:0:0:0:
416,334,15334,2,0,L|488:299,1,80.0000005960464,0|10,0:0|0:0,0:0:0:0:
496,212,16084,2,0,P|459:142|389:107,1,160.000001192093,0|0,0:0|0:0,0:0:0:0:
308,144,17209,1,10,0:0:0:0:
252,212,17584,5,0,0:0:0:0:
220,296,17959,2,0,P|154:251|139:176,1,160.000001192093,10|10,0:0|0:0,0:0:0:0:
140,88,19084,6,0,P|100:96|64:128,2,80,0|10|0,0:0|0:0|0:0,0:0:0:0:
139,177,20209,1,10,0:0:0:0:
180,252,20584,2,0,P|212:268|264:268,1,80,0|10,0:0|0:0,0:0:0:0:
343,269,21334,2,0,P|382:268|418:251,1,80,0|10,0:0|0:0,0:0:0:0:
476,184,22084,6,0,L|488:96,2,80,0|10|0,0:0|0:0|0:0,0:0:0:0:
388,168,23209,1,10,0:0:0:0:
324,108,23584,2,0,P|300:76|248:56,1,80,0|10,0:0|0:0,0:0:0:0:
240,144,24334,2,0,P|208:176|168:184,1,80,0|10,0:0|0:0,0:0:0:0:
168,96,25084,6,0,L|140:16,2,80,0|10|0,0:0|0:0|0:0,0:0:0:0:
92,144,26209,1,10,0:0:0:0:
32,208,26584,2,0,L|-4:288,1,80,0|10,0:0|0:0,0:0:0:0:
72,328,27334,2,0,L|104:255,1,80,0|10,0:0|0:0,0:0:0:0:
192,240,28084,5,0,0:0:0:0:
256,300,28459,1,0,0:0:0:0:
344,300,28834,2,0,L|416:259,1,80,0|10,0:0|0:0,0:0:0:0:
256,192,29584,12,0,31084,0:0:0:0:
200,84,43084,5,0,0:0:0:0:
280,48,43459,2,0,L|376:28,2,80,10|0|10,0:0|0:0|0:0,0:0:0:0:
272,136,44584,2,0,P|347:161|428:139,1,160,0|0,0:0|0:0,0:0:0:0:
476,212,45709,1,10,0:0:0:0:
456,296,46084,5,0,0:0:0:0:
373,325,46459,2,0,P|347:357|308:371,2,80.0000011920928,10|0|10,0:0|0:0|0:0,0:0:0:0:
294,285,47584,2,0,P|213:298|128:267,1,160,0|0,0:0|0:0,0:0:0:0:
68,224,48709,1,10,0:0:0:0:
39,140,49084,5,0,0:0:0:0:
75,61,49459,2,0,P|111:45|152:53,2,80,10|0|10,0:0|0:0|0:0,0:0:0:0:
123,134,50584,2,0,P|159:178|259:186,1,160,0|0,0:0|0:0,0:0:0:0:
319,125,51709,1,10,0:0:0:0:
397,85,52084,5,0,0:0:0:0:
457,148,52459,2,0,P|469:184|495:214,2,80,10|0|10,0:0|0:0|0:0,0:0:0:0:
379,189,53584,1,0,0:0:0:0:
359,274,53959,2,0,P|298:319|212:315,1,160,10|10,0:0|0:0,0:0:0:0:
133,288,55084,5,0,0:0:0:0:
68,228,55459,2,0,P|46:154|82:69,1,160,10|10,0:0|0:0,0:0:0:0:
152,36,56584,1,0,0:0:0:0:
239,35,56959,2,0,P|246:112|307:171,1,160,10|10,0:0|0:0,0:0:0:0:
384,199,58084,5,0,0:0:0:0:
435,269,58459,2,0,P|377:322|300:340,1,160,10|10,0:0|0:0,0:0:0:0:
215,315,59584,1,0,0:0:0:0:
164,242,59959,2,0,P|225:191|303:178,1,160,10|10,0:0|0:0,0:0:0:0:
349,253,61084,6,0,P|412:301|489:274,1,160,0|0,0:0|0:0,0:0:0:0:
504,193,62209,1,10,0:0:0:0:
473,110,62584,2,0,P|401:86|321:102,1,160,0|0,0:0|0:0,0:0:0:0:
246,150,63709,1,10,0:0:0:0:
228,236,64084,5,0,0:0:0:0:
259,318,64459,2,0,L|343:334,2,80,10|0|10,0:0|0:0|0:0,0:0:0:0:
228,235,65584,2,0,P|313:157|254:61,1,240.000003576278,0|10,0:0|0:0,0:0:0:0:
182,23,67084,5,0,0:0:0:0:
94,34,67459,1,10,0:0:0:0:
36,100,67834,2,0,L|3:182,1,80.0000005960464,0|10,0:0|0:0,0:0:0:0:
88,204,68584,2,0,L|120:124,1,80,0|10,0:0|0:0,0:0:0:0:
199,161,69334,2,0,L|167:245,1,80,0|10,0:0|0:0,0:0:0:0:
207,315,70084,5,0,0:0:0:0:
285,355,70459,1,10,0:0:0:0:
372,356,70834,2,0,L|452:320,1,80,0|10,0:0|0:0,0:0:0:0:
433,235,71584,2,0,L|353:271,1,80,0|10,0:0|0:0,0:0:0:0:
348,180,72334,2,0,L|436:140,1,80,0|10,0:0|0:0,0:0:0:0:
442,61,73084,5,0,0:0:0:0:
361,25,73459,1,10,0:0:0:0:
282,64,73834,2,0,P|281:103|261:137,1,80,0|10,0:0|0:0,0:0:0:0:
172,137,74584,2,0,P|151:103|151:63,1,80,0|10,0:0|0:0,0:0:0:0:
62,63,75334,2,0,P|61:102|41:136,1,80,0|10,0:0|0:0,0:0:0:0:
8,220,76084,5,0,0:0:0:0:
148,328,76834,1,0,0:0:0:0:
320,356,77584,2,0,P|394:327|449:270,1,160,0|0,0:0|0:0,0:0:0:0:
460,96,79084,6,0,L|460:180,2,80,0|10|0,0:0|0:0|0:0,0:0:0:0:
380,56,80209,1,10,0:0:0:0:
296,80,80584,2,0,P|248:112|144:124,1,160,0|0,0:0|0:0,0:0:0:0:
72,80,81709,1,10,0:0:0:0:
4,136,82084,6,0,P|3:180|23:226,2,80.0000005960464,0|10|0,0:0|0:0|0:0,0:0:0:0:
84,160,83209,1,10,0:0:0:0:
104,244,83584,2,0,P|155:305|242:333,1,160,0|0,0:0|0:0,0:0:0:0:
316,324,84709,1,10,0:0:0:0:
400,304,85084,6,0,P|446:323|478:319,2,80,0|10|0,0:0|0:0|0:0,0:0:0:0:
456,236,86209,1,10,0:0:0:0:
476,148,86584,2,0,P|420:160|316:120,1,160,0|0,0:0|0:0,0:0:0:0:
260,68,87709,1,10,0:0:0:0:
176,40,88084,5,0,0:0:0:0:
84,192,88834,1,0,0:0:0:0:
256,192,89584,12,0,91084,0:0:0:0:
0,86,103084,6,0,P|106:35|221:62,1,240,0|10,0:0|0:0,0:0:0:0:
294,108,104584,2,0,P|323:222|416:294,1,240,0|10,0:0|0:0,0:0:0:0:
492,249,106084,6,0,P|464:134|371:62,1,240,0|10,0:0|0:0,0:0:0:0:
295,108,107584,2,0,P|223:195|114:163,1,240,0|10,0:0|0:0,0:0:0:0:
36,204,109084,6,0,P|12:236|0:288,2,80,0|10|0,0:0|0:0|0:0,0:0:0:0:
92,272,110209,1,10,0:0:0:0:
176,304,110584,2,0,P|256:324|333:302,1,160,0|0,0:0|0:0,0:0:0:0:
408,264,111709,1,10,0:0:0:0:
464,196,112084,6,0,P|484:163|484:107,1,80,0|10,0:0|0:0,0:0:0:0:
452,40,112834,2,0,P|419:19|363:19,1,80,0|10,0:0|0:0,0:0:0:0:
316,78,113584,5,0,0:0:0:0:
253,15,113959,1,10,0:0:0:0:
190,77,114334,1,0,0:0:0:0:
127,14,114709,1,10,0:0:0:0:
64,76,115084,2,0,L|-24:76,2,80,0|10|0,0:0|0:0|0:0,0:0:0:0:
52,164,116209,1,10,0:0:0:0:
80,248,116584,6,0,P|126:311|196:350,1,160,0|0,0:0|0:0,0:0:0:0:
284,350,117709,1,10,0:0:0:0:
372,350,118084,6,0,P|441:311|488:247,1,160,0|0,0:0|0:0,0:0:0:0:
492,160,119209,1,10,0:0:0:0:
408,188,119584,6,0,P|360:249|283:265,1,160,0|0,0:0|0:0,0:0:0:0:
200,232,120709,1,10,0:0:0:0:
244,156,121084,6,0,P|164:152|112:220,1,160,0|0,0:0|0:0,0:0:0:0:
96,296,122209,1,10,0:0:0:0:
32,356,122584,5,0,0:0:0:0:
12,272,122959,2,0,L|12:188,2,80.0000005960464,10|0|10,0:0|0:0|0:0,0:0:0:0:
96,296,124084,6,0,L|184:296,1,80.0000005960464,0|10,0:0|0:0,0:0:0:0:
176,207,124834,2,0,L|80:207,1,80.0000005960464,0|10,0:0|0:0,0:0:0:0:
256,192,125584,12,0,127459,0:0:0:0:
488,160,130459,6,0,B|426:53|364:170|395:40|267:76,1,240.000001788139,10|0,0:0|0:0,0:0:0:0:
200,116,131959,1,10,0:0:0:0:
68,232,132709,2,0,P|71:273|101:313,1,80,0|10,0:0|0:0,0:0:0:0:
176,356,133459,6,0,B|244:312|244:312|324:344|324:344|372:281,1,240,10|0,0:0|0:0,0:0:0:0:
420,216,134959,1,0,0:0:0:0:
108,52,136459,5,0,0:0:0:0:
108,228,137209,1,0,0:0:0:0:
260,144,137959,2,0,P|312:90|473:99,1,240.000001788139,4|10,0:0|0:0,0:0:0:0:
472,256,139834,6,0,P|416:292|316:272,1,160
266,215,140959,1,10,0:0:0:0:
206,279,141334,2,0,P|129:294|60:255,1,160
32,172,142459,1,10,0:0:0:0:
60,88,142834,6,0,B|116:36|156:28|156:28|212:32,1,160
263,93,143959,1,10,0:0:0:0:
325,30,144334,2,0,B|370:26|370:26|410:34|466:86,1,160
484,172,145459,1,10,0:0:0:0:
476,260,145834,6,0,P|428:323|335:349,1,160.000001192093,0|0,0:0|0:0,0:0:0:0:
265,351,146959,1,10,0:0:0:0:
182,321,147334,2,0,P|190:281|123:180,1,160.000001192093,0|0,0:0|0:0,0:0:0:0:
44,198,148459,1,10,0:0:0:0:
24,108,148834,6,0,L|84:36,1,80.0000005960464,0|10,0:0|0:0,0:0:0:0:
163,32,149584,2,0,L|184:116,1,80.0000005960464,0|10,0:0|0:0,0:0:0:0:
240,176,150334,2,0,P|315:86|448:83,1,240.000001788139
492,144,151834,5,10,0:0:0:0:
512,232,152209,2,0,L|393:347,1,160.000001192093,0|0,0:0|0:0,0:0:0:0:
308,360,153334,2,0,P|228:368|144:348,1,160.000001192093,10|10,0:0|0:0,0:0:0:0:
80,296,154459,1,0,0:0:0:0:
28,224,154834,5,10,0:0:0:0:
23,136,155209,2,0,P|63:136|170:207,1,160.000001192093,0|0,0:0|0:0,0:0:0:0:
236,244,156334,2,0,B|297:197|318:245|391:219,1,160,10|10,0:0|0:0,0:0:0:0:
468,180,157459,1,0,0:0:0:0:
492,96,157834,5,10,0:0:0:0:
449,18,158209,2,0,P|409:10|301:62,1,160.000001192093,0|0,0:0|0:0,0:0:0:0:
240,116,159334,2,0,P|258:193|222:268,1,160.000001192093,10|10,0:0|0:0,0:0:0:0:
156,320,160459,1,0,0:0:0:0:
72,340,160834,5,10,0:0:0:0:
3,284,161209,2,0,L|22:113,1,160.000001192093,0|0,0:0|0:0,0:0:0:0:
84,64,162334,2,0,P|142:117|219:132,1,160,10|10,0:0|0:0,0:0:0:0:
296,88,163459,1,0,0:0:0:0:
380,62,163834,6,0,P|416:78|482:193,1,160.000001192093,10|10,0:0|0:0,0:0:0:0:
492,264,164959,1,0,0:0:0:0:
451,341,165334,2,0,P|411:353|296:316,1,160.000001192093,10|10,0:0|0:0,0:0:0:0:
229,269,166459,1,0,0:0:0:0:
166,331,166834,6,0,L|6:321,1,160.000001192093,10|10,0:0|0:0,0:0:0:0:
12,232,167959,1,0,0:0:0:0:
56,156,168334,2,0,L|230:185,1,160.000001192093,10|10,0:0|0:0,0:0:0:0:
252,264,169459,1,0,0:0:0:0:
316,324,169834,6,0,P|356:340|462:287,1,160.000001192093,10|0,0:0|0:0,0:0:0:0:
504,220,170959,1,0,0:0:0:0:
477,136,171334,2,0,P|424:133|324:69,1,160.000001192093,10|10,0:0|0:0,0:0:0:0:
248,55,172459,1,0,0:0:0:0:
166,93,172834,6,0,P|140:129|30:198,1,160.000001192093,10|0,0:0|0:0,0:0:0:0:
4,271,173959,1,0,0:0:0:0:
44,349,174334,2,0,P|120:368|196:344,1,160,10|10,0:0|0:0,0:0:0:0:
274,303,175459,1,4,0:0:0:0:
351,345,175834,5,10,0:0:0:0:
435,321,176209,2,0,P|465:298|485:254,1,80.0000005960464,0|10,0:0|0:0,0:0:0:0:
494,173,176959,1,0,0:0:0:0:
478,86,177334,5,10,0:0:0:0:
420,19,177709,2,0,P|375:19|332:48,1,80.0000005960464,0|10,0:0|0:0,0:0:0:0:
295,108,178459,1,0,0:0:0:0:
263,190,178834,5,10,0:0:0:0:
301,268,179209,2,0,P|260:277|221:267,1,80.0000005960464,0|10,0:0|0:0,0:0:0:0:
143,232,179959,1,0,0:0:0:0:
149,319,180334,5,10,0:0:0:0:
69,280,180709,2,0,P|54:243|59:203,1,80,10|0,0:0|0:0,0:0:0:0:
93,122,181459,1,0,0:0:0:0:
178,102,181834,6,0,P|129:40|49:46,2,160.000001192093,10|10|10,0:0|0:0|0:0,0:0:0:0:
199,187,183709,2,0,P|235:169|259:134,1,80.0000005960464
252,49,184459,1,0,0:0:0:0:
331,87,184834,6,0,P|409:80|463:152,2,160.000001192093,10|10|10,0:0|0:0|0:0,0:0:0:0:
376,162,186709,1,0,0:0:0:0:
440,224,187084,2,0,L|384:288,1,80.0000005960464,10|0,0:0|0:0,0:0:0:0:
316,336,187834,6,0,P|284:365|246:372,2,80.0000005960464,0|0|0,0:3|0:0|0:3,0:0:0:0:
244,284,188959,1,0,0:0:0:0:
252,196,189334,1,0,0:0:0:0:
168,228,189709,2,0,P|122:292|38:291,1,160.000001192093,10|0,0:0|0:0,0:0:0:0:
82,215,190834,6,0,P|47:189|33:153,2,80.0000005960464
118,134,191959,1,0,0:0:0:0:
55,71,192334,1,0,0:0:0:0:
140,49,192709,2,0,P|214:70|292:35,1,160.000001192093
373,17,193834,6,0,P|414:27|441:54,2,80.0000005960464
369,104,194959,1,0,0:0:0:0:
424,172,195334,1,0,0:0:0:0:
462,251,195709,2,0,P|416:315|332:314,1,160.000001192093
252,318,196834,6,0,P|218:344|179:347,2,80.0000005960464
188,260,197959,1,0,0:0:0:0:
108,296,198334,1,0,0:0:0:0:
28,332,198709,2,0,P|31:253|102:208,1,160.000001192093
93,121,199834,6,0,P|50:117|19:94,2,80.0000005960464
88,32,200959,1,0,0:0:0:0:
172,55,201334,2,0,L|262:19,1,80.0000005960464,0|10,0:0|0:0,0:0:0:0:
328,56,202084,2,0,P|336:100|324:140,1,80.0000005960464
388,200,202834,6,0,P|351:221|312:220,2,80.0000005960464
420,120,203959,1,0,0:0:0:0:
453,201,204334,2,0,L|456:287,1,80.0000005960464
388,340,205084,2,0,L|300:352,1,80.0000005960464
220,350,205834,6,0,P|177:349|145:328,2,80.0000005960464
208,264,206959,1,0,0:0:0:0:
125,295,207334,2,0,L|31:320,1,80.0000005960464
36,224,208084,2,0,L|36:128,1,80.0000005960464
88,76,208834,5,0,0:0:0:0:
168,44,209209,1,0,0:0:0:0:
256,48,209584,1,0,0:0:0:0:
340,80,209959,1,0,0:0:0:0:
384,156,210334,2,0,P|392:216|332:300,2,160.000001192093
119,159,217834,6,0,P|128:121|156:93,2,80.0000005960464
64,228,218959,1,0,0:0:0:0:
40,312,219334,2,0,P|70:345|119:355,1,80.0000005960464
192,360,220084,1,0,0:0:0:0:
276,340,220459,1,0,0:0:0:0:
216,276,220834,6,0,P|184:248|180:196,2,80.0000005960464
264,200,221959,1,0,0:0:0:0:
306,122,222334,2,0,L|281:42,1,80.0000005960464
194,34,223084,6,0,P|136:63|126:85,1,80.0000005960464
256,192,223834,12,0,226834,0:0:0:0:
