osu file format v14

[General]
AudioFilename: Scarlet Rose.mp3
AudioLeadIn: 2007
PreviewTime: 127927
Countdown: 0
SampleSet: None
StackLeniency: 0.7
Mode: 0
LetterboxInBreaks: 0
WidescreenStoryboard: 1

[Editor]
Bookmarks: 19084,30709,54641,67084,72334,91084,103084,127084,139834,151834,163834,171334,187459,199834,211834
DistanceSpacing: 0.8
BeatDivisor: 4
GridSize: 4
TimelineZoom: 2.1

[Metadata]
Title:Scarlet Rose
TitleUnicode:Scarlet Rose
Artist:seleP
ArtistUnicode:seleP
Creator:smallboat
Version:1m31s ver.
Source:
Tags:original lilium doll 2nd album vocaloid lily yellow blue eye electric bomb music
BeatmapID:2587713
BeatmapSetID:129795

[Difficulty]
HPDrainRate:6
CircleSize:4
OverallDifficulty:8.5
ApproachRate:9
SliderMultiplier:1.80000000596046
SliderTickRate:2

[Events]
//Background and Video events
0,0,"BG2.png",0,0
//Break Periods
//Storyboard Layer 0 (Background)
//Storyboard Layer 1 (Fail)
//Storyboard Layer 2 (Pass)
//Storyboard Layer 3 (Foreground)
//Storyboard Layer 4 (Overlay)
//Storyboard Sound Samples

[TimingPoints]
7084,375,4,2,1,75,1,0
7084,-76.9230769230769,4,2,1,75,0,0
7271,-76.9230769230769,4,1,1,75,0,0
8584,-76.9230769230769,4,2,1,75,0,0
8771,-76.9230769230769,4,1,1,75,0,0
10084,-76.9230769230769,4,2,1,75,0,0
10271,-76.9230769230769,4,1,1,75,0,0
11584,-76.9230769230769,4,2,1,75,0,0
11771,-76.9230769230769,4,1,1,75,0,0
12334,-76.9230769230769,4,2,1,75,0,0
12521,-76.9230769230769,4,1,1,75,0,0
13084,-76.9230769230769,4,2,1,75,0,0
13271,-66.6666666666667,4,2,1,75,0,0
13459,-66.6666666666667,4,2,1,75,0,0
13834,-66.6666666666667,4,2,1,75,0,0
14209,-66.6666666666667,4,2,1,75,0,0
14584,-66.6666666666667,4,2,1,75,0,0
14771,-66.6666666666667,4,2,1,75,0,0
16084,-66.6666666666667,4,2,1,75,0,0
16271,-66.6666666666667,4,2,1,75,0,0
16834,-62.5,4,2,1,75,0,0
17021,-62.5,4,2,1,75,0,0
17584,-100,4,2,1,75,0,0
17677,-58.8235294117647,4,2,1,75,0,0
18334,-55.5555555555556,4,2,1,75,0,0
18521,-55.5555555555556,4,2,1,75,0,0
19084,-58.8235294117647,4,2,1,85,0,1
19271,-58.8235294117647,4,1,1,85,0,1
19834,-58.8235294117647,4,2,1,85,0,1
20021,-58.8235294117647,4,1,1,85,0,1
20584,-58.8235294117647,4,2,1,85,0,1
20677,-58.8235294117647,4,1,1,85,0,1
21334,-58.8235294117647,4,2,1,85,0,1
21521,-58.8235294117647,4,1,1,85,0,1
22084,-58.8235294117647,4,2,1,85,0,1
22271,-58.8235294117647,4,1,1,85,0,1
22834,-58.8235294117647,4,2,1,85,0,1
23021,-58.8235294117647,4,1,1,85,0,1
23584,-58.8235294117647,4,2,1,85,0,1
23771,-58.8235294117647,4,1,1,85,0,1
24334,-58.8235294117647,4,2,1,85,0,1
24521,-58.8235294117647,4,1,1,85,0,1
25084,-58.8235294117647,4,2,1,85,0,1
25271,-58.8235294117647,4,1,1,85,0,1
25834,-58.8235294117647,4,2,1,85,0,1
26021,-58.8235294117647,4,1,1,85,0,1
26584,-58.8235294117647,4,2,1,85,0,1
26771,-58.8235294117647,4,1,1,85,0,1
27334,-58.8235294117647,4,2,1,85,0,1
27521,-58.8235294117647,4,1,1,85,0,1
28084,-58.8235294117647,4,2,1,85,0,1
28271,-58.8235294117647,4,1,1,85,0,1
28834,-58.8235294117647,4,2,1,85,0,1
29209,-58.8235294117647,4,1,1,85,0,1
29584,-58.8235294117647,4,2,1,85,0,1
29771,-58.8235294117647,4,1,1,85,0,1
30334,-58.8235294117647,4,2,1,85,0,1
31084,-90.9090909090909,4,2,1,85,0,0
32584,-90.9090909090909,4,2,1,85,0,0
32771,-90.9090909090909,4,2,1,75,0,0
34084,-90.9090909090909,4,2,1,75,0,0
34271,-90.9090909090909,4,2,1,75,0,0
35584,-90.9090909090909,4,2,1,75,0,0
35771,-90.9090909090909,4,2,1,75,0,0
36334,-90.9090909090909,4,2,1,75,0,0
36521,-90.9090909090909,4,2,1,75,0,0
37084,-90.9090909090909,4,2,1,75,0,0
37271,-90.9090909090909,4,2,1,75,0,0
37459,-66.6666666666667,4,2,1,75,0,0
38584,-66.6666666666667,4,2,1,75,0,0
38771,-66.6666666666667,4,2,1,75,0,0
40084,-66.6666666666667,4,2,1,75,0,0
40271,-66.6666666666667,4,2,1,75,0,0
41584,-55.5555555555556,4,2,1,75,0,0
41771,-55.5555555555556,4,2,1,75,0,0
42334,-90.9090909090909,4,2,1,75,0,0
42521,-90.9090909090909,4,1,1,75,0,0
43084,-90.9090909090909,4,2,1,75,0,0
43271,-90.9090909090909,4,1,1,75,0,0
44584,-90.9090909090909,4,2,1,75,0,0
44771,-90.9090909090909,4,1,1,75,0,0
46084,-90.9090909090909,4,2,1,75,0,0
46271,-90.9090909090909,4,1,1,75,0,0
47584,-90.9090909090909,4,2,1,75,0,0
47771,-90.9090909090909,4,1,1,75,0,0
48334,-90.9090909090909,4,2,1,75,0,0
48521,-90.9090909090909,4,1,1,75,0,0
49084,-90.9090909090909,4,2,1,75,0,0
49271,-90.9090909090909,4,1,1,75,0,0
49834,-90.9090909090909,4,2,1,75,0,0
50021,-90.9090909090909,4,1,1,75,0,0
50584,-90.9090909090909,4,2,1,75,0,0
50771,-90.9090909090909,4,1,1,75,0,0
51334,-90.9090909090909,4,2,1,75,0,0
51521,-90.9090909090909,4,1,1,75,0,0
52084,-90.9090909090909,4,2,1,75,0,0
52271,-90.9090909090909,4,1,1,75,0,0
52834,-90.9090909090909,4,2,1,75,0,0
53021,-90.9090909090909,4,1,1,75,0,0
53584,-90.9090909090909,4,2,1,75,0,0
53771,-90.9090909090909,4,1,1,75,0,0
54334,-90.9090909090909,4,2,1,75,0,0
54521,-90.9090909090909,4,1,1,75,0,0
54709,-90.9090909090909,4,2,1,75,0,0
54896,-90.9090909090909,4,1,1,75,0,0
55084,-90.9090909090909,4,2,1,75,0,0
55271,-90.9090909090909,4,1,1,75,0,0
56584,-90.9090909090909,4,2,1,75,0,0
56771,-90.9090909090909,4,1,1,75,0,0
57334,-90.9090909090909,4,2,1,75,0,0
57521,-90.9090909090909,4,1,1,75,0,0
58084,-90.9090909090909,4,2,1,75,0,0
58271,-90.9090909090909,4,1,1,75,0,0
59584,-90.9090909090909,4,2,1,75,0,0
59771,-90.9090909090909,4,1,1,75,0,0
60334,-90.9090909090909,4,2,1,75,0,0
60521,-90.9090909090909,4,1,1,75,0,0
61084,-90.9090909090909,4,2,1,75,0,0
61271,-90.9090909090909,4,1,1,75,0,0
61834,-90.9090909090909,4,2,1,75,0,0
62209,-90.9090909090909,4,1,1,75,0,0
62584,-90.9090909090909,4,2,1,75,0,0
62771,-90.9090909090909,4,1,1,75,0,0
64084,-90.9090909090909,4,2,1,75,0,0
64271,-90.9090909090909,4,1,1,75,0,0
64834,-90.9090909090909,4,2,1,75,0,0
65209,-90.9090909090909,4,1,1,75,0,0
67084,-58.8235294117647,4,2,1,85,0,1
67271,-58.8235294117647,4,1,1,85,0,1
68584,-58.8235294117647,4,2,1,85,0,1
68771,-58.8235294117647,4,1,1,85,0,1
69334,-58.8235294117647,4,2,1,85,0,1
69521,-58.8235294117647,4,1,1,85,0,1
70084,-58.8235294117647,4,2,1,85,0,1
70271,-58.8235294117647,4,1,1,85,0,1
71584,-58.8235294117647,4,2,1,85,0,1
71771,-58.8235294117647,4,1,1,85,0,1
72334,-58.8235294117647,4,2,1,85,0,1
72521,-58.8235294117647,4,1,1,85,0,1
72709,-58.8235294117647,4,2,1,85,0,1
72896,-58.8235294117647,4,1,1,85,0,1
73084,-58.8235294117647,4,2,1,85,0,1
73271,-58.8235294117647,4,1,1,85,0,1
74584,-58.8235294117647,4,2,1,85,0,1
74771,-58.8235294117647,4,1,1,85,0,1
76084,-58.8235294117647,4,2,1,85,0,1
76271,-58.8235294117647,4,1,1,85,0,1
76834,-58.8235294117647,4,2,1,85,0,1
77021,-58.8235294117647,4,1,1,85,0,1
77584,-58.8235294117647,4,2,1,85,0,1
77771,-58.8235294117647,4,1,1,85,0,1
77959,-58.8235294117647,4,2,1,85,0,1
78146,-58.8235294117647,4,1,1,85,0,1
78334,-58.8235294117647,4,2,1,85,0,1
78521,-58.8235294117647,4,1,1,85,0,1
79084,-58.8235294117647,4,2,1,85,0,1
79271,-58.8235294117647,4,1,1,85,0,1
80584,-58.8235294117647,4,2,1,85,0,1
80771,-58.8235294117647,4,1,1,85,0,1
81334,-58.8235294117647,4,2,1,85,0,1
81521,-58.8235294117647,4,1,1,85,0,1
82084,-58.8235294117647,4,2,1,85,0,1
82271,-58.8235294117647,4,1,1,85,0,1
83584,-58.8235294117647,4,2,1,85,0,1
83771,-58.8235294117647,4,1,1,85,0,1
84334,-58.8235294117647,4,2,1,85,0,1
84521,-58.8235294117647,4,1,1,85,0,1
85084,-58.8235294117647,4,2,1,85,0,1
85271,-58.8235294117647,4,1,1,85,0,1
86584,-58.8235294117647,4,2,1,85,0,1
86771,-58.8235294117647,4,1,1,85,0,1
88084,-58.8235294117647,4,2,1,85,0,1
88459,-58.8235294117647,4,1,1,85,0,1
88834,-58.8235294117647,4,2,1,85,0,1
89021,-58.8235294117647,4,1,1,85,0,1
89209,-58.8235294117647,4,2,1,85,0,1
89396,-58.8235294117647,4,1,1,85,0,1
89584,-58.8235294117647,4,2,1,85,0,1
89771,-58.8235294117647,4,1,1,85,0,1
90334,-58.8235294117647,4,2,1,85,0,1
90521,-58.8235294117647,4,1,1,85,0,1
91084,-76.9230769230769,4,2,1,75,0,0
91271,-76.9230769230769,4,1,1,75,0,0
92584,-76.9230769230769,4,2,1,75,0,0
92771,-76.9230769230769,4,1,1,75,0,0
94084,-76.9230769230769,4,2,1,75,0,0
94271,-76.9230769230769,4,1,1,75,0,0
95584,-76.9230769230769,4,2,1,75,0,0
95771,-76.9230769230769,4,1,1,75,0,0
96334,-76.9230769230769,4,2,1,75,0,0
96521,-76.9230769230769,4,1,1,75,0,0
97084,-76.9230769230769,4,2,1,75,0,0
97271,-76.9230769230769,4,1,1,75,0,0
97459,-66.6666666666667,4,1,1,75,0,0
98584,-66.6666666666667,4,2,1,75,0,0
98771,-66.6666666666667,4,1,1,75,0,0
100084,-66.6666666666667,4,2,1,75,0,0
100271,-66.6666666666667,4,1,1,75,0,0
101584,-55.5555555555556,4,2,1,75,0,0
101771,-55.5555555555556,4,1,1,75,0,0
102334,-90.9090909090909,4,2,1,75,0,0
102521,-90.9090909090909,4,1,1,75,0,0
103084,-90.9090909090909,4,2,1,75,0,0
108709,-181.818181818182,4,2,1,75,0,0
109084,-71.4285714285714,4,2,1,80,0,0
127459,375,4,2,2,75,1,0
127459,-66.6666666666667,4,2,2,75,0,0
139459,-200,4,2,1,65,0,0
139834,375,4,2,1,65,1,0
139834,-100,4,2,1,65,0,0
145459,-100,4,2,1,65,0,0
151834,-86.9565217391304,4,2,1,75,0,0
163834,-76.9230769230769,4,2,1,85,0,1
164021,-76.9230769230769,4,1,1,85,0,1
164209,-76.9230769230769,4,2,1,85,0,1
164396,-76.9230769230769,4,1,1,85,0,1
164584,-76.9230769230769,4,2,1,85,0,1
164771,-76.9230769230769,4,1,1,85,0,1
165334,-76.9230769230769,4,2,1,85,0,1
165521,-76.9230769230769,4,1,1,85,0,1
166084,-76.9230769230769,4,2,1,85,0,1
166834,-76.9230769230769,4,2,1,85,0,1
167021,-76.9230769230769,4,1,1,85,0,1
168334,-76.9230769230769,4,2,1,85,0,1
168521,-76.9230769230769,4,1,1,85,0,1
169084,-76.9230769230769,4,2,1,85,0,1
169271,-76.9230769230769,4,1,1,85,0,1
169834,-76.9230769230769,4,2,1,85,0,1
170021,-76.9230769230769,4,1,1,85,0,1
171334,-76.9230769230769,4,2,1,85,0,1
171521,-76.9230769230769,4,1,1,85,0,1
172834,-76.9230769230769,4,2,1,85,0,1
173021,-76.9230769230769,4,1,1,85,0,1
173584,-76.9230769230769,4,2,1,85,0,1
173959,-76.9230769230769,4,1,1,85,0,1
174334,-76.9230769230769,4,2,1,85,0,1
175084,-76.9230769230769,4,2,1,85,0,1
175271,-76.9230769230769,4,2,1,85,0,1
175834,375,4,2,1,85,1,1
175834,-71.4285714285714,4,2,1,85,0,1
176021,-71.4285714285714,4,1,1,85,0,1
177334,-71.4285714285714,4,2,1,85,0,1
177521,-71.4285714285714,4,1,1,85,0,1
178084,-71.4285714285714,4,2,1,85,0,1
178271,-71.4285714285714,4,1,1,85,0,1
178834,-71.4285714285714,4,2,1,85,0,1
178927,-71.4285714285714,4,1,1,85,0,1
180334,-71.4285714285714,4,2,1,85,0,1
180521,-71.4285714285714,4,1,1,85,0,1
181084,-71.4285714285714,4,2,1,85,0,1
181177,-71.4285714285714,4,1,1,85,0,1
181459,-71.4285714285714,4,2,1,85,0,1
181646,-71.4285714285714,4,1,1,85,0,1
181834,-71.4285714285714,4,2,1,85,0,1
182209,-71.4285714285714,4,1,1,85,0,1
182584,-71.4285714285714,4,2,1,85,0,1
182959,-71.4285714285714,4,1,1,85,0,1
183334,-71.4285714285714,4,2,1,85,0,1
183521,-71.4285714285714,4,1,1,85,0,1
184084,-71.4285714285714,4,2,1,85,0,1
184271,-71.4285714285714,4,1,1,85,0,1
184834,-71.4285714285714,4,2,1,85,0,1
185021,-71.4285714285714,4,1,1,85,0,1
185584,-71.4285714285714,4,2,1,85,0,1
185959,-71.4285714285714,4,1,1,85,0,1
186334,-71.4285714285714,4,2,1,85,0,1
186709,-71.4285714285714,4,1,1,85,0,1
187459,-62.5,4,2,1,85,0,0
187834,-71.4285714285714,4,2,1,85,0,1
187927,-71.4285714285714,4,1,1,85,0,1
189334,-71.4285714285714,4,2,1,85,0,1
189521,-71.4285714285714,4,1,1,85,0,1
190834,-71.4285714285714,4,2,1,85,0,1
191021,-71.4285714285714,4,1,1,85,0,1
192334,-71.4285714285714,4,2,1,85,0,1
192521,-71.4285714285714,4,1,1,85,0,1
193084,-71.4285714285714,4,2,1,85,0,1
193271,-71.4285714285714,4,1,1,85,0,1
193459,-71.4285714285714,4,2,1,85,0,1
193646,-71.4285714285714,4,1,1,85,0,1
193834,-71.4285714285714,4,2,1,85,0,1
194021,-71.4285714285714,4,1,1,85,0,1
195334,-71.4285714285714,4,2,1,85,0,1
195521,-71.4285714285714,4,1,1,85,0,1
196834,-71.4285714285714,4,2,1,85,0,1
197021,-71.4285714285714,4,1,1,85,0,1
198334,-71.4285714285714,4,2,1,85,0,1
198521,-71.4285714285714,4,1,1,85,0,1
199084,-71.4285714285714,4,2,1,85,0,1
199271,-71.4285714285714,4,1,1,85,0,1
199459,-76.9230769230769,4,2,1,85,0,0
199834,-71.4285714285714,4,1,1,85,0,1
201334,-71.4285714285714,4,2,1,85,0,1
201521,-71.4285714285714,4,1,1,85,0,1
202834,-71.4285714285714,4,2,1,85,0,1
203021,-71.4285714285714,4,1,1,85,0,1
204334,-71.4285714285714,4,2,1,85,0,1
204521,-71.4285714285714,4,1,1,85,0,1
205084,-71.4285714285714,4,2,1,85,0,1
205271,-71.4285714285714,4,1,1,85,0,1
205459,-71.4285714285714,4,2,1,85,0,1
205552,-71.4285714285714,4,1,1,85,0,1
205834,-71.4285714285714,4,2,1,85,0,1
206021,-71.4285714285714,4,1,1,85,0,1
207334,-71.4285714285714,4,2,1,85,0,1
207521,-71.4285714285714,4,1,1,85,0,1
208834,-71.4285714285714,4,2,1,85,0,1
209021,-71.4285714285714,4,1,1,85,0,1
209584,-71.4285714285714,4,2,1,85,0,1
209771,-71.4285714285714,4,1,1,85,0,1
210334,-71.4285714285714,4,2,1,85,0,1
210521,-71.4285714285714,4,1,1,85,0,1
210709,-71.4285714285714,4,2,1,85,0,1
210896,-71.4285714285714,4,1,1,85,0,1
211084,-71.4285714285714,4,2,1,85,0,1
211271,-71.4285714285714,4,1,1,85,0,1
211459,-71.4285714285714,4,2,1,85,0,1
211646,-71.4285714285714,4,1,1,85,0,1
211834,-83.3333333333333,4,2,1,90,0,0
212021,-83.3333333333333,4,1,1,90,0,0
213334,-83.3333333333333,4,2,1,90,0,0
213521,-83.3333333333333,4,1,1,90,0,0
214834,-83.3333333333333,4,2,1,90,0,0
215021,-83.3333333333333,4,1,1,90,0,0
216334,-83.3333333333333,4,2,1,90,0,0
216521,-83.3333333333333,4,1,1,90,0,0
217459,-83.3333333333333,4,2,1,90,0,0
217646,-83.3333333333333,4,1,1,90,0,0
217834,-76.9230769230769,4,2,1,80,0,0
218021,-76.9230769230769,4,1,1,80,0,0
219334,-76.9230769230769,4,2,1,80,0,0
219521,-76.9230769230769,4,1,1,80,0,0
220834,-76.9230769230769,4,2,1,80,0,0
221021,-76.9230769230769,4,1,1,80,0,0
222334,-76.9230769230769,4,2,1,80,0,0
222521,-76.9230769230769,4,1,1,80,0,0
222709,-76.9230769230769,4,2,1,80,0,0
222896,-76.9230769230769,4,1,1,80,0,0
223084,-76.9230769230769,4,2,1,80,0,0
223177,-76.9230769230769,4,1,1,80,0,0
223459,-76.9230769230769,4,2,1,80,0,0
223552,-76.9230769230769,4,1,1,80,0,0
223834,-100,4,1,1,60,0,0
224584,-100,4,1,1,50,0,0
225334,-100,4,1,1,40,0,0
226084,-100,4,1,1,30,0,0
226834,-100,4,2,1,15,0,0

[Colours]
Combo1 : 255,206,60
Combo2 : 100,255,100
Combo3 : 70,163,255
Combo4 : 176,11,35

[HitObjects]
179,65,334,5,0,0:0:0:0:
256,32,521,1,0,0:0:0:0:
333,65,709,1,0,0:0:0:0:
481,145,896,5,0,0:0:0:0:
404,112,1084,1,0,0:0:0:0:
327,145,1271,1,0,0:0:0:0:
31,145,1459,5,0,0:0:0:0:
108,112,1647,1,0,0:0:0:0:
176,228,1834,5,0,0:0:0:0:
99,195,2022,1,0,0:0:0:0:
31,310,2209,5,0,0:0:0:0:
108,277,2397,1,0,0:0:0:0:
333,319,2584,5,0,0:0:0:0:
256,352,2771,1,0,0:0:0:0:
179,319,2959,1,0,0:0:0:0:
31,239,3146,5,0,0:0:0:0:
108,272,3334,1,0,0:0:0:0:
185,239,3521,1,0,0:0:0:0:
481,239,3709,5,0,0:0:0:0:
404,272,3897,1,0,0:0:0:0:
336,156,4084,5,0,0:0:0:0:
413,189,4272,1,0,0:0:0:0:
481,74,4459,5,0,0:0:0:0:
404,107,4646,1,0,0:0:0:0:
321,78,4834,5,0,0:0:0:0:
487,155,5021,1,0,0:0:0:0:
398,28,5209,1,0,0:0:0:0:
172,144,5396,2,0,L|143:135,2,30.000000099341
221,199,5584,1,0,0:0:0:0:
39,184,5771,2,0,L|10:175,2,30.000000099341
85,239,5959,1,0,0:0:0:0:
187,327,6146,5,0,0:0:0:0:
205,265,6334,1,0,0:0:0:0:
221,199,6521,1,0,0:0:0:0:
154,215,6709,1,0,0:0:0:0:
138,278,6896,1,0,0:0:0:0:
265,118,7084,6,0,B|275:94|275:94|266:62,1,58.4999975157976,14|0,0:0|0:0,0:0:0:0:
374,55,7271,2,0,B|409:54|409:54|430:63,1,58.4999975157976
498,132,7459,2,0,B|507:191|507:191|464:225|464:225|456:297,1,175.499992547393,10|0,0:0|0:0,0:0:0:0:
399,303,7834,1,0,0:0:0:0:
338,313,7927,2,0,B|312:280|312:280|324:189,1,116.999995031595
234,138,8209,2,0,B|203:123|203:123|159:108|106:117|85:173,1,175.499992547393,10|0,0:0|0:0,0:0:0:0:
34,289,8584,5,14,0:0:0:0:
33,310,8677,1,0,0:0:0:0:
31,329,8771,2,0,B|29:358|29:358|52:375,1,58.4999975157976
136,374,8959,2,0,B|138:334|106:309|106:309|148:301|169:268|169:268|177:244,1,175.499992547393,10|0,0:0|0:0,0:0:0:0:
260,203,9334,1,0,0:0:0:0:
260,203,9427,2,0,P|266:262|243:314,1,116.999995031595
93,203,9709,2,0,B|110:163|147:158|147:158|87:144|78:91,1,175.499992547393,10|0,0:0|0:0,0:0:0:0:
28,15,10084,6,0,P|52:0|81:2,1,58.4999975157976,14|0,0:0|0:0,0:0:0:0:
224,67,10271,2,0,P|196:76|167:74,1,58.4999975157976
297,31,10459,2,0,B|360:11|360:11|387:40|387:40|477:16,1,175.499992547393,10|0,0:0|0:0,0:0:0:0:
483,136,10834,1,0,0:0:0:0:
435,196,10927,2,0,B|376:211|376:211|399:139,1,116.999995031595
291,111,11209,2,0,B|274:164|274:164|406:157,1,175.499992547393,10|0,0:0|0:0,0:0:0:0:
424,72,11584,5,14,0:0:0:0:
424,72,11677,1,0,0:0:0:0:
424,72,11771,2,0,L|455:22,1,58.4999975157976
327,24,11959,2,0,B|258:3|218:51|218:51|168:25,1,175.499992547393,10|0,0:0|0:0,0:0:0:0:
81,97,12334,1,14,0:0:0:0:
81,97,12427,2,0,B|106:85|106:85|185:124,1,116.999995031595
61,235,12709,2,0,P|36:218|24:175,1,58.4999975157976,14|0,0:0|0:0,0:0:0:0:
147,269,12896,2,0,B|160:296|160:296|178:276,1,58.4999975157976
178,191,13084,5,14,0:0:0:0:
178,191,13177,1,0,0:0:0:0:
178,191,13271,2,0,L|186:116,1,67.500002798438
349,137,13459,6,0,L|283:126,1,67.500002798438,8|0,0:0|0:0,0:0:0:0:
442,199,13646,2,0,L|521:186,1,67.500002798438
343,220,13834,2,0,L|277:209,1,67.500002798438,8|0,0:0|0:0,0:0:0:0:
436,282,14021,2,0,L|515:269,1,67.500002798438
334,302,14209,2,0,L|268:291,1,67.500002798438,8|0,0:0|0:0,0:0:0:0:
427,364,14396,2,0,L|506:351,1,67.500002798438
334,302,14584,6,0,L|339:369,1,67.500002798438,14|0,0:0|0:0,0:0:0:0:
442,199,14771,2,0,L|436:131,1,67.500002798438
381,39,14959,2,0,B|344:61|344:61|270:32|270:32|203:56,1,135.000005596876
182,80,15240,1,0,0:0:0:0:
182,80,15334,6,0,L|184:147,1,67.500002798438
100,131,15521,2,0,L|97:64,1,67.500002798438
13,46,15709,2,0,L|16:113,1,67.500002798438,8|0,0:0|0:0,0:0:0:0:
16,191,15896,1,0,0:0:0:0:
29,195,15990,1,0,0:0:0:0:
42,199,16084,6,0,L|48:284,1,67.500002798438,14|0,0:0|0:0,0:0:0:0:
60,276,16271,2,0,L|57:209,1,67.500002798438
68,212,16459,2,0,B|71:283|71:283|192:333,1,202.500008395314,8|0,0:0|0:0,0:0:0:0:
211,258,16834,6,0,L|144:229,1,72.0000002384184
301,258,17021,2,0,L|367:230,1,72.0000002384184
256,192,17209,2,0,L|256:100,1,72.0000002384184,10|0,0:0|0:0,0:0:0:0:
256,48,17396,2,0,L|256:120,1,72.0000002384184
344,159,17584,5,14,0:0:0:0:
357,136,17677,1,0,0:0:0:0:
367,113,17771,2,0,L|356:18,1,76.5000017124413
154,37,17959,2,0,L|145:113,1,76.5000017124413,10|0,0:0|0:0,0:0:0:0:
154,347,18146,2,0,L|144:271,1,76.5000017124413
61,65,18334,6,0,L|49:147,1,80.9999977962969,14|0,0:0|0:0,0:0:0:0:
61,319,18521,2,0,L|48:238,1,80.9999977962969
132,190,18709,1,10,0:0:0:0:
171,182,18802,1,10,0:0:0:0:
210,173,18896,1,10,0:0:0:0:
249,164,18990,1,10,0:0:0:0:
289,157,19084,6,0,L|363:141,1,76.5000017124413,14|0,0:0|0:0,0:0:0:0:
432,93,19271,2,0,L|451:19,1,76.5000017124413
322,196,19459,2,0,L|396:180,1,76.5000017124413,10|0,0:0|0:0,0:0:0:0:
465,132,19646,2,0,L|484:57,1,76.5000017124413
474,216,19834,5,14,0:0:0:0:
478,296,19927,2,0,B|422:282|422:282|410:336|354:348,1,153.000003424883
262,375,20209,1,10,0:0:0:0:
248,369,20302,1,0,0:0:0:0:
235,361,20396,1,0,0:0:0:0:
223,352,20490,1,0,0:0:0:0:
211,343,20584,5,14,0:0:0:0:
196,338,20677,2,0,B|147:351|147:351|120:309|120:309|147:264,1,153.000003424883
257,190,20959,2,0,B|262:218|262:218|233:271,1,76.5000017124413,10|0,0:0|0:0,0:0:0:0:
46,322,21146,2,0,B|41:294|41:294|66:248,1,76.5000017124413
139,99,21334,5,14,0:0:0:0:
139,99,21427,2,0,B|179:96|201:54|201:54|222:123,1,153.000003424883
119,185,21709,2,0,P|86:172|57:139,1,76.5000017124413,10|2,0:0|0:0,0:0:0:0:
61,61,21896,1,2,0:0:0:0:
61,61,21990,1,2,0:0:0:0:
61,61,22084,6,0,B|148:10,1,76.5000017124413,14|0,0:0|0:0,0:0:0:0:
363,105,22271,2,0,B|291:63,1,76.5000017124413
190,228,22459,2,0,L|263:186,1,76.5000017124413,10|0,0:0|0:0,0:0:0:0:
492,272,22646,2,0,L|413:226,1,76.5000017124413
354,191,22834,5,14,0:0:0:0:
436,151,22927,2,0,B|488:117|488:117|470:72|426:54,1,153.000003424883
357,14,23209,1,10,0:0:0:0:
296,66,23302,1,0,0:0:0:0:
239,117,23396,1,0,0:0:0:0:
167,143,23490,1,0,0:0:0:0:
93,166,23584,6,0,L|91:89,1,76.5000017124413,14|0,0:0|0:0,0:0:0:0:
10,22,23771,2,0,L|12:98,1,76.5000017124413
84,150,23959,2,0,L|81:73,1,76.5000017124413,10|0,0:0|0:0,0:0:0:0:
1,6,24146,2,0,L|4:82,1,76.5000017124413
188,189,24334,5,14,0:0:0:0:
188,189,24427,2,0,B|225:193|225:193|264:183,1,76.5000017124413
251,94,24615,2,0,P|215:102|197:71,1,76.5000017124413,0|10,0:0|0:0,0:0:0:0:
306,22,24802,2,0,B|342:6|342:6|377:15,1,76.5000017124413,2|2,0:0|0:0,0:0:0:0:
445,52,24990,1,2,0:0:0:0:
473,120,25084,6,0,B|483:157|483:157|470:193,1,76.5000017124413,14|0,0:0|0:0,0:0:0:0:
330,109,25271,2,0,B|366:97|366:97|402:111,1,76.5000017124413
335,184,25459,2,0,B|299:196|299:196|262:182,1,76.5000017124413,10|0,0:0|0:0,0:0:0:0:
166,261,25646,2,0,B|200:276|200:276|237:262,1,76.5000017124413
76,264,25834,5,14,0:0:0:0:
58,355,25927,2,0,B|105:333|105:333|126:344|126:344|143:330|143:330|203:356,1,153.000003424883
311,366,26209,1,10,0:0:0:0:
364,368,26302,1,0,0:0:0:0:
416,356,26396,1,0,0:0:0:0:
451,315,26490,1,0,0:0:0:0:
471,265,26584,6,0,B|432:271|432:271|384:244,1,76.5000017124413,14|0,0:0|0:0,0:0:0:0:
476,89,26771,2,0,B|477:128|477:128|459:163,1,76.5000017124413
263,183,26959,2,0,P|298:168|337:162,1,76.5000017124413,10|0,0:0|0:0,0:0:0:0:
179,276,27146,2,0,P|216:270|251:255,1,76.5000017124413
117,314,27334,5,14,0:0:0:0:
57,351,27427,2,0,B|18:305|45:253|45:253|28:208,1,153.000003424883
41,80,27709,2,0,B|39:106|39:106|87:158,1,76.5000017124413,10|2,0:0|0:0,0:0:0:0:
137,151,27896,1,2,0:0:0:0:
204,164,27990,1,2,0:0:0:0:
263,183,28084,6,0,B|269:218|269:218|251:259,1,76.5000017124413,14|0,0:0|0:0,0:0:0:0:
346,197,28271,2,0,B|340:162|340:162|351:116,1,76.5000017124413
182,234,28459,2,0,B|169:263|169:263|180:318,1,76.5000017124413,10|0,0:0|0:0,0:0:0:0:
338,350,28646,2,0,B|344:315|344:315|324:270,1,76.5000017124413
411,291,28834,5,14,0:0:0:0:
411,291,28927,2,0,B|437:304|437:304|430:243|430:243|476:175,1,153.000003424883
493,133,29209,1,10,0:0:0:0:
482,74,29302,1,0,0:0:0:0:
440,25,29396,1,0,0:0:0:0:
381,16,29490,1,0,0:0:0:0:
320,24,29584,6,0,L|308:99,1,76.5000017124413,14|0,0:0|0:0,0:0:0:0:
203,99,29771,2,0,L|191:24,1,76.5000017124413
307,99,29959,6,0,L|317:181,1,76.5000017124413,14|0,0:0|0:0,0:0:0:0:
108,286,30146,2,0,L|121:202,1,76.5000017124413
256,235,30334,5,14,0:0:0:0:
256,235,30427,2,0,P|289:256|336:257,1,76.5000017124413,6|0,0:0|0:0,0:0:0:0:
398,207,30615,1,6,0:0:0:0:
398,207,30802,2,0,P|429:159|470:230,1,153.000003424883,6|0,0:0|0:0,0:0:0:0:
442,329,31084,6,0,B|422:314|422:314|412:292,1,49.5000016745328
480,212,31271,2,0,B|500:227|500:227|510:249,1,49.5000016745328
358,384,31459,2,0,B|337:368|337:368|327:346,1,49.5000016745328
273,121,31646,2,0,B|293:136|293:136|303:158,1,49.5000016745328
398,207,31834,5,0,0:0:0:0:
398,207,31927,2,0,B|365:212|365:212|336:239|336:239|279:251,1,99.0000033490656
199,261,32209,1,10,0:0:0:0:
204,284,32302,1,0,0:0:0:0:
210,307,32396,1,0,0:0:0:0:
215,331,32490,1,0,0:0:0:0:
222,355,32584,6,0,L|173:347,1,49.5000016745328,4|0,0:0|0:0,0:0:0:0:
4,361,32771,2,0,L|53:369,1,49.5000016745328
105,263,32959,2,0,L|112:214,1,49.5000016745328,10|0,0:0|0:0,0:0:0:0:
50,81,33146,2,0,L|42:129,1,49.5000016745328
161,114,33334,5,0,0:0:0:0:
161,114,33427,2,0,B|179:95|179:95|203:88|203:88|215:68|215:68|237:50,1,99.0000033490656
337,39,33709,1,10,0:0:0:0:
343,81,33802,1,0,0:0:0:0:
366,114,33896,1,0,0:0:0:0:
405,134,33990,1,0,0:0:0:0:
454,142,34084,6,0,L|481:90,1,49.5000016745328,14|0,0:0|0:0,0:0:0:0:
337,39,34271,2,0,L|314:82,1,49.5000016745328
447,262,34459,2,0,L|469:218,1,49.5000016745328,10|0,0:0|0:0,0:0:0:0:
308,166,34646,2,0,L|285:209,1,49.5000016745328
168,285,34834,5,0,0:0:0:0:
168,285,34927,2,0,B|150:266|150:266|150:243|150:243|133:229|133:229|138:170,1,99.0000033490656
91,84,35209,1,10,0:0:0:0:
75,35,35302,1,0,0:0:0:0:
33,31,35396,1,0,0:0:0:0:
5,64,35490,1,0,0:0:0:0:
36,111,35584,6,0,L|30:173,1,49.5000016745328,14|0,0:0|0:0,0:0:0:0:
41,311,35771,2,0,L|47:261,1,49.5000016745328
141,152,35959,2,0,L|134:201,1,49.5000016745328,10|0,0:0|0:0,0:0:0:0:
199,307,36146,2,0,L|203:258,1,49.5000016745328
258,154,36334,5,14,0:0:0:0:
258,154,36427,2,0,B|259:141|259:141|274:121|274:121|272:99|272:99|286:79|286:79|285:55|285:55,1,99.0000033490656
387,110,36709,5,10,0:0:0:0:
433,170,36802,1,0,0:0:0:0:
464,100,36896,1,0,0:0:0:0:
419,41,36990,1,0,0:0:0:0:
360,181,37084,2,0,L|347:247,1,49.5000016745328,14|0,0:0|0:0,0:0:0:0:
348,378,37271,2,0,B|372:381|372:381|394:371,1,49.5000016745328
488,296,37459,6,0,L|498:230,1,67.500002798438,10|0,0:0|0:0,0:0:0:0:
498,229,37646,2,0,L|508:163,1,67.500002798438
417,270,37834,1,0,0:0:0:0:
417,270,37927,2,0,B|363:308|363:308|296:288,1,135.000005596876
249,283,38209,1,10,0:0:0:0:
202,290,38302,1,0,0:0:0:0:
157,305,38396,1,0,0:0:0:0:
117,331,38490,1,0,0:0:0:0:
77,357,38584,6,0,B|59:328|59:328|54:294,1,67.500002798438,14|0,0:0|0:0,0:0:0:0:
132,163,38771,2,0,B|149:191|149:191|154:225,1,67.500002798438
37,176,38959,2,0,B|20:148|20:148|15:114,1,67.500002798438,10|0,0:0|0:0,0:0:0:0:
203,137,39146,2,0,B|220:165|220:165|225:199,1,67.500002798438
143,83,39334,5,0,0:0:0:0:
142,83,39427,2,0,P|201:54|262:79,1,135.000005596876
301,176,39709,1,10,0:0:0:0:
367,183,39802,1,0,0:0:0:0:
429,156,39896,1,0,0:0:0:0:
473,105,39990,1,0,0:0:0:0:
453,40,40084,6,0,P|421:39|412:69,1,67.500002798438,14|0,0:0|0:0,0:0:0:0:
440,240,40271,2,0,P|471:240|480:210,1,67.500002798438
301,176,40459,2,0,P|269:175|260:205,1,67.500002798438,10|0,0:0|0:0,0:0:0:0:
293,351,40646,2,0,P|324:351|333:321,1,67.500002798438
222,365,40834,5,0,0:0:0:0:
152,351,40927,2,0,B|118:366|118:366|140:261,1,135.000005596876
147,202,41209,1,10,0:0:0:0:
158,131,41302,1,0,0:0:0:0:
193,72,41396,1,0,0:0:0:0:
256,47,41490,1,0,0:0:0:0:
255,118,41584,6,0,L|255:199,1,80.9999977962969,14|0,0:0|0:0,0:0:0:0:
255,280,41771,2,0,L|255:199,1,80.9999977962969
80,110,41959,2,0,L|158:131,1,80.9999977962969,10|0,0:0|0:0,0:0:0:0:
430,110,42146,2,0,L|348:134,1,80.9999977962969
139,272,42334,6,0,B|137:255|137:255|144:238|144:238|141:217|141:217|149:199|149:199|143:177|143:177|156:158|156:158|156:140|156:140|158:133,1,148.500005023598,14|0,0:0|0:0,0:0:0:0:
353,133,42709,2,0,B|356:140|356:140|356:158|356:158|369:177|369:177|363:199|363:199|371:217|371:217|368:238|368:238|375:255|375:255|372:272,1,148.500005023598,10|0,0:0|0:0,0:0:0:0:
256,374,43084,6,0,B|247:348|247:348|261:323|261:323|254:286|254:286|255:281,1,99.0000033490656,14|0,0:0|0:0,0:0:0:0:
159,133,43459,2,0,B|102:110,1,49.5000016745328,10|0,0:0|0:0,0:0:0:0:
255,114,43646,2,0,L|255:164,1,49.5000016745328
353,133,43834,1,0,0:0:0:0:
353,133,43927,2,0,B|356:130|356:130|408:111,1,49.5000016745328
452,172,44115,2,0,B|460:192|460:192|452:208|452:208|462:226|462:226|452:243|452:243|456:261,1,99.0000033490656
428,330,44396,1,0,0:0:0:0:
428,330,44490,1,0,0:0:0:0:
351,356,44584,6,0,P|308:366|293:324,1,99.0000033490656,14|0,0:0|0:0,0:0:0:0:
351,208,44959,2,0,L|307:232,1,49.5000016745328,10|0,0:0|0:0,0:0:0:0:
161,208,45146,2,0,L|222:242,1,49.5000016745328
256,272,45334,1,0,0:0:0:0:
219,324,45427,2,0,B|175:299,1,49.5000016745328
55,261,45615,2,0,B|60:243|60:243|50:226|50:226|60:208|60:208|52:192|52:192|60:172,1,99.0000033490656,0|2,0:0|0:0,0:0:0:0:
52,109,45896,1,2,0:0:0:0:
77,46,45990,1,2,0:0:0:0:
142,28,46084,6,0,B|163:23|163:23|187:30|187:30|204:17|204:17|233:26,1,99.0000033490656,14|0,0:0|0:0,0:0:0:0:
458,55,46459,2,0,L|467:103,1,49.5000016745328,10|0,0:0|0:0,0:0:0:0:
344,109,46646,2,0,L|286:119,1,49.5000016745328
322,234,46834,1,0,0:0:0:0:
399,210,46927,2,0,L|454:201,1,49.5000016745328
240,223,47115,2,0,B|221:235|221:235|196:238|196:238|186:257|186:257|156:261,1,99.0000033490656
30,228,47396,1,0,0:0:0:0:
30,228,47490,1,0,0:0:0:0:
30,228,47584,6,0,B|46:244|46:244|78:249|78:249|86:276|116:275|116:275|167:258,1,148.500005023598,14|0,0:0|0:0,0:0:0:0:
212,135,47959,2,0,B|196:151|196:151|164:156|164:156|156:183|126:182|126:182|85:168,1,148.500005023598,10|0,0:0|0:0,0:0:0:0:
30,46,48334,2,0,B|46:62|46:62|78:67|78:67|86:94|116:93|116:93|167:76,1,148.500005023598,14|0,0:0|0:0,0:0:0:0:
338,101,48709,2,0,B|322:117|322:117|290:122|290:122|282:149|252:148|252:148|211:134,1,148.500005023598,10|0,0:0|0:0,0:0:0:0:
228,289,49084,6,0,B|252:275|281:276|281:276|288:244|288:244|316:227|316:227|337:198,1,148.500005023598,14|0,0:0|0:0,0:0:0:0:
411,94,49459,2,0,L|425:164,1,49.5000016745328,10|0,0:0|0:0,0:0:0:0:
494,266,49646,2,0,P|507:248|494:229,1,49.5000016745328
429,322,49834,6,0,L|443:392,1,49.5000016745328,14|0,0:0|0:0,0:0:0:0:
411,245,50021,1,0,0:0:0:0:
411,245,50115,1,0,0:0:0:0:
332,204,50209,2,0,L|320:148,1,49.5000016745328
256,130,50396,1,0,0:0:0:0:
256,130,50490,1,0,0:0:0:0:
164,86,50584,6,0,L|167:36,1,49.5000016745328,14|0,0:0|0:0,0:0:0:0:
345,37,50771,2,0,L|348:86,1,49.5000016745328
256,130,50959,2,0,L|256:81,1,49.5000016745328,10|0,0:0|0:0,0:0:0:0:
411,175,51146,2,0,L|464:189,1,49.5000016745328
439,262,51334,1,14,0:0:0:0:
365,248,51427,2,0,B|331:240|331:240|294:249|294:249|267:240,1,99.0000033490656
282,340,51709,2,0,L|330:328,1,49.5000016745328,10|2,0:0|0:0,0:0:0:0:
94,360,51896,2,0,L|45:348,1,49.5000016745328,2|2,0:0|0:0,0:0:0:0:
177,360,52084,6,0,B|181:414|230:347|175:240,1,148.500005023598,14|0,0:0|0:0,0:0:0:0:
86,253,52459,2,0,B|32:257|99:306|206:251,1,148.500005023598,10|0,0:0|0:0,0:0:0:0:
256,207,52834,1,14,0:0:0:0:
185,260,52927,2,0,B|181:314|132:247|187:140,1,148.500005023598,0|10,0:0|0:0,0:0:0:0:
255,81,53302,1,0,0:0:0:0:
325,141,53396,1,0,0:0:0:0:
414,144,53490,1,0,0:0:0:0:
400,67,53584,6,0,B|393:54|393:54|370:58|370:58|348:43|348:43|319:46|319:46|301:27|301:27|258:31|258:31,1,148.500005023598,14|0,0:0|0:0,0:0:0:0:
85,150,53959,2,0,B|92:137|92:137|115:141|115:141|137:126|137:126|166:129|166:129|184:110|184:110|227:114|227:114,1,148.500005023598,10|0,0:0|0:0,0:0:0:0:
383,244,54334,2,0,B|376:231|376:231|353:235|353:235|331:220|331:220|302:223|302:223|284:204|284:204|241:208|241:208,1,148.500005023598,14|0,0:0|0:0,0:0:0:0:
57,297,54709,2,0,B|64:284|64:284|87:288|87:288|109:273|109:273|138:276|138:276|156:257|156:257|199:261|199:261,1,148.500005023598,14|0,0:0|0:0,0:0:0:0:
129,374,55084,6,0,P|106:380|86:367,1,49.5000016745328,14|0,0:0|0:0,0:0:0:0:
217,352,55271,1,0,0:0:0:0:
241,325,55365,1,0,0:0:0:0:
260,296,55459,2,0,B|275:270|275:270|275:255|275:255|255:221|255:221|255:197,1,99.0000033490656,10|0,0:0|0:0,0:0:0:0:
167,48,55834,2,0,L|174:105,1,49.5000016745328
256,130,56021,5,0,0:0:0:0:
142,211,56209,1,10,0:0:0:0:
370,211,56396,1,0,0:0:0:0:
102,144,56584,2,0,B|89:115|40:106|40:106|16:75,1,99.0000033490656,14|0,0:0|0:0,0:0:0:0:
410,144,56959,2,0,B|422:115|471:106|471:106|495:75,1,99.0000033490656,10|0,0:0|0:0,0:0:0:0:
334,143,57334,6,0,P|314:153|300:194,1,49.5000016745328,14|0,0:0|0:0,0:0:0:0:
308,261,57521,1,0,0:0:0:0:
308,261,57615,1,0,0:0:0:0:
308,261,57709,2,0,L|291:325,1,49.5000016745328,10|2,0:0|0:0,0:0:0:0:
228,357,57896,1,2,0:0:0:0:
228,357,58084,6,0,L|175:350,1,49.5000016745328,14|0,0:0|0:0,0:0:0:0:
73,324,58271,1,0,0:0:0:0:
38,265,58365,1,0,0:0:0:0:
16,201,58459,2,0,B|31:178|31:178|31:156|31:156|47:140|47:140|52:114,1,99.0000033490656,10|0,0:0|0:0,0:0:0:0:
256,18,58834,1,0,0:0:0:0:
256,62,58928,1,0,0:0:0:0:
256,101,59021,6,0,L|256:150,1,49.5000016745328
126,98,59209,2,0,L|117:49,1,49.5000016745328,10|0,0:0|0:0,0:0:0:0:
394,49,59396,2,0,L|386:98,1,49.5000016745328,10|0,0:0|0:0,0:0:0:0:
347,198,59584,6,0,B|362:175|410:177|410:177|436:161,1,99.0000033490656,14|0,0:0|0:0,0:0:0:0:
255,284,59959,1,10,0:0:0:0:
165,198,60146,1,0,0:0:0:0:
165,198,60240,1,0,0:0:0:0:
165,198,60334,6,0,B|150:174|102:176|102:176|75:161,1,99.0000033490656,14|0,0:0|0:0,0:0:0:0:
255,100,60709,1,10,0:0:0:0:
120,284,60896,1,0,0:0:0:0:
392,284,61084,5,14,0:0:0:0:
256,375,61271,1,0,0:0:0:0:
256,375,61365,1,0,0:0:0:0:
256,375,61459,2,0,B|264:344|264:344|249:309|249:309|256:267,1,99.0000033490656,10|0,0:0|0:0,0:0:0:0:
256,125,61834,2,0,L|256:187,1,49.5000016745328,14|0,0:0|0:0,0:0:0:0:
201,235,62021,5,0,0:0:0:0:
311,235,62209,1,10,0:0:0:0:
256,175,62396,1,0,0:0:0:0:
200,320,62584,6,0,P|255:361|311:320,1,148.500005023598,14|0,0:0|0:0,0:0:0:0:
201,235,62959,2,0,B|186:236|186:236|159:225|159:225|135:237|135:237|112:223|112:223|85:236|85:236|53:222,1,148.500005023598,10|0,0:0|0:0,0:0:0:0:
99,100,63334,6,0,L|135:133,1,49.5000016745328
311,235,63521,1,0,0:0:0:0:
311,235,63615,1,0,0:0:0:0:
311,235,63709,2,0,B|326:236|326:236|353:225|353:225|377:237|377:237|400:223|400:223|427:236|427:236|459:222,1,148.500005023598,10|0,0:0|0:0,0:0:0:0:
413,100,64084,6,0,L|377:133,1,49.5000016745328,14|0,0:0|0:0,0:0:0:0:
256,151,64271,1,0,0:0:0:0:
256,151,64365,1,0,0:0:0:0:
256,151,64459,2,0,B|257:136|257:136|246:109|246:109|258:85|258:85|244:62|244:62|257:35|257:35|243:3,1,148.500005023598,10|0,0:0|0:0,0:0:0:0:
358,13,64834,1,14,0:0:0:0:
358,13,64927,1,0,0:0:0:0:
358,13,65021,6,0,L|325:55,1,49.5000016745328
256,151,65209,2,0,L|256:200,1,49.5000016745328,10|0,0:0|0:0,0:0:0:0:
185,51,65396,2,0,L|152:9,1,49.5000016745328
122,86,65584,6,0,L|165:142,1,49.5000016745328,0|0,0:0|0:0,0:0:0:0:
359,125,65771,2,0,L|390:86,1,49.5000016745328,0|0,0:0|0:0,0:0:0:0:
121,195,65959,6,0,L|151:234,1,49.5000016745328
361,234,66146,2,0,L|392:195,1,49.5000016745328
100,289,66334,6,0,L|143:345,1,49.5000016745328
382,328,66521,2,0,L|413:289,1,49.5000016745328,0|0,0:0|0:0,0:0:0:0:
256,93,66709,2,0,L|256:143,1,49.5000016745328
256,290,66896,2,0,L|256:241,1,49.5000016745328
446,16,67084,6,0,L|476:86,1,76.5000017124413,14|0,0:0|0:0,0:0:0:0:
389,81,67271,2,0,L|322:42,1,76.5000017124413
66,16,67459,2,0,L|35:86,1,76.5000017124413,10|0,0:0|0:0,0:0:0:0:
123,81,67646,2,0,L|188:42,1,76.5000017124413
205,119,67834,5,0,0:0:0:0:
194,193,67927,2,0,B|166:183|166:183|145:192|145:192|98:214|46:174,1,153.000003424883
22,289,68209,1,10,0:0:0:0:
25,329,68302,1,0,0:0:0:0:
53,358,68396,1,0,0:0:0:0:
93,364,68490,1,0,0:0:0:0:
133,360,68584,5,14,0:0:0:0:
171,336,68677,2,0,B|199:320|237:338|237:338|266:321|266:321|326:340,1,153.000003424883
450,241,68959,2,0,B|478:235|478:235|502:194,1,76.5000017124413,10|0,0:0|0:0,0:0:0:0:
323,95,69146,2,0,B|309:126|309:126|309:173,1,76.5000017124413
368,223,69334,5,14,0:0:0:0:
428,171,69427,2,0,B|402:135|428:96|428:96|405:23,1,153.000003424883
312,22,69709,2,0,B|312:49|312:49|325:72|325:72|323:95,1,76.5000017124413,10|2,0:0|0:0,0:0:0:0:
248,127,69896,1,2,0:0:0:0:
177,109,69990,1,2,0:0:0:0:
107,36,70084,6,0,L|91:123,1,76.5000017124413,14|0,0:0|0:0,0:0:0:0:
198,345,70271,2,0,L|214:261,1,76.5000017124413
308,169,70459,2,0,L|292:259,1,76.5000017124413,10|0,0:0|0:0,0:0:0:0:
129,252,70646,2,0,L|146:167,1,76.5000017124413
177,109,70834,5,0,0:0:0:0:
230,55,70927,2,0,B|263:42|306:60|306:60|378:41,1,153.000003424883
497,86,71209,1,14,0:0:0:0:
475,143,71302,1,0,0:0:0:0:
451,196,71396,1,0,0:0:0:0:
422,252,71490,1,0,0:0:0:0:
399,303,71584,6,0,L|373:375,1,76.5000017124413,14|0,0:0|0:0,0:0:0:0:
184,225,71771,2,0,L|171:149,1,76.5000017124413
339,149,71959,2,0,L|328:225,1,76.5000017124413,10|0,0:0|0:0,0:0:0:0:
90,252,72146,2,0,L|56:183,1,76.5000017124413
128,321,72334,5,14,0:0:0:0:
128,321,72427,2,0,B|152:325|152:325|174:311|174:311|209:303,1,76.5000017124413
384,321,72615,2,0,B|360:325|360:325|338:311|338:311|299:303,1,76.5000017124413,0|14,0:0|0:0,0:0:0:0:
184,225,72802,2,0,B|208:229|208:229|230:215|230:215|264:211,1,76.5000017124413,2|2,0:0|0:0,0:0:0:0:
256,166,72990,1,2,0:0:0:0:
256,118,73084,6,0,L|256:41,1,76.5000017124413,14|0,0:0|0:0,0:0:0:0:
110,246,73271,2,0,L|183:224,1,76.5000017124413
402,246,73459,2,0,L|317:222,1,76.5000017124413,10|0,0:0|0:0,0:0:0:0:
34,213,73646,2,0,L|110:188,1,76.5000017124413
184,156,73834,5,0,0:0:0:0:
101,142,73927,2,0,B|113:114|113:114|141:100|141:100|126:42|210:31,1,153.000003424883
312,35,74209,1,8,0:0:0:0:
349,43,74302,1,0,0:0:0:0:
384,56,74396,1,0,0:0:0:0:
411,82,74490,1,0,0:0:0:0:
422,128,74584,6,0,L|431:203,1,76.5000017124413,14|0,0:0|0:0,0:0:0:0:
429,363,74771,2,0,L|420:288,1,76.5000017124413
309,100,74959,2,0,L|319:176,1,76.5000017124413,2|0,0:0|0:0,0:0:0:0:
316,335,75146,2,0,L|307:260,1,76.5000017124413
238,295,75334,1,0,0:0:0:0:
191,353,75427,2,0,B|136:340|124:316|124:316|124:312|124:312|120:312|120:312|120:316|120:316|104:340|36:332,1,153.000003424883
19,239,75709,2,0,B|38:209|38:209|35:168,1,76.5000017124413,10|2,0:0|0:0,0:0:0:0:
42,104,75896,1,2,0:0:0:0:
72,46,75990,1,2,0:0:0:0:
135,22,76084,6,0,L|221:11,1,76.5000017124413,14|0,0:0|0:0,0:0:0:0:
195,92,76271,2,0,L|273:83,1,76.5000017124413
243,171,76459,2,0,L|329:162,1,76.5000017124413,10|0,0:0|0:0,0:0:0:0:
303,241,76646,2,0,L|397:231,1,76.5000017124413
327,314,76834,5,14,0:0:0:0:
251,300,76927,2,0,B|237:294|237:294|306:224|218:145,1,153.000003424883
156,162,77209,1,8,0:0:0:0:
176,227,77302,1,0,0:0:0:0:
149,289,77396,1,0,0:0:0:0:
96,334,77490,1,0,0:0:0:0:
29,356,77584,6,0,L|21:272,1,76.5000017124413,14|0,0:0|0:0,0:0:0:0:
14,203,77771,2,0,L|22:283,1,76.5000017124413
250,247,77959,2,0,L|242:165,1,76.5000017124413,10|0,0:0|0:0,0:0:0:0:
235,94,78146,2,0,L|243:178,1,76.5000017124413
87,172,78334,5,14,0:0:0:0:
87,172,78427,2,0,B|86:141|86:141|43:129,1,76.5000017124413
101,24,78615,2,0,L|175:45,1,76.5000017124413
308,40,78802,1,0,0:0:0:0:
308,40,78896,2,0,B|344:30|344:30|364:63,1,76.5000017124413
425,172,79084,6,0,B|426:141|426:141|469:129,1,76.5000017124413,14|0,0:0|0:0,0:0:0:0:
348,224,79271,2,0,B|321:224|321:224|313:228|313:228|313:220|313:220|305:224|305:224|281:224,1,76.5000017124413
364,356,79459,2,0,B|377:337|377:337|378:328|378:328|385:333|385:333|386:324|386:324|402:302,1,76.5000017124413,10|0,0:0|0:0,0:0:0:0:
228,304,79646,2,0,B|241:320|241:320|250:324|250:324|243:329|243:329|252:333|252:333|269:354,1,76.5000017124413
141,339,79834,1,0,0:0:0:0:
141,339,79927,2,0,B|108:341|108:341|82:319|82:319|78:309|78:309|67:316|67:316|33:321|33:321|1:298,1,153.000003424883
25,244,80209,1,10,0:0:0:0:
44,183,80302,1,0,0:0:0:0:
62,120,80396,1,0,0:0:0:0:
82,56,80490,1,0,0:0:0:0:
147,34,80584,5,14,0:0:0:0:
147,34,80677,2,0,B|186:-4|233:29|233:29|294:4,1,153.000003424883
443,118,80959,2,0,B|472:100|464:88|476:80|458:39,1,76.5000017124413,10|0,0:0|0:0,0:0:0:0:
323,122,81146,2,0,L|330:199,1,76.5000017124413
254,201,81334,5,14,0:0:0:0:
254,201,81427,2,0,B|285:211|285:211|309:196|309:196|337:202|337:202|406:178,1,153.000003424883
471,252,81709,2,0,B|479:269|479:269|479:286|479:286|487:285|487:285|486:303|486:303|497:326,1,76.5000017124413,10|2,0:0|0:0,0:0:0:0:
423,381,81896,1,2,0:0:0:0:
356,382,81990,1,2,0:0:0:0:
291,360,82084,6,0,B|289:323|289:323|254:303,1,76.5000017124413,14|0,0:0|0:0,0:0:0:0:
89,345,82271,2,0,L|164:336,1,76.5000017124413
363,306,82459,2,0,B|362:270|362:270|326:250,1,76.5000017124413,10|0,0:0|0:0,0:0:0:0:
95,237,82646,2,0,L|171:228,1,76.5000017124413
247,220,82834,5,0,0:0:0:0:
247,220,82927,2,0,B|84:239,1,153.000003424883
23,207,83209,1,0,0:0:0:0:
83,161,83302,1,0,0:0:0:0:
152,126,83396,1,0,0:0:0:0:
227,117,83490,1,0,0:0:0:0:
216,38,83584,6,0,L|140:47,1,76.5000017124413,14|0,0:0|0:0,0:0:0:0:
288,63,83771,2,0,L|363:53,1,76.5000017124413
228,117,83959,2,0,L|152:126,1,76.5000017124413,10|0,0:0|0:0,0:0:0:0:
299,141,84146,2,0,L|375:132,1,76.5000017124413
456,205,84334,5,4,0:0:0:0:
456,205,84427,2,0,P|495:204|501:166,1,76.5000017124413
243,194,84615,2,0,P|215:219|210:257,1,76.5000017124413
357,287,84802,2,0,B|330:287|330:287|322:291|322:291|322:283|322:283|314:287|314:287|290:287,1,76.5000017124413,2|2,0:0|0:0,0:0:0:0:
219,336,84990,1,2,0:0:0:0:
294,364,85084,6,0,B|321:364|321:364|329:360|329:360|329:368|329:368|337:364|337:364|361:364,1,76.5000017124413,14|0,0:0|0:0,0:0:0:0:
474,278,85271,2,0,B|474:305|474:305|478:313|478:313|470:313|470:313|474:321|474:321|474:345,1,76.5000017124413
385,208,85459,2,0,B|358:208|358:208|350:212|350:212|350:204|350:204|342:208|342:208|318:208,1,76.5000017124413,10|0,0:0|0:0,0:0:0:0:
488,112,85646,2,0,B|488:85|488:85|484:77|484:77|492:77|492:77|488:69|488:69|488:45,1,76.5000017124413
395,49,85834,5,0,0:0:0:0:
395,49,85927,2,0,B|374:47|374:47|363:30|363:30|345:32|345:32|326:20|326:20|303:21|303:21|289:6|289:6|262:0,1,153.000003424883
139,0,86209,1,10,0:0:0:0:
83,24,86302,1,0,0:0:0:0:
42,70,86396,1,0,0:0:0:0:
34,132,86490,1,0,0:0:0:0:
40,189,86584,6,0,L|16:271,1,76.5000017124413,14|0,0:0|0:0,0:0:0:0:
18,262,86771,2,0,L|108:254,1,76.5000017124413
94,255,86959,2,0,L|105:336,1,76.5000017124413,10|0,0:0|0:0,0:0:0:0:
104,330,87146,2,0,L|185:289,1,76.5000017124413
257,246,87334,5,0,0:0:0:0:
257,246,87427,2,0,B|242:208|242:208|258:173|258:173|247:132|247:132|262:94,1,153.000003424883
332,142,87709,2,0,B|344:177|344:177|328:214,1,76.5000017124413,2|2,0:0|0:0,0:0:0:0:
322,291,87896,1,2,0:0:0:0:
322,291,87990,1,2,0:0:0:0:
392,359,88084,6,0,L|467:348,1,76.5000017124413,14|0,0:0|0:0,0:0:0:0:
423,172,88271,2,0,L|397:101,1,76.5000017124413
412,272,88459,2,0,L|487:261,1,76.5000017124413,10|0,0:0|0:0,0:0:0:0:
443,85,88646,2,0,L|416:13,1,76.5000017124413
325,39,88834,5,14,0:0:0:0:
325,39,88927,2,0,B|295:46|295:46|205:32|205:32|179:47,1,153.000003424883
63,126,89209,1,14,0:0:0:0:
124,141,89302,1,0,0:0:0:0:
188,155,89396,1,0,0:0:0:0:
252,168,89490,1,0,0:0:0:0:
320,179,89584,6,0,B|336:213|336:213|328:251,1,76.5000017124413,14|0,0:0|0:0,0:0:0:0:
337,323,89771,2,0,B|321:289|321:289|328:250,1,76.5000017124413
206,225,89959,2,0,B|222:259|222:259|214:297,1,76.5000017124413,14|0,0:0|0:0,0:0:0:0:
223,369,90146,2,0,B|207:335|207:335|214:296,1,76.5000017124413
132,274,90334,5,14,0:0:0:0:
132,274,90427,2,0,B|127:271|127:271|123:254|123:254|107:258|107:258|101:238|101:238|85:232|85:232|86:217,1,76.5000017124413,6|0,0:0|0:0,0:0:0:0:
63,322,90615,2,0,B|64:322|64:322|48:316|48:316|42:296|42:296|26:300|26:300|22:283|22:283|20:282,1,76.5000017124413,6|10,0:0|0:0,0:0:0:0:
51,162,90802,1,6,0:0:0:0:
51,162,90896,2,0,B|48:156|48:156|55:140|55:140|40:134|40:134|47:114|47:114|37:100|37:100|47:88,1,76.5000017124413,2|2,0:0|0:0,0:0:0:0:
19,17,91084,5,14,0:0:0:0:
