osu file format v14

[General]
AudioFilename: audio.mp3
AudioLeadIn: 0
PreviewTime: 19121
Countdown: 0
SampleSet: Normal
StackLeniency: 0.7
Mode: 0
LetterboxInBreaks: 0
WidescreenStoryboard: 0

[Editor]
Bookmarks: 7145,19145,31145,43145,55145,67145,91145,103145,109145,115145,127520,139895,151895,163895,187895,211895,223895,226895
DistanceSpacing: 1.1
BeatDivisor: 8
GridSize: 16
TimelineZoom: 2.6

[Metadata]
Title:Scarlet Rose
TitleUnicode:Scarlet Rose
Artist:seleP
ArtistUnicode:seleP
Creator:pkk
Version:X
Source:
Tags:vocaloid selecia Lily UFERIUM LILIUM DOLL
BeatmapID:1120184
BeatmapSetID:528089

[Difficulty]
HPDrainRate:5.5
CircleSize:4
OverallDifficulty:9
ApproachRate:9.3
SliderMultiplier:3.29999990463257
SliderTickRate:1

[Events]
//Background and Video events
0,0,"BG1.jpg",0,0
//Break Periods
2,31344,42591
2,91344,102591
2,127720,132966
2,133720,134466
2,135220,135966
//Storyboard Layer 0 (Background)
//Storyboard Layer 1 (Fail)
//Storyboard Layer 2 (Pass)
//Storyboard Layer 3 (Foreground)
//Storyboard Sound Samples

[TimingPoints]
-355,375,4,2,1,50,1,0
395,-153.846153846154,4,2,1,50,0,0
7145,-111.111111111111,4,2,1,80,0,0
18395,-100,4,2,1,80,0,0
19145,-100,4,1,1,90,0,1
30582,-100,4,1,1,20,0,1
30676,-100,4,1,1,90,0,1
30770,-100,4,1,1,20,0,1
30863,-100,4,1,1,90,0,1
31145,-100,4,1,1,90,0,0
43145,-111.111111111111,4,2,1,70,0,0
67145,-100,4,1,1,90,0,1
78770,-100,4,1,1,90,0,0
79145,-100,4,1,1,90,0,1
91145,-100,4,1,1,90,0,0
103145,-125,4,2,1,70,0,0
107926,-125,4,2,1,10,0,0
108020,-125,4,2,1,70,0,0
108301,-125,4,2,1,10,0,0
108395,-125,4,2,1,70,0,0
108676,-125,4,2,1,30,0,0
108770,-117.647058823529,4,2,1,80,0,0
109145,-111.111111111111,4,2,1,80,0,0
127145,-125,4,2,1,60,0,0
127520,375,4,1,1,80,1,0
139520,-125,4,1,1,60,0,0
139895,375,4,2,1,60,1,0
139895,-125,4,2,1,50,0,0
151895,-117.647058823529,4,2,1,50,0,0
160895,-117.647058823529,4,1,1,40,0,0
161645,-117.647058823529,4,1,1,45,0,0
162395,-117.647058823529,4,1,1,50,0,0
163895,-100,4,1,1,90,0,1
175520,-100,4,1,1,90,0,0
175895,-90.9090909090909,4,1,1,90,0,1
187707,-83.3333333333333,4,1,1,90,0,0
187895,-83.3333333333333,4,1,1,90,0,1
199707,-83.3333333333333,4,1,1,90,0,0
199895,-83.3333333333333,4,1,1,90,0,1
211895,-100,4,1,1,90,0,0
217895,-90.9090909090909,4,1,1,90,0,0
225770,-90.9090909090909,4,1,1,70,0,0
225957,-90.9090909090909,4,1,1,50,0,0
226145,-90.9090909090909,4,1,1,40,0,0
226332,-90.9090909090909,4,1,1,35,0,0
226520,-90.9090909090909,4,1,1,30,0,0
226707,-90.9090909090909,4,1,1,5,0,0

[Colours]
Combo1 : 255,192,0
Combo2 : 243,71,71
Combo3 : 252,232,88
Combo4 : 231,143,146

[HitObjects]
178,74,395,5,4,0:0:0:0:
374,31,582,1,0,0:0:0:0:
278,122,770,2,0,L|264:230,1,107.249991991044
119,232,1145,1,0,0:0:0:0:
190,325,1332,1,0,0:0:0:0:
308,327,1520,1,0,0:0:0:0:
190,331,1707,1,0,0:0:0:0:
323,208,1895,6,0,L|424:257,1,107.249991991044,12|0,0:0|0:0,0:0:0:0:
220,207,2270,2,0,L|123:160,1,107.249991991044,12|0,0:0|0:0,0:0:0:0:
123,160,2551,1,0,0:0:0:0:
123,160,2645,5,0,0:0:0:0:
271,121,2832,1,0,0:0:0:0:
139,260,3020,2,0,L|113:376,1,107.249991991044
46,188,3395,1,0,0:0:0:0:
139,260,3582,1,0,0:0:0:0:
238,196,3770,1,0,0:0:0:0:
139,260,3957,1,0,0:0:0:0:
191,80,4145,6,0,L|307:53,1,107.249991991044,12|0,0:0|0:0,0:0:0:0:
451,199,4520,2,0,L|347:175,1,107.249991991044,12|0,0:0|0:0,0:0:0:0:
347,175,4801,1,0,0:0:0:0:
347,175,4895,5,8,0:0:0:0:
295,55,5082,1,0,0:0:0:0:
241,232,5270,1,8,0:0:0:0:
103,141,5457,6,0,L|54:125,2,35.7499973303478
103,141,5645,1,8,0:0:0:0:
272,139,5832,1,0,0:0:0:0:
160,265,6020,1,8,0:0:0:0:
359,281,6207,1,0,0:0:0:0:
39,326,6395,5,8,0:0:0:0:
261,269,6582,1,0,0:0:0:0:
124,85,6770,2,0,L|126:211,1,107.249991991044,8|0,0:0|0:0,0:0:0:0:
271,180,7145,5,6,0:0:0:0:
196,150,7238,1,0,0:0:0:0:
126,193,7332,2,0,L|128:279,1,74.2499955883028
186,335,7520,2,0,P|239:287|310:296,1,148.499991176606,10|0,0:0|0:0,0:0:0:0:
390,337,7801,1,0,0:0:0:0:
459,280,7895,6,0,B|476:229|476:229|469:181,1,74.2499955883028,2|0,0:0|0:0,0:0:0:0:
383,208,8082,2,0,B|366:157|366:157|373:112,1,74.2499955883028
416,60,8270,1,10,0:0:0:0:
336,46,8363,1,0,0:0:0:0:
254,39,8457,2,0,L|163:47,1,74.2499955883028
82,108,8645,6,0,L|8:101,2,74.2499955883028,2|0|0,0:0|0:0|0:0,0:0:0:0:
152,162,8926,1,0,0:0:0:0:
227,115,9020,2,0,B|263:154|263:154|234:267,1,148.499991176606,10|0,0:0|0:0,0:0:0:0:
332,307,9301,1,0,0:0:0:0:
332,307,9395,6,0,L|332:216,1,74.2499955883028,0|8,3:0|0:0,0:0:0:0:
239,320,9582,2,0,L|239:229,1,74.2499955883028
146,333,9770,2,0,L|146:242,1,74.2499955883028,8|0,0:0|0:0,0:0:0:0:
51,199,9957,1,0,0:0:0:0:
51,199,10051,1,0,0:0:0:0:
51,199,10145,6,0,L|51:273,1,74.2499955883028,4|0,0:0|0:0,0:0:0:0:
51,347,10332,2,0,L|51:256,1,74.2499955883028
3,133,10520,2,0,B|67:167|67:167|156:161,1,148.499991176606,10|0,0:0|0:0,0:0:0:0:
253,157,10801,1,0,0:0:0:0:
252,157,10895,6,0,P|230:186|215:220,1,74.2499955883028
238,306,11082,2,0,P|267:328|301:343,1,74.2499955883028
384,308,11270,2,0,P|406:279|421:245,1,74.2499955883028,8|0,0:0|0:0,0:0:0:0:
398,159,11457,2,0,P|369:137|335:122,1,74.2499955883028
263,79,11645,5,6,0:0:0:0:
194,122,11738,1,0,0:0:0:0:
121,83,11832,2,0,L|16:62,1,74.2499955883028,2|0,0:0|0:0,0:0:0:0:
59,159,12020,2,0,L|72:239,1,74.2499955883028,8|0,0:0|0:0,0:0:0:0:
141,318,12207,2,0,L|158:246,1,74.2499955883028
300,323,12395,5,14,0:0:0:0:
300,323,12488,2,0,P|263:318|226:313,2,74.2499955883028
353,249,12770,2,0,L|351:156,1,74.2499955883028,0|0,3:0|0:0,0:0:0:0:
446,208,12957,1,8,0:0:0:0:
455,160,13051,1,0,0:0:0:0:
463,118,13145,6,0,L|476:32,1,74.2499955883028,4|0,0:0|0:0,0:0:0:0:
399,12,13332,1,0,0:0:0:0:
318,25,13426,1,0,0:0:0:0:
237,38,13520,6,0,L|205:109,1,74.2499955883028,8|0,0:0|0:0,0:0:0:0:
176,173,13707,2,0,L|206:105,1,74.2499955883028,8|0,0:0|0:0,0:0:0:0:
59,143,13895,2,0,L|99:209,1,74.2499955883028,0|0,3:0|0:0,0:0:0:0:
136,269,14082,2,0,L|96:205,1,74.2499955883028,8|0,0:0|0:0,0:0:0:0:
266,191,14270,2,0,L|234:262,1,74.2499955883028,0|0,3:0|0:0,0:0:0:0:
205,326,14457,2,0,L|235:258,1,74.2499955883028,8|0,0:0|0:0,0:0:0:0:
317,284,14645,5,4,0:0:0:0:
385,339,14738,1,0,0:0:0:0:
457,286,14832,2,0,L|464:207,1,74.2499955883028,8|0,0:0|0:0,0:0:0:0:
402,145,15020,2,0,L|398:49,1,74.2499955883028,0|0,3:0|0:0,0:0:0:0:
317,33,15207,1,0,0:0:0:0:
244,85,15301,1,0,0:0:0:0:
156,101,15395,6,0,L|66:77,1,74.2499955883028,0|0,3:0|0:0,0:0:0:0:
242,171,15582,2,0,L|152:195,1,74.2499955883028,8|0,0:0|0:0,0:0:0:0:
315,104,15770,2,0,L|225:80,1,74.2499955883028,8|0,0:0|0:0,0:0:0:0:
323,199,15957,1,8,0:0:0:0:
401,175,16051,1,8,0:0:0:0:
406,93,16145,6,0,L|416:4,1,74.2499955883028,4|0,3:2|0:0,0:0:0:0:
494,157,16332,2,0,L|503:231,1,74.2499955883028,8|0,0:0|0:0,0:0:0:0:
392,225,16520,2,0,L|317:196,1,74.2499955883028,0|0,3:0|0:0,0:0:0:0:
240,137,16707,2,0,L|148:158,1,74.2499955883028,0|8,0:0|0:0,0:0:0:0:
43,177,16895,6,0,B|25:216|25:216|31:257,1,74.2499955883028,0|0,3:0|0:0,0:0:0:0:
30,108,17082,2,0,B|48:147|48:147|42:188,1,74.2499955883028,8|0,0:0|0:0,0:0:0:0:
43,38,17270,2,0,B|25:77|25:77|31:118,1,74.2499955883028,8|0,3:2|0:0,0:0:0:0:
121,227,17457,1,8,0:0:0:0:
121,227,17551,1,8,0:0:0:0:
121,227,17645,6,0,P|157:248|208:251,1,74.2499955883028,4|0,3:1|0:0,0:0:0:0:
238,342,17832,2,0,P|258:306|262:255,1,74.2499955883028,8|0,0:0|0:0,0:0:0:0:
352,223,18020,2,0,P|315:203|265:199,1,74.2499955883028,8|0,3:2|0:0,0:0:0:0:
232,107,18207,2,0,P|211:144|208:194,1,74.2499955883028,8|0,0:0|0:0,0:0:0:0:
354,132,18395,6,0,P|375:167|382:207,1,82.4999976158143,0|0,3:0|0:0,0:0:0:0:
446,271,18582,2,0,P|410:292|370:299,1,82.4999976158143,8|0,0:0|0:0,0:0:0:0:
308,366,18770,2,0,P|286:330|279:290,1,82.4999976158143,8|0,3:2|0:0,0:0:0:0:
208,226,18957,2,0,P|243:204|283:197,1,82.4999976158143,8|0,0:0|0:0,0:0:0:0:
454,278,19145,5,12,3:2:0:0:
454,278,19238,1,0,0:0:0:0:
454,278,19332,2,0,L|469:175,1,82.4999976158143
396,108,19520,2,0,L|384:189,1,82.4999976158143,0|0,3:0|0:0,0:0:0:0:
321,255,19707,2,0,P|282:240|242:228,1,82.4999976158143
203,151,19895,6,0,P|246:138|281:124,2,82.4999976158143,0|0|0,3:0|0:0|0:0,0:0:0:0:
132,221,20176,2,0,P|98:148|132:76,1,164.999995231629
200,29,20457,1,0,0:0:0:0:
282,34,20551,1,0,0:0:0:0:
331,100,20645,6,0,L|345:188,1,82.4999976158143,0|0,3:0|0:0,0:0:0:0:
267,261,20832,2,0,L|254:179,1,82.4999976158143
363,228,21020,2,0,L|344:308,1,82.4999976158143,8|0,3:2|0:0,0:0:0:0:
248,341,21207,2,0,L|266:260,1,82.4999976158143
151,373,21395,5,0,0:0:0:0:
151,373,21488,2,0,L|169:292,1,82.4999976158143,8|0,0:0|0:0,0:0:0:0:
151,212,21676,2,0,L|169:292,1,82.4999976158143,0|8,0:0|0:0,0:0:0:0:
151,212,21863,2,0,L|169:131,2,82.4999976158143,0|2|0,0:0|0:2|0:0,0:0:0:0:
260,99,22145,5,4,3:1:0:0:
260,99,22238,1,0,0:0:0:0:
260,99,22332,2,0,L|242:180,1,82.4999976158143,0|2,0:0|0:2,0:0:0:0:
327,213,22520,2,0,P|370:206|427:202,1,82.4999976158143,8|0,0:0|0:0,0:0:0:0:
262,282,22707,2,0,P|219:275|162:271,1,82.4999976158143
115,193,22895,5,4,3:1:0:0:
115,193,22988,2,0,P|72:186|15:182,1,82.4999976158143
138,105,23176,2,0,B|187:94|187:94|215:112|215:112|244:94|244:94|293:108,1,164.999995231629
266,186,23457,1,0,0:0:0:0:
348,188,23551,1,0,0:0:0:0:
387,115,23645,6,0,B|397:73|397:73|389:30,1,82.4999976158143,4|0,3:1|0:0,0:0:0:0:
465,195,23832,2,0,B|475:153|475:153|467:110,1,82.4999976158143
386,278,24020,2,0,B|376:236|376:236|384:193,1,82.4999976158143,8|0,0:0|0:0,0:0:0:0:
302,353,24207,2,0,B|292:311|292:311|300:268,1,82.4999976158143
228,213,24395,5,4,3:1:0:0:
228,213,24488,2,0,L|128:213,1,82.4999976158143,8|0,0:0|0:0,0:0:0:0:
230,129,24676,2,0,B|320:107|321:167|406:124,1,164.999995231629
350,51,24957,1,8,0:0:0:0:
268,27,25051,1,8,0:0:0:0:
187,55,25145,6,0,P|157:84|145:124,1,82.4999976158143,4|0,3:1|0:0,0:0:0:0:
57,152,25332,2,0,P|85:180|124:192,1,82.4999976158143
152,283,25520,2,0,P|180:254|192:215,1,82.4999976158143,8|0,0:0|0:0,0:0:0:0:
283,186,25707,2,0,P|253:156|213:144,1,82.4999976158143
262,274,25895,5,4,3:1:0:0:
262,274,25988,2,0,L|362:265,1,82.4999976158143
310,351,26176,2,0,B|253:365|253:365|207:348|207:348|126:369,1,164.999995231629
65,320,26457,1,0,0:0:0:0:
65,320,26551,1,0,0:0:0:0:
1,245,26645,6,0,L|10:151,1,82.4999976158143,4|0,3:2|0:0,0:0:0:0:
95,184,26832,2,0,B|147:188|147:188|174:174,1,82.4999976158143
82,26,27020,2,0,L|74:108,1,82.4999976158143,8|0,3:2|0:0,0:0:0:0:
159,93,27207,2,0,B|186:79|186:79|248:83,1,82.4999976158143
256,253,27395,5,0,3:0:0:0:
256,253,27488,2,0,L|263:170,1,82.4999976158143,8|0,0:0|0:0,0:0:0:0:
361,115,27676,2,0,L|354:198,1,82.4999976158143,0|0,0:0|3:0,0:0:0:0:
248,334,27863,1,0,0:0:0:0:
248,334,27957,2,0,L|255:251,1,82.4999976158143,8|0,0:0|0:0,0:0:0:0:
433,302,28145,6,0,B|392:295|392:295|350:299,1,82.4999976158143,12|0,3:2|0:0,0:0:0:0:
166,330,28332,2,0,B|207:337|207:337|249:333,1,82.4999976158143
375,190,28520,2,0,B|334:183|334:183|292:187,1,82.4999976158143,8|0,3:2|0:0,0:0:0:0:
214,225,28707,1,0,0:0:0:0:
134,188,28801,1,0,0:0:0:0:
59,232,28895,6,0,L|67:327,2,82.4999976158143,4|0|0,3:2|0:0|0:0,0:0:0:0:
150,323,29176,2,0,B|186:322|203:303|203:303|226:314|226:314|247:302|247:302|263:318|298:324,1,164.999995231629
359,268,29457,1,0,0:0:0:0:
429,310,29551,1,0,0:0:0:0:
489,253,29645,6,0,P|499:210|485:164,1,82.4999976158143,4|0,3:2|0:0,0:0:0:0:
411,128,29832,2,0,P|400:167|409:207,1,82.4999976158143
311,157,30020,2,0,P|321:114|307:68,1,82.4999976158143,8|0,0:0|0:0,0:0:0:0:
233,32,30207,2,0,P|222:71|231:111,1,82.4999976158143
184,243,30395,5,0,0:0:0:0:
184,243,30488,2,0,L|97:210,1,82.4999976158143
328,243,30676,2,0,L|415:210,1,82.4999976158143
256,110,30863,5,0,0:0:0:0:
256,129,30957,2,0,B|256:170|256:170|247:172|247:172|266:172|266:172|256:175|256:175|256:292,1,164.999995231629,0|4,0:0|3:1,0:0:0:0:
172,61,43145,6,0,B|191:65|228:31|228:31|224:74|224:74|251:41|289:33|338:57,1,222.749986764908,0|0,3:0|0:0,0:0:0:0:
288,132,43520,2,0,P|276:182|286:229,1,74.2499955883028,8|0,0:0|0:0,0:0:0:0:
229,279,43707,2,0,P|186:255|152:242,1,74.2499955883028
298,336,43895,5,0,3:0:0:0:
298,336,43988,2,0,P|341:312|375:299,1,74.2499955883028
465,250,44176,2,0,P|409:271|357:200,1,148.499991176606
307,146,44457,1,0,0:0:0:0:
229,172,44551,1,0,0:0:0:0:
155,136,44645,6,0,B|159:177|126:206|126:206|154:233|154:233|114:274|138:335,1,222.749986764908,0|0,3:0|0:0,0:0:0:0:
216,293,45020,2,0,P|265:266|297:257,1,74.2499955883028,8|0,0:0|0:0,0:0:0:0:
358,190,45207,2,0,P|323:176|291:157,1,74.2499955883028
441,145,45395,5,0,3:0:0:0:
441,145,45488,2,0,L|457:245,1,74.2499955883028
424,324,45676,2,0,P|366:282|300:308,1,148.499991176606
241,364,45957,1,2,0:0:0:0:
159,375,46051,1,0,1:0:0:0:
100,317,46145,6,0,B|77:271|127:245|127:245|85:219|66:183|82:147|108:130,1,222.749986764908
195,42,46520,2,0,L|189:125,1,74.2499955883028,8|0,0:0|0:0,0:0:0:0:
272,200,46707,2,0,L|277:125,1,74.2499955883028
341,53,46895,5,0,3:0:0:0:
341,53,46988,2,0,L|394:120,1,74.2499955883028
485,165,47176,2,0,P|435:179|362:270,1,148.499991176606
280,250,47457,1,0,0:0:0:0:
207,197,47551,1,0,0:0:0:0:
127,237,47645,6,0,B|127:265|167:282|167:282|125:292|125:292|177:315|189:396,1,222.749986764908,4|0,3:2|0:0,0:0:0:0:
260,311,48020,2,0,B|260:283|300:266|300:266|258:256|258:256|310:233|322:152,1,222.749986764908,8|0,0:0|0:0,0:0:0:0:
241,95,48395,5,8,3:2:0:0:
241,95,48488,2,0,P|186:116|148:32,1,148.499991176606,8|0,0:0|0:0,0:0:0:0:
308,7,48770,2,0,L|325:80,1,74.2499955883028,10|0,0:1|0:0,0:0:0:0:
285,233,48957,2,0,L|302:160,1,74.2499955883028,2|0,0:2|0:0,0:0:0:0:
385,326,49145,6,0,B|332:308|332:308|283:324|283:324|233:305|233:305|171:328,1,222.749986764908,4|0,3:2|0:0,0:0:0:0:
74,240,49520,2,0,B|110:253|110:253|143:240,1,74.2499955883028,8|0,0:0|0:0,0:0:0:0:
203,170,49707,2,0,B|239:183|239:183|272:170,1,74.2499955883028
361,131,49895,5,4,3:2:0:0:
361,131,49988,2,0,L|370:219,2,74.2499955883028
455,186,50270,2,0,L|446:274,1,74.2499955883028,8|0,0:0|0:0,0:0:0:0:
367,299,50457,1,0,0:0:0:0:
292,250,50551,1,0,0:0:0:0:
210,214,50645,6,0,L|128:227,1,74.2499955883028,4|0,3:2|0:0,0:0:0:0:
41,277,50832,2,0,L|114:265,1,74.2499955883028
231,245,51020,2,0,L|149:258,1,74.2499955883028,8|0,0:0|0:0,0:0:0:0:
62,308,51207,2,0,L|135:296,1,74.2499955883028
299,357,51395,5,4,3:2:0:0:
299,357,51488,2,0,L|226:346,1,74.2499955883028
328,263,51676,2,0,P|393:290|419:174,1,222.749986764908
352,108,52051,1,0,0:0:0:0:
284,190,52145,6,0,B|250:177|222:200|222:200|174:177|174:177|139:216|55:198,1,222.749986764908,4|0,3:2|0:0,0:0:0:0:
99,115,52520,2,0,P|94:78|83:42,1,74.2499955883028,8|0,0:0|0:0,0:0:0:0:
79,203,52707,2,0,P|67:238|63:275,1,74.2499955883028
133,331,52895,5,4,3:2:0:0:
203,277,52988,2,0,P|233:266|296:260,1,74.2499955883028,8|0,0:0|0:0,0:0:0:0:
412,174,53176,2,0,P|351:186|272:133,1,148.499991176606
230,78,53457,1,0,0:0:0:0:
160,121,53551,1,0,0:0:0:0:
203,192,53645,6,0,B|212:232|180:250|180:250|201:261|209:290|209:290|166:326|193:384,1,222.749986764908,4|0,3:2|0:0,0:0:0:0:
78,338,54020,2,0,B|69:298|101:280|101:280|80:269|72:240|72:240|115:204|88:146,1,222.749986764908,0|0,3:0|0:0,0:0:0:0:
141,53,54395,5,4,3:2:0:0:
141,53,54488,2,0,P|188:44|288:34,1,148.499991176606
367,135,54770,2,0,P|320:127|283:125,1,74.2499955883028,0|0,3:0|0:0,0:0:0:0:
425,209,54957,2,0,P|461:202|498:199,1,74.2499955883028,0|8,3:0|0:0,0:0:0:0:
434,318,55145,6,0,P|375:288|279:301,1,148.499991176606
213,260,55426,1,0,0:0:0:0:
213,260,55520,2,0,P|174:310|176:194,1,296.999982353211,8|0,0:0|3:0,0:0:0:0:
367,211,56082,5,0,0:0:0:0:
159,189,56270,1,8,0:0:0:0:
456,220,56457,1,0,0:0:0:0:
311,140,56645,6,0,P|279:204|301:273,1,148.499991176606
390,163,56926,1,0,0:0:0:0:
390,163,57020,2,0,P|422:98|400:29,1,148.499991176606,8|0,0:0|0:0,0:0:0:0:
243,62,57395,6,0,L|323:51,2,74.2499955883028,0|0|0,3:0|0:0|0:0,0:0:0:0:
180,138,57676,2,0,L|100:127,2,74.2499955883028,0|8|0,0:0|0:0|0:0,0:0:0:0:
261,149,57957,1,0,0:0:0:0:
342,160,58051,1,0,0:0:0:0:
423,171,58145,6,0,P|446:236|400:313,1,148.499991176606,4|0,0:0|0:0,0:0:0:0:
306,279,58426,1,0,0:0:0:0:
306,279,58520,2,0,B|276:238|219:237|181:280|181:280|149:319|86:333|46:265,1,296.999982353211,8|0,0:0|0:0,0:0:0:0:
245,326,59082,5,0,0:0:0:0:
118,236,59270,1,8,0:0:0:0:
313,378,59457,1,0,0:0:0:0:
130,337,59645,5,4,3:2:0:0:
382,337,59832,1,0,0:0:0:0:
22,251,60020,1,8,0:0:0:0:
288,163,60207,1,0,0:0:0:0:
288,163,60301,1,0,0:0:0:0:
288,163,60395,6,0,L|280:242,1,74.2499955883028,0|8,0:0|0:0,0:0:0:0:
184,307,60582,2,0,L|192:234,1,74.2499955883028
59,151,60770,2,0,P|122:159|173:88,1,148.499991176606,8|0,0:0|0:0,0:0:0:0:
239,40,61051,1,0,0:0:0:0:
325,62,61145,6,0,P|352:106|358:209,1,148.499991176606,4|0,3:2|0:0,0:0:0:0:
284,248,61426,1,0,0:0:0:0:
284,248,61520,2,0,P|222:220|289:289,1,296.999982353211,8|4,0:0|3:2,0:0:0:0:
254,125,62082,5,0,0:0:0:0:
379,280,62270,1,8,0:0:0:0:
133,280,62457,1,0,0:0:0:0:
254,125,62645,6,0,P|323:149|395:171,1,148.499991176606,4|0,3:2|0:0,0:0:0:0:
482,235,62926,1,0,0:0:0:0:
482,235,63020,2,0,P|410:256|340:281,1,148.499991176606,8|0,0:0|0:0,0:0:0:0:
156,107,63395,6,0,L|152:205,1,74.2499955883028,6|0,3:2|0:0,0:0:0:0:
250,50,63582,1,0,0:0:0:0:
250,50,63676,2,0,L|254:148,1,74.2499955883028,2|8,0:0|0:0,0:0:0:0:
341,215,63863,2,0,L|342:141,2,74.2499955883028,0|2|0,0:0|0:0|0:0,0:0:0:0:
276,298,64145,6,0,B|211:278|211:278|106:291,1,148.499991176606,4|0,3:2|0:0,0:0:0:0:
36,291,64426,1,0,0:0:0:0:
36,291,64520,2,0,B|85:231|64:131|64:131|110:194|156:191|186:165,1,296.999982353211,8|0,0:0|3:0,0:0:0:0:
238,114,64988,6,0,P|281:109|339:109,1,74.2499955883028,8|0,0:0|0:0,0:0:0:0:
462,176,65176,1,0,0:0:0:0:
462,176,65270,2,0,P|425:171|388:170,1,74.2499955883028,8|0,0:0|0:0,0:0:0:0:
217,248,65457,2,0,P|260:243|318:243,1,74.2499955883028
256,355,65645,5,4,3:2:0:0:
183,360,65738,1,0,1:0:0:0:
121,322,65832,1,0,1:0:0:0:
106,249,65926,1,0,1:0:0:0:
135,180,66020,1,0,1:0:0:0:
194,135,66113,1,0,1:0:0:0:
201,60,66207,1,0,1:0:0:0:
147,8,66301,1,0,1:0:0:0:
79,38,66395,6,0,L|55:80,6,37.1249977941514,2|0|0|0|0|0|0,0:0|0:0|0:0|0:0|0:0|0:0|0:0,0:0:0:0:
92,142,66770,5,0,1:0:0:0:
173,142,66863,1,0,1:0:0:0:
255,142,66957,1,0,1:0:0:0:
337,142,67051,1,0,1:0:0:0:
418,143,67145,6,0,P|430:182|415:231,1,82.4999976158143,4|0,3:1|0:0,0:0:0:0:
324,311,67332,2,0,P|314:271|326:232,1,82.4999976158143
406,329,67520,2,0,P|325:342|214:376,1,164.999995231629,8|0,0:0|0:0,0:0:0:0:
156,381,67801,1,0,0:0:0:0:
181,293,67895,6,0,B|190:254|190:254|181:197,2,82.4999976158143,0|0|0,3:0|0:0|0:0,0:0:0:0:
101,248,68176,2,0,B|87:173|87:173|119:77,1,164.999995231629
182,16,68457,1,0,0:0:0:0:
182,16,68551,1,0,0:0:0:0:
267,66,68645,6,0,L|354:58,1,82.4999976158143,0|0,3:0|0:0,0:0:0:0:
411,136,68832,2,0,L|328:143,1,82.4999976158143
236,183,69020,2,0,L|153:175,1,82.4999976158143,8|0,0:0|0:0,0:0:0:0:
91,252,69207,2,0,L|173:259,1,82.4999976158143
320,226,69395,5,0,3:0:0:0:
320,226,69488,2,0,P|305:284|300:308,1,82.4999976158143,8|0,0:0|0:0,0:0:0:0:
210,370,69676,2,0,P|198:319|188:280,1,82.4999976158143,0|8,0:0|3:1,0:0:0:0:
94,256,69863,1,0,0:0:0:0:
94,256,69957,2,0,P|100:215|111:175,1,82.4999976158143,8|0,0:0|0:0,0:0:0:0:
224,68,70145,6,0,P|182:74|142:78,1,82.4999976158143,4|0,3:2|0:0,0:0:0:0:
21,157,70332,2,0,P|61:161|102:167,1,82.4999976158143
219,201,70520,2,0,B|275:168|275:168|341:191|345:249,1,164.999995231629,8|0,0:0|0:0,0:0:0:0:
290,322,70801,1,0,0:0:0:0:
192,288,70895,6,0,L|110:276,2,82.4999976158143,0|0|0,3:0|0:0|0:0,0:0:0:0:
217,367,71176,2,0,B|275:357|275:357|302:366|302:366|326:357|326:357|402:366,1,164.999995231629
454,301,71457,1,0,0:0:0:0:
454,301,71551,1,0,0:0:0:0:
388,211,71645,6,0,L|291:238,1,82.4999976158143,4|0,3:1|0:0,0:0:0:0:
185,229,71832,2,0,L|237:165,1,82.4999976158143
294,60,72020,2,0,L|325:153,1,82.4999976158143,8|0,0:0|0:0,0:0:0:0:
195,82,72207,2,0,L|94:75,1,82.4999976158143
34,142,72395,5,0,0:0:0:0:
34,142,72488,2,0,P|46:207|48:235,1,82.4999976158143
144,212,72676,2,0,P|116:272|102:296,1,82.4999976158143,0|8,3:0|0:0,0:0:0:0:
201,327,72863,1,0,3:0:0:0:
201,327,72957,2,0,P|144:360|118:371,1,82.4999976158143,8|0,0:0|0:0,0:0:0:0:
262,383,73145,5,4,3:1:0:0:
348,373,73238,1,0,0:0:0:0:
434,363,73332,2,0,P|451:322|449:276,1,82.4999976158143
423,196,73520,2,0,P|383:210|337:227,1,82.4999976158143,8|0,0:0|0:0,0:0:0:0:
236,270,73707,2,0,P|274:283|313:297,1,82.4999976158143
149,354,73895,5,0,3:0:0:0:
149,354,73988,2,0,P|136:309|136:246,1,82.4999976158143
156,167,74176,2,0,P|221:183|265:108,1,164.999995231629
234,28,74457,1,0,0:0:0:0:
146,19,74551,1,0,0:0:0:0:
79,75,74645,6,0,B|68:113|68:113|67:186,1,82.4999976158143,4|0,3:2|0:0,0:0:0:0:
167,248,74832,2,0,B|166:206|166:206|156:167,1,82.4999976158143
42,270,75020,2,0,P|77:310|119:326,1,82.4999976158143,8|0,0:0|0:0,0:0:0:0:
246,321,75207,2,0,P|221:354|186:374,1,82.4999976158143
261,237,75395,5,0,0:0:0:0:
261,237,75488,2,0,L|341:258,1,82.4999976158143,8|0,0:0|0:0,0:0:0:0:
440,318,75676,2,0,P|470:262|477:223,1,82.4999976158143,0|8,0:0|0:0,0:0:0:0:
431,143,75863,1,0,0:0:0:0:
431,143,75957,2,0,P|401:87|394:48,1,82.4999976158143,8|0,0:0|0:0,0:0:0:0:
293,91,76145,6,0,B|249:102|249:102|212:96,1,82.4999976158143,4|0,3:1|0:0,0:0:0:0:
77,23,76332,2,0,B|121:34|121:34|157:28,1,82.4999976158143
121,114,76520,2,0,B|81:155|81:155|63:202|84:275,1,164.999995231629,8|0,0:0|0:0,0:0:0:0:
143,328,76801,1,0,0:0:0:0:
219,280,76895,6,0,P|271:266|324:263,2,82.4999976158143,0|0|0,3:0|0:0|0:0,0:0:0:0:
334,353,77176,2,0,P|373:364|414:369,1,82.4999976158143,0|8,0:0|0:0,0:0:0:0:
395,268,77363,1,0,0:0:0:0:
393,264,77457,2,0,P|380:225|360:190,1,82.4999976158143
282,91,77645,6,0,L|263:185,1,82.4999976158143,4|0,3:1|0:0,0:0:0:0:
202,287,77832,2,0,L|186:207,1,82.4999976158143
206,36,78020,2,0,L|187:130,1,82.4999976158143,8|0,0:0|0:0,0:0:0:0:
123,320,78207,2,0,L|106:239,1,82.4999976158143
49,99,78395,5,0,3:0:0:0:
49,99,78488,2,0,L|126:169,1,82.4999976158143
265,186,78676,2,0,L|157:213,1,82.4999976158143,0|8,0:0|0:0,0:0:0:0:
284,273,78863,1,0,0:0:0:0:
366,294,78957,2,0,L|474:321,1,82.4999976158143
436,219,79145,6,0,B|423:174|423:174|438:122,2,82.4999976158143,4|0|0,3:1|0:0|0:0,0:0:0:0:
344,199,79426,1,0,0:0:0:0:
301,116,79520,2,0,B|288:71|288:71|303:19,1,82.4999976158143,8|0,0:0|0:0,0:0:0:0:
199,101,79707,2,0,B|208:135|208:135|196:180,1,82.4999976158143
120,237,79895,6,0,B|80:222|80:222|41:230,2,82.4999976158143
201,283,80176,2,0,B|282:316|279:254|377:292,1,164.999995231629
416,218,80457,1,0,0:0:0:0:
485,271,80551,1,0,0:0:0:0:
509,187,80645,6,0,B|509:157|509:157|504:157|504:157|514:157|514:157|509:156|509:156|509:120,1,82.4999976158143,0|0,3:0|0:0,0:0:0:0:
417,48,80832,2,0,B|417:80|417:80|422:81|422:81|412:81|412:81|417:81|417:81|417:111,1,82.4999976158143
324,161,81020,2,0,B|324:131|324:131|319:131|319:131|329:131|329:131|324:130|324:130|324:94,1,82.4999976158143,8|0,0:0|0:0,0:0:0:0:
234,25,81207,2,0,B|234:57|234:57|239:58|239:58|229:58|229:58|234:58|234:58|234:88,1,82.4999976158143
180,166,81395,5,0,0:0:0:0:
180,166,81488,2,0,L|90:158,1,82.4999976158143,8|0,0:0|0:0,0:0:0:0:
239,247,81676,2,0,L|329:239,1,82.4999976158143,0|8,0:0|0:0,0:0:0:0:
448,321,81863,1,0,0:0:0:0:
448,321,81957,2,0,L|360:317,1,82.4999976158143,8|0,0:0|0:0,0:0:0:0:
282,363,82145,6,0,P|236:344|201:334,1,82.4999976158143,4|0,3:1|0:0,0:0:0:0:
118,277,82332,2,0,P|157:265|195:248,1,82.4999976158143
268,178,82520,2,0,P|279:218|292:257,1,82.4999976158143,8|0,0:0|0:0,0:0:0:0:
180,154,82707,2,0,P|193:114|204:75,1,82.4999976158143
286,27,82895,5,0,3:0:0:0:
286,27,82988,2,0,B|324:62|324:62|356:62|356:62|375:86|375:86|427:127,1,164.999995231629
391,208,83270,2,0,L|309:146,1,82.4999976158143,8|0,0:0|0:0,0:0:0:0:
246,120,83457,1,0,0:0:0:0:
167,153,83551,1,0,0:0:0:0:
102,95,83645,6,0,P|61:85|20:80,1,82.4999976158143,4|0,3:2|0:0,0:0:0:0:
135,207,83832,2,0,P|94:197|53:192,1,82.4999976158143
208,134,84020,2,0,P|157:123|110:118,1,82.4999976158143,8|0,0:0|0:0,0:0:0:0:
240,271,84207,2,0,P|189:260|142:255,1,82.4999976158143
326,242,84395,5,0,3:0:0:0:
326,242,84488,2,0,L|349:332,1,82.4999976158143,8|0,0:0|0:0,0:0:0:0:
410,245,84676,2,0,L|431:166,1,82.4999976158143,0|8,0:0|0:0,0:0:0:0:
402,87,84863,1,0,0:0:0:0:
334,148,84957,2,0,L|246:117,1,82.4999976158143,8|0,0:0|0:0,0:0:0:0:
196,69,85145,5,4,3:1:0:0:
150,137,85238,1,0,0:0:0:0:
73,169,85332,2,0,P|31:144|14:113,1,82.4999976158143
139,223,85520,2,0,P|142:263|127:301,1,82.4999976158143,8|0,0:0|0:0,0:0:0:0:
181,372,85707,2,0,L|262:360,1,82.4999976158143
382,291,85895,5,0,3:0:0:0:
382,291,85988,2,0,L|300:279,1,82.4999976158143
296,194,86176,2,0,B|252:192|219:228|219:228|180:218|144:241,1,164.999995231629
81,153,86457,1,0,0:0:0:0:
81,153,86551,1,0,0:0:0:0:
185,117,86645,6,0,P|205:81|218:42,1,82.4999976158143,4|0,3:2|0:0,0:0:0:0:
302,104,86832,2,0,P|314:143|335:178,1,82.4999976158143
264,237,87020,2,0,B|223:231|223:231|171:236,1,82.4999976158143,8|0,0:0|0:0,0:0:0:0:
333,297,87207,2,0,B|374:291|374:291|426:296,1,82.4999976158143
262,359,87395,6,0,B|221:353|221:353|180:356,2,82.4999976158143,0|8|0,0:0|0:0|0:0,0:0:0:0:
188,268,87676,2,0,B|147:271|147:271|106:265,2,82.4999976158143,0|8|0,0:0|0:0|0:0,0:0:0:0:
252,206,87957,1,8,0:0:0:0:
338,234,88051,1,0,0:0:0:0:
406,174,88145,6,0,B|410:136|410:136|405:72,1,82.4999976158143,4|0,3:1|0:0,0:0:0:0:
317,45,88332,2,0,B|313:83|313:83|316:127,1,82.4999976158143
219,120,88520,2,0,B|195:182|195:182|205:245|282:270,1,164.999995231629,8|0,0:0|0:0,0:0:0:0:
341,238,88801,1,0,0:0:0:0:
413,292,88895,6,0,B|424:334|424:334|414:380,2,82.4999976158143,0|0|0,3:0|0:0|0:0,0:0:0:0:
330,335,89176,2,0,B|285:350|285:350|244:335|244:335|196:350|157:348,1,164.999995231629
105,282,89457,1,0,0:0:0:0:
105,282,89551,1,0,0:0:0:0:
177,149,89645,6,0,L|191:238,1,82.4999976158143,4|0,3:1|0:0,0:0:0:0:
93,363,89832,2,0,L|105:281,1,82.4999976158143
264,195,90020,2,0,L|173:237,1,82.4999976158143,8|0,0:0|0:0,0:0:0:0:
296,97,90207,2,0,L|371:132,1,82.4999976158143
377,321,90395,5,0,0:0:0:0:
377,321,90488,2,0,P|355:274|344:220,1,82.4999976158143
500,166,90676,2,0,P|488:205|470:242,1,82.4999976158143
279,230,90863,5,0,0:0:0:0:
278,223,90957,2,0,P|313:176|411:212,1,164.999995231629,0|4,0:0|3:1,0:0:0:0:
81,194,103145,6,0,B|138:209|169:163|169:163|202:211|202:211|246:160|315:198,1,263.999992370606
141,77,103707,1,0,0:0:0:0:
332,30,103895,5,0,0:0:0:0:
332,30,103988,2,0,L|324:115,2,65.9999980926514
414,103,104270,2,0,B|412:163|412:163|421:184|421:184|418:251,1,131.999996185303,8|0,0:0|0:0,0:0:0:0:
357,307,104551,1,0,0:0:0:0:
258,275,104645,6,0,L|179:273,1,65.9999980926514
318,231,104832,2,0,L|239:229,1,65.9999980926514
378,187,105020,2,0,L|299:185,1,65.9999980926514
438,143,105207,2,0,L|359:141,1,65.9999980926514
253,72,105395,6,0,L|318:72,2,65.9999980926514
143,99,105676,1,0,0:0:0:0:
143,99,105770,2,0,P|169:139|181:186,1,65.9999980926514,8|0,0:0|0:0,0:0:0:0:
176,268,105957,2,0,P|166:314|141:356,1,65.9999980926514
72,251,106145,6,0,B|214:205|187:301|338:251,1,263.999992370606,4|0,0:0|0:0,0:0:0:0:
254,118,106707,1,0,0:0:0:0:
432,162,106895,5,0,0:0:0:0:
432,162,106988,2,0,L|336:172,2,65.9999980926514
329,253,107270,2,0,L|199:232,1,131.999996185303,8|0,0:0|0:0,0:0:0:0:
108,279,107551,1,0,0:0:0:0:
32,211,107645,6,0,B|46:200|43:179|43:179|30:158|11:152|11:152|43:157|84:125|84:125|57:111|49:74,1,197.999994277954,4|0,0:0|0:0,0:0:0:0:
153,58,108020,6,0,B|144:101|191:120|191:120|155:146|152:163|152:163|186:189|167:240,1,197.999994277954,2|0,0:0|0:0,0:0:0:0:
283,234,108395,6,0,B|283:195|263:177|263:177|281:148|290:118|290:118|266:87|273:40,1,197.999994277954,4|0,0:0|3:0,0:0:0:0:
408,60,108770,6,0,B|400:111|376:154|376:154|395:204|394:271,1,210.374997932911,4|0,0:0|0:0,0:0:0:0:
438,352,109145,6,0,P|394:341|216:346,1,222.749986764908,4|0,3:2|0:0,0:0:0:0:
124,369,109520,1,8,0:0:0:0:
243,217,109707,1,0,0:0:0:0:
112,74,109895,1,4,3:2:0:0:
112,74,109988,2,0,L|96:181,2,74.2499955883028
220,39,110270,6,0,L|209:112,1,74.2499955883028,8|0,0:0|0:0,0:0:0:0:
305,84,110457,1,0,0:0:0:0:
400,66,110551,1,0,0:0:0:0:
471,132,110645,6,0,L|474:215,1,74.2499955883028,4|0,3:2|0:0,0:0:0:0:
410,350,110832,2,0,L|407:275,1,74.2499955883028
331,154,111020,2,0,L|333:228,1,74.2499955883028,8|0,0:0|0:0,0:0:0:0:
267,365,111207,2,0,L|264:290,1,74.2499955883028
191,150,111395,5,4,3:2:0:0:
191,150,111488,2,0,L|193:224,1,74.2499955883028,8|0,0:0|0:0,0:0:0:0:
96,91,111676,1,0,0:0:0:0:
96,91,111770,2,0,L|98:165,1,74.2499955883028,8|0,0:0|0:0,0:0:0:0:
4,225,111957,2,0,L|1:150,1,74.2499955883028,8|0,0:0|0:0,0:0:0:0:
116,255,112145,6,0,P|87:314|204:346,1,222.749986764908,4|0,3:2|0:0,0:0:0:0:
243,270,112520,1,8,0:0:0:0:
13,336,112707,1,0,0:0:0:0:
202,114,112895,5,4,3:2:0:0:
202,114,112988,2,0,L|193:212,1,74.2499955883028,8|0,0:0|0:0,0:0:0:0:
116,255,113176,1,0,0:0:0:0:
116,255,113270,2,0,L|107:157,1,74.2499955883028,8|0,0:0|0:0,0:0:0:0:
276,206,113457,1,0,0:0:0:0:
257,293,113551,1,0,0:0:0:0:
183,344,113645,6,0,B|145:338|121:350|121:350|84:331|84:331|49:336|15:353|15:353|39:322|41:283,1,222.749986764908,4|0,3:2|0:0,0:0:0:0:
116,255,114020,2,0,P|154:228|163:119,1,148.499991176606,8|0,0:0|0:0,0:0:0:0:
103,62,114301,1,0,0:0:0:0:
187,14,114395,6,0,P|234:7|267:7,1,74.2499955883028,0|0,3:0|0:0,0:0:0:0:
397,106,114582,2,0,P|349:99|316:99,1,74.2499955883028
216,188,114770,1,8,0:0:0:0:
342,341,114957,1,0,0:0:0:0:
342,341,115051,1,0,0:0:0:0:
342,341,115145,6,0,P|348:249|359:174,1,148.499991176606,4|0,3:1|0:0,0:0:0:0:
322,102,115426,1,0,0:0:0:0:
253,159,115520,2,0,B|217:151|187:169|187:169|133:145|133:145|66:169|75:229|75:229|102:218|148:224,1,296.999982353211,8|0,0:0|3:0,0:0:0:0:
381,222,116082,5,0,0:0:0:0:
131,222,116270,1,8,0:0:0:0:
381,222,116457,1,0,0:0:0:0:
277,76,116645,6,0,B|239:129|254:182|254:182|291:130,1,148.499991176606,0|0,3:0|0:0,0:0:0:0:
359,124,116926,1,0,0:0:0:0:
437,167,117020,2,0,B|475:220|460:273|460:273|423:221,1,148.499991176606,8|0,0:0|0:0,0:0:0:0:
212,277,117395,6,0,P|248:271|285:267,2,74.2499955883028,0|0|0,3:0|0:0|0:0,0:0:0:0:
141,221,117676,2,0,P|104:215|67:211,2,74.2499955883028,0|8|0,0:0|0:0|0:0,0:0:0:0:
208,162,117957,1,0,0:0:0:0:
295,181,118051,1,0,0:0:0:0:
367,133,118145,6,0,B|412:103|412:103|467:152|436:219,1,148.499991176606,4|0,0:0|0:0,0:0:0:0:
392,257,118426,1,0,0:0:0:0:
301,266,118520,2,0,B|268:217|199:222|171:276|171:276|179:223|133:204|95:217|84:244,1,296.999982353211,8|0,0:0|3:0,0:0:0:0:
240,306,119082,5,0,0:0:0:0:
22,324,119270,1,8,0:0:0:0:
312,344,119457,1,0,0:0:0:0:
256,96,119645,5,4,3:2:0:0:
256,288,119832,1,0,0:0:0:0:
256,64,120020,1,8,0:0:0:0:
416,192,120207,1,0,0:0:0:0:
416,192,120301,1,0,0:0:0:0:
416,192,120395,6,0,P|427:136|431:103,1,74.2499955883028,0|8,3:0|0:0,0:0:0:0:
326,254,120582,2,0,P|315:198|311:165,1,74.2499955883028
201,294,120770,2,0,P|214:212|229:121,1,148.499991176606,8|0,0:0|0:0,0:0:0:0:
185,67,121051,1,0,0:0:0:0:
113,120,121145,6,0,P|66:140|61:49,1,148.499991176606,4|0,3:2|0:0,0:0:0:0:
106,10,121426,1,0,0:0:0:0:
185,67,121520,2,0,B|238:220|123:192|181:373,1,296.999982353211,8|4,0:0|3:2,0:0:0:0:
319,268,122082,5,0,0:0:0:0:
121,249,122270,1,8,0:0:0:0:
403,278,122457,1,0,0:0:0:0:
287,167,122645,6,0,P|274:98|281:14,1,148.499991176606,4|0,3:2|0:0,0:0:0:0:
395,131,122926,1,0,0:0:0:0:
395,131,123020,2,0,P|408:200|401:284,1,148.499991176606,8|0,0:0|0:0,0:0:0:0:
230,285,123395,6,0,P|263:268|299:260,1,74.2499955883028,0|8,0:0|0:0,0:0:0:0:
228,376,123582,1,0,0:0:0:0:
228,376,123676,2,0,P|191:368|158:351,1,74.2499955883028,0|8,0:0|0:0,0:0:0:0:
85,298,123863,2,0,L|72:371,2,74.2499955883028,0|2|0,0:0|0:0|0:0,0:0:0:0:
148,234,124145,6,0,B|160:169|160:169|143:54,1,148.499991176606,4|0,3:2|0:0,0:0:0:0:
208,21,124426,1,0,0:0:0:0:
274,80,124520,2,0,B|361:124|443:86|443:86|393:122|371:173|400:207,1,296.999982353211,8|4,0:0|3:2,0:0:0:0:
437,343,124988,6,0,P|446:297|452:249,1,74.2499955883028,8|0,0:0|0:0,0:0:0:0:
333,293,125176,1,0,0:0:0:0:
333,293,125270,2,0,P|311:250|296:220,1,74.2499955883028,8|0,0:0|0:0,0:0:0:0:
216,276,125457,2,0,P|174:257|140:248,1,74.2499955883028
49,187,125645,6,0,L|55:223,6,37.1249977941514
126,109,126020,2,0,L|132:145,6,37.1249977941514
223,127,126395,2,0,L|229:163,6,37.1249977941514
306,74,126770,2,0,L|312:110,6,37.1249977941514
405,122,127145,6,0,P|433:181|417:244,1,131.999996185303
256,320,127520,1,4,0:0:0:0:
65,269,133520,5,4,0:0:0:0:
450,251,135020,5,4,0:0:0:0:
113,150,136520,5,4,0:0:0:0:
385,330,137270,1,4,0:0:0:0:
265,175,138020,5,0,0:0:0:0:
224,169,138395,1,0,0:0:0:0:
183,163,138770,1,0,0:0:0:0:
142,158,139145,1,0,0:0:0:0:
101,152,139520,2,0,L|102:242,2,65.9999980926514,0|0|0,2:0|2:0|2:0,0:0:0:0:
175,259,139895,6,0,P|219:252|256:250,1,65.9999980926514,4|0,3:2|0:0,0:0:0:0:
265,175,140082,2,0,P|299:201|327:226,1,65.9999980926514
364,280,140270,2,0,P|410:286|420:197,1,131.999996185303,0|0,3:0|0:0,0:0:0:0:
395,152,140551,1,0,0:0:0:0:
342,92,140645,6,0,L|352:10,2,65.9999980926514,0|0|0,3:0|0:0|0:0,0:0:0:0:
266,116,140926,2,0,B|226:102|226:102|195:114|195:114|159:104|159:104|116:110,1,131.999996185303
92,170,141207,1,0,0:0:0:0:
166,196,141301,1,0,0:0:0:0:
240,222,141395,6,0,B|246:255|246:255|239:291,1,65.9999980926514,0|0,3:0|0:0,0:0:0:0:
160,282,141582,2,0,B|153:315|153:315|160:352,1,65.9999980926514
236,368,141770,2,0,B|290:351|290:351|329:364|329:364|385:348,1,131.999996185303,0|0,3:0|0:0,0:0:0:0:
354,183,142145,5,0,3:0:0:0:
354,183,142238,2,0,P|346:215|341:247,1,65.9999980926514
263,216,142426,2,0,P|253:151|235:87,1,131.999996185303
184,34,142707,1,0,3:0:0:0:
134,87,142801,1,0,0:0:0:0:
89,144,142895,6,0,P|45:152|7:154,1,65.9999980926514,4|0,0:0|0:0,0:0:0:0:
123,214,143082,2,0,P|166:222|204:224,1,65.9999980926514
251,145,143270,2,0,B|302:123|302:123|393:147,1,131.999996185303,0|0,3:0|0:0,0:0:0:0:
328,294,143645,6,0,P|316:324|312:357,2,65.9999980926514,0|0|0,3:0|0:0|0:0,0:0:0:0:
260,251,143926,2,0,P|206:296|127:268,1,131.999996185303
89,234,144207,1,0,0:0:0:0:
89,234,144301,1,0,0:0:0:0:
140,166,144395,6,0,L|149:86,1,65.9999980926514,4|0,0:0|0:0,0:0:0:0:
217,138,144582,2,0,L|225:57,1,65.9999980926514,4|0,0:0|0:0,0:0:0:0:
293,110,144770,2,0,L|302:29,1,65.9999980926514,0|0,3:0|0:0,0:0:0:0:
370,82,144957,2,0,L|379:1,1,65.9999980926514
434,126,145145,5,0,0:0:0:0:
433,133,145238,2,0,L|419:279,2,131.999996185303,0|0|0,0:0|3:0|0:0,0:0:0:0:
356,151,145707,1,0,3:0:0:0:
356,151,145801,1,0,0:0:0:0:
295,99,145895,6,0,P|255:119|226:141,1,65.9999980926514,4|0,3:2|0:0,0:0:0:0:
173,182,146082,2,0,P|212:202|241:224,1,65.9999980926514
235,295,146270,2,0,P|176:284|73:284,1,131.999996185303,0|0,3:0|0:0,0:0:0:0:
305,241,146645,5,0,3:0:0:0:
305,241,146738,2,0,P|376:240|447:228,1,131.999996185303
462,306,147020,2,0,P|431:318|400:329,1,65.9999980926514,0|0,3:0|0:0,0:0:0:0:
330,349,147207,1,0,0:0:0:0:
257,343,147301,1,0,0:0:0:0:
199,297,147395,6,0,P|164:283|130:271,1,65.9999980926514,4|0,0:0|0:0,0:0:0:0:
31,233,147582,2,0,P|64:220|99:207,1,65.9999980926514
200,141,147770,2,0,P|174:189|161:215,2,65.9999980926514,0|0|0,3:0|0:0|0:0,0:0:0:0:
355,247,148145,5,0,3:0:0:0:
355,247,148238,2,0,P|295:221|263:214,1,65.9999980926514
288,304,148426,2,0,P|223:291|157:292,1,131.999996185303
90,320,148707,1,0,3:0:0:0:
39,267,148801,1,0,0:0:0:0:
81,207,148895,6,0,P|88:174|94:142,1,65.9999980926514,4|0,0:0|0:0,0:0:0:0:
172,126,149082,2,0,P|165:158|158:190,1,65.9999980926514
230,225,149270,2,0,P|284:185|374:155,1,131.999996185303,0|0,3:0|0:0,0:0:0:0:
436,288,149645,5,4,3:2:0:0:
436,288,149738,2,0,P|385:284|347:282,1,65.9999980926514
300,305,149926,2,0,P|246:345|156:375,1,131.999996185303
115,353,150207,1,0,0:0:0:0:
85,286,150301,1,0,0:0:0:0:
137,235,150395,6,0,L|231:222,1,65.9999980926514
324,277,150582,2,0,L|258:286,1,65.9999980926514
155,210,150770,2,0,L|249:197,1,65.9999980926514,4|0,0:0|0:0,0:0:0:0:
342,252,150957,2,0,L|276:261,1,65.9999980926514
173,185,151145,5,0,0:0:0:0:
173,185,151238,2,0,L|267:172,1,65.9999980926514,4|0,0:0|0:0,0:0:0:0:
301,99,151426,2,0,B|374:109|374:109|411:175,1,131.999996185303
363,246,151707,2,0,L|358:339,1,65.9999980926514
269,352,151895,6,0,L|272:281,2,70.1249993109703
190,288,152176,1,0,0:0:0:0:
189,287,152270,2,0,L|192:216,1,70.1249993109703
197,138,152457,1,0,0:0:0:0:
253,85,152551,1,0,0:0:0:0:
323,117,152645,6,0,P|354:131|389:135,2,70.1249993109703
253,85,152926,2,0,B|222:62|196:57|196:57|105:58,1,140.249998621941
63,111,153207,1,0,0:0:0:0:
98,179,153301,1,0,0:0:0:0:
80,254,153395,6,0,P|76:293|76:327,1,70.1249993109703
151,376,153582,2,0,P|151:340|155:306,1,70.1249993109703
236,234,153770,2,0,P|232:273|232:307,1,70.1249993109703
307,356,153957,2,0,P|307:320|311:286,1,70.1249993109703
363,223,154145,5,0,0:0:0:0:
363,223,154238,2,0,P|404:216|442:214,1,70.1249993109703
512,131,154426,2,0,P|441:132|372:142,1,140.249998621941
289,159,154707,2,0,P|303:108|308:79,1,70.1249993109703
249,36,154895,5,4,0:0:0:0:
182,73,154988,1,0,0:0:0:0:
107,51,155082,2,0,L|8:47,1,70.1249993109703
54,124,155270,2,0,L|153:128,1,70.1249993109703
173,186,155457,2,0,L|272:182,1,70.1249993109703
298,128,155645,5,0,0:0:0:0:
298,128,155738,2,0,B|350:150|350:150|445:116,1,140.249998621941
448,197,156020,2,0,P|431:229|422:262,1,70.1249993109703
363,312,156207,1,0,0:0:0:0:
299,268,156301,1,0,0:0:0:0:
223,259,156395,6,0,B|191:259|191:259|154:266,1,70.1249993109703,4|0,0:0|0:0,0:0:0:0:
138,189,156582,2,0,B|138:221|138:221|145:258,1,70.1249993109703
64,199,156770,2,0,B|96:199|96:199|133:192,1,70.1249993109703
67,123,156957,2,0,B|67:155|67:155|60:192,1,70.1249993109703
157,111,157145,5,4,0:0:0:0:
157,111,157238,2,0,B|157:79|157:79|150:42,1,70.1249993109703
231,171,157426,2,0,B|231:139|231:139|238:102,1,70.1249993109703
317,215,157613,1,0,0:0:0:0:
317,215,157707,2,0,B|317:183|317:183|310:146,1,70.1249993109703
394,260,157895,6,0,B|426:268|426:268|468:258,2,70.1249993109703,4|0|0,0:0|0:0|0:0,0:0:0:0:
320,301,158176,1,0,0:0:0:0:
247,257,158270,2,0,B|210:248|210:248|178:256,1,70.1249993109703
108,205,158457,2,0,B|71:196|71:196|39:204,1,70.1249993109703
144,130,158645,6,0,L|211:161,1,70.1249993109703
292,169,158832,2,0,L|355:139,1,70.1249993109703
239,239,159020,2,0,L|306:270,1,70.1249993109703
387,278,159207,2,0,L|450:248,1,70.1249993109703
461,98,159395,6,0,P|441:137|434:169,1,70.1249993109703,4|0,0:0|0:0,0:0:0:0:
356,195,159582,2,0,P|317:175|285:168,1,70.1249993109703
249,94,159770,2,0,P|269:55|276:23,1,70.1249993109703
354,0,159957,2,0,P|393:20|425:27,1,70.1249993109703
434,162,160145,6,0,P|402:184|365:195,1,70.1249993109703
276,196,160332,2,0,P|242:184|214:164,1,70.1249993109703
56,198,160520,2,0,P|88:176|125:165,1,70.1249993109703
214,164,160707,2,0,P|247:175|275:195,1,70.1249993109703
267,322,160895,5,6,2:0:0:0:
241,345,160988,1,0,0:0:0:0:
209,359,161082,1,0,0:0:0:0:
174,363,161176,1,0,0:0:0:0:
140,356,161270,1,0,0:0:0:0:
110,339,161363,1,0,0:0:0:0:
86,313,161457,2,0,P|62:271|59:241,1,70.1249993109703
173,188,161645,5,6,2:0:0:0:
198,211,161738,1,0,0:0:0:0:
230,225,161832,1,0,0:0:0:0:
265,229,161926,1,0,0:0:0:0:
299,222,162020,1,0,0:0:0:0:
329,205,162113,1,0,0:0:0:0:
353,179,162207,2,0,P|377:136|380:106,1,70.1249993109703
418,28,162395,6,0,L|456:22,6,35.0624996554852
315,57,162770,2,0,L|277:51,6,35.0624996554852
252,30,163145,5,0,3:0:0:0:
191,70,163238,1,0,0:0:0:0:
181,141,163332,1,0,3:0:0:0:
228,196,163426,1,0,0:0:0:0:
301,191,163520,1,0,3:0:0:0:
348,245,163613,1,0,0:0:0:0:
338,317,163707,1,0,3:0:0:0:
279,357,163801,1,0,0:0:0:0:
210,325,163895,6,0,B|171:310|171:310|119:304,1,82.4999976158143,4|0,3:1|0:0,0:0:0:0:
49,237,164082,2,0,B|88:222|88:222|129:218,1,82.4999976158143
202,162,164270,2,0,B|240:193|240:193|285:169|285:169|326:195|367:191,1,164.999995231629,8|0,0:0|0:0,0:0:0:0:
415,133,164551,1,0,0:0:0:0:
483,192,164645,6,0,P|483:231|473:278,2,82.4999976158143,0|0|0,3:0|0:0|0:0,0:0:0:0:
415,133,164926,2,0,P|391:73|487:62,1,164.999995231629
415,133,165207,2,0,P|375:120|335:112,1,82.4999976158143
237,68,165395,6,0,L|230:152,1,82.4999976158143,0|0,3:0|0:0,0:0:0:0:
320,286,165582,2,0,L|314:204,1,82.4999976158143
205,166,165770,2,0,L|198:250,1,82.4999976158143,8|0,0:0|0:0,0:0:0:0:
299,381,165957,2,0,L|293:299,1,82.4999976158143
169,257,166145,5,0,3:0:0:0:
169,257,166238,2,0,B|88:272,1,82.4999976158143,8|0,0:0|0:0,0:0:0:0:
44,129,166426,2,0,P|140:146|218:171,1,164.999995231629
293,185,166707,1,0,0:0:0:0:
371,139,166801,1,0,0:0:0:0:
456,169,166895,6,0,L|448:265,1,82.4999976158143
399,323,167082,2,0,P|351:311|305:293,1,82.4999976158143
240,239,167270,2,0,P|180:241|201:335,1,164.999995231629,8|0,0:0|0:0,0:0:0:0:
265,375,167551,1,0,0:0:0:0:
321,300,167645,6,0,P|336:232|342:205,2,82.4999976158143,4|0|0,3:1|0:0|0:0,0:0:0:0:
240,239,167926,2,0,B|227:175|227:175|249:63,1,164.999995231629
163,39,168207,1,0,0:0:0:0:
76,67,168301,1,0,0:0:0:0:
41,151,168395,6,0,P|50:192|53:243,1,82.4999976158143,4|0,3:1|0:0,0:0:0:0:
132,202,168582,2,0,P|179:194|216:190,1,82.4999976158143
207,274,168770,2,0,P|216:315|219:366,1,82.4999976158143,8|0,0:0|0:0,0:0:0:0:
298,325,168957,2,0,P|345:317|382:313,1,82.4999976158143
461,212,169145,5,4,3:2:0:0:
461,212,169238,2,0,P|414:204|377:200,1,82.4999976158143,8|0,0:0|0:0,0:0:0:0:
275,55,169426,2,0,P|291:116|299:148,1,82.4999976158143,0|8,0:0|0:0,0:0:0:0:
195,125,169613,1,0,0:0:0:0:
195,125,169707,2,0,P|205:164|215:204,1,82.4999976158143,8|0,0:0|0:0,0:0:0:0:
158,283,169895,6,0,B|120:279|120:279|77:293,2,82.4999976158143,0|0|0,3:0|0:0|0:0,0:0:0:0:
243,314,170176,1,0,0:0:0:0:
323,271,170270,2,0,L|421:271,1,82.4999976158143,8|0,0:0|0:0,0:0:0:0:
480,220,170457,2,0,B|453:194|453:194|449:144,1,82.4999976158143
350,76,170645,5,0,3:0:0:0:
350,76,170738,2,0,L|354:165,1,82.4999976158143
268,203,170926,2,0,B|207:205|207:205|173:186|173:186|103:191,1,164.999995231629
20,166,171207,1,0,0:0:0:0:
8,256,171301,1,0,0:0:0:0:
76,315,171395,6,0,L|158:312,1,82.4999976158143,4|0,3:2|0:0,0:0:0:0:
273,276,171582,2,0,L|191:279,1,82.4999976158143,0|0,0:0|0:0,0:0:0:0:
259,362,171770,2,0,L|341:359,1,82.4999976158143,8|0,0:0|0:0,0:0:0:0:
456,323,171957,2,0,L|374:326,1,82.4999976158143
366,238,172145,5,0,3:0:0:0:
366,238,172238,2,0,B|376:192|376:192|366:138,1,82.4999976158143,8|0,0:0|0:0,0:0:0:0:
365,65,172426,2,0,B|320:79|320:79|278:114,1,82.4999976158143,0|8,0:0|0:0,0:0:0:0:
211,143,172613,1,0,0:0:0:0:
211,143,172707,2,0,B|245:174|245:174|297:193,1,82.4999976158143
177,236,172895,6,0,B|146:252|146:252|91:243,1,82.4999976158143,4|0,1:0|0:0,0:0:0:0:
232,335,173082,2,0,B|233:300|233:300|268:257,1,82.4999976158143
333,336,173270,2,0,B|380:367|380:367|416:340|416:340|440:363|503:358,1,164.999995231629,8|0,0:0|0:0,0:0:0:0:
475,267,173551,1,0,0:0:0:0:
396,220,173645,6,0,P|381:168|384:118,1,82.4999976158143
452,37,173832,2,0,P|467:89|464:139,1,82.4999976158143
369,58,174020,2,0,P|296:23|214:68,1,164.999995231629,8|0,0:0|0:0,0:0:0:0:
217,149,174301,1,0,0:0:0:0:
220,156,174395,6,0,L|250:250,1,82.4999976158143,0|0,3:0|0:0,0:0:0:0:
211,381,174582,2,0,L|185:302,1,82.4999976158143
354,277,174770,2,0,L|275:302,1,82.4999976158143,8|0,0:0|0:0,0:0:0:0:
84,259,174957,2,0,L|178:228,1,82.4999976158143
294,132,175145,5,0,0:0:0:0:
294,132,175238,2,0,L|382:150,2,82.4999976158143
200,91,175520,2,0,P|188:40|184:-1,1,82.4999976158143
214,181,175707,2,0,P|208:221|198:261,1,82.4999976158143
112,352,175895,5,0,3:0:0:0:
112,352,175988,1,0,0:0:0:0:
112,352,176082,2,0,L|213:345,1,90.7500001468659
378,274,176270,2,0,L|192:261,1,181.500000293732,8|0,0:0|0:0,0:0:0:0:
107,205,176551,1,0,0:0:0:0:
174,137,176645,6,0,P|179:77|171:42,2,90.7500001468659,0|0|0,3:0|0:0|0:0,0:0:0:0:
256,176,176926,2,0,P|294:129|308:96,1,90.7500001468659,0|8,0:0|0:0,0:0:0:0:
297,261,177113,1,0,0:0:0:0:
297,261,177207,2,0,P|355:245|385:225,1,90.7500001468659
475,167,177395,6,0,B|487:220|487:220|482:261,1,90.7500001468659,0|0,3:0|0:0,0:0:0:0:
384,49,177582,2,0,B|396:102|396:102|391:138,1,90.7500001468659
297,261,177770,2,0,B|285:208|285:208|289:171,1,90.7500001468659,8|0,0:0|0:0,0:0:0:0:
200,152,177957,2,0,B|188:99|188:99|192:62,1,90.7500001468659
96,159,178145,6,0,L|118:257,2,90.7500001468659,0|8|0,0:0|0:0|0:0,0:0:0:0:
204,270,178426,2,0,L|184:358,2,90.7500001468659,0|8|0,0:0|0:0|0:0,0:0:0:0:
279,193,178707,1,0,0:0:0:0:
368,211,178801,1,0,0:0:0:0:
457,229,178895,6,0,P|473:184|470:131,1,90.7500001468659,0|0,3:0|0:0,0:0:0:0:
358,30,179082,2,0,P|357:75|373:117,1,90.7500001468659
279,193,179270,2,0,B|234:163|191:189|191:189|152:161|98:180,1,181.500000293732,8|0,0:0|0:0,0:0:0:0:
39,250,179551,1,0,0:0:0:0:
132,283,179645,6,0,P|152:324|163:368,2,90.7500001468659,0|0|0,3:0|0:0|0:0,0:0:0:0:
107,177,179926,2,0,P|118:133|137:92,1,90.7500001468659,0|8,0:0|0:0,0:0:0:0:
267,148,180113,1,0,0:0:0:0:
267,148,180207,2,0,L|366:138,1,90.7500001468659
483,85,180395,6,0,P|461:130|448:187,1,90.7500001468659
397,309,180582,2,0,P|384:265|364:224,1,90.7500001468659
182,208,180770,2,0,P|227:230|284:243,1,90.7500001468659,8|0,0:0|0:0,0:0:0:0:
166,309,180957,2,0,P|120:334|80:364,1,90.7500001468659
29,265,181145,5,0,3:0:0:0:
22,180,181238,2,0,L|17:79,1,90.7500001468659,8|0,0:0|0:0,0:0:0:0:
131,134,181426,2,0,L|140:35,1,90.7500001468659,0|8,0:0|0:0,0:0:0:0:
236,197,181613,1,0,0:0:0:0:
236,197,181707,2,0,L|275:95,1,90.7500001468659,8|0,0:0|0:0,0:0:0:0:
412,55,181895,6,0,B|432:83|456:92|456:92|501:92,1,90.7500001468659,0|0,3:0|0:0,0:0:0:0:
408,177,182082,2,0,B|375:177|375:177|351:186|331:214,1,90.7500001468659
386,314,182270,2,0,P|439:265|438:337,1,181.500000293732,8|0,0:0|0:0,0:0:0:0:
315,364,182551,1,0,0:0:0:0:
238,314,182645,6,0,P|183:303|137:301,2,90.7500001468659
296,249,182926,2,0,P|264:199|320:64,1,181.500000293732
373,64,183207,1,0,0:0:0:0:
454,100,183301,1,0,0:0:0:0:
431,187,183395,6,0,P|378:165|324:160,1,90.7500001468659,4|0,3:2|0:0,0:0:0:0:
178,243,183582,2,0,P|219:224|263:216,1,90.7500001468659
446,297,183770,2,0,P|393:275|339:270,1,90.7500001468659,8|0,0:0|0:0,0:0:0:0:
182,349,183957,2,0,P|223:330|267:322,1,90.7500001468659
335,197,184145,5,0,3:0:0:0:
335,197,184238,2,0,P|320:137|320:97,1,90.7500001468659,8|0,0:0|0:0,0:0:0:0:
448,220,184426,2,0,P|427:262|402:304,1,90.7500001468659,0|8,0:0|0:0,0:0:0:0:
294,342,184613,1,0,0:0:0:0:
224,269,184707,2,0,P|176:250|128:245,1,90.7500001468659,8|0,0:0|0:0,0:0:0:0:
37,177,184895,6,0,P|80:164|119:142,1,90.7500001468659,0|0,3:0|0:0,0:0:0:0:
221,52,185082,2,0,L|230:151,1,90.7500001468659
308,229,185270,2,0,P|372:176|453:238,1,181.500000293732,8|0,0:0|0:0,0:0:0:0:
409,312,185551,1,0,0:0:0:0:
309,323,185645,6,0,P|259:310|217:308,2,90.7500001468659,0|0|0,3:0|0:0|0:0,0:0:0:0:
220,216,185926,2,0,P|176:228|131:231,1,90.7500001468659,0|8,0:0|0:0,0:0:0:0:
119,141,186113,1,0,0:0:0:0:
195,92,186207,2,0,P|240:95|283:107,1,90.7500001468659
364,200,186395,6,0,B|382:157|382:157|382:111,1,90.7500001468659,0|0,3:0|0:0,0:0:0:0:
241,212,186582,2,0,B|241:256|241:256|259:299,1,90.7500001468659
438,309,186770,2,0,B|397:292|397:292|347:304,1,90.7500001468659,8|0,0:0|0:0,0:0:0:0:
216,372,186957,2,0,B|257:389|257:389|302:378,1,90.7500001468659
411,222,187145,5,0,0:0:0:0:
411,222,187238,2,0,P|434:289|439:327,1,90.7500001468659
313,206,187426,2,0,P|321:153|375:33,1,181.500000293732
245,93,187707,6,0,B|229:104|229:104|216:98|216:98|185:127|127:123,1,98.999994117737
65,223,187895,6,0,P|89:278|99:323,1,98.999994117737
182,381,188082,2,0,P|194:333|214:288,1,98.999994117737
352,209,188270,2,0,B|301:221|301:221|252:197|252:197|195:215|156:195,1,197.999988235474,8|0,0:0|0:0,0:0:0:0:
100,120,188551,1,0,0:0:0:0:
176,56,188645,6,0,L|279:43,2,98.999994117737
301,124,188926,2,0,L|399:136,1,98.999994117737,0|8,0:0|0:0,0:0:0:0:
492,101,189113,1,0,0:0:0:0:
475,198,189207,2,0,P|462:260|449:309,1,98.999994117737
344,359,189395,6,0,P|331:310|322:262,1,98.999994117737
225,238,189582,2,0,P|242:191|262:146,1,98.999994117737
185,82,189770,2,0,P|225:54|268:28,1,98.999994117737,8|0,0:0|0:0,0:0:0:0:
435,105,189957,2,0,P|369:96|333:90,1,98.999994117737
163,165,190145,5,0,0:0:0:0:
163,165,190238,2,0,P|211:157|260:150,1,98.999994117737,8|0,0:0|0:0,0:0:0:0:
394,257,190426,2,0,P|345:249|296:242,1,98.999994117737,0|8,0:0|0:0,0:0:0:0:
477,337,190613,1,0,0:0:0:0:
477,337,190707,2,0,P|428:344|379:351,1,98.999994117737,8|0,0:0|0:0,0:0:0:0:
260,333,190895,6,0,B|210:317|210:317|155:330,1,98.999994117737,4|0,3:1|0:0,0:0:0:0:
47,353,191082,2,0,B|68:296|68:296|56:245,1,98.999994117737
158,132,191270,2,0,B|137:189|137:189|149:240,1,98.999994117737,8|0,0:0|0:0,0:0:0:0:
44,159,191457,2,0,B|65:102|65:102|56:64,1,98.999994117737
177,26,191645,5,0,0:0:0:0:
177,26,191738,2,0,P|231:38|285:46,1,98.999994117737
391,21,191926,2,0,P|358:112|351:215,1,197.999988235474
402,299,192207,1,0,0:0:0:0:
341,377,192301,1,0,0:0:0:0:
253,328,192395,6,0,P|206:314|157:315,1,98.999994117737,0|0,3:0|0:0,0:0:0:0:
207,214,192582,2,0,P|256:214|303:200,1,98.999994117737
454,227,192770,2,0,P|441:275|424:322,1,98.999994117737,8|0,0:0|0:0,0:0:0:0:
376,128,192957,2,0,P|417:177|456:213,1,98.999994117737
356,252,193145,5,0,3:0:0:0:
259,232,193238,2,0,P|171:222|141:221,1,98.999994117737
187,120,193426,2,0,P|99:110|69:109,1,98.999994117737,8|0,0:0|0:0,0:0:0:0:
295,35,193613,1,0,0:0:0:0:
295,35,193707,2,0,P|207:25|177:24,1,98.999994117737,8|0,0:0|0:0,0:0:0:0:
314,140,193895,6,0,P|372:113|406:105,1,98.999994117737,4|0,3:1|0:0,0:0:0:0:
475,189,194082,2,0,P|462:266|459:311,1,98.999994117737
332,332,194270,2,0,B|320:268|320:268|333:214|333:214|314:172|313:121,1,197.999988235474,8|0,0:0|0:0,0:0:0:0:
212,99,194551,1,0,0:0:0:0:
147,187,194645,5,0,3:0:0:0:
147,187,194738,2,0,B|197:204|197:204|251:194,1,98.999994117737
38,299,194926,2,0,B|102:280|102:280|230:319,1,197.999988235474
343,274,195207,2,0,P|357:202|358:171,1,98.999994117737
322,56,195395,6,0,P|265:47|212:41,1,98.999994117737,4|0,3:1|0:0,0:0:0:0:
407,101,195582,2,0,P|464:92|517:86,1,98.999994117737
273,147,195770,2,0,P|216:138|163:132,1,98.999994117737,8|0,0:0|0:0,0:0:0:0:
371,195,195957,2,0,P|428:186|481:180,1,98.999994117737
293,270,196145,5,0,3:0:0:0:
293,270,196238,2,0,P|280:338|276:386,1,98.999994117737
184,287,196426,2,0,B|156:198|156:198|176:81,1,197.999988235474
264,13,196707,2,0,L|259:121,1,98.999994117737,0|0,3:0|0:0,0:0:0:0:
345,139,196895,6,0,P|392:109|446:105,1,98.999994117737,2|0,3:2|0:0,0:0:0:0:
512,225,197082,2,0,P|465:195|411:191,1,98.999994117737
248,265,197270,2,0,P|295:235|349:231,1,98.999994117737,10|0,0:2|0:0,0:0:0:0:
415,351,197457,2,0,P|368:321|314:317,1,98.999994117737
171,217,197645,6,0,P|159:272|168:322,1,98.999994117737,6|0,3:2|0:0,0:0:0:0:
240,170,197832,2,0,P|252:115|243:65,1,98.999994117737
383,244,198020,2,0,P|438:256|488:247,1,98.999994117737,10|0,0:2|0:0,0:0:0:0:
336,175,198207,2,0,P|281:163|231:172,1,98.999994117737
220,281,198395,6,0,L|232:331,6,49.4999970588685
317,335,198770,2,0,L|305:383,6,49.4999970588685
407,317,199145,6,0,L|419:214,1,98.999994117737,2|0,3:2|0:0,0:0:0:0:
315,245,199332,2,0,L|327:142,1,98.999994117737,0|0,3:0|0:0,0:0:0:0:
223,173,199520,2,0,L|235:70,1,98.999994117737,2|0,3:2|0:0,0:0:0:0:
131,101,199707,2,0,L|143:-1,1,98.999994117737,0|0,3:0|0:0,0:0:0:0:
21,110,199895,5,4,3:1:0:0:
26,124,199988,1,0,0:0:0:0:
31,137,200082,2,0,P|51:199|59:236,1,98.999994117737
121,339,200270,2,0,P|174:282|204:257,1,98.999994117737,8|0,0:0|0:0,0:0:0:0:
377,258,200457,2,0,P|316:230|272:198,1,98.999994117737
187,62,200645,5,2,3:2:0:0:
187,62,200738,2,0,L|196:163,2,98.999994117737
298,113,201020,2,0,L|289:214,1,98.999994117737,8|0,0:0|0:0,0:0:0:0:
189,268,201207,2,0,P|141:248|85:237,1,98.999994117737
119,369,201395,6,0,B|169:363|169:363|232:373,1,98.999994117737,0|0,3:0|0:0,0:0:0:0:
411,339,201582,2,0,B|362:346|362:346|312:340,1,98.999994117737
189,268,201770,2,0,B|183:218|183:218|193:155,1,98.999994117737,8|0,0:0|0:0,0:0:0:0:
263,3,201957,2,0,B|270:51|270:51|264:101,1,98.999994117737
68,111,202145,5,0,0:0:0:0:
68,111,202238,2,0,L|178:80,1,98.999994117737,8|0,0:0|0:0,0:0:0:0:
381,157,202426,2,0,L|285:183,1,98.999994117737,0|8,0:0|0:0,0:0:0:0:
501,218,202613,1,0,0:0:0:0:
501,218,202707,2,0,L|405:244,1,98.999994117737,8|0,0:0|0:0,0:0:0:0:
303,342,202895,6,0,P|253:313|197:306,1,98.999994117737,0|0,3:0|0:0,0:0:0:0:
162,220,203082,2,0,P|106:234|61:269,1,98.999994117737
267,215,203270,2,0,P|297:147|246:25,1,197.999988235474,8|0,0:0|0:0,0:0:0:0:
159,25,203551,1,0,0:0:0:0:
71,72,203645,6,0,L|61:182,1,98.999994117737,4|0,3:1|0:0,0:0:0:0:
170,318,203832,2,0,L|161:219,1,98.999994117737
244,118,204020,2,0,B|316:145|316:145|448:119,1,197.999988235474,8|0,0:0|0:0,0:0:0:0:
484,207,204301,1,0,0:0:0:0:
484,207,204395,6,0,P|468:273|463:312,1,98.999994117737,0|0,3:0|0:0,0:0:0:0:
358,256,204582,2,0,P|365:304|378:352,1,98.999994117737
273,185,204770,2,0,P|257:251|252:290,1,98.999994117737,8|0,0:0|0:0,0:0:0:0:
147,234,204957,2,0,P|154:282|167:330,1,98.999994117737
53,169,205145,5,0,0:0:0:0:
53,169,205238,2,0,P|115:134|157:117,1,98.999994117737,8|0,0:0|0:0,0:0:0:0:
360,163,205426,2,0,P|306:150|256:144,1,98.999994117737,0|8,0:0|0:0,0:0:0:0:
167,330,205613,1,0,0:0:0:0:
167,330,205707,2,0,P|195:280|212:238,1,98.999994117737,8|0,0:0|0:0,0:0:0:0:
338,302,205895,6,0,P|378:340|424:374,1,98.999994117737,4|0,3:1|0:0,0:0:0:0:
464,186,206082,2,0,P|461:251|468:294,1,98.999994117737
360,163,206270,2,0,P|383:97|405:58,1,98.999994117737,8|0,0:0|0:0,0:0:0:0:
224,40,206457,2,0,P|270:21|318:11,1,98.999994117737
207,125,206645,6,0,L|96:146,1,98.999994117737,0|0,3:0|0:0,0:0:0:0:
294,230,206832,2,0,L|182:209,1,98.999994117737
324,362,207020,2,0,L|227:303,1,98.999994117737,8|0,0:0|0:0,0:0:0:0:
66,363,207207,2,0,L|182:342,1,98.999994117737
371,286,207395,6,0,P|385:236|390:183,1,98.999994117737,0|0,3:0|0:0,0:0:0:0:
450,51,207582,2,0,P|464:101|469:154,1,98.999994117737
405,337,207770,2,0,P|419:287|424:234,1,98.999994117737,8|0,0:0|0:0,0:0:0:0:
342,58,207957,2,0,P|356:108|361:161,1,98.999994117737
250,200,208145,6,0,B|206:191|206:191|190:197|190:197|140:189,1,98.999994117737,0|0,3:0|0:0,0:0:0:0:
32,96,208332,2,0,B|76:87|76:87|92:93|92:93|142:85,1,98.999994117737
160,288,208520,2,0,B|116:279|116:279|100:285|100:285|50:277,1,98.999994117737,8|0,0:0|0:0,0:0:0:0:
96,64,208707,2,0,B|140:73|140:73|156:67|156:67|206:75,1,98.999994117737,8|0,0:0|0:0,0:0:0:0:
320,32,208895,6,0,P|312:81|298:129,1,98.999994117737,4|0,3:1|0:0,0:0:0:0:
182,284,209082,2,0,P|189:235|203:187,1,98.999994117737
379,230,209270,2,0,P|330:222|282:208,1,98.999994117737,8|0,0:0|0:0,0:0:0:0:
128,92,209457,2,0,P|176:99|224:113,1,98.999994117737
370,37,209645,6,0,B|345:90|345:90|315:140,1,98.999994117737,4|0,3:1|0:0,0:0:0:0:
131,277,209832,2,0,B|155:224|155:224|186:175,1,98.999994117737
372,280,210020,2,0,B|319:256|319:256|270:225,1,98.999994117737,8|0,0:0|0:0,0:0:0:0:
132,41,210207,2,0,B|185:65|185:65|235:96,1,98.999994117737
429,136,210395,6,0,P|380:157|324:175,1,98.999994117737,0|0,3:0|0:0,0:0:0:0:
97,206,210582,2,0,P|146:185|202:167,1,98.999994117737
432,224,210770,2,0,P|383:203|327:185,1,98.999994117737,8|0,0:0|0:0,0:0:0:0:
89,122,210957,2,0,P|138:143|194:161,1,98.999994117737
256,368,211145,5,6,3:2:0:0:
256,368,211238,2,0,L|256:256,1,98.999994117737
179,240,211426,2,0,P|251:296|325:241,1,197.999988235474,0|0,0:2|0:0,0:0:0:0:
256,64,211707,2,0,B|255:92|255:92|251:98|251:98|260:98|260:98|256:105|256:105|256:152,1,98.999994117737,2|0,0:0|0:0,0:0:0:0:
417,89,211895,5,6,3:2:0:0:
176,160,212082,1,0,0:0:0:0:
481,153,212270,1,10,0:2:0:0:
115,96,212457,1,0,0:0:0:0:
384,224,212645,5,2,3:2:0:0:
384,224,212738,2,0,L|377:328,1,82.4999976158143
306,66,212926,2,0,L|294:230,1,164.999995231629,2|0,0:0|0:0,0:0:0:0:
235,294,213207,2,0,L|228:398,1,82.4999976158143
75,222,213395,5,2,3:2:0:0:
320,320,213582,1,0,0:0:0:0:
95,94,213770,1,10,0:2:0:0:
229,376,213957,1,0,0:0:0:0:
291,96,214145,5,2,3:2:0:0:
291,96,214238,2,0,L|207:112,1,82.4999976158143
437,154,214426,2,0,L|255:188,1,164.999995231629,2|0,0:0|0:0,0:0:0:0:
512,225,214707,2,0,L|428:241,1,82.4999976158143
148,300,214895,5,6,3:2:0:0:
148,84,215082,1,0,0:0:0:0:
364,84,215270,1,10,0:2:0:0:
364,300,215457,1,0,0:0:0:0:
96,192,215645,5,2,3:2:0:0:
96,192,215738,2,0,L|192:192,1,82.4999976158143
354,192,215926,2,0,L|162:192,1,164.999995231629,2|0,0:0|0:0,0:0:0:0:
444,192,216207,2,0,L|362:192,1,82.4999976158143
136,311,216395,5,6,3:2:0:0:
136,72,216582,1,0,0:0:0:0:
375,72,216770,1,10,0:2:0:0:
375,311,216957,1,0,0:0:0:0:
124,29,217145,5,2,3:2:0:0:
124,29,217238,2,0,L|147:120,1,82.4999976158143,8|0,0:0|0:0,0:0:0:0:
216,55,217426,2,0,L|259:224,1,164.999995231629
320,259,217707,1,8,0:0:0:0:
391,238,217801,1,0,0:0:0:0:
462,217,217895,5,6,3:2:0:0:
146,255,218082,1,0,0:0:0:0:
418,326,218270,1,10,0:2:0:0:
93,141,218457,1,0,0:0:0:0:
333,33,218645,5,2,3:2:0:0:
333,33,218738,2,0,P|321:85|294:139,1,90.7500001468659
149,238,218926,2,0,P|212:194|317:232,1,181.500000293732,2|0,0:0|0:0,0:0:0:0:
370,285,219207,1,0,0:0:0:0:
313,332,219301,1,0,0:0:0:0:
256,379,219395,5,6,3:2:0:0:
495,214,219582,1,0,0:0:0:0:
72,256,219770,1,10,0:2:0:0:
430,362,219957,1,0,0:0:0:0:
360,107,220145,5,2,3:2:0:0:
360,107,220238,2,0,L|346:213,1,90.7500001468659
265,329,220426,2,0,P|242:260|202:152,1,181.500000293732,2|0,0:0|0:0,0:0:0:0:
127,101,220707,1,0,0:0:0:0:
97,168,220801,1,0,0:0:0:0:
67,235,220895,5,6,3:2:0:0:
443,251,221082,1,0,0:0:0:0:
134,189,221270,1,10,0:2:0:0:
500,196,221457,1,0,0:0:0:0:
178,25,221645,5,6,3:2:0:0:
178,25,221738,2,0,L|190:123,1,90.7500001468659
97,191,221926,2,0,P|159:168|285:142,1,181.500000293732,2|0,0:0|0:0,0:0:0:0:
370,148,222207,1,0,0:0:0:0:
379,227,222301,1,0,0:0:0:0:
386,305,222395,5,6,3:2:0:0:
125,305,222582,1,0,0:0:0:0:
125,44,222770,1,2,0:0:0:0:
386,44,222957,1,2,0:0:0:0:
386,305,223145,1,2,3:1:0:0:
187,192,223332,6,0,L|126:192,2,60.5000000979106
263,147,223520,2,0,B|259:113|259:113|267:93|267:93|257:67|260:59,1,90.7500001468659
263,237,223707,2,0,B|259:271|259:271|267:291|267:291|257:317|260:325,1,90.7500001468659
187,192,223895,1,4,0:0:0:0:
256,192,223988,12,0,226895,0:0:0:0:
