osu file format v14

[General]
AudioFilename: audio 3.mp3
AudioLeadIn: 0
PreviewTime: 18734
Countdown: 1
SampleSet: Soft
StackLeniency: 0
Mode: 0
LetterboxInBreaks: 0
WidescreenStoryboard: 0

[Editor]
DistanceSpacing: 0.8
BeatDivisor: 4
GridSize: 32
TimelineZoom: 3.299999

[Metadata]
Title:Scarlet Rose
TitleUnicode:Scarlet Rose
Artist:seleP
ArtistUnicode:seleP
Creator:mmi_
Version:Insane
Source:
Tags:vocaloid selecia Lily UFERIUM LILIUM DOLL
BeatmapID:2791708
BeatmapSetID:890001

[Difficulty]
HPDrainRate:6
CircleSize:5
OverallDifficulty:8
ApproachRate:8
SliderMultiplier:1.4
SliderTickRate:1

[Events]
//Background and Video events
0,0,"Lily.(VOCALOID).full.1568695.jpg",0,0
//Break Periods
//Storyboard Layer 0 (Background)
//Storyboard Layer 1 (Fail)
//Storyboard Layer 2 (Pass)
//Storyboard Layer 3 (Foreground)
//Storyboard Layer 4 (Overlay)
//Storyboard Sound Samples

[TimingPoints]
136,375,3,2,0,100,1,0
6886,375,4,2,0,100,1,0
30886,-50,4,2,0,100,0,1
42886,-100,4,2,0,100,0,0
90886,-50,4,2,0,100,0,1
102886,-100,4,2,0,100,0,0
127261,375,4,2,0,100,1,0
139636,375,4,2,0,100,1,0
211636,-50,4,2,0,100,0,1
226636,-100,4,2,0,100,0,0

[Colours]
Combo1 : 64,64,0
Combo2 : 252,241,51
Combo3 : 104,111,157
Combo4 : 38,41,58
Combo5 : 142,129,74
Combo6 : 44,44,88
Combo7 : 87,47,19
Combo8 : 0,57,0

[HitObjects]
96,96,6886,5,0,0:0:0:0:
96,96,6979,1,0,0:0:0:0:
96,96,7073,1,0,0:0:0:0:
96,160,7261,1,8,0:0:0:0:
96,224,7448,5,0,0:0:0:0:
96,224,7542,1,0,0:0:0:0:
96,224,7636,1,0,0:0:0:0:
96,224,7729,1,0,0:0:0:0:
160,224,7917,5,0,0:0:0:0:
160,224,8011,1,0,0:0:0:0:
160,224,8104,1,0,0:0:0:0:
160,224,8198,1,0,0:0:0:0:
160,224,8292,1,0,0:0:0:0:
160,224,8386,1,0,0:0:0:0:
160,224,8479,1,0,0:0:0:0:
160,224,8573,1,0,0:0:0:0:
160,288,8761,1,8,0:0:0:0:
224,288,8948,5,0,0:0:0:0:
224,288,9042,1,0,0:0:0:0:
224,288,9136,1,0,0:0:0:0:
224,288,9229,1,0,0:0:0:0:
224,224,9417,5,0,0:0:0:0:
224,224,9511,1,0,0:0:0:0:
224,224,9604,1,0,0:0:0:0:
224,224,9698,1,0,0:0:0:0:
224,224,9792,1,0,0:0:0:0:
224,224,9886,1,0,0:0:0:0:
224,224,9979,1,0,0:0:0:0:
224,224,10073,1,0,0:0:0:0:
288,224,10261,1,8,0:0:0:0:
288,160,10448,5,0,0:0:0:0:
288,160,10542,1,0,0:0:0:0:
288,160,10636,1,0,0:0:0:0:
288,160,10729,1,0,0:0:0:0:
288,96,10917,5,0,0:0:0:0:
288,96,11011,1,0,0:0:0:0:
288,96,11104,1,0,0:0:0:0:
288,96,11198,1,0,0:0:0:0:
288,96,11292,1,0,0:0:0:0:
288,96,11386,1,4,0:0:0:0:
288,96,11479,1,0,0:0:0:0:
288,96,11573,1,0,0:0:0:0:
224,96,11761,1,8,0:0:0:0:
224,160,11948,5,0,0:0:0:0:
224,160,12042,1,0,0:0:0:0:
224,160,12136,1,4,0:0:0:0:
224,160,12229,1,0,0:0:0:0:
224,224,12417,5,0,0:0:0:0:
224,224,12511,1,4,0:0:0:0:
224,224,12604,1,0,0:0:0:0:
224,224,12698,1,0,0:0:0:0:
224,224,12792,1,0,0:0:0:0:
224,224,12886,1,4,0:0:0:0:
224,224,12979,1,0,0:0:0:0:
224,224,13073,1,0,0:0:0:0:
224,288,13261,1,8,0:0:0:0:
288,288,13448,5,0,0:0:0:0:
288,288,13542,1,0,0:0:0:0:
288,288,13636,1,0,0:0:0:0:
288,288,13729,1,0,0:0:0:0:
352,288,13917,5,0,0:0:0:0:
352,288,14011,1,0,0:0:0:0:
352,288,14104,1,0,0:0:0:0:
352,288,14198,1,0,0:0:0:0:
352,288,14292,1,0,0:0:0:0:
352,288,14386,1,4,0:0:0:0:
352,288,14479,1,0,0:0:0:0:
352,288,14573,1,0,0:0:0:0:
352,224,14761,1,8,0:0:0:0:
352,160,14948,5,0,0:0:0:0:
352,160,15042,1,0,0:0:0:0:
352,160,15136,1,4,0:0:0:0:
352,160,15229,1,0,0:0:0:0:
288,160,15417,5,0,0:0:0:0:
288,160,15511,1,0,0:0:0:0:
288,160,15604,1,0,0:0:0:0:
288,160,15698,1,0,0:0:0:0:
288,160,15792,1,0,0:0:0:0:
288,160,15886,1,4,0:0:0:0:
288,160,15979,1,0,0:0:0:0:
288,160,16073,1,0,0:0:0:0:
224,160,16261,1,8,0:0:0:0:
224,96,16448,5,0,0:0:0:0:
224,96,16542,1,0,0:0:0:0:
224,96,16636,1,4,0:0:0:0:
224,96,16729,1,0,0:0:0:0:
288,96,16917,5,0,0:0:0:0:
288,96,17011,1,4,0:0:0:0:
288,96,17104,1,0,0:0:0:0:
288,96,17198,1,0,0:0:0:0:
288,96,17292,1,0,0:0:0:0:
288,96,17386,1,4,0:0:0:0:
288,96,17479,1,0,0:0:0:0:
288,96,17573,1,0,0:0:0:0:
288,32,17761,1,12,0:0:0:0:
352,32,17948,5,0,0:0:0:0:
352,32,18042,1,0,0:0:0:0:
352,32,18136,1,4,0:0:0:0:
352,32,18229,1,0,0:0:0:0:
416,32,18417,5,0,0:0:0:0:
416,32,18511,1,4,0:0:0:0:
416,32,18604,1,0,0:0:0:0:
416,32,18698,1,0,0:0:0:0:
448,32,18792,1,0,0:0:0:0:
448,64,18886,5,4,0:0:0:0:
448,96,18979,1,0,0:0:0:0:
448,128,19073,1,0,0:0:0:0:
448,192,19261,1,8,0:0:0:0:
384,192,19448,5,0,0:0:0:0:
352,192,19542,1,0,0:0:0:0:
320,192,19636,1,0,0:0:0:0:
288,192,19729,1,0,0:0:0:0:
224,192,19917,1,0,0:0:0:0:
224,128,20104,5,0,0:0:0:0:
192,128,20198,1,0,0:0:0:0:
160,128,20292,1,0,0:0:0:0:
160,96,20386,1,0,0:0:0:0:
160,64,20479,1,0,0:0:0:0:
160,32,20573,1,0,0:0:0:0:
96,32,20761,1,8,0:0:0:0:
32,32,20948,1,0,0:0:0:0:
32,96,21136,5,0,0:0:0:0:
32,128,21229,1,0,0:0:0:0:
32,192,21417,1,0,0:0:0:0:
96,192,21604,5,0,0:0:0:0:
128,192,21698,1,0,0:0:0:0:
160,192,21792,1,0,0:0:0:0:
192,192,21886,1,4,0:0:0:0:
224,192,21979,1,0,0:0:0:0:
256,192,22073,1,0,0:0:0:0:
256,256,22261,1,8,0:0:0:0:
256,320,22448,5,0,0:0:0:0:
192,320,22636,1,0,0:0:0:0:
160,320,22729,1,0,0:0:0:0:
96,320,22917,2,0,L|96:224,1,70
96,192,23198,5,0,0:0:0:0:
96,160,23292,1,0,0:0:0:0:
96,128,23386,1,4,0:0:0:0:
128,128,23479,1,0,0:0:0:0:
160,128,23573,1,0,0:0:0:0:
160,64,23761,1,8,0:0:0:0:
224,64,23948,5,0,0:0:0:0:
288,64,24136,1,4,0:0:0:0:
320,64,24229,1,0,0:0:0:0:
384,64,24417,1,0,0:0:0:0:
448,64,24604,1,0,0:0:0:0:
480,64,24698,1,0,0:0:0:0:
480,96,24792,5,0,0:0:0:0:
480,128,24886,1,4,0:0:0:0:
480,160,24979,1,0,0:0:0:0:
480,192,25073,1,0,0:0:0:0:
480,256,25261,1,8,0:0:0:0:
416,256,25448,1,0,0:0:0:0:
416,192,25636,1,0,0:0:0:0:
384,192,25729,1,0,0:0:0:0:
320,192,25917,1,0,0:0:0:0:
256,192,26104,5,0,0:0:0:0:
256,160,26198,1,0,0:0:0:0:
256,128,26292,1,0,0:0:0:0:
256,96,26386,1,4,0:0:0:0:
256,64,26479,1,0,0:0:0:0:
288,64,26573,1,0,0:0:0:0:
352,64,26761,1,8,0:0:0:0:
416,64,26948,5,0,0:0:0:0:
416,128,27136,1,0,0:0:0:0:
416,160,27229,1,0,0:0:0:0:
352,160,27417,1,0,0:0:0:0:
288,160,27604,1,0,0:0:0:0:
256,160,27698,1,0,0:0:0:0:
256,96,27886,5,4,0:0:0:0:
256,64,27979,1,0,0:0:0:0:
256,32,28073,1,0,0:0:0:0:
192,32,28261,1,8,0:0:0:0:
128,32,28448,1,0,0:0:0:0:
64,32,28636,1,4,0:0:0:0:
64,64,28729,1,0,0:0:0:0:
64,128,28917,1,0,0:0:0:0:
64,192,29104,5,0,0:0:0:0:
64,224,29198,1,0,0:0:0:0:
64,288,29386,1,4,0:0:0:0:
64,320,29479,1,0,0:0:0:0:
64,352,29573,1,0,0:0:0:0:
128,352,29761,1,12,0:0:0:0:
192,352,29948,5,0,0:0:0:0:
256,352,30136,1,4,0:0:0:0:
288,352,30229,1,0,0:0:0:0:
352,352,30417,1,0,0:0:0:0:
416,352,30604,1,0,0:0:0:0:
448,352,30698,1,0,0:0:0:0:
448,160,30886,5,4,0:0:0:0:
352,160,31073,1,0,0:0:0:0:
256,160,31261,1,8,0:0:0:0:
160,160,31448,1,0,0:0:0:0:
64,160,31636,5,0,0:0:0:0:
64,160,31729,1,0,0:0:0:0:
64,160,31917,1,0,0:0:0:0:
64,256,32104,5,0,0:0:0:0:
128,256,32198,1,0,0:0:0:0:
192,256,32292,1,0,0:0:0:0:
256,256,32386,5,0,0:0:0:0:
256,160,32573,1,0,0:0:0:0:
352,160,32761,1,8,0:0:0:0:
448,160,32948,1,0,0:0:0:0:
448,256,33136,5,0,0:0:0:0:
448,256,33229,1,0,0:0:0:0:
448,256,33417,1,0,0:0:0:0:
352,256,33604,5,0,0:0:0:0:
288,256,33698,1,0,0:0:0:0:
288,320,33792,1,0,0:0:0:0:
352,320,33886,5,4,0:0:0:0:
448,320,34073,1,0,0:0:0:0:
448,192,34261,1,8,0:0:0:0:
352,192,34448,1,0,0:0:0:0:
256,192,34636,5,0,0:0:0:0:
256,192,34729,1,0,0:0:0:0:
256,320,34917,1,0,0:0:0:0:
128,320,35104,1,0,0:0:0:0:
64,320,35198,1,0,0:0:0:0:
64,256,35292,1,0,0:0:0:0:
64,192,35386,5,4,0:0:0:0:
192,192,35573,1,0,0:0:0:0:
192,64,35761,1,8,0:0:0:0:
64,64,35948,1,0,0:0:0:0:
64,192,36136,5,4,0:0:0:0:
128,192,36229,1,0,0:0:0:0:
256,192,36417,1,0,0:0:0:0:
384,192,36604,1,0,0:0:0:0:
448,192,36698,1,0,0:0:0:0:
448,128,36792,1,0,0:0:0:0:
448,64,36886,5,4,0:0:0:0:
320,64,37073,1,0,0:0:0:0:
320,192,37261,1,8,0:0:0:0:
320,320,37448,1,0,0:0:0:0:
192,320,37636,1,0,0:0:0:0:
192,320,37729,1,0,0:0:0:0:
320,320,37917,1,0,0:0:0:0:
192,320,38104,1,0,0:0:0:0:
128,320,38198,1,0,0:0:0:0:
64,320,38292,1,0,0:0:0:0:
64,256,38386,5,4,0:0:0:0:
64,128,38573,1,0,0:0:0:0:
192,128,38761,1,8,0:0:0:0:
192,256,38948,1,0,0:0:0:0:
320,256,39136,1,0,0:0:0:0:
320,256,39229,1,0,0:0:0:0:
320,128,39417,1,0,0:0:0:0:
448,128,39604,1,0,0:0:0:0:
384,128,39698,1,0,0:0:0:0:
320,128,39792,1,0,0:0:0:0:
256,128,39886,5,4,0:0:0:0:
128,128,40073,1,0,0:0:0:0:
128,256,40261,1,12,0:0:0:0:
256,256,40448,1,0,0:0:0:0:
384,256,40636,1,4,0:0:0:0:
384,256,40729,1,0,0:0:0:0:
256,256,40917,1,0,0:0:0:0:
256,128,41104,1,0,0:0:0:0:
256,64,41198,1,0,0:0:0:0:
320,64,41292,1,0,0:0:0:0:
320,128,41386,5,4,0:0:0:0:
192,128,41573,1,0,0:0:0:0:
192,256,41761,1,8,0:0:0:0:
320,256,41948,1,0,0:0:0:0:
320,128,42136,1,4,0:0:0:0:
192,128,42323,1,0,0:0:0:0:
160,128,42386,1,0,0:0:0:0:
128,128,42448,1,0,0:0:0:0:
96,128,42511,1,0,0:0:0:0:
96,256,42698,1,0,0:0:0:0:
96,320,42886,6,0,L|256:320,1,140,4|8,0:0|0:0,0:0:0:0:
320,320,43448,1,0,0:0:0:0:
384,320,43636,1,0,0:0:0:0:
416,320,43729,1,0,0:0:0:0:
416,256,43917,1,0,0:0:0:0:
416,192,44104,5,0,0:0:0:0:
448,192,44198,1,0,0:0:0:0:
480,192,44292,1,0,0:0:0:0:
480,160,44386,1,0,0:0:0:0:
480,96,44573,1,0,0:0:0:0:
480,32,44761,1,8,0:0:0:0:
416,32,44948,1,0,0:0:0:0:
352,32,45136,1,0,0:0:0:0:
352,64,45229,1,0,0:0:0:0:
352,128,45417,2,0,L|352:326,1,175,0|4,0:0|0:0,0:0:0:0:
224,320,46261,5,8,0:0:0:0:
224,256,46448,1,0,0:0:0:0:
224,192,46636,1,0,0:0:0:0:
224,160,46729,1,0,0:0:0:0:
224,96,46917,1,0,0:0:0:0:
160,96,47104,1,0,0:0:0:0:
128,96,47198,1,0,0:0:0:0:
96,96,47292,1,0,0:0:0:0:
64,96,47386,6,0,L|64:192,1,70,4|0,0:0|0:0,0:0:0:0:
64,224,47761,2,0,L|64:320,1,70,8|0,0:0|0:0,0:0:0:0:
64,352,48136,2,0,L|160:352,1,70,4|0,0:0|0:0,0:0:0:0:
192,352,48511,2,0,L|288:352,1,70,0|0,0:0|0:0,0:0:0:0:
320,352,48886,5,4,0:0:0:0:
416,352,49261,1,8,0:0:0:0:
480,352,49448,1,0,0:0:0:0:
480,288,49636,1,4,0:0:0:0:
480,256,49729,1,0,0:0:0:0:
480,192,49917,1,0,0:0:0:0:
480,160,50011,1,0,0:0:0:0:
480,96,50198,5,0,0:0:0:0:
448,96,50292,1,0,0:0:0:0:
416,96,50386,1,4,0:0:0:0:
352,96,50573,1,0,0:0:0:0:
288,96,50761,1,12,0:0:0:0:
224,96,50948,1,0,0:0:0:0:
160,96,51136,1,4,0:0:0:0:
128,96,51229,1,0,0:0:0:0:
64,96,51417,2,0,L|64:291,1,175,0|4,0:0|0:0,0:0:0:0:
128,288,52261,5,8,0:0:0:0:
128,224,52448,1,0,0:0:0:0:
128,160,52636,1,0,0:0:0:0:
128,128,52729,1,0,0:0:0:0:
128,64,52917,1,0,0:0:0:0:
192,64,53104,5,0,0:0:0:0:
224,64,53198,1,0,0:0:0:0:
256,64,53292,1,0,0:0:0:0:
288,64,53386,2,0,L|448:64,4,140,0|8|0|0|0,0:0|0:0|0:0|0:0|0:0,0:0:0:0:
288,128,55073,1,0,0:0:0:0:
288,160,55167,2,0,L|288:352,1,175
352,352,55823,1,0,0:0:0:0:
384,352,55917,1,0,0:0:0:0:
416,352,56011,1,0,0:0:0:0:
480,352,56198,1,0,0:0:0:0:
480,288,56386,6,0,L|480:128,2,140,0|8|0,0:0|0:0|0:0,0:0:0:0:
480,352,57323,1,0,0:0:0:0:
448,352,57417,1,0,0:0:0:0:
352,352,57698,1,0,0:0:0:0:
352,288,57886,1,4,0:0:0:0:
352,224,58073,1,0,0:0:0:0:
352,192,58167,2,0,L|160:192,1,140
96,192,58823,5,0,0:0:0:0:
96,128,59011,1,0,0:0:0:0:
96,64,59198,1,0,0:0:0:0:
160,64,59386,1,4,0:0:0:0:
160,128,59573,1,0,0:0:0:0:
224,128,59761,1,8,0:0:0:0:
224,64,59948,1,0,0:0:0:0:
256,64,60042,2,0,L|448:64,1,140,0|0,0:0|0:0,0:0:0:0:
448,128,60698,5,0,0:0:0:0:
384,128,60886,1,4,0:0:0:0:
384,192,61073,1,0,0:0:0:0:
384,224,61167,2,0,B|384:352|384:352|320:352,1,175,0|4,0:0|0:0,0:0:0:0:
256,352,61823,1,0,0:0:0:0:
192,352,62011,1,0,0:0:0:0:
128,352,62198,1,0,0:0:0:0:
64,352,62386,2,0,L|64:192,2,140,4|8|4,0:0|0:0|0:0,0:0:0:0:
128,352,63323,5,0,0:0:0:0:
160,352,63417,1,0,0:0:0:0:
256,352,63698,1,0,0:0:0:0:
256,288,63886,1,4,0:0:0:0:
256,224,64073,1,0,0:0:0:0:
256,192,64167,2,0,L|64:192,1,175,0|4,0:0|0:0,0:0:0:0:
64,128,64823,5,0,0:0:0:0:
128,128,65011,1,0,0:0:0:0:
192,128,65198,1,0,0:0:0:0:
192,64,65386,1,4,0:0:0:0:
256,64,65573,1,4,0:0:0:0:
320,64,65761,1,12,0:0:0:0:
320,128,65948,1,0,0:0:0:0:
320,160,66042,2,0,L|320:352,1,175
192,352,66886,5,4,0:0:0:0:
192,320,66979,1,0,0:0:0:0:
192,288,67073,1,0,0:0:0:0:
256,288,67261,1,12,0:0:0:0:
320,288,67448,1,0,0:0:0:0:
352,288,67542,1,0,0:0:0:0:
384,288,67636,1,4,0:0:0:0:
416,288,67729,1,0,0:0:0:0:
480,288,67917,1,0,0:0:0:0:
480,224,68104,5,0,0:0:0:0:
448,224,68198,1,0,0:0:0:0:
448,192,68292,1,0,0:0:0:0:
416,192,68386,1,0,0:0:0:0:
416,160,68479,1,0,0:0:0:0:
384,160,68573,1,0,0:0:0:0:
384,96,68761,1,8,0:0:0:0:
320,96,68948,1,0,0:0:0:0:
320,160,69136,1,0,0:0:0:0:
320,192,69229,1,0,0:0:0:0:
256,192,69417,1,0,0:0:0:0:
192,192,69604,1,0,0:0:0:0:
160,192,69698,1,0,0:0:0:0:
128,192,69792,5,0,0:0:0:0:
128,224,69886,1,4,0:0:0:0:
128,256,69979,1,0,0:0:0:0:
128,288,70073,1,0,0:0:0:0:
128,352,70261,1,8,0:0:0:0:
192,352,70448,1,0,0:0:0:0:
256,352,70636,1,0,0:0:0:0:
256,320,70729,1,0,0:0:0:0:
256,256,70917,1,0,0:0:0:0:
256,192,71104,5,0,0:0:0:0:
256,160,71198,1,0,0:0:0:0:
256,128,71292,1,0,0:0:0:0:
256,96,71386,1,4,0:0:0:0:
256,64,71479,1,0,0:0:0:0:
256,32,71573,1,0,0:0:0:0:
320,32,71761,1,8,0:0:0:0:
320,96,71948,1,0,0:0:0:0:
384,96,72136,1,4,0:0:0:0:
416,96,72229,1,0,0:0:0:0:
480,96,72417,1,0,0:0:0:0:
480,160,72604,1,0,0:0:0:0:
480,192,72698,1,0,0:0:0:0:
480,256,72886,5,4,0:0:0:0:
480,288,72979,1,0,0:0:0:0:
480,320,73073,1,0,0:0:0:0:
416,320,73261,1,8,0:0:0:0:
352,320,73448,1,0,0:0:0:0:
352,256,73636,1,0,0:0:0:0:
352,224,73729,1,0,0:0:0:0:
352,160,73917,1,0,0:0:0:0:
288,160,74104,5,0,0:0:0:0:
256,160,74198,1,0,0:0:0:0:
224,160,74292,1,0,0:0:0:0:
192,160,74386,1,4,0:0:0:0:
160,160,74479,1,0,0:0:0:0:
128,160,74573,1,0,0:0:0:0:
64,160,74761,1,8,0:0:0:0:
64,224,74948,1,0,0:0:0:0:
64,288,75136,1,0,0:0:0:0:
64,320,75229,1,0,0:0:0:0:
128,320,75417,1,0,0:0:0:0:
192,320,75604,1,0,0:0:0:0:
224,320,75698,1,0,0:0:0:0:
288,320,75886,5,4,0:0:0:0:
288,288,75979,1,0,0:0:0:0:
288,256,76073,1,0,0:0:0:0:
224,256,76261,1,8,0:0:0:0:
224,192,76448,1,0,0:0:0:0:
288,192,76636,1,4,0:0:0:0:
320,192,76729,1,0,0:0:0:0:
384,192,76917,1,0,0:0:0:0:
384,128,77104,1,0,0:0:0:0:
384,96,77198,1,0,0:0:0:0:
320,96,77386,5,4,0:0:0:0:
288,96,77479,1,0,0:0:0:0:
256,96,77573,1,0,0:0:0:0:
192,96,77761,1,12,0:0:0:0:
128,96,77948,1,0,0:0:0:0:
64,96,78136,1,4,0:0:0:0:
64,128,78229,1,0,0:0:0:0:
64,192,78417,1,0,0:0:0:0:
64,256,78604,1,0,0:0:0:0:
64,288,78698,1,0,0:0:0:0:
128,288,78886,5,4,0:0:0:0:
160,288,78979,1,0,0:0:0:0:
192,288,79073,1,0,0:0:0:0:
192,352,79261,1,8,0:0:0:0:
256,352,79448,1,0,0:0:0:0:
320,352,79636,1,0,0:0:0:0:
352,352,79729,1,0,0:0:0:0:
352,288,79917,1,0,0:0:0:0:
416,288,80104,5,0,0:0:0:0:
448,288,80198,1,0,0:0:0:0:
480,288,80292,1,0,0:0:0:0:
480,256,80386,1,0,0:0:0:0:
480,224,80479,1,0,0:0:0:0:
480,192,80573,1,0,0:0:0:0:
416,192,80761,1,8,0:0:0:0:
416,128,80948,1,0,0:0:0:0:
480,128,81136,1,0,0:0:0:0:
480,96,81229,1,0,0:0:0:0:
480,32,81417,1,0,0:0:0:0:
416,32,81604,1,0,0:0:0:0:
384,32,81698,1,0,0:0:0:0:
320,32,81886,5,4,0:0:0:0:
320,96,82073,1,0,0:0:0:0:
320,160,82261,1,8,0:0:0:0:
256,160,82448,1,0,0:0:0:0:
224,160,82542,1,0,0:0:0:0:
224,128,82636,1,0,0:0:0:0:
224,96,82729,1,0,0:0:0:0:
224,32,82917,1,0,0:0:0:0:
160,32,83104,5,0,0:0:0:0:
96,32,83292,1,0,0:0:0:0:
64,32,83386,1,4,0:0:0:0:
32,32,83479,1,0,0:0:0:0:
32,64,83573,1,0,0:0:0:0:
32,128,83761,1,8,0:0:0:0:
32,192,83948,1,0,0:0:0:0:
32,256,84136,1,4,0:0:0:0:
32,288,84229,1,0,0:0:0:0:
96,288,84417,1,0,0:0:0:0:
160,288,84604,1,0,0:0:0:0:
192,288,84698,1,0,0:0:0:0:
192,224,84886,5,4,0:0:0:0:
224,224,84979,1,0,0:0:0:0:
256,224,85073,1,0,0:0:0:0:
256,288,85261,1,8,0:0:0:0:
320,288,85448,1,0,0:0:0:0:
320,224,85636,1,0,0:0:0:0:
320,192,85729,1,0,0:0:0:0:
320,128,85917,1,0,0:0:0:0:
256,128,86104,5,0,0:0:0:0:
224,128,86198,1,0,0:0:0:0:
192,128,86292,1,0,0:0:0:0:
192,96,86386,1,4,0:0:0:0:
192,64,86479,1,0,0:0:0:0:
192,32,86573,1,0,0:0:0:0:
256,32,86761,1,8,0:0:0:0:
320,32,86948,1,0,0:0:0:0:
320,96,87136,5,0,0:0:0:0:
352,96,87229,1,0,0:0:0:0:
352,32,87417,1,0,0:0:0:0:
416,32,87604,1,0,0:0:0:0:
448,32,87698,1,0,0:0:0:0:
448,96,87886,5,4,0:0:0:0:
448,160,88073,1,0,0:0:0:0:
448,224,88261,1,8,0:0:0:0:
448,288,88448,1,0,0:0:0:0:
448,320,88542,1,0,0:0:0:0:
416,320,88636,1,4,0:0:0:0:
384,320,88729,1,0,0:0:0:0:
320,320,88917,1,0,0:0:0:0:
320,256,89104,5,0,0:0:0:0:
352,224,89198,1,0,0:0:0:0:
320,192,89292,1,0,0:0:0:0:
352,160,89386,1,4,0:0:0:0:
320,128,89479,1,0,0:0:0:0:
352,96,89573,1,0,0:0:0:0:
288,96,89761,1,12,0:0:0:0:
224,96,89948,1,0,0:0:0:0:
160,96,90136,5,4,0:0:0:0:
160,128,90229,1,0,0:0:0:0:
96,128,90417,1,0,0:0:0:0:
96,192,90604,1,0,0:0:0:0:
96,224,90698,1,0,0:0:0:0:
256,192,90886,5,4,0:0:0:0:
256,64,91073,1,0,0:0:0:0:
256,192,91261,1,8,0:0:0:0:
256,320,91448,1,0,0:0:0:0:
256,192,91636,1,0,0:0:0:0:
256,192,91729,1,0,0:0:0:0:
128,192,91917,1,0,0:0:0:0:
128,64,92104,1,0,0:0:0:0:
128,64,92198,1,0,0:0:0:0:
128,64,92292,1,0,0:0:0:0:
128,64,92386,5,0,0:0:0:0:
128,192,92573,1,0,0:0:0:0:
128,320,92761,1,8,0:0:0:0:
256,320,92948,1,0,0:0:0:0:
384,320,93136,1,0,0:0:0:0:
448,320,93229,1,0,0:0:0:0:
448,192,93417,1,0,0:0:0:0:
448,64,93604,1,0,0:0:0:0:
384,64,93698,1,0,0:0:0:0:
320,64,93792,1,0,0:0:0:0:
256,64,93886,5,4,0:0:0:0:
256,192,94073,1,0,0:0:0:0:
128,192,94261,1,8,0:0:0:0:
128,64,94448,1,0,0:0:0:0:
256,64,94636,1,0,0:0:0:0:
256,64,94729,1,0,0:0:0:0:
384,64,94917,1,0,0:0:0:0:
384,192,95104,1,0,0:0:0:0:
384,256,95198,1,0,0:0:0:0:
320,256,95292,1,0,0:0:0:0:
320,320,95386,5,4,0:0:0:0:
192,320,95573,1,0,0:0:0:0:
192,192,95761,1,8,0:0:0:0:
320,192,95948,1,0,0:0:0:0:
320,64,96136,1,4,0:0:0:0:
320,64,96229,1,0,0:0:0:0:
320,64,96417,1,0,0:0:0:0:
192,64,96604,1,0,0:0:0:0:
192,64,96698,1,0,0:0:0:0:
192,64,96792,1,0,0:0:0:0:
192,64,96886,5,4,0:0:0:0:
64,64,97073,1,0,0:0:0:0:
64,192,97261,1,8,0:0:0:0:
64,320,97448,1,0,0:0:0:0:
192,320,97636,1,4,0:0:0:0:
256,320,97729,1,0,0:0:0:0:
384,320,97917,1,0,0:0:0:0:
384,192,98104,1,0,0:0:0:0:
384,192,98198,1,0,0:0:0:0:
384,192,98292,1,0,0:0:0:0:
384,192,98386,5,4,0:0:0:0:
256,192,98573,1,0,0:0:0:0:
128,192,98761,1,8,0:0:0:0:
256,192,98948,1,0,0:0:0:0:
256,64,99136,1,4,0:0:0:0:
320,64,99229,1,0,0:0:0:0:
320,192,99417,1,0,0:0:0:0:
192,192,99604,1,0,0:0:0:0:
192,128,99698,1,0,0:0:0:0:
192,64,99792,1,0,0:0:0:0:
256,64,99886,5,4,0:0:0:0:
384,64,100073,1,0,0:0:0:0:
384,192,100261,1,12,0:0:0:0:
384,320,100448,1,0,0:0:0:0:
256,320,100636,1,4,0:0:0:0:
256,320,100729,1,0,0:0:0:0:
256,192,100917,1,0,0:0:0:0:
256,64,101104,1,0,0:0:0:0:
256,64,101198,1,0,0:0:0:0:
256,64,101292,1,0,0:0:0:0:
256,64,101386,5,4,0:0:0:0:
256,192,101573,1,0,0:0:0:0:
256,320,101761,1,12,0:0:0:0:
256,192,101948,1,0,0:0:0:0:
128,192,102136,1,4,0:0:0:0:
128,64,102323,1,0,0:0:0:0:
160,64,102386,1,0,0:0:0:0:
192,64,102448,1,0,0:0:0:0:
224,64,102511,1,4,0:0:0:0:
352,64,102698,1,0,0:0:0:0:
352,128,102886,6,0,L|352:288,1,140,4|8,0:0|0:0,0:0:0:0:
352,352,103448,1,0,0:0:0:0:
288,352,103636,1,0,0:0:0:0:
256,352,103729,1,0,0:0:0:0:
192,352,103917,1,0,0:0:0:0:
192,288,104104,5,0,0:0:0:0:
224,288,104198,1,0,0:0:0:0:
224,256,104292,1,0,0:0:0:0:
192,256,104386,1,0,0:0:0:0:
224,192,104573,1,0,0:0:0:0:
224,128,104761,1,8,0:0:0:0:
160,128,104948,1,0,0:0:0:0:
160,192,105136,1,0,0:0:0:0:
160,224,105229,1,0,0:0:0:0:
160,288,105417,6,0,L|352:288,1,175,0|4,0:0|0:0,0:0:0:0:
480,288,106261,1,8,0:0:0:0:
480,224,106448,1,0,0:0:0:0:
480,160,106636,1,0,0:0:0:0:
480,128,106729,1,0,0:0:0:0:
416,128,106917,1,0,0:0:0:0:
416,192,107104,1,0,0:0:0:0:
416,224,107198,1,0,0:0:0:0:
416,256,107292,1,0,0:0:0:0:
384,256,107386,6,0,L|288:256,1,70,4|0,0:0|0:0,0:0:0:0:
256,256,107761,2,0,L|256:160,1,70,8|0,0:0|0:0,0:0:0:0:
256,128,108136,2,0,L|352:128,1,70,4|0,0:0|0:0,0:0:0:0:
352,192,108511,2,0,L|352:288,1,70,0|0,0:0|0:0,0:0:0:0:
352,320,108886,6,0,L|448:320,1,70,4|0,0:0|0:0,0:0:0:0:
480,320,109261,1,8,0:0:0:0:
480,256,109448,1,0,0:0:0:0:
416,256,109636,1,0,0:0:0:0:
384,256,109729,1,0,0:0:0:0:
320,256,109917,1,0,0:0:0:0:
320,192,110104,5,0,0:0:0:0:
320,160,110198,1,0,0:0:0:0:
288,160,110292,1,0,0:0:0:0:
256,160,110386,1,4,0:0:0:0:
192,160,110573,1,0,0:0:0:0:
128,160,110761,1,8,0:0:0:0:
128,224,110948,1,0,0:0:0:0:
192,224,111136,1,4,0:0:0:0:
224,224,111229,1,0,0:0:0:0:
256,224,111323,2,0,L|486:224,1,210,0|4,0:0|0:0,0:0:0:0:
480,96,112261,5,12,0:0:0:0:
416,96,112448,1,0,0:0:0:0:
352,96,112636,1,4,0:0:0:0:
320,96,112729,1,0,0:0:0:0:
256,96,112917,1,0,0:0:0:0:
256,32,113104,1,0,0:0:0:0:
224,32,113198,1,0,0:0:0:0:
192,32,113292,1,0,0:0:0:0:
160,32,113386,6,0,L|64:32,1,70,4|0,0:0|0:0,0:0:0:0:
32,32,113761,2,0,L|32:128,1,70,12|0,0:0|0:0,0:0:0:0:
32,160,114136,2,0,L|32:320,2,140,4|4|4,0:0|0:0|0:0,0:0:0:0:
96,160,115073,5,0,0:0:0:0:
128,160,115167,2,0,L|320:160,1,175
320,224,115823,1,0,0:0:0:0:
320,288,116011,1,0,0:0:0:0:
320,352,116198,1,0,0:0:0:0:
256,352,116386,6,0,L|160:352,1,70,4|0,0:0|0:0,0:0:0:0:
128,352,116761,2,0,L|128:256,1,70,8|0,0:0|0:0,0:0:0:0:
128,224,117136,1,0,0:0:0:0:
128,160,117323,1,0,0:0:0:0:
128,128,117417,2,0,L|256:128,1,105
288,128,117886,1,4,0:0:0:0:
352,128,118073,1,0,0:0:0:0:
384,128,118167,2,0,L|384:320,1,175
320,320,118823,5,0,0:0:0:0:
320,256,119011,1,0,0:0:0:0:
256,256,119198,1,0,0:0:0:0:
256,320,119386,1,4,0:0:0:0:
192,320,119573,1,0,0:0:0:0:
192,256,119761,1,8,0:0:0:0:
128,256,119948,1,0,0:0:0:0:
128,256,120042,2,0,L|128:64,1,175
192,64,120698,5,0,0:0:0:0:
256,64,120886,1,4,0:0:0:0:
320,64,121073,1,0,0:0:0:0:
320,64,121167,2,0,L|320:256,1,175,0|4,0:0|0:0,0:0:0:0:
384,256,121823,1,0,0:0:0:0:
448,256,122011,1,0,0:0:0:0:
448,192,122198,1,0,0:0:0:0:
448,128,122386,6,0,L|352:128,1,70,4|0,0:0|0:0,0:0:0:0:
320,128,122761,2,0,L|320:224,1,70,8|0,0:0|0:0,0:0:0:0:
320,256,123136,1,4,0:0:0:0:
256,256,123323,1,0,0:0:0:0:
256,256,123417,2,0,L|128:256,1,105
96,256,123886,1,4,0:0:0:0:
32,256,124073,1,0,0:0:0:0:
32,256,124167,2,0,L|32:64,1,175
96,64,124823,5,0,0:0:0:0:
160,64,125011,1,0,0:0:0:0:
160,128,125198,1,0,0:0:0:0:
160,192,125386,1,0,0:0:0:0:
160,256,125573,1,0,0:0:0:0:
224,256,125761,1,8,0:0:0:0:
288,256,125948,1,0,0:0:0:0:
288,256,126042,2,0,B|288:352|288:352|416:352,1,210,0|4,0:0|0:0,0:0:0:0:
160,224,127261,5,4,0:0:0:0:
160,224,127354,1,0,0:0:0:0:
160,224,127448,1,0,0:0:0:0:
160,160,127636,1,0,0:0:0:0:
160,96,127823,1,0,0:0:0:0:
160,96,127917,1,0,0:0:0:0:
160,96,128011,1,0,0:0:0:0:
160,96,128104,1,0,0:0:0:0:
224,96,128292,1,0,0:0:0:0:
224,32,128479,5,0,0:0:0:0:
224,32,128573,1,0,0:0:0:0:
224,32,128667,1,0,0:0:0:0:
224,32,128761,1,0,0:0:0:0:
224,32,128854,1,0,0:0:0:0:
224,32,128948,1,0,0:0:0:0:
288,32,129136,1,0,0:0:0:0:
352,32,129323,1,0,0:0:0:0:
352,96,129511,1,0,0:0:0:0:
352,96,129604,1,0,0:0:0:0:
416,96,129792,1,0,0:0:0:0:
416,160,129979,5,0,0:0:0:0:
416,160,130073,1,0,0:0:0:0:
416,160,130167,1,0,0:0:0:0:
416,160,130261,1,0,0:0:0:0:
416,160,130354,1,0,0:0:0:0:
416,160,130448,1,0,0:0:0:0:
416,224,130636,1,0,0:0:0:0:
480,224,130823,1,0,0:0:0:0:
480,288,131011,1,0,0:0:0:0:
480,288,131104,1,0,0:0:0:0:
480,352,131292,1,0,0:0:0:0:
416,352,131479,5,0,0:0:0:0:
416,352,131573,1,0,0:0:0:0:
416,352,131667,1,0,0:0:0:0:
416,352,131761,1,0,0:0:0:0:
416,352,131854,1,0,0:0:0:0:
416,352,131948,1,0,0:0:0:0:
352,352,132136,1,0,0:0:0:0:
288,352,132323,1,0,0:0:0:0:
288,288,132511,1,0,0:0:0:0:
288,288,132604,1,0,0:0:0:0:
288,224,132792,1,0,0:0:0:0:
288,160,132979,5,0,0:0:0:0:
288,160,133073,1,0,0:0:0:0:
288,160,133167,1,0,0:0:0:0:
288,160,133261,1,4,0:0:0:0:
288,160,133354,1,0,0:0:0:0:
288,160,133448,1,0,0:0:0:0:
224,160,133636,1,0,0:0:0:0:
160,160,133823,1,0,0:0:0:0:
160,160,133917,1,0,0:0:0:0:
160,160,134011,1,0,0:0:0:0:
160,160,134104,1,0,0:0:0:0:
96,160,134292,1,0,0:0:0:0:
32,160,134479,5,0,0:0:0:0:
32,160,134573,1,0,0:0:0:0:
32,160,134667,1,0,0:0:0:0:
32,160,134761,1,4,0:0:0:0:
32,160,134854,1,0,0:0:0:0:
32,160,134948,1,0,0:0:0:0:
32,96,135136,1,0,0:0:0:0:
96,96,135323,1,0,0:0:0:0:
96,96,135417,1,0,0:0:0:0:
96,96,135511,1,0,0:0:0:0:
96,96,135604,1,0,0:0:0:0:
160,96,135792,1,0,0:0:0:0:
160,160,135979,5,0,0:0:0:0:
160,160,136073,1,0,0:0:0:0:
160,160,136167,1,0,0:0:0:0:
160,160,136261,1,4,0:0:0:0:
160,160,136354,1,0,0:0:0:0:
160,160,136448,1,0,0:0:0:0:
160,224,136636,1,0,0:0:0:0:
224,224,136823,1,0,0:0:0:0:
224,224,136917,1,0,0:0:0:0:
224,224,137011,1,4,0:0:0:0:
224,224,137104,1,0,0:0:0:0:
224,160,137292,1,0,0:0:0:0:
224,96,137479,5,0,0:0:0:0:
224,96,137573,1,0,0:0:0:0:
224,96,137667,1,0,0:0:0:0:
224,96,137761,1,4,0:0:0:0:
224,96,137854,1,0,0:0:0:0:
224,96,137948,1,0,0:0:0:0:
288,96,138136,1,4,0:0:0:0:
288,32,138323,1,0,0:0:0:0:
288,32,138417,1,0,0:0:0:0:
288,32,138511,1,4,0:0:0:0:
288,32,138604,1,0,0:0:0:0:
352,32,138792,1,0,0:0:0:0:
416,32,138979,1,0,0:0:0:0:
448,32,139073,1,0,0:0:0:0:
448,224,139636,5,4,0:0:0:0:
416,224,139729,1,0,0:0:0:0:
384,224,139823,1,0,0:0:0:0:
384,160,140011,1,8,0:0:0:0:
320,160,140198,1,0,0:0:0:0:
320,192,140292,1,0,0:0:0:0:
320,224,140386,1,0,0:0:0:0:
320,256,140479,1,0,0:0:0:0:
320,320,140667,1,0,0:0:0:0:
256,320,140854,5,0,0:0:0:0:
224,288,140948,1,0,0:0:0:0:
256,256,141042,1,0,0:0:0:0:
224,224,141136,1,0,0:0:0:0:
256,192,141229,1,0,0:0:0:0:
224,160,141323,1,0,0:0:0:0:
224,96,141511,1,8,0:0:0:0:
160,96,141698,1,0,0:0:0:0:
96,96,141886,1,0,0:0:0:0:
96,128,141979,1,0,0:0:0:0:
96,192,142167,1,0,0:0:0:0:
96,256,142354,1,0,0:0:0:0:
96,288,142448,5,0,0:0:0:0:
128,288,142542,1,0,0:0:0:0:
160,288,142636,1,4,0:0:0:0:
192,288,142729,1,0,0:0:0:0:
224,288,142823,1,0,0:0:0:0:
288,288,143011,1,8,0:0:0:0:
352,288,143198,1,0,0:0:0:0:
352,224,143386,1,0,0:0:0:0:
352,192,143479,1,0,0:0:0:0:
352,128,143667,1,0,0:0:0:0:
288,128,143854,5,0,0:0:0:0:
256,128,143948,1,0,0:0:0:0:
224,128,144042,1,0,0:0:0:0:
192,128,144136,1,4,0:0:0:0:
160,128,144229,1,0,0:0:0:0:
128,128,144323,1,0,0:0:0:0:
64,128,144511,1,8,0:0:0:0:
64,64,144698,1,0,0:0:0:0:
128,64,144886,1,4,0:0:0:0:
128,32,144979,1,0,0:0:0:0:
192,32,145167,1,0,0:0:0:0:
256,32,145354,1,0,0:0:0:0:
288,32,145448,1,0,0:0:0:0:
320,32,145542,1,0,0:0:0:0:
352,32,145636,5,4,0:0:0:0:
384,32,145729,1,0,0:0:0:0:
416,32,145823,1,0,0:0:0:0:
480,32,146011,1,8,0:0:0:0:
480,96,146198,1,0,0:0:0:0:
416,96,146386,1,0,0:0:0:0:
384,96,146479,1,0,0:0:0:0:
384,160,146667,1,0,0:0:0:0:
384,224,146854,5,0,0:0:0:0:
416,224,146948,1,0,0:0:0:0:
448,224,147042,1,0,0:0:0:0:
480,224,147136,1,4,0:0:0:0:
480,256,147229,1,0,0:0:0:0:
480,288,147323,1,0,0:0:0:0:
480,352,147511,1,8,0:0:0:0:
416,352,147698,1,0,0:0:0:0:
352,352,147886,1,0,0:0:0:0:
320,352,147979,1,0,0:0:0:0:
256,352,148167,1,0,0:0:0:0:
192,352,148354,1,0,0:0:0:0:
160,352,148448,1,0,0:0:0:0:
96,352,148636,5,4,0:0:0:0:
64,352,148729,1,0,0:0:0:0:
32,352,148823,1,0,0:0:0:0:
32,288,149011,1,8,0:0:0:0:
96,288,149198,1,0,0:0:0:0:
96,352,149386,1,4,0:0:0:0:
128,352,149479,1,0,0:0:0:0:
192,352,149667,1,0,0:0:0:0:
192,288,149854,5,0,0:0:0:0:
192,256,149948,1,0,0:0:0:0:
192,224,150042,1,0,0:0:0:0:
192,192,150136,1,4,0:0:0:0:
192,160,150229,1,0,0:0:0:0:
192,128,150323,1,0,0:0:0:0:
128,128,150511,1,12,0:0:0:0:
64,128,150698,1,0,0:0:0:0:
64,192,150886,1,4,0:0:0:0:
64,224,150979,1,0,0:0:0:0:
64,288,151167,1,0,0:0:0:0:
64,352,151354,1,0,0:0:0:0:
96,352,151448,1,0,0:0:0:0:
160,352,151636,5,4,0:0:0:0:
192,352,151729,1,0,0:0:0:0:
224,352,151823,1,0,0:0:0:0:
288,352,152011,1,8,0:0:0:0:
288,288,152198,1,0,0:0:0:0:
288,224,152386,1,0,0:0:0:0:
320,224,152479,1,0,0:0:0:0:
384,224,152667,1,0,0:0:0:0:
384,288,152854,5,0,0:0:0:0:
384,320,152948,1,0,0:0:0:0:
384,352,153042,1,0,0:0:0:0:
416,352,153136,1,0,0:0:0:0:
448,352,153229,1,0,0:0:0:0:
448,320,153323,1,0,0:0:0:0:
448,256,153511,1,8,0:0:0:0:
448,192,153698,1,0,0:0:0:0:
448,128,153886,1,0,0:0:0:0:
480,128,153979,1,0,0:0:0:0:
480,64,154167,1,0,0:0:0:0:
416,64,154354,1,0,0:0:0:0:
416,32,154448,1,0,0:0:0:0:
352,32,154636,5,4,0:0:0:0:
288,32,154823,1,0,0:0:0:0:
224,32,155011,1,8,0:0:0:0:
160,32,155198,1,0,0:0:0:0:
128,32,155292,1,0,0:0:0:0:
96,32,155386,1,0,0:0:0:0:
64,32,155479,1,0,0:0:0:0:
64,96,155667,1,0,0:0:0:0:
128,96,155854,5,0,0:0:0:0:
160,96,155948,1,0,0:0:0:0:
192,96,156042,1,0,0:0:0:0:
224,96,156136,1,4,0:0:0:0:
256,96,156229,1,0,0:0:0:0:
288,96,156323,1,0,0:0:0:0:
288,160,156511,1,8,0:0:0:0:
224,160,156698,1,0,0:0:0:0:
224,224,156886,1,4,0:0:0:0:
224,256,156979,1,0,0:0:0:0:
224,320,157167,1,0,0:0:0:0:
160,320,157354,1,0,0:0:0:0:
128,320,157448,1,0,0:0:0:0:
64,320,157636,5,4,0:0:0:0:
64,288,157729,1,0,0:0:0:0:
64,256,157823,1,0,0:0:0:0:
64,192,158011,1,8,0:0:0:0:
128,192,158198,1,0,0:0:0:0:
192,192,158386,1,0,0:0:0:0:
192,160,158479,1,0,0:0:0:0:
192,96,158667,1,0,0:0:0:0:
128,96,158854,5,0,0:0:0:0:
128,128,158948,1,0,0:0:0:0:
96,128,159042,1,4,0:0:0:0:
64,128,159136,1,0,0:0:0:0:
32,128,159229,1,0,0:0:0:0:
32,96,159323,1,0,0:0:0:0:
32,32,159511,1,8,0:0:0:0:
96,32,159698,1,0,0:0:0:0:
160,32,159886,1,0,0:0:0:0:
192,32,159979,1,0,0:0:0:0:
192,96,160167,1,0,0:0:0:0:
192,160,160354,1,0,0:0:0:0:
224,160,160448,1,0,0:0:0:0:
224,224,160636,5,4,0:0:0:0:
224,288,160823,1,0,0:0:0:0:
224,352,161011,1,8,0:0:0:0:
288,352,161198,5,0,0:0:0:0:
320,352,161292,1,0,0:0:0:0:
352,352,161386,1,4,0:0:0:0:
384,352,161479,1,0,0:0:0:0:
448,352,161667,1,0,0:0:0:0:
448,288,161854,5,0,0:0:0:0:
448,256,161948,1,0,0:0:0:0:
448,224,162042,1,0,0:0:0:0:
416,224,162136,1,4,0:0:0:0:
384,224,162229,1,0,0:0:0:0:
352,224,162323,1,0,0:0:0:0:
288,224,162511,1,12,0:0:0:0:
224,224,162698,1,0,0:0:0:0:
160,224,162886,1,4,0:0:0:0:
160,256,162979,5,0,0:0:0:0:
96,256,163167,1,0,0:0:0:0:
96,192,163354,1,0,0:0:0:0:
96,160,163448,1,0,0:0:0:0:
160,160,163636,5,4,0:0:0:0:
192,160,163729,1,0,0:0:0:0:
224,160,163823,1,0,0:0:0:0:
288,160,164011,1,8,0:0:0:0:
288,96,164198,1,0,0:0:0:0:
288,64,164292,1,0,0:0:0:0:
320,64,164386,1,0,0:0:0:0:
352,64,164479,1,0,0:0:0:0:
416,64,164667,1,0,0:0:0:0:
480,64,164854,5,0,0:0:0:0:
480,96,164948,1,0,0:0:0:0:
480,128,165042,1,0,0:0:0:0:
448,128,165136,1,0,0:0:0:0:
416,128,165229,1,0,0:0:0:0:
384,128,165323,1,0,0:0:0:0:
384,192,165511,1,8,0:0:0:0:
448,192,165698,1,0,0:0:0:0:
448,256,165886,1,0,0:0:0:0:
448,288,165979,1,0,0:0:0:0:
448,352,166167,1,0,0:0:0:0:
384,352,166354,1,0,0:0:0:0:
352,320,166448,1,0,0:0:0:0:
320,352,166542,5,0,0:0:0:0:
288,320,166636,1,4,0:0:0:0:
256,352,166729,1,0,0:0:0:0:
224,320,166823,1,0,0:0:0:0:
160,320,167011,1,8,0:0:0:0:
160,256,167198,1,0,0:0:0:0:
160,192,167386,1,0,0:0:0:0:
160,160,167479,1,0,0:0:0:0:
96,160,167667,1,0,0:0:0:0:
96,224,167854,5,0,0:0:0:0:
96,256,167948,1,0,0:0:0:0:
96,288,168042,1,0,0:0:0:0:
96,320,168136,1,4,0:0:0:0:
96,352,168229,1,0,0:0:0:0:
128,352,168323,1,0,0:0:0:0:
192,352,168511,1,8,0:0:0:0:
256,352,168698,1,0,0:0:0:0:
256,288,168886,1,4,0:0:0:0:
256,256,168979,1,0,0:0:0:0:
320,256,169167,1,0,0:0:0:0:
384,256,169354,1,0,0:0:0:0:
384,224,169448,1,0,0:0:0:0:
384,160,169636,5,4,0:0:0:0:
352,160,169729,1,0,0:0:0:0:
320,160,169823,1,0,0:0:0:0:
256,160,170011,1,8,0:0:0:0:
256,96,170198,1,0,0:0:0:0:
320,96,170386,1,0,0:0:0:0:
320,64,170479,1,0,0:0:0:0:
384,64,170667,1,0,0:0:0:0:
448,64,170854,5,0,0:0:0:0:
480,64,170948,1,0,0:0:0:0:
480,96,171042,1,0,0:0:0:0:
448,96,171136,1,4,0:0:0:0:
448,128,171229,1,0,0:0:0:0:
480,128,171323,1,0,0:0:0:0:
480,192,171511,1,8,0:0:0:0:
480,256,171698,1,0,0:0:0:0:
480,320,171886,1,0,0:0:0:0:
448,320,171979,1,0,0:0:0:0:
384,320,172167,1,0,0:0:0:0:
320,320,172354,1,0,0:0:0:0:
288,320,172448,1,0,0:0:0:0:
288,288,172542,1,0,0:0:0:0:
288,256,172636,5,4,0:0:0:0:
288,224,172729,1,0,0:0:0:0:
288,192,172823,1,0,0:0:0:0:
288,128,173011,1,8,0:0:0:0:
224,128,173198,1,0,0:0:0:0:
192,128,173292,1,0,0:0:0:0:
160,128,173386,1,4,0:0:0:0:
160,160,173479,1,0,0:0:0:0:
160,224,173667,1,0,0:0:0:0:
160,288,173854,5,0,0:0:0:0:
192,320,173948,1,0,0:0:0:0:
224,288,174042,1,0,0:0:0:0:
256,320,174136,1,4,0:0:0:0:
288,288,174229,1,0,0:0:0:0:
320,320,174323,1,0,0:0:0:0:
384,288,174511,1,12,0:0:0:0:
384,224,174698,1,0,0:0:0:0:
384,160,174886,1,4,0:0:0:0:
384,128,174979,1,0,0:0:0:0:
320,128,175167,1,0,0:0:0:0:
256,128,175354,1,0,0:0:0:0:
224,128,175448,1,0,0:0:0:0:
224,64,175636,5,4,0:0:0:0:
256,64,175729,1,0,0:0:0:0:
288,64,175823,1,0,0:0:0:0:
352,64,176011,1,8,0:0:0:0:
416,64,176198,1,0,0:0:0:0:
416,128,176386,1,0,0:0:0:0:
416,160,176479,1,0,0:0:0:0:
416,224,176667,1,0,0:0:0:0:
352,224,176854,5,0,0:0:0:0:
352,192,176948,1,0,0:0:0:0:
352,160,177042,1,0,0:0:0:0:
352,128,177136,1,0,0:0:0:0:
320,128,177229,1,0,0:0:0:0:
288,128,177323,1,0,0:0:0:0:
288,192,177511,1,8,0:0:0:0:
288,256,177698,1,0,0:0:0:0:
288,320,177886,1,0,0:0:0:0:
256,320,177979,1,0,0:0:0:0:
192,320,178167,1,0,0:0:0:0:
192,256,178354,1,0,0:0:0:0:
160,224,178448,1,0,0:0:0:0:
128,256,178542,1,0,0:0:0:0:
96,224,178636,5,4,0:0:0:0:
64,256,178729,1,0,0:0:0:0:
32,224,178823,1,0,0:0:0:0:
32,160,179011,1,8,0:0:0:0:
32,96,179198,1,0,0:0:0:0:
32,64,179292,1,0,0:0:0:0:
32,32,179386,1,0,0:0:0:0:
64,32,179479,1,0,0:0:0:0:
128,32,179667,1,0,0:0:0:0:
128,96,179854,5,0,0:0:0:0:
128,128,179948,1,0,0:0:0:0:
128,160,180042,1,0,0:0:0:0:
160,160,180136,1,4,0:0:0:0:
192,160,180229,1,0,0:0:0:0:
192,128,180323,1,0,0:0:0:0:
256,128,180511,1,8,0:0:0:0:
320,128,180698,1,0,0:0:0:0:
320,64,180886,1,4,0:0:0:0:
320,32,180979,1,0,0:0:0:0:
256,32,181167,1,0,0:0:0:0:
192,32,181354,1,0,0:0:0:0:
160,32,181448,1,0,0:0:0:0:
96,32,181636,5,4,0:0:0:0:
64,32,181729,1,0,0:0:0:0:
32,32,181823,1,0,0:0:0:0:
32,96,182011,1,8,0:0:0:0:
32,160,182198,1,0,0:0:0:0:
32,192,182292,1,0,0:0:0:0:
32,224,182386,1,0,0:0:0:0:
32,256,182479,1,0,0:0:0:0:
32,320,182667,1,0,0:0:0:0:
96,320,182854,5,0,0:0:0:0:
128,320,182948,1,0,0:0:0:0:
160,320,183042,1,0,0:0:0:0:
160,288,183136,1,4,0:0:0:0:
160,256,183229,1,0,0:0:0:0:
160,224,183323,1,0,0:0:0:0:
224,224,183511,1,8,0:0:0:0:
288,224,183698,1,0,0:0:0:0:
352,224,183886,1,0,0:0:0:0:
352,192,183979,1,0,0:0:0:0:
416,192,184167,1,0,0:0:0:0:
416,128,184354,1,0,0:0:0:0:
416,96,184448,1,0,0:0:0:0:
384,96,184542,1,0,0:0:0:0:
352,96,184636,5,4,0:0:0:0:
352,128,184729,1,0,0:0:0:0:
320,128,184823,1,0,0:0:0:0:
256,128,185011,1,8,0:0:0:0:
256,64,185198,1,0,0:0:0:0:
224,64,185292,1,0,0:0:0:0:
192,64,185386,1,4,0:0:0:0:
160,64,185479,1,0,0:0:0:0:
160,128,185667,1,0,0:0:0:0:
160,192,185854,5,0,0:0:0:0:
160,224,185948,1,0,0:0:0:0:
160,256,186042,1,0,0:0:0:0:
128,256,186136,1,4,0:0:0:0:
96,256,186229,1,0,0:0:0:0:
96,224,186323,1,0,0:0:0:0:
32,224,186511,1,12,0:0:0:0:
32,288,186698,1,0,0:0:0:0:
32,352,186886,1,4,0:0:0:0:
64,352,186979,1,0,0:0:0:0:
128,352,187167,1,0,0:0:0:0:
192,352,187354,1,0,0:0:0:0:
224,352,187448,1,0,0:0:0:0:
224,288,187636,5,4,0:0:0:0:
224,256,187729,1,0,0:0:0:0:
224,224,187823,1,0,0:0:0:0:
288,224,188011,1,0,0:0:0:0:
352,224,188198,1,0,0:0:0:0:
384,224,188292,1,0,0:0:0:0:
416,224,188386,1,0,0:0:0:0:
448,224,188479,1,0,0:0:0:0:
448,288,188667,1,0,0:0:0:0:
448,352,188854,5,0,0:0:0:0:
416,352,188948,1,0,0:0:0:0:
384,352,189042,1,0,0:0:0:0:
352,352,189136,1,0,0:0:0:0:
320,352,189229,1,0,0:0:0:0:
288,352,189323,1,0,0:0:0:0:
288,288,189511,1,0,0:0:0:0:
288,224,189698,1,0,0:0:0:0:
288,192,189792,1,0,0:0:0:0:
288,160,189886,1,0,0:0:0:0:
288,128,189979,1,0,0:0:0:0:
352,128,190167,1,0,0:0:0:0:
352,192,190354,5,0,0:0:0:0:
384,224,190448,1,0,0:0:0:0:
352,256,190542,1,0,0:0:0:0:
384,288,190636,1,4,0:0:0:0:
352,320,190729,1,0,0:0:0:0:
384,352,190823,1,0,0:0:0:0:
448,352,191011,1,0,0:0:0:0:
448,288,191198,1,0,0:0:0:0:
480,288,191292,1,0,0:0:0:0:
480,256,191386,1,0,0:0:0:0:
480,224,191479,1,0,0:0:0:0:
480,160,191667,1,0,0:0:0:0:
480,96,191854,5,0,0:0:0:0:
480,64,191948,1,0,0:0:0:0:
480,32,192042,1,0,0:0:0:0:
448,32,192136,1,4,0:0:0:0:
416,32,192229,1,0,0:0:0:0:
384,32,192323,1,0,0:0:0:0:
320,32,192511,1,0,0:0:0:0:
320,96,192698,1,0,0:0:0:0:
320,160,192886,1,0,0:0:0:0:
288,160,192979,1,0,0:0:0:0:
224,160,193167,1,0,0:0:0:0:
224,96,193354,1,0,0:0:0:0:
224,64,193448,1,0,0:0:0:0:
160,64,193636,5,4,0:0:0:0:
128,64,193729,1,0,0:0:0:0:
96,64,193823,1,0,0:0:0:0:
32,64,194011,1,0,0:0:0:0:
32,128,194198,1,0,0:0:0:0:
32,160,194292,1,0,0:0:0:0:
32,192,194386,1,0,0:0:0:0:
32,224,194479,1,0,0:0:0:0:
32,288,194667,1,0,0:0:0:0:
96,288,194854,5,0,0:0:0:0:
128,288,194948,1,0,0:0:0:0:
160,288,195042,1,0,0:0:0:0:
160,320,195136,1,0,0:0:0:0:
160,352,195229,1,0,0:0:0:0:
192,352,195323,1,0,0:0:0:0:
256,352,195511,1,0,0:0:0:0:
320,352,195698,1,0,0:0:0:0:
384,352,195886,1,0,0:0:0:0:
416,352,195979,1,0,0:0:0:0:
480,352,196167,1,0,0:0:0:0:
480,288,196354,1,0,0:0:0:0:
480,256,196448,1,0,0:0:0:0:
416,256,196636,5,4,0:0:0:0:
384,256,196729,1,0,0:0:0:0:
384,224,196823,1,0,0:0:0:0:
384,160,197011,1,0,0:0:0:0:
448,160,197198,1,0,0:0:0:0:
480,160,197292,1,0,0:0:0:0:
480,128,197386,1,4,0:0:0:0:
480,96,197479,1,0,0:0:0:0:
480,32,197667,1,0,0:0:0:0:
416,32,197854,5,0,0:0:0:0:
384,64,197948,1,0,0:0:0:0:
352,32,198042,1,0,0:0:0:0:
320,64,198136,1,0,0:0:0:0:
288,32,198229,1,0,0:0:0:0:
256,64,198323,1,0,0:0:0:0:
192,64,198511,1,0,0:0:0:0:
128,64,198698,1,0,0:0:0:0:
64,64,198886,1,0,0:0:0:0:
64,96,198979,1,0,0:0:0:0:
64,160,199167,1,0,0:0:0:0:
128,160,199354,1,0,0:0:0:0:
160,160,199448,1,0,0:0:0:0:
160,96,199636,5,4,0:0:0:0:
160,64,199729,1,0,0:0:0:0:
160,32,199823,1,0,0:0:0:0:
224,32,200011,1,0,0:0:0:0:
288,32,200198,1,0,0:0:0:0:
288,64,200292,1,0,0:0:0:0:
288,96,200386,1,0,0:0:0:0:
288,128,200479,1,0,0:0:0:0:
288,192,200667,1,0,0:0:0:0:
352,192,200854,5,0,0:0:0:0:
384,192,200948,1,0,0:0:0:0:
416,192,201042,1,0,0:0:0:0:
448,192,201136,1,0,0:0:0:0:
480,192,201229,1,0,0:0:0:0:
480,224,201323,1,0,0:0:0:0:
480,288,201511,1,0,0:0:0:0:
416,288,201698,1,0,0:0:0:0:
352,288,201886,1,0,0:0:0:0:
320,288,201979,1,0,0:0:0:0:
256,288,202167,1,0,0:0:0:0:
192,288,202354,5,0,0:0:0:0:
192,256,202448,1,0,0:0:0:0:
192,224,202542,1,0,0:0:0:0:
192,192,202636,1,0,0:0:0:0:
192,160,202729,1,0,0:0:0:0:
192,128,202823,1,0,0:0:0:0:
192,64,203011,1,0,0:0:0:0:
128,64,203198,1,0,0:0:0:0:
96,64,203292,1,0,0:0:0:0:
64,64,203386,1,0,0:0:0:0:
32,64,203479,1,0,0:0:0:0:
32,128,203667,1,0,0:0:0:0:
32,192,203854,5,0,0:0:0:0:
32,224,203948,1,0,0:0:0:0:
32,256,204042,1,0,0:0:0:0:
32,288,204136,1,0,0:0:0:0:
32,320,204229,1,0,0:0:0:0:
32,352,204323,1,0,0:0:0:0:
96,352,204511,1,0,0:0:0:0:
160,352,204698,1,0,0:0:0:0:
160,288,204886,1,0,0:0:0:0:
160,256,204979,1,0,0:0:0:0:
96,256,205167,1,0,0:0:0:0:
32,256,205354,1,0,0:0:0:0:
32,224,205448,1,0,0:0:0:0:
32,160,205636,5,0,0:0:0:0:
32,128,205729,1,0,0:0:0:0:
32,96,205823,1,0,0:0:0:0:
96,96,206011,1,0,0:0:0:0:
160,96,206198,1,0,0:0:0:0:
192,128,206292,1,0,0:0:0:0:
224,96,206386,1,0,0:0:0:0:
256,128,206479,1,0,0:0:0:0:
320,128,206667,1,0,0:0:0:0:
320,192,206854,5,0,0:0:0:0:
320,224,206948,1,0,0:0:0:0:
352,224,207042,1,0,0:0:0:0:
384,224,207136,1,0,0:0:0:0:
384,256,207229,1,0,0:0:0:0:
384,288,207323,1,0,0:0:0:0:
384,352,207511,1,0,0:0:0:0:
448,352,207698,1,0,0:0:0:0:
448,288,207886,1,0,0:0:0:0:
448,256,207979,1,0,0:0:0:0:
448,192,208167,1,0,0:0:0:0:
384,192,208354,5,0,0:0:0:0:
352,192,208448,1,0,0:0:0:0:
320,192,208542,1,0,0:0:0:0:
288,192,208636,1,0,0:0:0:0:
256,192,208729,1,0,0:0:0:0:
224,192,208823,1,0,0:0:0:0:
224,128,209011,1,0,0:0:0:0:
288,128,209198,1,0,0:0:0:0:
288,96,209292,1,0,0:0:0:0:
288,64,209386,1,0,0:0:0:0:
288,32,209479,1,0,0:0:0:0:
352,32,209667,1,0,0:0:0:0:
416,32,209854,5,0,0:0:0:0:
448,32,209948,1,0,0:0:0:0:
480,32,210042,1,0,0:0:0:0:
480,64,210136,1,0,0:0:0:0:
480,96,210229,1,0,0:0:0:0:
480,128,210323,1,0,0:0:0:0:
480,192,210511,1,0,0:0:0:0:
416,192,210698,1,0,0:0:0:0:
352,192,210886,1,0,0:0:0:0:
320,192,210979,1,0,0:0:0:0:
320,256,211167,1,0,0:0:0:0:
256,256,211354,1,0,0:0:0:0:
256,224,211448,1,0,0:0:0:0:
256,64,211636,5,4,0:0:0:0:
384,64,211823,1,0,0:0:0:0:
384,192,212011,1,8,0:0:0:0:
256,192,212198,1,0,0:0:0:0:
256,64,212386,1,0,0:0:0:0:
256,64,212479,1,0,0:0:0:0:
128,64,212667,1,0,0:0:0:0:
128,192,212854,1,0,0:0:0:0:
128,256,212948,1,0,0:0:0:0:
192,256,213042,1,0,0:0:0:0:
192,192,213136,5,0,0:0:0:0:
192,64,213323,1,0,0:0:0:0:
320,64,213511,1,8,0:0:0:0:
320,192,213698,1,0,0:0:0:0:
320,320,213886,1,0,0:0:0:0:
320,320,213979,1,0,0:0:0:0:
448,320,214167,1,0,0:0:0:0:
448,192,214354,1,0,0:0:0:0:
448,128,214448,1,0,0:0:0:0:
384,128,214542,1,0,0:0:0:0:
384,192,214636,5,4,0:0:0:0:
256,192,214823,1,0,0:0:0:0:
128,192,215011,1,8,0:0:0:0:
128,64,215198,1,0,0:0:0:0:
256,64,215386,1,0,0:0:0:0:
320,64,215479,1,0,0:0:0:0:
448,64,215667,1,0,0:0:0:0:
448,192,215854,1,0,0:0:0:0:
384,192,215948,1,0,0:0:0:0:
320,192,216042,1,0,0:0:0:0:
256,192,216136,5,4,0:0:0:0:
256,64,216323,1,0,0:0:0:0:
256,192,216511,1,8,0:0:0:0:
256,320,216698,1,0,0:0:0:0:
128,320,216886,1,4,0:0:0:0:
128,256,216979,1,0,0:0:0:0:
128,128,217167,1,0,0:0:0:0:
256,128,217354,1,0,0:0:0:0:
256,192,217448,1,0,0:0:0:0:
256,256,217542,1,0,0:0:0:0:
256,192,217636,5,4,0:0:0:0:
384,192,217823,1,0,0:0:0:0:
256,192,218011,1,8,0:0:0:0:
128,192,218198,1,0,0:0:0:0:
128,64,218386,1,0,0:0:0:0:
192,64,218479,1,0,0:0:0:0:
320,64,218667,1,0,0:0:0:0:
448,64,218854,1,0,0:0:0:0:
448,128,218948,1,0,0:0:0:0:
448,192,219042,1,0,0:0:0:0:
448,256,219136,5,4,0:0:0:0:
320,256,219323,1,0,0:0:0:0:
192,256,219511,1,8,0:0:0:0:
64,256,219698,1,0,0:0:0:0:
64,128,219886,1,0,0:0:0:0:
64,192,219979,1,0,0:0:0:0:
64,320,220167,1,0,0:0:0:0:
192,320,220354,1,0,0:0:0:0:
256,320,220448,1,0,0:0:0:0:
320,320,220542,1,0,0:0:0:0:
384,320,220636,5,4,0:0:0:0:
384,192,220823,1,0,0:0:0:0:
384,64,221011,1,12,0:0:0:0:
384,192,221198,1,0,0:0:0:0:
256,192,221386,1,4,0:0:0:0:
192,192,221479,1,0,0:0:0:0:
64,192,221667,1,0,0:0:0:0:
192,192,221854,1,0,0:0:0:0:
256,192,221948,1,0,0:0:0:0:
320,192,222042,1,0,0:0:0:0:
384,192,222136,5,4,0:0:0:0:
384,64,222323,1,0,0:0:0:0:
256,64,222511,1,12,0:0:0:0:
128,64,222698,1,0,0:0:0:0:
128,192,222886,1,4,0:0:0:0:
128,320,223073,1,0,0:0:0:0:
160,320,223136,1,0,0:0:0:0:
192,320,223198,1,0,0:0:0:0:
224,320,223261,1,4,0:0:0:0:
224,192,223448,1,0,0:0:0:0:
256,192,223636,12,4,226636,0:0:0:0:
