osu file format v14

[General]
AudioFilename: 12. Remember me.mp3
AudioLeadIn: 0
PreviewTime: 117160
Countdown: 0
SampleSet: Soft
StackLeniency: 0.7
Mode: 3
LetterboxInBreaks: 0
EpilepsyWarning: 1
SpecialStyle: 0
WidescreenStoryboard: 1

[Editor]
Bookmarks: 125158,137958
DistanceSpacing: 1
BeatDivisor: 4
GridSize: 8
TimelineZoom: 1.6

[Metadata]
Title:Remember Me
TitleUnicode:Remember Me
Artist:seleP
ArtistUnicode:seleP
Creator:Bara-
Version:Shi-Ra's Forgotten Extra
Source:
Tags:Lily Vocaloid Lilium Doll Sele-P 2nd Album UFERIUM Shmiklak Kenterz Kin Fort Avishay cdhsausageboy Reikosaka 17VA Yooh [Shi-Ra] Murder Suicide Yandere
BeatmapID:1191947
BeatmapSetID:110547

[Difficulty]
HPDrainRate:8
CircleSize:7
OverallDifficulty:8
ApproachRate:3
SliderMultiplier:2.20000000596047
SliderTickRate:1

[Events]
//Background and Video events
0,0,"KylXWYr.jpg",0,0
//Break Periods
//Storyboard Layer 0 (Background)
//Storyboard Layer 1 (Fail)
//Storyboard Layer 2 (Pass)
//Storyboard Layer 3 (Foreground)
//Storyboard Sound Samples

[TimingPoints]
358,400,4,2,1,40,1,0
13188,400,4,2,1,40,1,0
53158,400,4,2,1,60,1,1
78758,-100,4,2,1,40,0,0
118758,-95.2380952380952,4,2,1,60,0,1
131158,-95.2380952380952,4,2,1,40,0,0
131558,-90.9090909090909,4,2,1,60,0,1
144358,-100,4,2,1,40,0,0
160358,-100,4,2,1,60,0,1
172758,-100,4,2,1,40,0,0
173158,-95.2380952380952,4,2,1,60,0,1
185958,-100,4,2,1,40,0,0
198758,-100,4,2,1,40,0,0
199058,-100,4,2,1,30,0,0
199358,-100,4,2,1,20,0,0
199658,-100,4,2,1,10,0,0

[Colours]
Combo1 : 255,255,0
Combo2 : 255,0,0
Combo3 : 0,255,255
Combo4 : 250,0,125
Combo5 : 0,0,255
Combo6 : 0,255,0
Combo7 : 255,128,0
Combo8 : 0,128,0

[HitObjects]
329,192,358,128,0,558:0:0:0:0:
475,192,358,1,0,0:0:0:0:
182,192,558,1,0,0:0:0:0:
256,192,658,128,0,858:0:0:0:0:
402,192,658,1,0,0:0:0:0:
109,192,858,1,0,0:0:0:0:
475,192,958,1,0,0:0:0:0:
329,192,958,128,0,1158:0:0:0:0:
182,192,1158,1,0,0:0:0:0:
256,192,1258,128,0,1458:0:0:0:0:
402,192,1258,1,0,0:0:0:0:
36,192,1258,128,0,1958:0:0:0:0:
475,192,1458,1,0,0:0:0:0:
182,192,1558,1,0,0:0:0:0:
475,192,1958,128,0,2158:0:0:0:0:
256,192,1958,1,0,0:0:0:0:
402,192,2158,1,0,0:0:0:0:
109,192,2258,1,0,0:0:0:0:
256,192,2258,128,0,2458:0:0:0:0:
36,192,2458,1,0,0:0:0:0:
475,192,2558,128,0,2958:0:0:0:0:
182,192,2558,1,0,0:0:0:0:
329,192,2758,1,0,0:0:0:0:
36,192,2758,128,0,3558:0:0:0:0:
182,192,2858,1,0,0:0:0:0:
256,192,3058,128,0,3358:0:0:0:0:
109,192,3058,1,0,0:0:0:0:
402,192,3158,1,0,0:0:0:0:
402,192,3558,128,0,3758:0:0:0:0:
182,192,3558,1,0,0:0:0:0:
256,192,3758,1,0,0:0:0:0:
109,192,3858,128,0,4058:0:0:0:0:
475,192,3858,1,0,0:0:0:0:
256,192,4058,1,0,0:0:0:0:
402,192,4158,128,0,6358:0:0:0:0:
36,192,4158,1,0,0:0:0:0:
256,192,4358,1,0,0:0:0:0:
109,192,4458,1,0,0:0:0:0:
182,192,4658,1,0,0:0:0:0:
36,192,4758,1,0,0:0:0:0:
36,192,5158,1,0,0:0:0:0:
109,192,5358,1,0,0:0:0:0:
256,192,5458,1,0,0:0:0:0:
36,192,5658,1,0,0:0:0:0:
182,192,5758,1,0,0:0:0:0:
109,192,5958,1,0,0:0:0:0:
256,192,6058,1,0,0:0:0:0:
329,192,6258,1,0,0:0:0:0:
182,192,6358,128,0,6758:0:0:0:0:
109,192,6358,1,0,0:0:0:0:
329,192,6558,128,0,6758:0:0:0:0:
475,192,6658,128,0,7358:0:0:0:0:
36,192,6758,128,0,6958:0:0:0:0:
109,192,6758,1,0,0:0:0:0:
182,192,6958,1,0,0:0:0:0:
329,192,7058,1,0,0:0:0:0:
109,192,7058,128,0,7258:0:0:0:0:
402,192,7258,1,0,0:0:0:0:
256,192,7358,1,0,0:0:0:0:
36,192,7358,128,0,7558:0:0:0:0:
182,192,7558,1,0,0:0:0:0:
329,192,7658,1,0,0:0:0:0:
475,192,7658,128,0,7858:0:0:0:0:
36,192,7858,1,0,0:0:0:0:
329,192,7958,128,0,8358:0:0:0:0:
182,192,7958,1,0,0:0:0:0:
36,192,8358,128,0,9158:0:0:0:0:
402,192,8358,1,0,0:0:0:0:
182,192,8558,1,0,0:0:0:0:
329,192,8658,128,0,8858:0:0:0:0:
475,192,8658,1,0,0:0:0:0:
109,192,8858,1,0,0:0:0:0:
475,192,8958,128,0,9158:0:0:0:0:
256,192,8958,1,0,0:0:0:0:
256,192,9158,128,0,9958:0:0:0:0:
109,192,9158,1,0,0:0:0:0:
402,192,9258,1,0,0:0:0:0:
36,192,9458,1,0,0:0:0:0:
475,192,9558,1,0,0:0:0:0:
109,192,9758,1,0,0:0:0:0:
402,192,9858,1,0,0:0:0:0:
36,192,9958,1,0,0:0:0:0:
182,192,9958,1,0,0:0:0:0:
329,192,9958,1,0,0:0:0:0:
475,192,9958,128,0,10358:0:0:0:0:
109,192,10058,1,0,0:0:0:0:
182,192,10158,1,0,0:0:0:0:
256,192,10258,1,0,0:0:0:0:
402,192,10358,128,0,10758:0:0:0:0:
109,192,10358,1,0,0:0:0:0:
182,192,10458,1,0,0:0:0:0:
256,192,10558,1,0,0:0:0:0:
329,192,10658,1,0,0:0:0:0:
36,192,10758,128,0,11158:0:0:0:0:
182,192,10758,1,0,0:0:0:0:
256,192,10858,1,0,0:0:0:0:
329,192,10958,1,0,0:0:0:0:
402,192,11058,1,0,0:0:0:0:
109,192,11158,128,0,11558:0:0:0:0:
475,192,11158,1,0,0:0:0:0:
402,192,11258,1,0,0:0:0:0:
329,192,11358,1,0,0:0:0:0:
256,192,11458,1,0,0:0:0:0:
402,192,11558,1,0,0:0:0:0:
329,192,11658,1,0,0:0:0:0:
182,192,11658,1,0,0:0:0:0:
475,192,11758,1,0,0:0:0:0:
36,192,11758,1,0,0:0:0:0:
109,192,11858,1,0,0:0:0:0:
402,192,11858,1,0,0:0:0:0:
329,192,11958,1,0,0:0:0:0:
182,192,11958,1,0,0:0:0:0:
475,192,12058,1,0,0:0:0:0:
36,192,12058,1,0,0:0:0:0:
402,192,12158,1,0,0:0:0:0:
109,192,12158,1,0,0:0:0:0:
329,192,12258,1,0,0:0:0:0:
182,192,12258,1,0,0:0:0:0:
36,192,12358,1,0,0:0:0:0:
256,192,12358,128,0,13188:0:0:0:0:
475,192,12458,1,0,0:0:0:0:
109,192,12558,1,0,0:0:0:0:
402,192,12658,1,0,0:0:0:0:
182,192,12758,1,0,0:0:0:0:
329,192,12858,1,0,0:0:0:0:
109,192,12958,1,0,0:0:0:0:
402,192,13058,1,0,0:0:0:0:
36,192,13188,1,4,0:1:0:0:
182,192,13188,1,0,0:0:0:0:
475,192,13188,1,0,0:0:0:0:
329,192,13188,1,0,0:0:0:0:
109,192,13388,1,0,0:0:0:0:
402,192,13388,128,0,13488:0:0:0:0:
256,192,13588,1,8,0:1:0:0:
36,192,13588,1,0,0:0:0:0:
475,192,13588,128,0,13688:0:0:0:0:
109,192,13788,1,0,0:0:0:0:
329,192,13788,128,0,13888:0:0:0:0:
402,192,13888,128,0,13988:0:0:0:0:
36,192,13988,1,0,0:0:0:0:
256,192,13988,1,0,0:0:0:0:
475,192,14088,128,0,14188:0:0:0:0:
109,192,14188,1,0,0:0:0:0:
329,192,14288,128,0,14388:0:0:0:0:
36,192,14388,1,8,0:1:0:0:
182,192,14388,1,0,0:0:0:0:
402,192,14388,128,0,14488:0:0:0:0:
109,192,14588,1,0,0:0:0:0:
256,192,14588,128,0,14688:0:0:0:0:
329,192,14688,128,0,14788:0:0:0:0:
36,192,14788,1,0,0:0:0:0:
182,192,14788,1,0,0:0:0:0:
402,192,14788,128,0,14888:0:0:0:0:
109,192,14988,1,0,0:0:0:0:
475,192,14988,128,0,15088:0:0:0:0:
182,192,15188,1,8,0:1:0:0:
36,192,15188,1,0,0:0:0:0:
402,192,15188,128,0,15288:0:0:0:0:
109,192,15388,1,0,0:0:0:0:
329,192,15388,128,0,15488:0:0:0:0:
402,192,15488,128,0,15588:0:0:0:0:
36,192,15588,1,0,0:0:0:0:
182,192,15588,1,0,0:0:0:0:
475,192,15688,128,0,15788:0:0:0:0:
256,192,15788,1,0,0:0:0:0:
402,192,15888,128,0,15988:0:0:0:0:
182,192,15988,1,8,0:1:0:0:
36,192,15988,1,0,0:0:0:0:
329,192,15988,128,0,16088:0:0:0:0:
256,192,16088,128,0,16188:0:0:0:0:
402,192,16188,1,0,0:0:0:0:
182,192,16188,128,0,16288:0:0:0:0:
109,192,16288,128,0,16388:0:0:0:0:
256,192,16388,1,0,0:0:0:0:
475,192,16388,1,0,0:0:0:0:
36,192,16388,128,0,16488:0:0:0:0:
402,192,16588,1,0,0:0:0:0:
109,192,16588,128,0,16688:0:0:0:0:
256,192,16788,1,8,0:1:0:0:
475,192,16788,1,0,0:0:0:0:
36,192,16788,128,0,16888:0:0:0:0:
402,192,16988,1,0,0:0:0:0:
182,192,16988,128,0,17088:0:0:0:0:
109,192,17088,128,0,17188:0:0:0:0:
329,192,17188,1,0,0:0:0:0:
475,192,17188,1,0,0:0:0:0:
36,192,17288,128,0,17388:0:0:0:0:
256,192,17388,1,0,0:0:0:0:
402,192,17488,1,0,0:0:0:0:
109,192,17488,128,0,17588:0:0:0:0:
329,192,17588,1,8,0:1:0:0:
36,192,17588,1,0,0:0:0:0:
182,192,17588,128,0,17688:0:0:0:0:
402,192,17788,1,0,0:0:0:0:
256,192,17788,128,0,17888:0:0:0:0:
36,192,17988,1,0,0:0:0:0:
475,192,17988,1,0,0:0:0:0:
256,192,17988,128,0,18588:0:0:0:0:
182,192,18188,1,0,0:0:0:0:
36,192,18388,1,8,0:1:0:0:
475,192,18388,1,0,0:0:0:0:
402,192,18588,1,0,0:0:0:0:
36,192,18588,128,0,18688:0:0:0:0:
109,192,18688,128,0,18788:0:0:0:0:
475,192,18788,1,0,0:0:0:0:
402,192,18788,1,0,0:0:0:0:
182,192,18788,128,0,18888:0:0:0:0:
256,192,18888,128,0,18988:0:0:0:0:
109,192,18988,1,0,0:0:0:0:
329,192,18988,128,0,19088:0:0:0:0:
36,192,19088,1,0,0:0:0:0:
182,192,19088,1,0,0:0:0:0:
402,192,19088,128,0,19188:0:0:0:0:
256,192,19188,1,8,0:1:0:0:
109,192,19188,1,0,0:0:0:0:
475,192,19188,128,0,19388:0:0:0:0:
182,192,19388,1,0,0:0:0:0:
329,192,19388,1,0,0:0:0:0:
256,192,19588,1,4,0:1:0:0:
402,192,19588,1,0,0:0:0:0:
109,192,19588,128,0,19688:0:0:0:0:
329,192,19788,1,0,0:0:0:0:
36,192,19788,128,0,19888:0:0:0:0:
256,192,19988,1,8,0:1:0:0:
475,192,19988,1,0,0:0:0:0:
109,192,19988,128,0,20088:0:0:0:0:
402,192,20188,1,0,0:0:0:0:
182,192,20188,128,0,20288:0:0:0:0:
109,192,20288,128,0,20388:0:0:0:0:
475,192,20388,1,0,0:0:0:0:
329,192,20388,1,0,0:0:0:0:
36,192,20488,128,0,20588:0:0:0:0:
256,192,20588,1,0,0:0:0:0:
182,192,20688,128,0,20788:0:0:0:0:
329,192,20788,1,8,0:1:0:0:
475,192,20788,1,0,0:0:0:0:
109,192,20788,128,0,20888:0:0:0:0:
402,192,20988,1,0,0:0:0:0:
256,192,20988,128,0,21088:0:0:0:0:
182,192,21088,128,0,21188:0:0:0:0:
329,192,21188,1,4,0:1:0:0:
475,192,21188,1,0,0:0:0:0:
109,192,21188,128,0,21288:0:0:0:0:
256,192,21388,1,0,0:0:0:0:
36,192,21388,128,0,21488:0:0:0:0:
402,192,21588,1,8,0:1:0:0:
182,192,21588,1,0,0:0:0:0:
109,192,21588,128,0,21688:0:0:0:0:
329,192,21788,1,0,0:0:0:0:
182,192,21788,128,0,21888:0:0:0:0:
109,192,21888,128,0,21988:0:0:0:0:
475,192,21988,1,0,0:0:0:0:
256,192,21988,1,0,0:0:0:0:
36,192,22088,128,0,22188:0:0:0:0:
329,192,22188,1,0,0:0:0:0:
109,192,22288,128,0,22388:0:0:0:0:
329,192,22388,1,8,0:1:0:0:
475,192,22388,1,0,0:0:0:0:
182,192,22388,128,0,22488:0:0:0:0:
256,192,22488,128,0,22588:0:0:0:0:
36,192,22588,1,0,0:0:0:0:
475,192,22588,1,0,0:0:0:0:
329,192,22588,128,0,22688:0:0:0:0:
402,192,22688,128,0,22788:0:0:0:0:
329,192,22788,1,4,0:1:0:0:
36,192,22788,1,0,0:0:0:0:
182,192,22788,1,0,0:0:0:0:
256,192,22888,1,0,0:0:0:0:
402,192,22988,1,0,0:0:0:0:
182,192,22988,1,0,0:0:0:0:
109,192,23088,1,0,0:0:0:0:
329,192,23188,1,8,0:1:0:0:
36,192,23188,1,0,0:0:0:0:
256,192,23188,1,0,0:0:0:0:
109,192,23288,1,0,0:0:0:0:
402,192,23388,1,0,0:0:0:0:
182,192,23388,1,0,0:0:0:0:
256,192,23488,1,0,0:0:0:0:
475,192,23488,1,0,0:0:0:0:
329,192,23588,1,4,0:1:0:0:
109,192,23588,1,0,0:0:0:0:
36,192,23588,1,0,0:0:0:0:
256,192,23688,1,0,0:0:0:0:
402,192,23688,1,0,0:0:0:0:
182,192,23788,1,0,0:0:0:0:
329,192,23888,1,0,0:0:0:0:
109,192,23888,1,0,0:0:0:0:
475,192,23988,1,8,0:1:0:0:
36,192,23988,1,0,0:0:0:0:
402,192,23988,1,0,0:0:0:0:
109,192,24088,1,0,0:0:0:0:
402,192,24188,1,0,0:0:0:0:
182,192,24188,1,0,0:0:0:0:
256,192,24288,1,0,0:0:0:0:
109,192,24388,1,4,0:1:0:0:
36,192,24388,1,0,0:0:0:0:
329,192,24388,1,0,0:0:0:0:
402,192,24488,1,0,0:0:0:0:
182,192,24488,1,0,0:0:0:0:
329,192,24588,1,0,0:0:0:0:
256,192,24688,1,0,0:0:0:0:
36,192,24688,1,0,0:0:0:0:
402,192,24788,1,8,0:1:0:0:
182,192,24788,1,4,0:1:0:0:
475,192,24788,1,0,0:0:0:0:
329,192,24888,1,0,0:0:0:0:
109,192,24888,1,0,0:0:0:0:
36,192,24988,1,0,0:0:0:0:
256,192,24988,1,0,0:0:0:0:
475,192,24988,1,0,0:0:0:0:
109,192,25088,1,0,0:0:0:0:
329,192,25088,1,0,0:0:0:0:
475,192,25188,1,4,0:1:0:0:
402,192,25188,1,0,0:0:0:0:
182,192,25188,1,0,0:0:0:0:
329,192,25288,1,0,0:0:0:0:
109,192,25288,1,0,0:0:0:0:
36,192,25388,1,0,0:0:0:0:
402,192,25388,1,0,0:0:0:0:
329,192,25488,1,0,0:0:0:0:
182,192,25488,1,0,0:0:0:0:
109,192,25588,1,8,0:1:0:0:
256,192,25588,1,4,0:1:0:0:
182,192,25688,1,0,0:0:0:0:
36,192,25688,1,0,0:0:0:0:
256,192,25788,1,0,0:0:0:0:
109,192,25788,1,0,0:0:0:0:
402,192,25788,1,0,0:0:0:0:
475,192,25888,1,0,0:0:0:0:
182,192,25888,1,0,0:0:0:0:
329,192,25888,1,0,0:0:0:0:
109,192,25988,1,4,0:1:0:0:
256,192,25988,1,0,0:0:0:0:
402,192,25988,1,0,0:0:0:0:
36,192,25988,1,0,0:0:0:0:
475,192,26188,1,0,0:0:0:0:
182,192,26188,1,0,0:0:0:0:
36,192,26388,1,8,0:1:0:0:
109,192,26388,1,0,0:0:0:0:
329,192,26388,1,0,0:0:0:0:
182,192,26488,1,0,0:0:0:0:
256,192,26588,1,0,0:0:0:0:
475,192,26588,1,0,0:0:0:0:
402,192,26788,1,0,0:0:0:0:
475,192,26788,1,0,0:0:0:0:
182,192,26788,1,0,0:0:0:0:
329,192,26888,1,0,0:0:0:0:
256,192,26988,1,0,0:0:0:0:
36,192,26988,1,0,0:0:0:0:
329,192,27188,1,8,0:1:0:0:
182,192,27188,1,0,0:0:0:0:
109,192,27188,1,0,0:0:0:0:
402,192,27288,1,0,0:0:0:0:
475,192,27388,1,0,0:0:0:0:
36,192,27388,1,0,0:0:0:0:
402,192,27588,1,0,0:0:0:0:
329,192,27588,1,0,0:0:0:0:
182,192,27588,1,0,0:0:0:0:
109,192,27688,1,0,0:0:0:0:
36,192,27788,1,0,0:0:0:0:
475,192,27788,1,0,0:0:0:0:
402,192,27988,1,8,0:1:0:0:
36,192,27988,1,0,0:0:0:0:
256,192,27988,1,0,0:0:0:0:
109,192,28088,1,0,0:0:0:0:
329,192,28188,1,0,0:0:0:0:
182,192,28188,1,0,0:0:0:0:
475,192,28388,1,0,0:0:0:0:
256,192,28388,1,0,0:0:0:0:
109,192,28388,1,0,0:0:0:0:
402,192,28488,1,0,0:0:0:0:
329,192,28588,1,0,0:0:0:0:
36,192,28588,1,0,0:0:0:0:
109,192,28688,1,0,0:0:0:0:
475,192,28788,1,8,0:1:0:0:
402,192,28788,1,0,0:0:0:0:
182,192,28788,1,0,0:0:0:0:
256,192,28888,1,0,0:0:0:0:
329,192,28988,1,0,0:0:0:0:
109,192,28988,1,0,0:0:0:0:
36,192,29188,1,0,0:0:0:0:
256,192,29188,1,0,0:0:0:0:
402,192,29188,1,0,0:0:0:0:
109,192,29288,1,0,0:0:0:0:
182,192,29388,1,0,0:0:0:0:
329,192,29388,1,0,0:0:0:0:
36,192,29588,1,8,0:1:0:0:
256,192,29588,1,0,0:0:0:0:
475,192,29588,1,0,0:0:0:0:
402,192,29688,1,0,0:0:0:0:
182,192,29788,1,0,0:0:0:0:
329,192,29788,1,0,0:0:0:0:
329,192,29988,1,0,0:0:0:0:
109,192,29988,1,0,0:0:0:0:
36,192,29988,1,0,0:0:0:0:
256,192,30088,1,0,0:0:0:0:
182,192,30188,1,0,0:0:0:0:
475,192,30188,1,0,0:0:0:0:
475,192,30388,1,8,0:1:0:0:
402,192,30388,1,0,0:0:0:0:
182,192,30388,1,0,0:0:0:0:
256,192,30488,1,0,0:0:0:0:
329,192,30588,1,0,0:0:0:0:
36,192,30588,1,0,0:0:0:0:
109,192,30788,1,0,0:0:0:0:
182,192,30788,1,0,0:0:0:0:
36,192,30788,1,0,0:0:0:0:
256,192,30888,1,0,0:0:0:0:
329,192,30988,1,0,0:0:0:0:
475,192,30988,1,0,0:0:0:0:
475,192,31188,1,8,0:1:0:0:
329,192,31188,1,0,0:0:0:0:
402,192,31188,1,0,0:0:0:0:
256,192,31288,1,0,0:0:0:0:
182,192,31388,1,0,0:0:0:0:
36,192,31388,1,0,0:0:0:0:
109,192,31588,1,0,0:0:0:0:
256,192,31588,1,0,0:0:0:0:
402,192,31588,1,0,0:0:0:0:
36,192,31688,1,0,0:0:0:0:
109,192,31788,1,0,0:0:0:0:
329,192,31788,1,0,0:0:0:0:
182,192,31888,1,0,0:0:0:0:
402,192,31888,1,0,0:0:0:0:
475,192,31888,1,0,0:0:0:0:
109,192,31988,1,8,0:1:0:0:
329,192,31988,1,0,0:0:0:0:
256,192,31988,1,0,0:0:0:0:
182,192,32088,1,0,0:0:0:0:
36,192,32188,1,0,0:0:0:0:
402,192,32188,1,0,0:0:0:0:
256,192,32188,1,0,0:0:0:0:
109,192,32288,1,0,0:0:0:0:
182,192,32388,1,4,0:1:0:0:
329,192,32388,1,0,0:0:0:0:
475,192,32388,128,0,32588:0:0:0:0:
256,192,32488,1,0,0:0:0:0:
402,192,32588,128,0,32788:0:0:0:0:
182,192,32588,1,0,0:0:0:0:
36,192,32588,1,0,0:0:0:0:
329,192,32788,128,8,32988:0:1:0:0:
109,192,32788,1,0,0:0:0:0:
182,192,32888,1,0,0:0:0:0:
402,192,32988,128,0,33188:0:0:0:0:
256,192,32988,1,0,0:0:0:0:
329,192,33188,128,0,33388:0:0:0:0:
36,192,33188,1,0,0:0:0:0:
109,192,33288,1,0,0:0:0:0:
475,192,33388,128,0,33488:0:0:0:0:
182,192,33388,1,0,0:0:0:0:
256,192,33488,128,0,33688:0:0:0:0:
182,192,33588,1,8,0:1:0:0:
402,192,33688,128,0,33788:0:0:0:0:
109,192,33688,1,0,0:0:0:0:
475,192,33788,128,0,33988:0:0:0:0:
36,192,33788,1,0,0:0:0:0:
256,192,33988,1,0,0:0:0:0:
36,192,33988,128,0,34188:0:0:0:0:
329,192,34088,1,0,0:0:0:0:
109,192,34188,128,0,34388:0:0:0:0:
402,192,34188,1,0,0:0:0:0:
182,192,34388,128,8,34588:0:1:0:0:
329,192,34388,1,0,0:0:0:0:
402,192,34488,1,0,0:0:0:0:
329,192,34588,128,0,34788:0:0:0:0:
475,192,34588,1,0,0:0:0:0:
182,192,34788,128,0,34988:0:0:0:0:
109,192,34788,1,0,0:0:0:0:
256,192,34888,1,0,0:0:0:0:
36,192,34988,128,0,35088:0:0:0:0:
402,192,34988,1,0,0:0:0:0:
256,192,35088,128,0,35288:0:0:0:0:
475,192,35188,1,8,0:1:0:0:
109,192,35288,128,0,35388:0:0:0:0:
402,192,35288,1,0,0:0:0:0:
36,192,35388,128,0,35588:0:0:0:0:
329,192,35388,1,0,0:0:0:0:
182,192,35388,1,0,0:0:0:0:
256,192,35588,1,4,0:1:0:0:
475,192,35588,1,0,0:0:0:0:
109,192,35688,1,0,0:0:0:0:
182,192,35788,1,0,0:0:0:0:
402,192,35788,1,0,0:0:0:0:
256,192,35988,1,8,0:1:0:0:
475,192,35988,1,0,0:0:0:0:
109,192,35988,1,0,0:0:0:0:
402,192,36088,1,0,0:0:0:0:
329,192,36188,1,0,0:0:0:0:
182,192,36188,1,0,0:0:0:0:
36,192,36388,1,4,0:1:0:0:
256,192,36388,1,0,0:0:0:0:
402,192,36388,1,0,0:0:0:0:
109,192,36488,1,0,0:0:0:0:
182,192,36588,1,0,0:0:0:0:
329,192,36588,1,0,0:0:0:0:
109,192,36788,1,8,0:1:0:0:
256,192,36788,1,0,0:0:0:0:
36,192,36788,1,0,0:0:0:0:
329,192,36888,1,0,0:0:0:0:
402,192,36988,1,0,0:0:0:0:
182,192,36988,1,0,0:0:0:0:
109,192,36988,1,0,0:0:0:0:
256,192,37088,1,0,0:0:0:0:
329,192,37188,1,4,0:1:0:0:
109,192,37188,1,0,0:0:0:0:
36,192,37188,1,0,0:0:0:0:
402,192,37288,1,0,0:0:0:0:
475,192,37388,1,0,0:0:0:0:
256,192,37388,1,0,0:0:0:0:
36,192,37588,1,8,0:1:0:0:
109,192,37588,1,4,0:1:0:0:
329,192,37588,1,0,0:0:0:0:
256,192,37688,1,0,0:0:0:0:
109,192,37788,1,0,0:0:0:0:
402,192,37788,1,0,0:0:0:0:
36,192,37788,1,0,0:0:0:0:
329,192,37888,1,0,0:0:0:0:
109,192,37988,1,4,0:1:0:0:
36,192,37988,1,0,0:0:0:0:
475,192,37988,1,0,0:0:0:0:
402,192,38088,1,0,0:0:0:0:
109,192,38188,1,0,0:0:0:0:
36,192,38188,1,0,0:0:0:0:
256,192,38188,1,0,0:0:0:0:
329,192,38288,1,0,0:0:0:0:
402,192,38388,1,8,0:1:0:0:
475,192,38388,1,4,0:1:0:0:
182,192,38388,1,0,0:0:0:0:
256,192,38488,1,0,0:0:0:0:
109,192,38588,1,0,0:0:0:0:
402,192,38588,1,0,0:0:0:0:
475,192,38588,1,0,0:0:0:0:
182,192,38688,1,0,0:0:0:0:
329,192,38688,1,0,0:0:0:0:
402,192,38788,1,4,0:1:0:0:
475,192,38788,1,0,0:0:0:0:
36,192,38788,1,0,0:0:0:0:
329,192,38988,1,0,0:0:0:0:
109,192,38988,1,0,0:0:0:0:
182,192,39188,1,8,0:1:0:0:
36,192,39188,1,0,0:0:0:0:
475,192,39188,1,0,0:0:0:0:
329,192,39288,1,0,0:0:0:0:
256,192,39388,1,0,0:0:0:0:
109,192,39388,1,0,0:0:0:0:
36,192,39588,1,0,0:0:0:0:
182,192,39588,1,0,0:0:0:0:
402,192,39588,1,0,0:0:0:0:
256,192,39688,1,0,0:0:0:0:
109,192,39788,1,0,0:0:0:0:
475,192,39788,1,0,0:0:0:0:
402,192,39888,1,0,0:0:0:0:
329,192,39988,1,8,0:1:0:0:
182,192,39988,1,0,0:0:0:0:
36,192,39988,1,0,0:0:0:0:
256,192,40088,1,0,0:0:0:0:
402,192,40188,1,0,0:0:0:0:
109,192,40188,1,0,0:0:0:0:
329,192,40388,1,0,0:0:0:0:
475,192,40388,1,0,0:0:0:0:
36,192,40388,1,0,0:0:0:0:
256,192,40488,1,0,0:0:0:0:
182,192,40588,1,0,0:0:0:0:
402,192,40588,1,0,0:0:0:0:
36,192,40788,1,8,0:1:0:0:
329,192,40788,1,0,0:0:0:0:
475,192,40788,1,0,0:0:0:0:
109,192,40888,1,0,0:0:0:0:
182,192,40988,1,0,0:0:0:0:
402,192,40988,1,0,0:0:0:0:
329,192,41188,1,0,0:0:0:0:
475,192,41188,1,0,0:0:0:0:
109,192,41188,1,0,0:0:0:0:
182,192,41288,1,0,0:0:0:0:
256,192,41388,1,0,0:0:0:0:
36,192,41388,1,0,0:0:0:0:
329,192,41488,1,0,0:0:0:0:
109,192,41588,1,8,0:1:0:0:
182,192,41588,1,0,0:0:0:0:
402,192,41588,1,0,0:0:0:0:
329,192,41688,1,0,0:0:0:0:
256,192,41788,1,0,0:0:0:0:
36,192,41788,1,0,0:0:0:0:
109,192,41988,1,4,0:1:0:0:
329,192,41988,1,0,0:0:0:0:
402,192,41988,1,0,0:0:0:0:
182,192,42088,1,0,0:0:0:0:
256,192,42188,1,0,0:0:0:0:
475,192,42188,1,0,0:0:0:0:
36,192,42388,1,8,0:1:0:0:
329,192,42388,1,0,0:0:0:0:
402,192,42388,1,0,0:0:0:0:
182,192,42488,1,0,0:0:0:0:
109,192,42588,1,0,0:0:0:0:
256,192,42588,1,0,0:0:0:0:
182,192,42788,1,0,0:0:0:0:
475,192,42788,1,0,0:0:0:0:
402,192,42788,1,0,0:0:0:0:
256,192,42888,1,0,0:0:0:0:
109,192,42988,1,0,0:0:0:0:
329,192,42988,1,0,0:0:0:0:
256,192,43088,1,0,0:0:0:0:
182,192,43188,1,8,0:1:0:0:
402,192,43188,1,0,0:0:0:0:
475,192,43188,1,0,0:0:0:0:
109,192,43288,1,0,0:0:0:0:
36,192,43388,1,0,0:0:0:0:
256,192,43388,1,0,0:0:0:0:
182,192,43588,1,4,0:1:0:0:
402,192,43588,1,0,0:0:0:0:
475,192,43588,1,0,0:0:0:0:
109,192,43688,1,0,0:0:0:0:
36,192,43788,1,0,0:0:0:0:
329,192,43788,1,0,0:0:0:0:
36,192,43988,1,8,0:1:0:0:
109,192,43988,1,0,0:0:0:0:
402,192,43988,1,0,0:0:0:0:
182,192,44088,1,0,0:0:0:0:
256,192,44188,1,0,0:0:0:0:
475,192,44188,1,0,0:0:0:0:
402,192,44388,1,4,0:1:0:0:
182,192,44388,1,0,0:0:0:0:
475,192,44388,1,0,0:0:0:0:
329,192,44488,1,0,0:0:0:0:
256,192,44588,1,0,0:0:0:0:
36,192,44588,1,0,0:0:0:0:
475,192,44688,1,0,0:0:0:0:
402,192,44688,1,0,0:0:0:0:
182,192,44688,1,0,0:0:0:0:
329,192,44788,1,8,0:1:0:0:
256,192,44788,1,0,0:0:0:0:
109,192,44788,1,0,0:0:0:0:
36,192,44888,1,0,0:0:0:0:
402,192,44988,1,0,0:0:0:0:
256,192,44988,1,0,0:0:0:0:
109,192,44988,1,0,0:0:0:0:
329,192,45188,1,4,0:1:0:0:
36,192,45188,1,0,0:0:0:0:
475,192,45188,1,0,0:0:0:0:
109,192,45288,1,0,0:0:0:0:
182,192,45388,1,0,0:0:0:0:
402,192,45388,1,0,0:0:0:0:
475,192,45588,1,8,0:1:0:0:
256,192,45588,1,0,0:0:0:0:
36,192,45588,1,0,0:0:0:0:
402,192,45688,1,0,0:0:0:0:
109,192,45788,1,0,0:0:0:0:
329,192,45788,1,0,0:0:0:0:
402,192,45988,1,0,0:0:0:0:
36,192,45988,1,0,0:0:0:0:
182,192,45988,1,0,0:0:0:0:
329,192,46088,1,0,0:0:0:0:
256,192,46188,1,0,0:0:0:0:
475,192,46188,1,0,0:0:0:0:
109,192,46288,1,0,0:0:0:0:
402,192,46388,1,8,0:1:0:0:
256,192,46388,1,0,0:0:0:0:
36,192,46388,1,0,0:0:0:0:
109,192,46488,1,0,0:0:0:0:
182,192,46588,1,0,0:0:0:0:
475,192,46588,1,0,0:0:0:0:
402,192,46788,1,4,0:1:0:0:
256,192,46788,1,0,0:0:0:0:
109,192,46788,1,0,0:0:0:0:
329,192,46888,1,0,0:0:0:0:
475,192,46988,1,0,0:0:0:0:
36,192,46988,1,0,0:0:0:0:
109,192,47188,1,8,0:1:0:0:
256,192,47188,1,0,0:0:0:0:
402,192,47188,1,0,0:0:0:0:
182,192,47288,1,0,0:0:0:0:
329,192,47388,1,0,0:0:0:0:
36,192,47388,1,0,0:0:0:0:
109,192,47588,1,0,0:0:0:0:
475,192,47588,1,0,0:0:0:0:
256,192,47588,1,0,0:0:0:0:
402,192,47688,1,0,0:0:0:0:
329,192,47788,1,0,0:0:0:0:
36,192,47788,1,0,0:0:0:0:
256,192,47888,1,0,0:0:0:0:
475,192,47988,1,8,0:1:0:0:
182,192,47988,1,0,0:0:0:0:
109,192,47988,1,0,0:0:0:0:
402,192,48088,1,0,0:0:0:0:
329,192,48188,1,0,0:0:0:0:
109,192,48188,1,0,0:0:0:0:
36,192,48188,1,0,0:0:0:0:
256,192,48288,1,0,0:0:0:0:
109,192,48388,1,4,0:1:0:0:
36,192,48388,1,0,0:0:0:0:
329,192,48388,1,0,0:0:0:0:
182,192,48488,1,0,0:0:0:0:
256,192,48588,1,0,0:0:0:0:
475,192,48588,1,0,0:0:0:0:
402,192,48788,1,8,0:1:0:0:
329,192,48788,1,0,0:0:0:0:
109,192,48788,1,0,0:0:0:0:
256,192,48888,1,0,0:0:0:0:
36,192,48988,1,0,0:0:0:0:
182,192,48988,1,0,0:0:0:0:
109,192,49188,1,4,0:1:0:0:
182,192,49188,1,0,0:0:0:0:
402,192,49188,1,0,0:0:0:0:
256,192,49288,1,0,0:0:0:0:
329,192,49388,1,0,0:0:0:0:
475,192,49388,1,0,0:0:0:0:
109,192,49588,1,8,0:1:0:0:
36,192,49588,1,0,0:0:0:0:
256,192,49588,1,0,0:0:0:0:
182,192,49688,1,0,0:0:0:0:
402,192,49788,1,0,0:0:0:0:
475,192,49788,1,0,0:0:0:0:
256,192,49788,1,0,0:0:0:0:
329,192,49888,1,0,0:0:0:0:
109,192,49988,1,4,0:1:0:0:
36,192,49988,1,0,0:0:0:0:
256,192,49988,1,0,0:0:0:0:
182,192,50088,1,0,0:0:0:0:
109,192,50188,1,0,0:0:0:0:
402,192,50188,1,0,0:0:0:0:
329,192,50388,1,8,0:1:0:0:
109,192,50388,1,4,0:1:0:0:
36,192,50388,1,0,0:0:0:0:
256,192,50488,1,0,0:0:0:0:
402,192,50588,1,0,0:0:0:0:
475,192,50588,1,0,0:0:0:0:
329,192,50588,1,0,0:0:0:0:
256,192,50688,1,0,0:0:0:0:
109,192,50788,1,4,0:1:0:0:
36,192,50788,1,0,0:0:0:0:
182,192,50788,1,0,0:0:0:0:
256,192,50888,1,0,0:0:0:0:
402,192,50988,1,0,0:0:0:0:
475,192,50988,1,0,0:0:0:0:
329,192,50988,1,0,0:0:0:0:
256,192,51088,1,0,0:0:0:0:
109,192,51188,1,8,0:1:0:0:
36,192,51188,1,4,0:1:0:0:
182,192,51188,1,0,0:0:0:0:
256,192,51288,1,0,0:0:0:0:
182,192,51388,1,0,0:0:0:0:
329,192,51388,1,0,0:0:0:0:
256,192,51488,1,0,0:0:0:0:
109,192,51488,1,0,0:0:0:0:
36,192,51588,1,4,0:1:0:0:
182,192,51588,1,0,0:0:0:0:
329,192,51588,1,0,0:0:0:0:
475,192,51588,128,0,51988:0:0:0:0:
256,192,51688,1,0,0:0:0:0:
182,192,51788,1,0,0:0:0:0:
109,192,51888,1,0,0:0:0:0:
402,192,51988,128,8,52388:0:1:0:0:
256,192,51988,1,0,0:0:0:0:
182,192,52088,1,0,0:0:0:0:
109,192,52188,1,0,0:0:0:0:
182,192,52288,1,0,0:0:0:0:
36,192,52388,128,0,52788:0:0:0:0:
256,192,52388,1,0,0:0:0:0:
329,192,52488,1,0,0:0:0:0:
402,192,52588,1,0,0:0:0:0:
475,192,52688,1,0,0:0:0:0:
109,192,52788,128,8,53158:0:1:0:0:
256,192,52788,1,0,0:0:0:0:
329,192,52888,1,0,0:0:0:0:
402,192,52988,1,0,0:0:0:0:
256,192,53088,1,0,0:0:0:0:
329,192,53158,1,0,0:0:0:0:
402,192,53158,1,0,0:0:0:0:
475,192,53158,128,0,53558:0:0:0:0:
182,192,53358,1,0,0:0:0:0:
329,192,53358,1,0,0:0:0:0:
36,192,53558,128,8,53758:0:1:0:0:
256,192,53558,1,0,0:0:0:0:
329,192,53658,1,0,0:0:0:0:
182,192,53758,128,0,53958:0:0:0:0:
402,192,53758,1,0,0:0:0:0:
109,192,53958,128,0,54358:0:0:0:0:
475,192,53958,1,0,0:0:0:0:
402,192,54058,1,0,0:0:0:0:
329,192,54158,1,0,0:0:0:0:
182,192,54358,128,8,54758:0:1:0:0:
402,192,54358,1,0,0:0:0:0:
329,192,54458,1,0,0:0:0:0:
256,192,54558,1,0,0:0:0:0:
475,192,54758,128,0,56358:0:0:0:0:
36,192,54758,1,0,0:0:0:0:
109,192,54858,1,0,0:0:0:0:
182,192,54958,1,0,0:0:0:0:
329,192,55158,1,8,0:0:0:0:
109,192,55158,1,0,0:0:0:0:
182,192,55258,1,0,0:0:0:0:
36,192,55358,1,0,0:0:0:0:
402,192,55558,1,0,0:0:0:0:
256,192,55658,1,0,0:0:0:0:
109,192,55758,1,0,0:0:0:0:
182,192,55958,1,8,0:1:0:0:
329,192,55958,1,0,0:0:0:0:
36,192,56058,1,0,0:0:0:0:
402,192,56158,128,0,56258:0:0:0:0:
182,192,56158,1,0,0:0:0:0:
329,192,56258,128,0,56358:0:0:0:0:
36,192,56358,128,0,56758:0:0:0:0:
402,192,56358,1,0,0:0:0:0:
182,192,56358,1,0,0:0:0:0:
109,192,56458,1,0,0:0:0:0:
256,192,56558,1,0,0:0:0:0:
182,192,56758,128,8,56958:0:1:0:0:
402,192,56758,1,0,0:0:0:0:
256,192,56858,1,0,0:0:0:0:
329,192,56958,128,0,57158:0:0:0:0:
109,192,56958,1,0,0:0:0:0:
475,192,57158,128,0,57558:0:0:0:0:
36,192,57158,1,0,0:0:0:0:
256,192,57258,1,0,0:0:0:0:
182,192,57358,1,0,0:0:0:0:
109,192,57558,128,8,57958:0:1:0:0:
329,192,57558,1,0,0:0:0:0:
256,192,57658,1,0,0:0:0:0:
402,192,57758,1,0,0:0:0:0:
256,192,57958,128,0,58558:0:0:0:0:
402,192,57958,1,0,0:0:0:0:
475,192,58058,1,0,0:0:0:0:
329,192,58158,1,0,0:0:0:0:
182,192,58358,1,8,0:1:0:0:
329,192,58358,1,0,0:0:0:0:
109,192,58458,1,0,0:0:0:0:
36,192,58558,128,0,58758:0:0:0:0:
402,192,58558,1,0,0:0:0:0:
182,192,58658,128,0,58758:0:0:0:0:
256,192,58758,128,0,59358:0:0:0:0:
475,192,58758,1,0,0:0:0:0:
402,192,58858,1,0,0:0:0:0:
109,192,58958,1,0,0:0:0:0:
36,192,59058,1,0,0:0:0:0:
475,192,59058,1,0,0:0:0:0:
182,192,59158,1,8,0:1:0:0:
329,192,59158,1,0,0:0:0:0:
36,192,59258,1,0,0:0:0:0:
475,192,59358,128,0,59458:0:0:0:0:
182,192,59358,1,0,0:0:0:0:
329,192,59458,128,0,59558:0:0:0:0:
182,192,59558,1,4,0:1:0:0:
36,192,59558,128,0,59958:0:0:0:0:
475,192,59558,1,0,0:0:0:0:
402,192,59658,1,0,0:0:0:0:
256,192,59758,1,0,0:0:0:0:
182,192,59858,1,0,0:0:0:0:
475,192,59958,128,8,60158:0:1:0:0:
329,192,59958,1,0,0:0:0:0:
182,192,60058,1,0,0:0:0:0:
329,192,60158,128,0,60358:0:0:0:0:
109,192,60158,1,0,0:0:0:0:
182,192,60258,1,0,0:0:0:0:
402,192,60358,128,0,60758:0:0:0:0:
36,192,60358,1,0,0:0:0:0:
109,192,60458,1,0,0:0:0:0:
182,192,60558,1,0,0:0:0:0:
256,192,60658,1,0,0:0:0:0:
36,192,60758,128,8,61158:0:1:0:0:
182,192,60758,1,0,0:0:0:0:
256,192,60858,1,0,0:0:0:0:
329,192,60958,1,0,0:0:0:0:
402,192,61058,1,0,0:0:0:0:
256,192,61158,128,4,62358:0:1:0:0:
475,192,61158,1,0,0:0:0:0:
402,192,61258,1,0,0:0:0:0:
329,192,61358,1,0,0:0:0:0:
182,192,61458,1,0,0:0:0:0:
109,192,61558,1,8,0:1:0:0:
36,192,61658,1,0,0:0:0:0:
475,192,61758,1,0,0:0:0:0:
109,192,61858,1,0,0:0:0:0:
402,192,61958,1,0,0:0:0:0:
182,192,62058,1,0,0:0:0:0:
329,192,62158,1,0,0:0:0:0:
109,192,62258,1,0,0:0:0:0:
402,192,62358,1,8,0:1:0:0:
182,192,62358,1,0,0:0:0:0:
36,192,62458,128,0,62758:0:0:0:0:
475,192,62458,1,0,0:0:0:0:
109,192,62558,128,0,62658:0:0:0:0:
329,192,62558,1,0,0:0:0:0:
182,192,62658,128,0,62758:0:0:0:0:
109,192,62758,1,4,0:1:0:0:
402,192,62758,1,0,0:0:0:0:
329,192,62858,1,0,0:0:0:0:
256,192,62958,1,0,0:0:0:0:
182,192,63058,1,0,0:0:0:0:
329,192,63158,1,8,0:1:0:0:
109,192,63158,1,0,0:0:0:0:
475,192,63158,1,0,0:0:0:0:
36,192,63258,1,0,0:0:0:0:
182,192,63358,1,0,0:0:0:0:
109,192,63458,1,0,0:0:0:0:
329,192,63558,1,4,0:1:0:0:
256,192,63558,1,0,0:0:0:0:
36,192,63558,1,0,0:0:0:0:
402,192,63658,1,0,0:0:0:0:
475,192,63758,1,0,0:0:0:0:
402,192,63858,1,0,0:0:0:0:
329,192,63958,1,8,0:1:0:0:
36,192,63958,1,0,0:0:0:0:
109,192,63958,1,0,0:0:0:0:
256,192,64058,1,0,0:0:0:0:
109,192,64158,1,0,0:0:0:0:
36,192,64158,1,0,0:0:0:0:
402,192,64158,1,0,0:0:0:0:
182,192,64258,1,0,0:0:0:0:
329,192,64258,1,0,0:0:0:0:
402,192,64358,1,4,0:1:0:0:
475,192,64358,1,0,0:0:0:0:
256,192,64358,1,0,0:0:0:0:
109,192,64458,1,0,0:0:0:0:
256,192,64558,1,0,0:0:0:0:
402,192,64658,1,0,0:0:0:0:
329,192,64758,1,8,0:1:0:0:
182,192,64758,1,4,0:1:0:0:
36,192,64758,1,0,0:0:0:0:
475,192,64858,1,0,0:0:0:0:
109,192,64958,1,0,0:0:0:0:
256,192,64958,1,0,0:0:0:0:
402,192,64958,1,0,0:0:0:0:
36,192,65058,1,0,0:0:0:0:
182,192,65158,1,4,0:1:0:0:
329,192,65158,1,0,0:0:0:0:
475,192,65158,1,0,0:0:0:0:
109,192,65258,1,0,0:0:0:0:
36,192,65358,1,0,0:0:0:0:
182,192,65358,1,0,0:0:0:0:
402,192,65358,1,0,0:0:0:0:
256,192,65458,1,0,0:0:0:0:
329,192,65558,1,8,0:1:0:0:
475,192,65558,1,4,0:1:0:0:
109,192,65558,1,0,0:0:0:0:
256,192,65658,1,0,0:0:0:0:
36,192,65758,1,0,0:0:0:0:
182,192,65758,1,0,0:0:0:0:
256,192,65858,1,0,0:0:0:0:
402,192,65858,1,0,0:0:0:0:
329,192,65958,1,4,0:1:0:0:
475,192,65958,1,0,0:0:0:0:
109,192,65958,1,0,0:0:0:0:
36,192,65958,128,0,66358:0:0:0:0:
182,192,66058,1,0,0:0:0:0:
256,192,66158,1,0,0:0:0:0:
109,192,66358,128,8,66558:0:1:0:0:
329,192,66358,1,0,0:0:0:0:
475,192,66458,1,0,0:0:0:0:
36,192,66558,128,0,66758:0:0:0:0:
402,192,66558,1,0,0:0:0:0:
182,192,66758,128,0,67158:0:0:0:0:
475,192,66758,1,0,0:0:0:0:
402,192,66858,1,0,0:0:0:0:
329,192,66958,1,0,0:0:0:0:
109,192,67158,128,8,67558:0:1:0:0:
402,192,67158,1,0,0:0:0:0:
329,192,67258,1,0,0:0:0:0:
256,192,67358,1,0,0:0:0:0:
36,192,67558,128,0,68358:0:0:0:0:
475,192,67558,1,0,0:0:0:0:
329,192,67658,1,0,0:0:0:0:
182,192,67758,1,0,0:0:0:0:
402,192,67958,1,8,0:1:0:0:
256,192,68058,1,0,0:0:0:0:
109,192,68158,1,0,0:0:0:0:
402,192,68358,1,0,0:0:0:0:
182,192,68358,1,0,0:0:0:0:
109,192,68458,1,0,0:0:0:0:
256,192,68558,1,0,0:0:0:0:
475,192,68558,1,0,0:0:0:0:
402,192,68658,1,0,0:0:0:0:
329,192,68758,1,8,0:1:0:0:
182,192,68758,1,0,0:0:0:0:
36,192,68758,1,0,0:0:0:0:
256,192,68858,1,0,0:0:0:0:
109,192,68858,1,0,0:0:0:0:
329,192,68958,1,0,0:0:0:0:
182,192,68958,1,0,0:0:0:0:
402,192,69058,1,0,0:0:0:0:
256,192,69058,1,0,0:0:0:0:
475,192,69158,128,4,69558:0:1:0:0:
182,192,69158,1,0,0:0:0:0:
109,192,69258,1,0,0:0:0:0:
36,192,69358,1,0,0:0:0:0:
402,192,69558,128,8,69758:0:1:0:0:
256,192,69558,1,0,0:0:0:0:
182,192,69658,1,0,0:0:0:0:
475,192,69758,128,0,69958:0:0:0:0:
109,192,69758,1,0,0:0:0:0:
329,192,69958,128,0,70358:0:0:0:0:
182,192,69958,1,0,0:0:0:0:
109,192,70058,1,0,0:0:0:0:
36,192,70158,1,0,0:0:0:0:
402,192,70358,128,8,70758:0:1:0:0:
109,192,70358,1,0,0:0:0:0:
182,192,70458,1,0,0:0:0:0:
256,192,70558,1,0,0:0:0:0:
475,192,70758,128,4,71258:0:1:0:0:
36,192,70758,1,0,0:0:0:0:
182,192,70858,1,0,0:0:0:0:
329,192,70958,1,0,0:0:0:0:
109,192,71158,1,8,0:1:0:0:
329,192,71258,128,0,71358:0:0:0:0:
256,192,71258,1,0,0:0:0:0:
182,192,71358,128,0,71458:0:0:0:0:
402,192,71358,1,0,0:0:0:0:
109,192,71458,128,0,71558:0:0:0:0:
475,192,71458,1,0,0:0:0:0:
36,192,71558,128,4,71658:0:1:0:0:
256,192,71558,1,0,0:0:0:0:
329,192,71658,1,0,0:0:0:0:
109,192,71758,1,0,0:0:0:0:
402,192,71758,1,0,0:0:0:0:
329,192,71858,1,0,0:0:0:0:
256,192,71858,1,0,0:0:0:0:
36,192,71858,1,0,0:0:0:0:
402,192,71958,1,8,0:1:0:0:
475,192,71958,1,0,0:0:0:0:
182,192,71958,1,0,0:0:0:0:
256,192,72058,1,0,0:0:0:0:
329,192,72158,1,0,0:0:0:0:
36,192,72158,1,0,0:0:0:0:
109,192,72158,1,0,0:0:0:0:
402,192,72258,1,0,0:0:0:0:
182,192,72258,1,0,0:0:0:0:
475,192,72358,1,4,0:1:0:0:
36,192,72358,128,0,72758:0:0:0:0:
256,192,72358,1,0,0:0:0:0:
329,192,72458,1,0,0:0:0:0:
182,192,72558,1,0,0:0:0:0:
475,192,72758,128,8,72958:0:1:0:0:
256,192,72758,1,0,0:0:0:0:
109,192,72858,1,0,0:0:0:0:
402,192,72958,128,0,73158:0:0:0:0:
182,192,72958,1,0,0:0:0:0:
256,192,73058,1,0,0:0:0:0:
475,192,73158,128,0,73558:0:0:0:0:
36,192,73158,1,0,0:0:0:0:
329,192,73258,1,0,0:0:0:0:
182,192,73358,1,0,0:0:0:0:
36,192,73458,1,0,0:0:0:0:
256,192,73558,128,8,73958:0:1:0:0:
109,192,73558,1,0,0:0:0:0:
329,192,73558,1,0,0:0:0:0:
402,192,73758,1,0,0:0:0:0:
329,192,73858,1,0,0:0:0:0:
36,192,73958,128,4,74758:0:1:0:0:
182,192,73958,1,0,0:0:0:0:
109,192,73958,1,0,0:0:0:0:
329,192,74158,1,0,0:0:0:0:
402,192,74358,1,8,0:1:0:0:
109,192,74458,1,0,0:0:0:0:
256,192,74558,1,0,0:0:0:0:
402,192,74658,1,0,0:0:0:0:
475,192,74658,1,0,0:0:0:0:
182,192,74758,1,0,0:0:0:0:
329,192,74858,1,0,0:0:0:0:
475,192,74858,1,0,0:0:0:0:
109,192,74958,1,0,0:0:0:0:
402,192,75058,1,0,0:0:0:0:
475,192,75058,1,0,0:0:0:0:
182,192,75158,1,8,0:1:0:0:
36,192,75158,1,0,0:0:0:0:
256,192,75158,1,0,0:0:0:0:
329,192,75258,1,0,0:0:0:0:
182,192,75358,1,0,0:0:0:0:
36,192,75358,1,0,0:0:0:0:
402,192,75358,1,0,0:0:0:0:
475,192,75458,1,0,0:0:0:0:
256,192,75558,1,4,0:1:0:0:
36,192,75558,1,0,0:0:0:0:
402,192,75558,1,0,0:0:0:0:
109,192,75658,1,0,0:0:0:0:
329,192,75658,1,0,0:0:0:0:
182,192,75758,1,0,0:0:0:0:
402,192,75758,1,0,0:0:0:0:
475,192,75958,1,8,0:1:0:0:
182,192,75958,1,0,0:0:0:0:
36,192,75958,1,0,0:0:0:0:
329,192,75958,1,0,0:0:0:0:
402,192,76158,1,0,0:0:0:0:
109,192,76158,1,0,0:0:0:0:
329,192,76258,1,0,0:0:0:0:
182,192,76258,1,0,0:0:0:0:
475,192,76358,1,4,0:1:0:0:
36,192,76358,1,0,0:0:0:0:
402,192,76458,1,0,0:0:0:0:
109,192,76458,1,0,0:0:0:0:
402,192,76658,1,0,0:0:0:0:
109,192,76658,1,0,0:0:0:0:
475,192,76758,1,8,0:1:0:0:
256,192,76758,1,0,0:0:0:0:
36,192,76758,1,0,0:0:0:0:
402,192,76958,1,0,0:0:0:0:
182,192,76958,1,0,0:0:0:0:
329,192,77058,1,0,0:0:0:0:
109,192,77058,1,0,0:0:0:0:
475,192,77158,1,4,0:1:0:0:
36,192,77158,1,0,0:0:0:0:
256,192,77158,1,0,0:0:0:0:
329,192,77258,1,0,0:0:0:0:
402,192,77358,1,0,0:0:0:0:
182,192,77358,1,0,0:0:0:0:
475,192,77458,1,0,0:0:0:0:
402,192,77558,1,8,0:1:0:0:
256,192,77558,1,4,0:1:0:0:
109,192,77558,1,0,0:0:0:0:
329,192,77658,1,0,0:0:0:0:
256,192,77758,1,0,0:0:0:0:
109,192,77758,1,0,0:0:0:0:
36,192,77758,1,0,0:0:0:0:
182,192,77858,1,0,0:0:0:0:
402,192,77958,1,4,0:1:0:0:
475,192,77958,1,0,0:0:0:0:
109,192,77958,1,0,0:0:0:0:
182,192,78058,1,0,0:0:0:0:
109,192,78158,1,0,0:0:0:0:
36,192,78158,1,0,0:0:0:0:
256,192,78158,1,0,0:0:0:0:
329,192,78258,1,0,0:0:0:0:
402,192,78358,1,8,0:1:0:0:
475,192,78358,1,4,0:1:0:0:
256,192,78358,1,0,0:0:0:0:
182,192,78458,1,0,0:0:0:0:
109,192,78558,1,0,0:0:0:0:
36,192,78558,1,0,0:0:0:0:
256,192,78558,1,0,0:0:0:0:
182,192,78658,1,0,0:0:0:0:
329,192,78658,1,0,0:0:0:0:
402,192,78658,1,0,0:0:0:0:
256,192,78758,1,4,0:1:0:0:
109,192,78758,1,0,0:0:0:0:
36,192,78758,1,0,0:0:0:0:
475,192,78758,128,0,78858:0:0:0:0:
182,192,78958,1,0,0:0:0:0:
402,192,78958,128,0,79058:0:0:0:0:
256,192,79158,1,8,0:1:0:0:
109,192,79158,1,0,0:0:0:0:
329,192,79158,128,0,79258:0:0:0:0:
36,192,79358,1,0,0:0:0:0:
402,192,79358,128,0,79458:0:0:0:0:
475,192,79458,128,0,79558:0:0:0:0:
256,192,79558,1,0,0:0:0:0:
109,192,79558,1,0,0:0:0:0:
329,192,79658,128,0,79758:0:0:0:0:
182,192,79758,1,0,0:0:0:0:
402,192,79858,128,0,79958:0:0:0:0:
256,192,79958,1,8,0:1:0:0:
36,192,79958,1,0,0:0:0:0:
475,192,79958,128,0,80058:0:0:0:0:
109,192,80158,1,0,0:0:0:0:
329,192,80158,128,0,80258:0:0:0:0:
402,192,80258,128,0,80358:0:0:0:0:
256,192,80358,1,0,0:0:0:0:
182,192,80358,1,0,0:0:0:0:
475,192,80358,128,0,80458:0:0:0:0:
36,192,80558,1,0,0:0:0:0:
329,192,80558,128,0,80658:0:0:0:0:
256,192,80758,1,8,0:1:0:0:
109,192,80758,1,0,0:0:0:0:
475,192,80758,128,0,80858:0:0:0:0:
36,192,80958,1,0,0:0:0:0:
329,192,80958,128,0,81058:0:0:0:0:
402,192,81058,128,0,81158:0:0:0:0:
256,192,81158,1,0,0:0:0:0:
109,192,81158,1,0,0:0:0:0:
475,192,81258,128,0,81358:0:0:0:0:
182,192,81358,1,0,0:0:0:0:
402,192,81458,128,0,81558:0:0:0:0:
36,192,81558,1,8,0:1:0:0:
475,192,81558,1,0,0:0:0:0:
329,192,81558,128,0,81658:0:0:0:0:
256,192,81658,128,0,81758:0:0:0:0:
402,192,81758,1,0,0:0:0:0:
182,192,81758,128,0,81858:0:0:0:0:
109,192,81858,128,0,81958:0:0:0:0:
256,192,81958,1,0,0:0:0:0:
475,192,81958,1,0,0:0:0:0:
36,192,81958,128,0,82058:0:0:0:0:
329,192,82158,1,0,0:0:0:0:
109,192,82158,128,0,82258:0:0:0:0:
475,192,82358,1,8,0:1:0:0:
256,192,82358,1,0,0:0:0:0:
36,192,82358,128,0,82458:0:0:0:0:
329,192,82558,1,0,0:0:0:0:
182,192,82558,128,0,82658:0:0:0:0:
109,192,82658,128,0,82758:0:0:0:0:
402,192,82758,1,0,0:0:0:0:
475,192,82758,1,0,0:0:0:0:
36,192,82858,128,0,82958:0:0:0:0:
256,192,82958,1,0,0:0:0:0:
182,192,83058,128,0,83158:0:0:0:0:
475,192,83158,1,8,0:1:0:0:
329,192,83158,1,0,0:0:0:0:
109,192,83158,128,0,83258:0:0:0:0:
402,192,83358,1,0,0:0:0:0:
256,192,83358,128,0,83458:0:0:0:0:
182,192,83558,1,0,0:0:0:0:
36,192,83558,1,0,0:0:0:0:
256,192,83558,128,0,84158:0:0:0:0:
109,192,83758,1,0,0:0:0:0:
475,192,83958,1,8,0:1:0:0:
36,192,83958,1,0,0:0:0:0:
109,192,84158,1,0,0:0:0:0:
475,192,84158,128,0,84258:0:0:0:0:
402,192,84258,128,0,84358:0:0:0:0:
182,192,84358,1,0,0:0:0:0:
36,192,84358,1,0,0:0:0:0:
329,192,84358,128,0,84458:0:0:0:0:
256,192,84458,128,0,84558:0:0:0:0:
402,192,84558,1,0,0:0:0:0:
182,192,84558,128,0,84658:0:0:0:0:
256,192,84658,128,0,84758:0:0:0:0:
475,192,84758,1,8,0:1:0:0:
36,192,84758,1,0,0:0:0:0:
329,192,84758,128,0,85158:0:0:0:0:
109,192,84958,1,0,0:0:0:0:
182,192,85158,1,4,0:1:0:0:
36,192,85158,1,0,0:0:0:0:
475,192,85158,128,0,85258:0:0:0:0:
256,192,85358,1,0,0:0:0:0:
402,192,85358,128,0,85458:0:0:0:0:
329,192,85558,1,8,0:1:0:0:
109,192,85558,1,0,0:0:0:0:
475,192,85558,128,0,85658:0:0:0:0:
182,192,85758,1,0,0:0:0:0:
329,192,85758,128,0,85858:0:0:0:0:
402,192,85858,128,0,85958:0:0:0:0:
256,192,85958,1,0,0:0:0:0:
36,192,85958,1,0,0:0:0:0:
475,192,86058,128,0,86158:0:0:0:0:
182,192,86158,1,0,0:0:0:0:
329,192,86258,128,0,86358:0:0:0:0:
109,192,86358,1,8,0:1:0:0:
36,192,86358,1,0,0:0:0:0:
402,192,86358,128,0,86458:0:0:0:0:
182,192,86558,1,0,0:0:0:0:
329,192,86558,128,0,86658:0:0:0:0:
402,192,86658,128,0,86758:0:0:0:0:
109,192,86758,1,4,0:1:0:0:
36,192,86758,1,0,0:0:0:0:
475,192,86758,128,0,86858:0:0:0:0:
256,192,86958,1,0,0:0:0:0:
402,192,86958,128,0,87058:0:0:0:0:
182,192,87158,1,8,0:1:0:0:
36,192,87158,1,0,0:0:0:0:
329,192,87158,128,0,87258:0:0:0:0:
109,192,87358,1,0,0:0:0:0:
402,192,87358,128,0,87458:0:0:0:0:
475,192,87458,128,0,87558:0:0:0:0:
256,192,87558,1,0,0:0:0:0:
182,192,87558,1,0,0:0:0:0:
329,192,87658,128,0,87758:0:0:0:0:
109,192,87758,1,0,0:0:0:0:
36,192,87858,128,0,87958:0:0:0:0:
475,192,87958,1,8,0:1:0:0:
256,192,87958,1,0,0:0:0:0:
109,192,87958,128,0,88058:0:0:0:0:
182,192,88058,128,0,88158:0:0:0:0:
402,192,88158,1,0,0:0:0:0:
256,192,88158,128,0,88258:0:0:0:0:
329,192,88258,128,0,88358:0:0:0:0:
475,192,88358,1,4,0:1:0:0:
36,192,88358,1,0,0:0:0:0:
402,192,88358,128,0,88458:0:0:0:0:
109,192,88458,1,0,0:0:0:0:
329,192,88558,128,0,88658:0:0:0:0:
182,192,88558,1,0,0:0:0:0:
109,192,88658,1,0,0:0:0:0:
475,192,88758,128,8,88858:0:1:0:0:
36,192,88758,1,0,0:0:0:0:
109,192,88858,1,0,0:0:0:0:
329,192,88958,128,0,89058:0:0:0:0:
182,192,88958,1,0,0:0:0:0:
402,192,89058,128,0,89158:0:0:0:0:
109,192,89058,1,0,0:0:0:0:
36,192,89158,1,4,0:1:0:0:
475,192,89258,128,0,89358:0:0:0:0:
109,192,89258,1,0,0:0:0:0:
182,192,89358,1,0,0:0:0:0:
402,192,89458,128,0,89558:0:0:0:0:
109,192,89458,1,0,0:0:0:0:
475,192,89558,128,8,89658:0:1:0:0:
36,192,89558,1,0,0:0:0:0:
109,192,89658,1,0,0:0:0:0:
402,192,89758,128,0,89858:0:0:0:0:
182,192,89758,1,0,0:0:0:0:
256,192,89858,1,0,0:0:0:0:
182,192,89958,128,4,90058:0:1:0:0:
329,192,89958,1,0,0:0:0:0:
109,192,90058,128,0,90158:0:0:0:0:
402,192,90058,1,0,0:0:0:0:
475,192,90158,1,0,0:0:0:0:
36,192,90258,128,0,90358:0:0:0:0:
402,192,90258,1,0,0:0:0:0:
329,192,90358,1,8,0:1:0:0:
182,192,90458,128,0,90558:0:0:0:0:
402,192,90458,1,0,0:0:0:0:
36,192,90558,128,0,90658:0:0:0:0:
475,192,90558,1,0,0:0:0:0:
109,192,90658,128,0,90758:0:0:0:0:
402,192,90658,1,0,0:0:0:0:
182,192,90758,128,4,90858:0:1:0:0:
329,192,90758,1,0,0:0:0:0:
36,192,90858,128,0,90958:0:0:0:0:
402,192,90858,1,0,0:0:0:0:
475,192,90958,1,0,0:0:0:0:
109,192,91058,128,0,91158:0:0:0:0:
402,192,91058,1,0,0:0:0:0:
329,192,91158,1,8,0:1:0:0:
182,192,91258,128,0,91358:0:0:0:0:
402,192,91258,1,0,0:0:0:0:
109,192,91358,128,0,91458:0:0:0:0:
475,192,91358,1,0,0:0:0:0:
36,192,91458,128,0,91558:0:0:0:0:
402,192,91458,1,0,0:0:0:0:
329,192,91558,1,4,0:1:0:0:
182,192,91558,1,0,0:0:0:0:
475,192,91558,1,0,0:0:0:0:
256,192,91658,1,0,0:0:0:0:
329,192,91758,1,0,0:0:0:0:
109,192,91858,1,0,0:0:0:0:
475,192,91958,1,8,0:1:0:0:
109,192,92058,1,0,0:0:0:0:
402,192,92158,1,0,0:0:0:0:
109,192,92258,1,0,0:0:0:0:
475,192,92358,1,0,0:0:0:0:
329,192,92458,1,0,0:0:0:0:
109,192,92558,1,0,0:0:0:0:
475,192,92658,1,0,0:0:0:0:
329,192,92758,1,8,0:1:0:0:
109,192,92858,1,0,0:0:0:0:
475,192,92958,1,0,0:0:0:0:
109,192,93058,1,0,0:0:0:0:
402,192,93158,1,0,0:0:0:0:
256,192,93258,1,0,0:0:0:0:
36,192,93358,1,0,0:0:0:0:
182,192,93458,1,0,0:0:0:0:
402,192,93558,1,8,0:1:0:0:
36,192,93658,1,0,0:0:0:0:
402,192,93758,1,0,0:0:0:0:
256,192,93858,1,0,0:0:0:0:
36,192,93958,1,0,0:0:0:0:
402,192,94058,1,0,0:0:0:0:
256,192,94158,1,0,0:0:0:0:
36,192,94258,1,0,0:0:0:0:
182,192,94358,1,8,0:1:0:0:
329,192,94458,1,0,0:0:0:0:
402,192,94558,1,0,0:0:0:0:
109,192,94658,1,0,0:0:0:0:
475,192,94758,1,0,0:0:0:0:
329,192,94858,1,0,0:0:0:0:
109,192,94958,1,0,0:0:0:0:
402,192,95058,1,0,0:0:0:0:
256,192,95158,1,8,0:1:0:0:
109,192,95258,1,0,0:0:0:0:
402,192,95358,1,0,0:0:0:0:
109,192,95458,1,0,0:0:0:0:
475,192,95558,1,0,0:0:0:0:
329,192,95658,1,0,0:0:0:0:
36,192,95758,1,0,0:0:0:0:
182,192,95858,1,0,0:0:0:0:
475,192,95958,1,8,0:1:0:0:
109,192,96058,1,0,0:0:0:0:
402,192,96158,1,0,0:0:0:0:
182,192,96258,1,0,0:0:0:0:
475,192,96358,1,0,0:0:0:0:
36,192,96458,1,0,0:0:0:0:
182,192,96558,1,0,0:0:0:0:
475,192,96658,1,0,0:0:0:0:
109,192,96758,1,8,0:1:0:0:
402,192,96858,1,0,0:0:0:0:
36,192,96958,1,0,0:0:0:0:
402,192,97058,1,0,0:0:0:0:
109,192,97158,1,0,0:0:0:0:
256,192,97258,1,0,0:0:0:0:
402,192,97358,1,0,0:0:0:0:
256,192,97458,1,0,0:0:0:0:
109,192,97558,1,8,0:1:0:0:
475,192,97658,1,0,0:0:0:0:
36,192,97758,1,0,0:0:0:0:
329,192,97858,1,0,0:0:0:0:
182,192,97958,1,4,0:1:0:0:
475,192,97958,1,0,0:0:0:0:
36,192,97958,1,0,0:0:0:0:
402,192,98058,1,0,0:0:0:0:
329,192,98158,1,0,0:0:0:0:
182,192,98258,1,0,0:0:0:0:
402,192,98358,1,8,0:1:0:0:
182,192,98458,1,0,0:0:0:0:
329,192,98558,1,0,0:0:0:0:
182,192,98658,1,0,0:0:0:0:
36,192,98758,1,0,0:0:0:0:
109,192,98858,1,0,0:0:0:0:
182,192,98958,1,0,0:0:0:0:
402,192,99058,1,0,0:0:0:0:
109,192,99158,1,8,0:1:0:0:
402,192,99258,1,0,0:0:0:0:
182,192,99358,1,0,0:0:0:0:
402,192,99458,1,0,0:0:0:0:
109,192,99558,1,0,0:0:0:0:
182,192,99658,1,0,0:0:0:0:
256,192,99758,1,0,0:0:0:0:
402,192,99858,1,0,0:0:0:0:
109,192,99958,1,8,0:1:0:0:
329,192,100058,1,0,0:0:0:0:
109,192,100158,1,0,0:0:0:0:
256,192,100258,1,0,0:0:0:0:
109,192,100358,1,0,0:0:0:0:
182,192,100458,1,0,0:0:0:0:
256,192,100558,1,0,0:0:0:0:
402,192,100658,1,0,0:0:0:0:
109,192,100758,1,8,0:1:0:0:
329,192,100858,1,0,0:0:0:0:
36,192,100958,1,0,0:0:0:0:
256,192,101058,1,0,0:0:0:0:
36,192,101158,1,4,0:1:0:0:
475,192,101158,1,0,0:0:0:0:
329,192,101158,1,0,0:0:0:0:
109,192,101258,1,0,0:0:0:0:
182,192,101358,1,0,0:0:0:0:
402,192,101458,1,0,0:0:0:0:
256,192,101558,1,8,0:1:0:0:
36,192,101658,1,0,0:0:0:0:
256,192,101758,1,0,0:0:0:0:
475,192,101858,1,0,0:0:0:0:
256,192,101958,1,4,0:1:0:0:
109,192,101958,1,0,0:0:0:0:
402,192,101958,1,0,0:0:0:0:
182,192,102058,1,0,0:0:0:0:
36,192,102158,1,0,0:0:0:0:
182,192,102258,1,0,0:0:0:0:
329,192,102358,1,8,0:1:0:0:
475,192,102458,1,0,0:0:0:0:
182,192,102558,1,0,0:0:0:0:
329,192,102658,1,0,0:0:0:0:
182,192,102758,1,4,0:1:0:0:
36,192,102758,1,0,0:0:0:0:
329,192,102858,1,0,0:0:0:0:
182,192,102958,1,0,0:0:0:0:
36,192,103058,1,0,0:0:0:0:
329,192,103158,1,4,0:1:0:0:
475,192,103158,1,0,0:1:0:0:
182,192,103258,1,0,0:0:0:0:
329,192,103458,1,0,0:0:0:0:
182,192,103558,1,4,0:1:0:0:
36,192,103558,1,0,0:0:0:0:
329,192,103658,1,0,0:0:0:0:
475,192,103758,1,0,0:0:0:0:
182,192,103858,1,0,0:0:0:0:
475,192,103958,1,4,0:1:0:0:
329,192,103958,1,0,0:1:0:0:
182,192,104058,1,0,0:0:0:0:
475,192,104258,1,0,0:0:0:0:
182,192,104358,1,4,0:1:0:0:
36,192,104358,1,0,0:0:0:0:
329,192,104358,1,0,0:0:0:0:
475,192,104458,1,0,0:0:0:0:
256,192,104558,1,0,0:0:0:0:
402,192,104658,1,0,0:0:0:0:
182,192,104758,1,8,0:1:0:0:
402,192,104858,1,0,0:0:0:0:
109,192,104958,1,0,0:0:0:0:
475,192,105058,1,0,0:0:0:0:
36,192,105158,1,0,0:0:0:0:
182,192,105258,1,0,0:0:0:0:
109,192,105358,1,0,0:0:0:0:
256,192,105458,1,0,0:0:0:0:
182,192,105558,1,8,0:1:0:0:
402,192,105658,1,0,0:0:0:0:
256,192,105758,1,0,0:0:0:0:
475,192,105858,1,0,0:0:0:0:
329,192,105958,1,0,0:0:0:0:
182,192,106058,1,0,0:0:0:0:
36,192,106158,1,0,0:0:0:0:
402,192,106258,1,0,0:0:0:0:
109,192,106358,1,8,0:1:0:0:
402,192,106458,1,0,0:0:0:0:
182,192,106558,1,0,0:0:0:0:
475,192,106658,1,0,0:0:0:0:
36,192,106758,1,0,0:0:0:0:
182,192,106858,1,0,0:0:0:0:
329,192,106958,1,0,0:0:0:0:
402,192,107058,1,0,0:0:0:0:
256,192,107158,1,8,0:1:0:0:
402,192,107258,1,0,0:0:0:0:
182,192,107358,1,0,0:0:0:0:
475,192,107458,1,0,0:0:0:0:
109,192,107558,1,0,0:0:0:0:
256,192,107658,1,0,0:0:0:0:
329,192,107758,1,0,0:0:0:0:
402,192,107858,1,0,0:0:0:0:
182,192,107958,1,8,0:1:0:0:
402,192,108058,1,0,0:0:0:0:
256,192,108158,1,0,0:0:0:0:
475,192,108258,1,0,0:0:0:0:
329,192,108358,1,0,0:0:0:0:
256,192,108458,1,0,0:0:0:0:
182,192,108558,1,0,0:0:0:0:
109,192,108658,1,0,0:0:0:0:
402,192,108758,1,8,0:1:0:0:
109,192,108858,1,0,0:0:0:0:
329,192,108958,1,0,0:0:0:0:
36,192,109058,1,0,0:0:0:0:
182,192,109158,1,0,0:0:0:0:
329,192,109258,1,0,0:0:0:0:
256,192,109358,1,0,0:0:0:0:
109,192,109458,1,0,0:0:0:0:
402,192,109558,1,8,0:1:0:0:
109,192,109658,1,0,0:0:0:0:
329,192,109758,1,0,0:0:0:0:
36,192,109858,1,0,0:0:0:0:
182,192,109958,1,0,0:0:0:0:
329,192,110058,1,0,0:0:0:0:
182,192,110158,1,0,0:0:0:0:
109,192,110258,1,0,0:0:0:0:
256,192,110358,1,8,0:1:0:0:
109,192,110458,1,0,0:0:0:0:
329,192,110558,1,0,0:0:0:0:
36,192,110658,1,0,0:0:0:0:
256,192,110758,1,4,0:1:0:0:
109,192,110758,1,0,0:0:0:0:
475,192,110758,1,0,0:0:0:0:
402,192,110858,1,0,0:0:0:0:
109,192,110958,1,0,0:0:0:0:
402,192,111058,1,0,0:0:0:0:
109,192,111158,1,8,0:1:0:0:
402,192,111258,1,0,0:0:0:0:
329,192,111258,1,0,0:0:0:0:
109,192,111358,1,0,0:0:0:0:
402,192,111458,1,0,0:0:0:0:
329,192,111458,1,0,0:0:0:0:
109,192,111558,1,0,0:0:0:0:
402,192,111658,1,0,0:0:0:0:
109,192,111758,1,0,0:0:0:0:
402,192,111858,1,0,0:0:0:0:
109,192,111958,1,8,0:1:0:0:
402,192,112058,1,0,0:0:0:0:
329,192,112058,1,0,0:0:0:0:
109,192,112158,1,0,0:0:0:0:
475,192,112258,1,0,0:0:0:0:
402,192,112258,1,0,0:0:0:0:
36,192,112358,1,4,0:1:0:0:
475,192,112458,1,0,0:0:0:0:
36,192,112558,1,0,0:0:0:0:
475,192,112658,1,0,0:0:0:0:
36,192,112758,1,8,0:1:0:0:
475,192,112858,1,0,0:0:0:0:
329,192,112858,1,0,0:0:0:0:
36,192,112958,1,0,0:0:0:0:
475,192,113058,1,0,0:0:0:0:
329,192,113058,1,0,0:0:0:0:
36,192,113158,1,0,0:0:0:0:
475,192,113258,1,0,0:0:0:0:
36,192,113358,1,0,0:0:0:0:
475,192,113458,1,0,0:0:0:0:
36,192,113558,1,8,0:1:0:0:
475,192,113658,1,0,0:0:0:0:
329,192,113658,1,0,0:0:0:0:
36,192,113758,1,0,0:0:0:0:
475,192,113858,1,0,0:0:0:0:
329,192,113858,1,0,0:0:0:0:
402,192,113958,1,4,0:1:0:0:
36,192,113958,1,0,0:0:0:0:
182,192,113958,1,0,0:0:0:0:
109,192,114058,1,0,0:0:0:0:
182,192,114158,1,0,0:0:0:0:
256,192,114258,1,0,0:0:0:0:
329,192,114358,1,8,0:1:0:0:
182,192,114458,1,0,0:0:0:0:
402,192,114458,1,0,0:0:0:0:
475,192,114558,1,0,0:0:0:0:
182,192,114658,1,0,0:0:0:0:
402,192,114658,1,0,0:0:0:0:
329,192,114758,1,4,0:1:0:0:
109,192,114758,1,0,0:0:0:0:
36,192,114758,1,0,0:0:0:0:
256,192,114858,1,0,0:0:0:0:
182,192,114958,1,0,0:0:0:0:
256,192,115058,1,0,0:0:0:0:
329,192,115158,1,8,0:1:0:0:
182,192,115258,1,0,0:0:0:0:
402,192,115258,1,0,0:0:0:0:
475,192,115358,1,0,0:0:0:0:
182,192,115458,1,0,0:0:0:0:
402,192,115458,1,0,0:0:0:0:
329,192,115558,1,4,0:1:0:0:
109,192,115558,1,0,0:0:0:0:
36,192,115558,1,0,0:0:0:0:
256,192,115658,1,0,0:0:0:0:
475,192,115658,1,0,0:0:0:0:
182,192,115758,1,0,0:0:0:0:
402,192,115758,1,0,0:0:0:0:
109,192,115858,1,0,0:0:0:0:
329,192,115858,1,0,0:0:0:0:
402,192,115958,1,8,0:1:0:0:
475,192,115958,1,4,0:1:0:0:
182,192,115958,1,0,0:0:0:0:
256,192,116058,1,0,0:0:0:0:
36,192,116058,1,0,0:0:0:0:
329,192,116158,1,0,0:0:0:0:
402,192,116258,1,0,0:0:0:0:
182,192,116258,1,0,0:0:0:0:
329,192,116358,1,4,0:1:0:0:
109,192,116358,1,0,0:0:0:0:
36,192,116358,1,0,0:0:0:0:
256,192,116458,1,0,0:0:0:0:
475,192,116458,1,0,0:0:0:0:
182,192,116558,1,0,0:0:0:0:
402,192,116558,1,0,0:0:0:0:
109,192,116658,1,0,0:0:0:0:
329,192,116658,1,0,0:0:0:0:
402,192,116758,1,8,0:1:0:0:
475,192,116758,1,4,0:1:0:0:
182,192,116758,1,0,0:0:0:0:
256,192,116858,1,0,0:0:0:0:
36,192,116858,1,0,0:0:0:0:
329,192,116958,1,0,0:0:0:0:
402,192,117058,1,0,0:0:0:0:
182,192,117058,1,0,0:0:0:0:
256,192,117158,128,4,118758:0:1:0:0:
475,192,117158,128,0,117258:0:0:0:0:
36,192,117158,1,0,0:0:0:0:
402,192,117258,128,0,117358:0:0:0:0:
329,192,117358,128,0,117458:0:0:0:0:
182,192,117458,128,0,117558:0:0:0:0:
109,192,117558,128,8,117658:0:1:0:0:
36,192,117658,128,0,117758:0:0:0:0:
109,192,117758,128,0,117858:0:0:0:0:
182,192,117858,128,0,117958:0:0:0:0:
329,192,117958,128,0,118058:0:0:0:0:
402,192,118058,128,0,118158:0:0:0:0:
475,192,118158,128,0,118258:0:0:0:0:
402,192,118258,128,0,118358:0:0:0:0:
329,192,118358,128,8,118458:0:1:0:0:
182,192,118458,128,0,118558:0:0:0:0:
109,192,118558,128,0,118658:0:0:0:0:
36,192,118658,128,0,118758:0:0:0:0:
475,192,118758,1,8,0:1:0:0:
182,192,118758,1,4,0:1:0:0:
329,192,118758,1,0,0:0:0:0:
475,192,118958,1,0,0:0:0:0:
36,192,118958,1,0,0:0:0:0:
329,192,118958,1,0,0:0:0:0:
402,192,119058,1,8,0:1:0:0:
182,192,119058,1,0,0:0:0:0:
475,192,119158,1,0,0:0:0:0:
109,192,119158,1,0,0:0:0:0:
402,192,119258,1,0,0:0:0:0:
182,192,119258,1,0,0:0:0:0:
329,192,119358,1,8,0:1:0:0:
109,192,119358,1,0,0:0:0:0:
256,192,119458,1,0,0:0:0:0:
182,192,119458,1,0,0:0:0:0:
329,192,119558,1,8,0:1:0:0:
109,192,119558,1,4,0:1:0:0:
475,192,119558,1,0,0:0:0:0:
475,192,119758,1,0,0:0:0:0:
36,192,119758,1,0,0:0:0:0:
329,192,119758,1,0,0:0:0:0:
182,192,119858,1,8,0:1:0:0:
402,192,119858,1,0,0:0:0:0:
109,192,119958,1,0,0:0:0:0:
475,192,119958,1,0,0:0:0:0:
402,192,120058,1,0,0:0:0:0:
182,192,120058,1,0,0:0:0:0:
329,192,120158,1,8,0:1:0:0:
109,192,120158,1,0,0:0:0:0:
182,192,120258,1,0,0:0:0:0:
256,192,120258,1,0,0:0:0:0:
329,192,120358,1,8,0:1:0:0:
109,192,120358,1,4,0:1:0:0:
36,192,120358,1,0,0:0:0:0:
182,192,120558,1,0,0:0:0:0:
475,192,120558,1,0,0:0:0:0:
36,192,120558,1,0,0:0:0:0:
109,192,120658,1,8,0:1:0:0:
329,192,120658,1,0,0:0:0:0:
36,192,120758,1,0,0:0:0:0:
402,192,120758,1,0,0:0:0:0:
329,192,120858,1,0,0:0:0:0:
109,192,120858,1,0,0:0:0:0:
402,192,120958,1,8,0:1:0:0:
182,192,120958,1,0,0:0:0:0:
256,192,121058,1,0,0:0:0:0:
329,192,121058,1,0,0:0:0:0:
36,192,121158,1,8,0:1:0:0:
109,192,121158,1,4,0:1:0:0:
475,192,121158,1,0,0:0:0:0:
182,192,121358,1,0,0:0:0:0:
475,192,121358,1,0,0:0:0:0:
256,192,121358,1,0,0:0:0:0:
109,192,121458,1,8,0:1:0:0:
329,192,121458,1,0,0:0:0:0:
36,192,121558,1,0,0:0:0:0:
402,192,121558,1,0,0:0:0:0:
329,192,121658,1,0,0:0:0:0:
109,192,121658,1,0,0:0:0:0:
402,192,121758,1,8,0:1:0:0:
182,192,121758,1,0,0:0:0:0:
256,192,121858,1,0,0:0:0:0:
329,192,121858,1,0,0:0:0:0:
182,192,121958,1,8,0:1:0:0:
475,192,121958,1,4,0:1:0:0:
36,192,121958,1,0,0:0:0:0:
109,192,122158,1,0,0:0:0:0:
475,192,122158,1,0,0:0:0:0:
256,192,122158,1,0,0:0:0:0:
329,192,122258,1,8,0:1:0:0:
182,192,122258,1,0,0:0:0:0:
402,192,122358,1,0,0:0:0:0:
109,192,122358,1,0,0:0:0:0:
329,192,122458,1,0,0:0:0:0:
36,192,122458,1,0,0:0:0:0:
402,192,122558,1,8,0:1:0:0:
109,192,122558,1,0,0:0:0:0:
329,192,122658,1,0,0:0:0:0:
182,192,122658,1,0,0:0:0:0:
402,192,122758,1,8,0:1:0:0:
256,192,122758,1,4,0:1:0:0:
475,192,122758,1,0,0:0:0:0:
256,192,122958,1,0,0:0:0:0:
36,192,122958,1,0,0:0:0:0:
402,192,122958,1,0,0:0:0:0:
182,192,123058,1,8,0:1:0:0:
329,192,123058,1,0,0:0:0:0:
109,192,123158,1,0,0:0:0:0:
402,192,123158,1,0,0:0:0:0:
475,192,123258,1,0,0:0:0:0:
182,192,123258,1,0,0:0:0:0:
402,192,123358,1,8,0:1:0:0:
109,192,123358,1,0,0:0:0:0:
182,192,123458,1,0,0:0:0:0:
329,192,123458,1,0,0:0:0:0:
36,192,123558,1,8,0:1:0:0:
256,192,123558,1,4,0:1:0:0:
109,192,123558,1,0,0:0:0:0:
182,192,123758,1,0,0:0:0:0:
475,192,123758,1,0,0:0:0:0:
402,192,123758,1,0,0:0:0:0:
36,192,123858,1,8,0:1:0:0:
329,192,123858,1,0,0:0:0:0:
109,192,123958,1,0,0:0:0:0:
402,192,123958,1,0,0:0:0:0:
329,192,124058,1,0,0:0:0:0:
36,192,124058,1,0,0:0:0:0:
402,192,124158,1,8,0:1:0:0:
109,192,124158,1,0,0:0:0:0:
182,192,124258,1,0,0:0:0:0:
329,192,124258,1,0,0:0:0:0:
402,192,124358,1,8,0:1:0:0:
256,192,124358,1,4,0:1:0:0:
475,192,124358,1,0,0:0:0:0:
329,192,124558,1,0,0:0:0:0:
36,192,124558,1,0,0:0:0:0:
109,192,124558,1,0,0:0:0:0:
256,192,124658,1,8,0:1:0:0:
475,192,124658,1,0,0:0:0:0:
329,192,124758,1,0,0:0:0:0:
182,192,124758,1,0,0:0:0:0:
36,192,124758,1,0,0:0:0:0:
475,192,124858,1,0,0:0:0:0:
109,192,124858,1,0,0:0:0:0:
402,192,124958,1,8,0:1:0:0:
329,192,124958,1,0,0:0:0:0:
182,192,124958,1,0,0:0:0:0:
475,192,125058,1,0,0:0:0:0:
256,192,125058,1,0,0:0:0:0:
329,192,125158,1,8,0:1:0:0:
182,192,125158,1,4,0:1:0:0:
36,192,125158,1,0,0:0:0:0:
402,192,125358,1,0,0:0:0:0:
109,192,125358,1,0,0:0:0:0:
256,192,125358,1,0,0:0:0:0:
475,192,125458,1,8,0:1:0:0:
36,192,125458,1,0,0:0:0:0:
402,192,125558,1,4,0:1:0:0:
109,192,125558,1,0,0:0:0:0:
475,192,125658,1,0,0:0:0:0:
182,192,125658,1,0,0:0:0:0:
256,192,125758,1,8,0:1:0:0:
402,192,125758,1,0,0:0:0:0:
475,192,125858,1,0,0:0:0:0:
329,192,125858,1,0,0:0:0:0:
402,192,125958,1,8,0:1:0:0:
182,192,125958,1,4,0:1:0:0:
109,192,125958,1,0,0:0:0:0:
256,192,126158,1,0,0:0:0:0:
402,192,126158,1,0,0:0:0:0:
109,192,126158,1,0,0:0:0:0:
36,192,126258,1,8,0:1:0:0:
475,192,126258,1,0,0:0:0:0:
109,192,126358,1,4,0:1:0:0:
402,192,126358,1,0,0:0:0:0:
329,192,126458,1,0,0:0:0:0:
36,192,126458,1,0,0:0:0:0:
109,192,126558,1,8,0:1:0:0:
256,192,126558,1,0,0:0:0:0:
36,192,126658,1,0,0:0:0:0:
182,192,126658,1,0,0:0:0:0:
329,192,126758,1,8,0:1:0:0:
402,192,126758,1,4,0:1:0:0:
109,192,126758,1,0,0:0:0:0:
402,192,126958,1,0,0:0:0:0:
109,192,126958,1,0,0:0:0:0:
256,192,126958,1,0,0:0:0:0:
36,192,127058,1,8,0:1:0:0:
475,192,127058,1,0,0:0:0:0:
109,192,127158,1,4,0:1:0:0:
402,192,127158,1,0,0:0:0:0:
475,192,127258,1,0,0:0:0:0:
182,192,127258,1,0,0:0:0:0:
256,192,127358,1,8,0:1:0:0:
402,192,127358,1,0,0:0:0:0:
329,192,127458,1,0,0:0:0:0:
475,192,127458,1,0,0:0:0:0:
109,192,127558,1,8,0:1:0:0:
256,192,127558,1,4,0:1:0:0:
402,192,127558,1,0,0:0:0:0:
475,192,127758,1,0,0:0:0:0:
109,192,127758,1,0,0:0:0:0:
256,192,127758,1,0,0:0:0:0:
329,192,127858,1,8,0:1:0:0:
182,192,127858,1,0,0:0:0:0:
256,192,127958,1,0,0:0:0:0:
36,192,127958,1,0,0:0:0:0:
475,192,127958,1,0,0:0:0:0:
182,192,128058,1,0,0:0:0:0:
402,192,128058,1,0,0:0:0:0:
109,192,128158,1,0,0:0:0:0:
36,192,128158,1,0,0:0:0:0:
329,192,128158,1,8,0:0:0:0:
256,192,128258,1,0,0:0:0:0:
402,192,128258,1,0,0:0:0:0:
475,192,128358,1,8,0:1:0:0:
182,192,128358,1,0,0:1:0:0:
36,192,128358,1,0,0:0:0:0:
109,192,128458,1,0,0:0:0:0:
475,192,128558,1,0,0:0:0:0:
182,192,128558,1,0,0:0:0:0:
329,192,128558,1,0,0:0:0:0:
402,192,128658,1,8,0:1:0:0:
109,192,128658,1,0,0:0:0:0:
182,192,128758,1,0,0:0:0:0:
36,192,128758,1,0,0:0:0:0:
329,192,128758,1,0,0:0:0:0:
402,192,128858,1,0,0:0:0:0:
256,192,128858,1,0,0:0:0:0:
475,192,128958,1,8,0:1:0:0:
36,192,128958,1,0,0:0:0:0:
182,192,128958,1,0,0:0:0:0:
402,192,129058,1,0,0:0:0:0:
109,192,129058,1,0,0:0:0:0:
329,192,129158,1,8,0:1:0:0:
182,192,129158,1,4,0:1:0:0:
36,192,129158,1,0,0:0:0:0:
256,192,129158,1,0,0:0:0:0:
402,192,129258,1,0,0:0:0:0:
475,192,129358,1,0,0:0:0:0:
109,192,129358,1,0,0:0:0:0:
329,192,129358,1,0,0:0:0:0:
402,192,129458,1,8,0:1:0:0:
256,192,129458,1,0,0:0:0:0:
182,192,129558,1,0,0:0:0:0:
36,192,129558,1,0,0:0:0:0:
475,192,129558,1,0,0:0:0:0:
402,192,129658,1,0,0:0:0:0:
109,192,129658,1,0,0:0:0:0:
329,192,129758,1,8,0:1:0:0:
182,192,129758,1,0,0:0:0:0:
36,192,129758,1,0,0:0:0:0:
256,192,129758,1,0,0:0:0:0:
402,192,129858,1,0,0:0:0:0:
109,192,129858,1,0,0:0:0:0:
329,192,129958,1,8,0:1:0:0:
36,192,129958,1,4,0:1:0:0:
182,192,129958,1,0,0:0:0:0:
475,192,129958,1,0,0:0:0:0:
109,192,130058,1,0,0:0:0:0:
475,192,130158,1,0,0:0:0:0:
36,192,130158,1,0,0:0:0:0:
402,192,130158,1,0,0:0:0:0:
329,192,130258,1,8,0:1:0:0:
109,192,130258,1,0,0:0:0:0:
182,192,130358,1,4,0:1:0:0:
36,192,130358,1,0,0:0:0:0:
256,192,130358,1,0,0:0:0:0:
475,192,130458,1,0,0:0:0:0:
109,192,130458,1,0,0:0:0:0:
402,192,130558,1,8,0:1:0:0:
182,192,130558,1,0,0:0:0:0:
36,192,130558,1,0,0:0:0:0:
256,192,130558,1,0,0:0:0:0:
109,192,130658,1,0,0:0:0:0:
475,192,130658,1,0,0:0:0:0:
402,192,130758,1,8,0:1:0:0:
182,192,130758,1,4,0:1:0:0:
36,192,130758,1,0,0:0:0:0:
256,192,130758,1,0,0:0:0:0:
329,192,130858,1,0,0:0:0:0:
402,192,130958,1,0,0:0:0:0:
182,192,130958,1,0,0:0:0:0:
36,192,130958,1,0,0:0:0:0:
256,192,130958,1,0,0:0:0:0:
475,192,131058,1,8,0:1:0:0:
329,192,131058,1,0,0:0:0:0:
182,192,131158,1,4,0:1:0:0:
36,192,131158,1,0,0:0:0:0:
402,192,131158,1,0,0:0:0:0:
475,192,131258,1,0,0:0:0:0:
329,192,131258,1,0,0:0:0:0:
402,192,131358,1,8,0:1:0:0:
182,192,131358,1,0,0:0:0:0:
36,192,131358,1,0,0:0:0:0:
109,192,131358,1,0,0:0:0:0:
475,192,131458,1,0,0:0:0:0:
182,192,131458,1,0,0:0:0:0:
36,192,131458,1,0,0:0:0:0:
329,192,131458,1,0,0:0:0:0:
256,192,131558,1,8,0:1:0:0:
36,192,131558,1,4,0:1:0:0:
182,192,131558,1,0,0:0:0:0:
402,192,131558,1,0,0:0:0:0:
109,192,131658,1,0,0:0:0:0:
402,192,131758,1,0,0:0:0:0:
182,192,131758,1,0,0:0:0:0:
256,192,131858,1,8,0:1:0:0:
109,192,131958,1,0,0:0:0:0:
182,192,131958,1,0,0:0:0:0:
402,192,132058,1,0,0:0:0:0:
36,192,132058,1,0,0:0:0:0:
256,192,132158,1,8,0:1:0:0:
109,192,132158,1,0,0:0:0:0:
402,192,132258,1,0,0:0:0:0:
256,192,132358,1,8,0:1:0:0:
109,192,132358,1,0,0:0:0:0:
36,192,132358,1,0,0:0:0:0:
182,192,132458,1,0,0:0:0:0:
402,192,132558,1,0,0:0:0:0:
256,192,132558,1,0,0:0:0:0:
475,192,132658,1,8,0:1:0:0:
402,192,132758,1,0,0:0:0:0:
109,192,132758,1,0,0:0:0:0:
329,192,132858,1,0,0:0:0:0:
36,192,132858,1,0,0:0:0:0:
256,192,132958,1,8,0:1:0:0:
109,192,132958,1,0,0:0:0:0:
182,192,133058,1,0,0:0:0:0:
256,192,133158,1,8,0:1:0:0:
36,192,133158,1,0,0:0:0:0:
109,192,133158,1,0,0:0:0:0:
182,192,133258,1,0,0:0:0:0:
109,192,133358,1,0,0:0:0:0:
329,192,133358,1,0,0:0:0:0:
36,192,133458,1,8,0:1:0:0:
402,192,133558,1,0,0:0:0:0:
109,192,133558,1,0,0:0:0:0:
182,192,133658,1,0,0:0:0:0:
475,192,133658,1,0,0:0:0:0:
256,192,133758,1,8,0:1:0:0:
402,192,133758,1,0,0:0:0:0:
109,192,133858,1,0,0:0:0:0:
256,192,133958,1,8,0:1:0:0:
475,192,133958,1,0,0:0:0:0:
329,192,133958,1,0,0:0:0:0:
402,192,134058,1,0,0:0:0:0:
109,192,134158,1,0,0:0:0:0:
329,192,134158,1,0,0:0:0:0:
256,192,134258,1,8,0:1:0:0:
402,192,134358,1,0,0:0:0:0:
329,192,134358,1,0,0:0:0:0:
109,192,134458,1,0,0:0:0:0:
475,192,134458,1,0,0:0:0:0:
256,192,134558,1,8,0:1:0:0:
402,192,134558,1,0,0:0:0:0:
109,192,134658,1,0,0:0:0:0:
256,192,134758,1,8,0:1:0:0:
475,192,134758,1,4,0:1:0:0:
402,192,134758,1,0,0:0:0:0:
329,192,134858,1,0,0:0:0:0:
109,192,134958,1,0,0:0:0:0:
256,192,134958,1,0,0:0:0:0:
402,192,135058,1,8,0:1:0:0:
182,192,135158,1,0,0:0:0:0:
329,192,135158,1,0,0:0:0:0:
402,192,135258,1,0,0:0:0:0:
36,192,135258,1,0,0:0:0:0:
256,192,135358,1,8,0:1:0:0:
109,192,135358,1,0,0:0:0:0:
402,192,135458,1,0,0:0:0:0:
256,192,135558,1,8,0:1:0:0:
36,192,135558,1,0,0:0:0:0:
182,192,135558,1,0,0:0:0:0:
109,192,135658,1,0,0:0:0:0:
402,192,135758,1,0,0:0:0:0:
182,192,135758,1,0,0:0:0:0:
256,192,135858,1,8,0:1:0:0:
402,192,135958,1,0,0:0:0:0:
329,192,135958,1,0,0:0:0:0:
109,192,136058,1,0,0:0:0:0:
475,192,136058,1,0,0:0:0:0:
256,192,136158,1,8,0:1:0:0:
402,192,136158,1,0,0:0:0:0:
109,192,136258,1,0,0:0:0:0:
256,192,136358,1,8,0:1:0:0:
475,192,136358,1,4,0:1:0:0:
402,192,136358,1,0,0:0:0:0:
329,192,136458,1,0,0:0:0:0:
109,192,136558,1,0,0:0:0:0:
256,192,136558,1,0,0:0:0:0:
36,192,136658,1,8,0:1:0:0:
329,192,136758,1,0,0:0:0:0:
109,192,136758,1,0,0:0:0:0:
402,192,136858,1,0,0:0:0:0:
36,192,136858,1,0,0:0:0:0:
256,192,136958,1,8,0:1:0:0:
109,192,136958,1,0,0:0:0:0:
402,192,137058,1,0,0:0:0:0:
256,192,137158,1,8,0:1:0:0:
109,192,137158,1,4,0:1:0:0:
36,192,137158,1,0,0:0:0:0:
329,192,137258,1,0,0:0:0:0:
182,192,137358,1,0,0:0:0:0:
36,192,137358,1,0,0:0:0:0:
256,192,137458,1,8,0:1:0:0:
475,192,137458,1,0,0:0:0:0:
329,192,137458,1,0,0:0:0:0:
402,192,137558,1,4,0:1:0:0:
109,192,137558,1,0,0:0:0:0:
36,192,137658,1,0,0:0:0:0:
182,192,137758,1,8,0:1:0:0:
475,192,137758,1,0,0:0:0:0:
329,192,137758,1,0,0:0:0:0:
36,192,137858,1,0,0:0:0:0:
109,192,137958,1,8,0:1:0:0:
402,192,137958,1,4,0:1:0:0:
256,192,137958,1,0,0:0:0:0:
182,192,138058,1,0,0:0:0:0:
329,192,138158,1,0,0:0:0:0:
475,192,138158,1,0,0:0:0:0:
109,192,138158,1,0,0:0:0:0:
36,192,138258,1,8,0:1:0:0:
329,192,138358,1,4,0:1:0:0:
475,192,138358,1,0,0:0:0:0:
182,192,138358,1,0,0:0:0:0:
256,192,138358,1,0,0:0:0:0:
109,192,138458,1,0,0:0:0:0:
329,192,138558,1,8,0:1:0:0:
475,192,138558,1,0,0:0:0:0:
36,192,138558,1,0,0:0:0:0:
109,192,138658,1,0,0:0:0:0:
329,192,138758,1,8,0:1:0:0:
475,192,138758,1,4,0:1:0:0:
182,192,138758,1,0,0:0:0:0:
109,192,138858,1,0,0:0:0:0:
329,192,138958,1,0,0:0:0:0:
475,192,138958,1,0,0:0:0:0:
36,192,138958,1,0,0:0:0:0:
109,192,139058,1,8,0:1:0:0:
329,192,139158,1,4,0:1:0:0:
475,192,139158,1,0,0:0:0:0:
182,192,139158,1,0,0:0:0:0:
256,192,139158,1,0,0:0:0:0:
109,192,139258,1,0,0:0:0:0:
329,192,139358,1,8,0:1:0:0:
475,192,139358,1,0,0:0:0:0:
36,192,139358,1,0,0:0:0:0:
109,192,139458,1,0,0:0:0:0:
329,192,139558,1,8,0:1:0:0:
475,192,139558,1,4,0:1:0:0:
182,192,139558,1,0,0:0:0:0:
256,192,139658,1,0,0:0:0:0:
36,192,139758,1,0,0:0:0:0:
182,192,139758,1,0,0:0:0:0:
329,192,139758,1,0,0:0:0:0:
402,192,139858,1,8,0:1:0:0:
36,192,139958,1,4,0:1:0:0:
182,192,139958,1,0,0:0:0:0:
329,192,139958,1,0,0:0:0:0:
256,192,139958,1,0,0:0:0:0:
402,192,140058,1,0,0:0:0:0:
36,192,140158,1,8,0:1:0:0:
182,192,140158,1,0,0:0:0:0:
475,192,140158,1,0,0:0:0:0:
402,192,140258,1,0,0:0:0:0:
36,192,140358,1,12,0:1:0:0:
182,192,140358,1,4,0:1:0:0:
329,192,140358,1,0,0:0:0:0:
256,192,140458,1,0,0:0:0:0:
36,192,140558,1,0,0:0:0:0:
182,192,140558,1,0,0:0:0:0:
329,192,140558,1,0,0:0:0:0:
402,192,140658,1,8,0:1:0:0:
36,192,140758,1,4,0:1:0:0:
182,192,140758,1,0,0:0:0:0:
329,192,140758,1,0,0:0:0:0:
256,192,140758,1,0,0:0:0:0:
402,192,140858,1,0,0:0:0:0:
182,192,140958,1,8,0:1:0:0:
36,192,140958,1,0,0:0:0:0:
475,192,140958,1,0,0:0:0:0:
402,192,141058,1,0,0:0:0:0:
182,192,141158,1,12,0:1:0:0:
36,192,141158,1,8,0:1:0:0:
329,192,141158,1,0,0:0:0:0:
256,192,141158,1,0,0:0:0:0:
109,192,141258,1,0,0:0:0:0:
475,192,141258,1,0,0:0:0:0:
402,192,141358,1,4,0:1:0:0:
329,192,141358,1,0,0:0:0:0:
182,192,141358,1,0,0:0:0:0:
256,192,141458,1,8,0:1:0:0:
109,192,141458,1,0,0:0:0:0:
36,192,141458,1,0,0:0:0:0:
182,192,141558,1,4,0:1:0:0:
402,192,141558,1,0,0:0:0:0:
475,192,141558,1,0,0:0:0:0:
109,192,141658,1,0,0:0:0:0:
329,192,141658,1,0,0:0:0:0:
36,192,141758,1,8,0:1:0:0:
256,192,141758,1,4,0:1:0:0:
402,192,141758,1,0,0:0:0:0:
329,192,141858,1,0,0:0:0:0:
182,192,141858,1,0,0:0:0:0:
109,192,141958,1,12,0:1:0:0:
36,192,141958,1,8,0:1:0:0:
475,192,141958,1,0,0:0:0:0:
329,192,142058,1,0,0:0:0:0:
182,192,142058,1,0,0:0:0:0:
109,192,142158,1,4,0:1:0:0:
402,192,142158,1,0,0:0:0:0:
475,192,142158,1,0,0:0:0:0:
329,192,142258,1,8,0:1:0:0:
182,192,142258,1,0,0:0:0:0:
36,192,142258,1,0,0:0:0:0:
109,192,142358,1,4,0:1:0:0:
256,192,142358,1,0,0:0:0:0:
475,192,142358,1,0,0:0:0:0:
402,192,142458,1,0,0:0:0:0:
182,192,142458,1,0,0:0:0:0:
329,192,142558,1,8,0:1:0:0:
109,192,142558,1,4,0:1:0:0:
36,192,142558,1,0,0:0:0:0:
182,192,142658,1,0,0:0:0:0:
402,192,142658,1,0,0:0:0:0:
475,192,142658,1,0,0:0:0:0:
329,192,142758,1,12,0:1:0:0:
256,192,142758,1,4,0:1:0:0:
36,192,142758,1,0,0:0:0:0:
109,192,142858,1,0,0:0:0:0:
402,192,142858,1,0,0:0:0:0:
475,192,142958,1,4,0:1:0:0:
256,192,142958,1,0,0:0:0:0:
329,192,143058,1,8,0:1:0:0:
182,192,143058,1,0,0:0:0:0:
36,192,143058,1,0,0:0:0:0:
109,192,143158,1,4,0:1:0:0:
475,192,143158,1,0,0:0:0:0:
402,192,143158,1,0,0:0:0:0:
329,192,143258,1,0,0:0:0:0:
256,192,143258,1,0,0:0:0:0:
36,192,143258,1,0,0:0:0:0:
109,192,143358,1,8,0:1:0:0:
402,192,143358,1,4,0:1:0:0:
256,192,143458,1,0,0:0:0:0:
475,192,143458,1,0,0:0:0:0:
329,192,143558,1,8,0:1:0:0:
182,192,143558,1,4,0:1:0:0:
36,192,143558,1,0,0:0:0:0:
109,192,143658,1,0,0:0:0:0:
402,192,143658,1,0,0:0:0:0:
475,192,143658,1,0,0:0:0:0:
329,192,143758,1,4,0:1:0:0:
256,192,143758,1,0,0:0:0:0:
182,192,143858,1,8,0:1:0:0:
109,192,143858,1,0,0:0:0:0:
36,192,143858,1,0,0:0:0:0:
256,192,143958,1,4,0:1:0:0:
329,192,143958,1,0,0:0:0:0:
182,192,144058,1,0,0:0:0:0:
36,192,144058,1,0,0:0:0:0:
402,192,144058,1,0,0:0:0:0:
109,192,144158,1,8,0:1:0:0:
256,192,144158,1,4,0:1:0:0:
475,192,144158,1,0,0:0:0:0:
402,192,144258,1,0,0:0:0:0:
329,192,144258,1,0,0:0:0:0:
182,192,144258,1,0,0:0:0:0:
256,192,144358,1,8,0:1:0:0:
36,192,144358,1,4,0:1:0:0:
475,192,144358,1,0,0:0:0:0:
109,192,144358,1,0,0:0:0:0:
182,192,144558,1,0,0:0:0:0:
329,192,144558,1,0,0:0:0:0:
475,192,144758,1,8,0:1:0:0:
256,192,144758,1,0,0:0:0:0:
109,192,144758,1,0,0:0:0:0:
402,192,144758,1,0,0:0:0:0:
182,192,144958,1,0,0:0:0:0:
329,192,144958,1,0,0:0:0:0:
109,192,145158,1,0,0:0:0:0:
256,192,145158,1,0,0:0:0:0:
402,192,145158,1,0,0:0:0:0:
182,192,145358,1,0,0:0:0:0:
329,192,145358,1,0,0:0:0:0:
256,192,145558,1,8,0:1:0:0:
36,192,145558,1,0,0:0:0:0:
475,192,145558,1,0,0:0:0:0:
329,192,145758,1,0,0:0:0:0:
182,192,145758,1,0,0:0:0:0:
402,192,145958,1,0,0:0:0:0:
109,192,145958,1,0,0:0:0:0:
36,192,145958,1,0,0:0:0:0:
256,192,145958,1,0,0:0:0:0:
329,192,146158,1,0,0:0:0:0:
182,192,146158,1,0,0:0:0:0:
256,192,146358,1,8,0:1:0:0:
402,192,146358,1,0,0:0:0:0:
475,192,146358,1,0,0:0:0:0:
109,192,146358,1,0,0:0:0:0:
329,192,146558,1,0,0:0:0:0:
182,192,146558,1,0,0:0:0:0:
256,192,146758,1,0,0:0:0:0:
402,192,146758,1,0,0:0:0:0:
109,192,146758,1,0,0:0:0:0:
329,192,146958,1,0,0:0:0:0:
182,192,146958,1,0,0:0:0:0:
402,192,147158,1,8,0:1:0:0:
256,192,147158,1,0,0:0:0:0:
109,192,147158,1,0,0:0:0:0:
36,192,147158,1,0,0:0:0:0:
329,192,147358,1,0,0:0:0:0:
182,192,147358,1,0,0:0:0:0:
256,192,147458,1,0,0:0:0:0:
402,192,147558,1,0,0:0:0:0:
475,192,147558,1,0,0:0:0:0:
109,192,147558,1,0,0:0:0:0:
36,192,147558,1,0,0:0:0:0:
256,192,147558,1,0,0:0:0:0:
329,192,147758,1,0,0:0:0:0:
182,192,147758,1,0,0:0:0:0:
36,192,147958,1,8,0:1:0:0:
109,192,147958,1,0,0:0:0:0:
256,192,147958,1,0,0:0:0:0:
182,192,148058,1,0,0:0:0:0:
256,192,148158,1,0,0:0:0:0:
329,192,148258,1,0,0:0:0:0:
475,192,148358,1,0,0:0:0:0:
402,192,148358,1,0,0:0:0:0:
329,192,148558,1,0,0:0:0:0:
182,192,148558,1,0,0:0:0:0:
109,192,148758,1,8,0:1:0:0:
36,192,148758,1,0,0:0:0:0:
256,192,148758,1,0,0:0:0:0:
182,192,148858,1,0,0:0:0:0:
256,192,148958,1,0,0:0:0:0:
329,192,149058,1,0,0:0:0:0:
402,192,149158,1,0,0:0:0:0:
475,192,149158,1,0,0:0:0:0:
109,192,149158,1,0,0:0:0:0:
36,192,149158,1,0,0:0:0:0:
256,192,149258,1,0,0:0:0:0:
182,192,149258,1,0,0:0:0:0:
329,192,149358,5,0,0:0:0:0:
256,192,149458,1,0,0:0:0:0:
182,192,149558,1,8,0:1:0:0:
36,192,149558,1,0,0:0:0:0:
109,192,149558,1,0,0:0:0:0:
329,192,149658,1,0,0:0:0:0:
182,192,149758,1,0,0:0:0:0:
329,192,149858,1,0,0:0:0:0:
402,192,149958,1,0,0:0:0:0:
475,192,149958,1,0,0:0:0:0:
109,192,149958,1,0,0:0:0:0:
329,192,150058,1,0,0:0:0:0:
36,192,150058,1,0,0:0:0:0:
256,192,150158,1,0,0:0:0:0:
182,192,150258,1,0,0:0:0:0:
36,192,150358,1,8,0:1:0:0:
109,192,150358,1,0,0:0:0:0:
402,192,150358,1,0,0:0:0:0:
182,192,150458,1,0,0:0:0:0:
329,192,150458,1,0,0:0:0:0:
402,192,150558,1,0,0:0:0:0:
256,192,150558,1,0,0:0:0:0:
36,192,150558,1,0,0:0:0:0:
329,192,150658,1,0,0:0:0:0:
182,192,150658,1,0,0:0:0:0:
475,192,150758,5,0,0:0:0:0:
109,192,150758,1,0,0:0:0:0:
256,192,150758,1,0,0:0:0:0:
36,192,150758,1,0,0:0:0:0:
329,192,150858,1,0,0:0:0:0:
256,192,150958,1,0,0:0:0:0:
182,192,150958,1,0,0:0:0:0:
36,192,150958,1,0,0:0:0:0:
329,192,151058,1,0,0:0:0:0:
475,192,151158,1,8,0:1:0:0:
402,192,151158,1,0,0:0:0:0:
109,192,151158,1,0,0:0:0:0:
182,192,151258,1,0,0:0:0:0:
36,192,151358,1,0,0:0:0:0:
329,192,151358,1,0,0:0:0:0:
402,192,151458,1,0,0:0:0:0:
182,192,151458,1,0,0:0:0:0:
475,192,151558,1,0,0:0:0:0:
36,192,151558,1,0,0:0:0:0:
109,192,151558,1,0,0:0:0:0:
329,192,151658,1,0,0:0:0:0:
256,192,151658,1,0,0:0:0:0:
182,192,151758,1,0,0:0:0:0:
402,192,151758,1,0,0:0:0:0:
475,192,151858,1,0,0:0:0:0:
256,192,151858,1,0,0:0:0:0:
36,192,151858,1,0,0:0:0:0:
182,192,151958,1,8,0:1:0:0:
402,192,151958,1,0,0:0:0:0:
329,192,152058,1,0,0:0:0:0:
475,192,152058,1,0,0:0:0:0:
109,192,152058,1,0,0:0:0:0:
182,192,152158,1,0,0:0:0:0:
36,192,152258,1,0,0:0:0:0:
256,192,152258,1,0,0:0:0:0:
475,192,152258,1,0,0:0:0:0:
402,192,152358,1,0,0:0:0:0:
182,192,152358,1,0,0:0:0:0:
109,192,152458,1,0,0:0:0:0:
256,192,152458,1,0,0:0:0:0:
329,192,152458,1,0,0:0:0:0:
182,192,152558,1,0,0:0:0:0:
402,192,152558,1,0,0:0:0:0:
475,192,152658,1,0,0:0:0:0:
329,192,152658,1,0,0:0:0:0:
36,192,152658,1,0,0:0:0:0:
182,192,152758,1,8,0:1:0:0:
256,192,152858,1,0,0:0:0:0:
329,192,152858,1,0,0:0:0:0:
109,192,152858,1,0,0:0:0:0:
182,192,152958,1,0,0:0:0:0:
402,192,152958,1,0,0:0:0:0:
329,192,153058,1,0,0:0:0:0:
475,192,153058,1,0,0:0:0:0:
36,192,153058,1,0,0:0:0:0:
182,192,153158,1,0,0:0:0:0:
256,192,153258,1,0,0:0:0:0:
329,192,153258,1,0,0:0:0:0:
109,192,153258,1,0,0:0:0:0:
402,192,153358,1,0,0:0:0:0:
182,192,153358,1,0,0:0:0:0:
475,192,153358,1,0,0:0:0:0:
256,192,153458,1,0,0:0:0:0:
109,192,153458,1,0,0:0:0:0:
402,192,153558,1,8,0:1:0:0:
329,192,153558,1,0,0:0:0:0:
36,192,153558,1,0,0:0:0:0:
256,192,153658,1,0,0:0:0:0:
109,192,153658,1,0,0:0:0:0:
182,192,153758,1,0,0:0:0:0:
329,192,153758,1,0,0:0:0:0:
475,192,153758,1,0,0:0:0:0:
109,192,153858,1,0,0:0:0:0:
36,192,153958,1,0,0:0:0:0:
329,192,153958,1,0,0:0:0:0:
402,192,153958,1,0,0:0:0:0:
256,192,154058,1,0,0:0:0:0:
109,192,154058,1,0,0:0:0:0:
182,192,154158,1,0,0:0:0:0:
402,192,154158,1,0,0:0:0:0:
475,192,154158,1,0,0:0:0:0:
256,192,154258,1,0,0:0:0:0:
109,192,154258,1,0,0:0:0:0:
329,192,154358,1,8,0:1:0:0:
475,192,154358,1,0,0:0:0:0:
36,192,154358,1,0,0:0:0:0:
109,192,154458,1,0,0:0:0:0:
182,192,154558,1,0,0:0:0:0:
329,192,154558,1,0,0:0:0:0:
402,192,154558,1,0,0:0:0:0:
256,192,154658,1,0,0:0:0:0:
109,192,154658,1,0,0:0:0:0:
182,192,154758,1,0,0:0:0:0:
36,192,154758,1,0,0:0:0:0:
475,192,154758,1,0,0:0:0:0:
109,192,154858,1,0,0:0:0:0:
256,192,154858,1,0,0:0:0:0:
36,192,154958,1,0,0:0:0:0:
475,192,154958,1,0,0:0:0:0:
182,192,154958,1,0,0:0:0:0:
109,192,155058,1,0,0:0:0:0:
329,192,155058,1,0,0:0:0:0:
256,192,155158,1,8,0:1:0:0:
402,192,155158,1,0,0:0:0:0:
475,192,155158,1,0,0:0:0:0:
329,192,155258,1,0,0:0:0:0:
109,192,155258,1,0,0:0:0:0:
402,192,155358,1,0,0:0:0:0:
182,192,155358,1,0,0:0:0:0:
36,192,155358,1,0,0:0:0:0:
109,192,155458,1,0,0:0:0:0:
329,192,155458,1,0,0:0:0:0:
402,192,155558,1,0,0:0:0:0:
182,192,155558,1,0,0:0:0:0:
36,192,155558,1,0,0:0:0:0:
109,192,155658,1,0,0:0:0:0:
329,192,155658,1,0,0:0:0:0:
475,192,155658,1,0,0:0:0:0:
402,192,155758,1,0,0:0:0:0:
256,192,155758,1,0,0:0:0:0:
329,192,155858,1,0,0:0:0:0:
182,192,155858,1,0,0:0:0:0:
36,192,155858,1,0,0:0:0:0:
109,192,155958,1,8,0:1:0:0:
402,192,155958,1,0,0:0:0:0:
475,192,155958,1,0,0:0:0:0:
256,192,156058,1,0,0:0:0:0:
182,192,156058,1,0,0:0:0:0:
36,192,156058,1,0,0:0:0:0:
329,192,156158,1,0,0:0:0:0:
109,192,156158,1,0,0:0:0:0:
402,192,156258,1,0,0:0:0:0:
475,192,156258,1,0,0:0:0:0:
182,192,156258,1,0,0:0:0:0:
256,192,156358,1,0,0:0:0:0:
109,192,156358,1,0,0:0:0:0:
36,192,156358,1,0,0:0:0:0:
475,192,156458,1,0,0:0:0:0:
402,192,156458,1,0,0:0:0:0:
329,192,156458,1,0,0:0:0:0:
256,192,156558,1,0,0:0:0:0:
182,192,156558,1,0,0:0:0:0:
109,192,156658,1,0,0:0:0:0:
36,192,156658,1,0,0:0:0:0:
329,192,156658,1,0,0:0:0:0:
402,192,156658,1,0,0:0:0:0:
256,192,156758,1,8,0:1:0:0:
475,192,156758,1,0,0:0:0:0:
402,192,156858,1,0,0:0:0:0:
329,192,156858,1,0,0:0:0:0:
182,192,156858,1,0,0:0:0:0:
36,192,156858,1,0,0:0:0:0:
109,192,156958,1,0,0:0:0:0:
256,192,156958,1,0,0:0:0:0:
475,192,156958,1,0,0:0:0:0:
182,192,157058,1,0,0:0:0:0:
329,192,157058,1,0,0:0:0:0:
402,192,157058,1,0,0:0:0:0:
256,192,157158,128,0,160358:0:0:0:0:
36,192,157158,128,0,157258:0:0:0:0:
109,192,157258,128,0,157358:0:0:0:0:
182,192,157358,128,0,157458:0:0:0:0:
329,192,157458,128,0,157558:0:0:0:0:
402,192,157558,128,8,157658:0:1:0:0:
475,192,157658,128,0,157758:0:0:0:0:
402,192,157758,128,0,157858:0:0:0:0:
329,192,157858,128,0,157958:0:0:0:0:
182,192,157958,128,0,158058:0:0:0:0:
109,192,158058,128,0,158158:0:0:0:0:
36,192,158158,128,0,158258:0:0:0:0:
109,192,158258,128,0,158358:0:0:0:0:
182,192,158358,128,8,158458:0:1:0:0:
329,192,158458,128,0,158558:0:0:0:0:
402,192,158558,128,0,158658:0:0:0:0:
109,192,158658,128,0,158758:0:0:0:0:
475,192,158758,128,0,158858:0:0:0:0:
36,192,158858,128,0,158958:0:0:0:0:
402,192,158958,128,0,159058:0:0:0:0:
109,192,159058,128,0,159158:0:0:0:0:
329,192,159158,128,8,159258:0:1:0:0:
182,192,159258,128,0,159358:0:0:0:0:
402,192,159358,128,0,159458:0:0:0:0:
109,192,159458,128,0,159558:0:0:0:0:
475,192,159558,128,0,159658:0:0:0:0:
36,192,159658,128,0,159758:0:0:0:0:
402,192,159758,128,0,159858:0:0:0:0:
109,192,159858,128,0,159958:0:0:0:0:
329,192,159958,128,8,160058:0:1:0:0:
182,192,160058,128,0,160158:0:0:0:0:
402,192,160158,128,0,160258:0:0:0:0:
109,192,160258,128,0,160358:0:0:0:0:
329,192,160358,1,4,0:1:0:0:
475,192,160358,128,0,160758:0:0:0:0:
182,192,160358,1,0,0:0:0:0:
36,192,160458,1,0,0:0:0:0:
182,192,160558,1,0,0:0:0:0:
329,192,160758,128,8,160958:0:1:0:0:
36,192,160758,1,0,0:0:0:0:
109,192,160858,1,0,0:0:0:0:
402,192,160958,128,0,161158:0:0:0:0:
182,192,160958,1,0,0:0:0:0:
329,192,161158,128,0,161558:0:0:0:0:
36,192,161158,1,0,0:0:0:0:
182,192,161258,1,0,0:0:0:0:
475,192,161358,1,0,0:0:0:0:
475,192,161558,128,8,161958:0:1:0:0:
109,192,161558,1,0,0:0:0:0:
182,192,161658,1,0,0:0:0:0:
256,192,161758,1,0,0:0:0:0:
329,192,161958,128,0,162758:0:0:0:0:
182,192,161958,1,0,0:0:0:0:
36,192,162058,1,0,0:0:0:0:
109,192,162158,1,0,0:0:0:0:
182,192,162358,1,8,0:1:0:0:
475,192,162458,1,0,0:0:0:0:
256,192,162558,1,0,0:0:0:0:
109,192,162758,1,0,0:0:0:0:
182,192,162858,1,0,0:0:0:0:
256,192,162958,1,0,0:0:0:0:
475,192,163158,1,8,0:1:0:0:
256,192,163158,1,0,0:0:0:0:
36,192,163258,128,0,163558:0:0:0:0:
402,192,163258,1,0,0:0:0:0:
109,192,163358,128,0,163458:0:0:0:0:
329,192,163358,1,0,0:0:0:0:
182,192,163458,128,0,163558:0:0:0:0:
109,192,163558,1,4,0:1:0:0:
329,192,163558,1,0,0:0:0:0:
475,192,163558,128,0,163958:0:0:0:0:
256,192,163658,1,0,0:0:0:0:
182,192,163758,1,0,0:0:0:0:
109,192,163958,128,8,164158:0:1:0:0:
256,192,163958,1,0,0:0:0:0:
402,192,164058,1,0,0:0:0:0:
36,192,164158,128,0,164358:0:0:0:0:
329,192,164158,1,0,0:0:0:0:
109,192,164358,128,0,164758:0:0:0:0:
256,192,164358,1,0,0:0:0:0:
402,192,164458,1,0,0:0:0:0:
329,192,164558,1,0,0:0:0:0:
182,192,164758,128,8,165158:0:1:0:0:
402,192,164758,1,0,0:0:0:0:
256,192,164858,1,0,0:0:0:0:
36,192,164958,1,0,0:0:0:0:
36,192,165158,128,0,165958:0:0:0:0:
402,192,165158,1,0,0:0:0:0:
256,192,165258,1,0,0:0:0:0:
109,192,165358,1,0,0:0:0:0:
475,192,165558,1,8,0:1:0:0:
329,192,165658,1,0,0:0:0:0:
182,192,165758,1,0,0:0:0:0:
475,192,165958,1,0,0:0:0:0:
402,192,166058,1,0,0:0:0:0:
329,192,166158,1,0,0:0:0:0:
36,192,166258,1,0,0:0:0:0:
256,192,166258,1,0,0:0:0:0:
109,192,166358,1,8,0:1:0:0:
329,192,166358,1,0,0:0:0:0:
475,192,166458,128,0,166758:0:0:0:0:
182,192,166458,1,0,0:0:0:0:
402,192,166558,128,0,166658:0:0:0:0:
109,192,166558,1,0,0:0:0:0:
36,192,166658,1,0,0:0:0:0:
329,192,166658,128,0,166758:0:0:0:0:
402,192,166758,1,4,0:1:0:0:
109,192,166758,1,0,0:0:0:0:
256,192,166758,128,0,167158:0:0:0:0:
182,192,166858,1,0,0:0:0:0:
475,192,166958,1,0,0:0:0:0:
402,192,167158,128,8,167358:0:1:0:0:
36,192,167158,1,0,0:0:0:0:
109,192,167258,1,0,0:0:0:0:
475,192,167358,128,0,167558:0:0:0:0:
256,192,167358,1,0,0:0:0:0:
402,192,167558,128,0,167958:0:0:0:0:
36,192,167558,1,0,0:0:0:0:
109,192,167658,1,0,0:0:0:0:
182,192,167758,1,0,0:0:0:0:
329,192,167958,128,8,168358:0:1:0:0:
109,192,167958,1,0,0:0:0:0:
182,192,168058,1,0,0:0:0:0:
256,192,168158,1,0,0:0:0:0:
402,192,168258,1,0,0:0:0:0:
256,192,168358,128,4,169158:0:1:0:0:
475,192,168358,1,0,0:0:0:0:
402,192,168458,1,0,0:0:0:0:
329,192,168558,1,0,0:0:0:0:
182,192,168658,1,0,0:0:0:0:
109,192,168758,1,8,0:1:0:0:
475,192,168758,1,0,0:0:0:0:
36,192,168858,1,0,0:0:0:0:
109,192,168958,1,0,0:0:0:0:
182,192,169058,1,0,0:0:0:0:
329,192,169158,1,0,0:0:0:0:
475,192,169158,1,0,0:0:0:0:
182,192,169258,1,0,0:0:0:0:
109,192,169358,1,0,0:0:0:0:
402,192,169358,1,0,0:0:0:0:
36,192,169458,1,0,0:0:0:0:
329,192,169558,1,8,0:1:0:0:
475,192,169558,1,0,0:0:0:0:
109,192,169558,1,0,0:0:0:0:
182,192,169658,1,0,0:0:0:0:
109,192,169758,1,0,0:0:0:0:
402,192,169758,1,0,0:0:0:0:
256,192,169758,1,0,0:0:0:0:
36,192,169858,1,0,0:0:0:0:
109,192,169958,1,4,0:1:0:0:
329,192,169958,1,0,0:0:0:0:
475,192,169958,1,0,0:0:0:0:
182,192,170058,1,0,0:0:0:0:
256,192,170158,1,0,0:0:0:0:
402,192,170158,1,0,0:0:0:0:
36,192,170258,1,0,0:0:0:0:
109,192,170358,1,8,0:1:0:0:
329,192,170358,1,0,0:0:0:0:
475,192,170358,1,0,0:0:0:0:
182,192,170458,1,0,0:0:0:0:
256,192,170558,1,0,0:0:0:0:
402,192,170558,1,0,0:0:0:0:
36,192,170658,1,0,0:0:0:0:
109,192,170758,1,4,0:1:0:0:
329,192,170758,1,0,0:0:0:0:
475,192,170758,1,0,0:0:0:0:
182,192,170858,1,0,0:0:0:0:
256,192,170958,1,0,0:0:0:0:
402,192,170958,1,0,0:0:0:0:
475,192,171058,1,0,0:0:0:0:
402,192,171158,1,8,0:1:0:0:
182,192,171158,1,0,0:0:0:0:
36,192,171158,1,0,0:0:0:0:
329,192,171258,1,0,0:0:0:0:
256,192,171358,1,0,0:0:0:0:
109,192,171358,1,0,0:0:0:0:
475,192,171458,1,0,0:0:0:0:
402,192,171558,1,4,0:1:0:0:
182,192,171558,1,0,0:0:0:0:
36,192,171558,1,0,0:0:0:0:
329,192,171658,1,0,0:0:0:0:
256,192,171758,1,0,0:0:0:0:
109,192,171758,1,0,0:0:0:0:
475,192,171858,1,0,0:0:0:0:
402,192,171958,1,8,0:1:0:0:
182,192,171958,1,4,0:1:0:0:
36,192,171958,1,0,0:0:0:0:
329,192,172058,1,0,0:0:0:0:
256,192,172158,1,0,0:0:0:0:
109,192,172158,1,0,0:0:0:0:
36,192,172258,1,0,0:0:0:0:
109,192,172358,1,4,0:1:0:0:
256,192,172358,1,0,0:0:0:0:
402,192,172358,1,0,0:0:0:0:
329,192,172458,1,0,0:0:0:0:
475,192,172458,1,0,0:0:0:0:
402,192,172558,1,0,0:0:0:0:
256,192,172558,1,0,0:0:0:0:
329,192,172658,1,0,0:0:0:0:
182,192,172658,1,0,0:0:0:0:
109,192,172758,1,8,0:1:0:0:
256,192,172758,1,4,0:1:0:0:
402,192,172758,1,0,0:0:0:0:
329,192,172858,1,0,0:0:0:0:
182,192,172858,1,0,0:0:0:0:
256,192,172958,1,0,0:0:0:0:
109,192,172958,1,0,0:0:0:0:
182,192,173058,1,0,0:0:0:0:
36,192,173058,1,0,0:0:0:0:
256,192,173158,1,4,0:1:0:0:
109,192,173158,1,0,0:0:0:0:
402,192,173158,1,0,0:0:0:0:
475,192,173158,128,0,173558:0:0:0:0:
182,192,173258,1,0,0:0:0:0:
36,192,173358,1,0,0:0:0:0:
402,192,173558,128,8,173758:0:1:0:0:
256,192,173558,1,0,0:0:0:0:
109,192,173658,1,0,0:0:0:0:
329,192,173758,128,0,173958:0:0:0:0:
36,192,173758,1,0,0:0:0:0:
402,192,173958,128,0,174358:0:0:0:0:
109,192,173958,1,0,0:0:0:0:
182,192,174058,1,0,0:0:0:0:
36,192,174158,1,0,0:0:0:0:
475,192,174358,128,8,174758:0:1:0:0:
256,192,174358,1,0,0:0:0:0:
182,192,174458,1,0,0:0:0:0:
36,192,174558,1,0,0:0:0:0:
329,192,174758,128,0,175558:0:0:0:0:
109,192,174758,1,0,0:0:0:0:
182,192,174858,1,0,0:0:0:0:
402,192,174958,1,0,0:0:0:0:
36,192,175158,1,8,0:1:0:0:
256,192,175158,1,0,0:0:0:0:
182,192,175258,1,0,0:0:0:0:
402,192,175358,1,0,0:0:0:0:
36,192,175558,1,0,0:0:0:0:
109,192,175658,1,0,0:0:0:0:
182,192,175758,1,0,0:0:0:0:
182,192,175958,1,8,0:1:0:0:
475,192,175958,1,0,0:0:0:0:
36,192,176058,128,0,176358:0:0:0:0:
402,192,176058,1,0,0:0:0:0:
109,192,176158,128,0,176258:0:0:0:0:
329,192,176158,1,0,0:0:0:0:
182,192,176258,128,0,176358:0:0:0:0:
109,192,176358,1,4,0:1:0:0:
475,192,176358,128,0,176758:0:0:0:0:
256,192,176458,1,0,0:0:0:0:
329,192,176558,1,0,0:0:0:0:
109,192,176758,128,8,176958:0:1:0:0:
256,192,176758,1,0,0:0:0:0:
402,192,176858,1,0,0:0:0:0:
36,192,176958,128,0,177158:0:0:0:0:
329,192,176958,1,0,0:0:0:0:
109,192,177158,128,0,177558:0:0:0:0:
256,192,177158,1,0,0:0:0:0:
475,192,177258,1,0,0:0:0:0:
329,192,177358,1,0,0:0:0:0:
182,192,177558,128,8,177958:0:1:0:0:
475,192,177558,1,0,0:0:0:0:
329,192,177658,1,0,0:0:0:0:
36,192,177758,1,0,0:0:0:0:
256,192,177958,128,4,178758:0:1:0:0:
475,192,177958,1,0,0:0:0:0:
329,192,178058,1,0,0:0:0:0:
109,192,178158,1,0,0:0:0:0:
402,192,178358,1,8,0:1:0:0:
182,192,178458,1,0,0:0:0:0:
36,192,178558,1,0,0:0:0:0:
109,192,178758,1,4,0:1:0:0:
475,192,178758,1,0,0:0:0:0:
402,192,178858,1,0,0:0:0:0:
329,192,178958,1,0,0:0:0:0:
36,192,178958,1,0,0:0:0:0:
109,192,179058,1,0,0:0:0:0:
182,192,179158,1,8,0:1:0:0:
402,192,179158,1,4,0:1:0:0:
475,192,179258,128,0,179558:0:0:0:0:
329,192,179258,1,0,0:0:0:0:
402,192,179358,128,0,179458:0:0:0:0:
256,192,179358,1,0,0:0:0:0:
329,192,179458,128,0,179558:0:0:0:0:
182,192,179458,1,0,0:0:0:0:
402,192,179558,1,4,0:1:0:0:
36,192,179558,128,0,179958:0:0:0:0:
256,192,179658,1,0,0:0:0:0:
182,192,179758,1,0,0:0:0:0:
402,192,179958,128,8,180158:0:1:0:0:
256,192,179958,1,0,0:0:0:0:
182,192,180058,1,0,0:0:0:0:
475,192,180158,128,0,180358:0:0:0:0:
36,192,180158,1,0,0:0:0:0:
109,192,180258,1,0,0:0:0:0:
402,192,180358,128,0,180758:0:0:0:0:
256,192,180358,1,0,0:0:0:0:
182,192,180458,1,0,0:0:0:0:
36,192,180558,1,0,0:0:0:0:
329,192,180758,128,8,181158:0:1:0:0:
109,192,180758,1,0,0:0:0:0:
256,192,180858,1,0,0:0:0:0:
475,192,180958,1,0,0:0:0:0:
182,192,181058,1,0,0:0:0:0:
256,192,181158,128,4,181958:0:1:0:0:
36,192,181158,1,0,0:0:0:0:
182,192,181258,1,0,0:0:0:0:
402,192,181358,1,0,0:0:0:0:
109,192,181458,1,0,0:0:0:0:
36,192,181558,1,8,0:1:0:0:
475,192,181558,1,0,0:0:0:0:
402,192,181658,1,0,0:0:0:0:
329,192,181758,1,0,0:0:0:0:
182,192,181858,1,0,0:0:0:0:
36,192,181958,1,0,0:0:0:0:
402,192,181958,1,0,0:0:0:0:
109,192,182058,1,0,0:0:0:0:
182,192,182158,1,0,0:0:0:0:
475,192,182158,1,0,0:0:0:0:
256,192,182258,1,0,0:0:0:0:
329,192,182358,1,8,0:1:0:0:
109,192,182358,1,0,0:0:0:0:
36,192,182458,128,0,182758:0:0:0:0:
402,192,182458,1,0,0:0:0:0:
256,192,182558,128,0,182758:0:0:0:0:
109,192,182558,1,0,0:0:0:0:
475,192,182658,128,0,182758:0:0:0:0:
329,192,182658,1,0,0:0:0:0:
109,192,182858,1,0,0:0:0:0:
402,192,182858,1,0,0:0:0:0:
329,192,182958,1,0,0:0:0:0:
182,192,182958,1,0,0:0:0:0:
256,192,183158,1,8,0:1:0:0:
402,192,183158,1,0,0:0:0:0:
109,192,183158,1,0,0:0:0:0:
475,192,183358,1,0,0:0:0:0:
329,192,183358,1,0,0:0:0:0:
402,192,183458,1,0,0:0:0:0:
256,192,183458,1,0,0:0:0:0:
329,192,183558,1,4,0:1:0:0:
109,192,183558,1,0,0:0:0:0:
36,192,183558,1,0,0:0:0:0:
402,192,183658,1,0,0:0:0:0:
182,192,183658,1,0,0:0:0:0:
402,192,183858,1,0,0:0:0:0:
182,192,183858,1,0,0:0:0:0:
329,192,183958,1,8,0:1:0:0:
109,192,183958,1,0,0:0:0:0:
36,192,183958,1,0,0:0:0:0:
475,192,184158,1,0,0:0:0:0:
402,192,184158,1,0,0:0:0:0:
36,192,184158,1,0,0:0:0:0:
109,192,184258,1,0,0:0:0:0:
182,192,184358,1,4,0:1:0:0:
402,192,184358,1,0,0:0:0:0:
475,192,184358,1,0,0:0:0:0:
256,192,184458,1,0,0:0:0:0:
329,192,184558,1,0,0:0:0:0:
402,192,184658,1,0,0:0:0:0:
475,192,184758,1,8,0:1:0:0:
109,192,184758,1,4,0:1:0:0:
182,192,184758,1,0,0:0:0:0:
402,192,184858,1,0,0:0:0:0:
329,192,184958,1,0,0:0:0:0:
109,192,184958,1,0,0:0:0:0:
36,192,184958,1,0,0:0:0:0:
256,192,185058,1,0,0:0:0:0:
182,192,185158,1,4,0:1:0:0:
402,192,185158,1,0,0:0:0:0:
475,192,185158,1,0,0:0:0:0:
109,192,185258,1,0,0:0:0:0:
402,192,185358,1,0,0:0:0:0:
475,192,185358,1,0,0:0:0:0:
182,192,185358,1,0,0:0:0:0:
256,192,185458,1,0,0:0:0:0:
329,192,185558,1,8,0:1:0:0:
109,192,185558,1,4,0:1:0:0:
36,192,185558,1,0,0:0:0:0:
402,192,185658,1,0,0:0:0:0:
475,192,185758,1,0,0:0:0:0:
182,192,185758,1,0,0:0:0:0:
36,192,185758,1,0,0:0:0:0:
182,192,185858,1,0,0:0:0:0:
36,192,185858,1,0,0:0:0:0:
402,192,185858,1,0,0:0:0:0:
182,192,185958,1,4,0:1:0:0:
36,192,185958,1,0,0:0:0:0:
329,192,185958,1,0,0:0:0:0:
475,192,185958,128,0,186058:0:0:0:0:
402,192,186158,128,0,186258:0:0:0:0:
109,192,186158,1,0,0:0:0:0:
475,192,186358,128,8,186458:0:1:0:0:
329,192,186358,1,0,0:0:0:0:
36,192,186358,1,0,0:0:0:0:
329,192,186558,128,0,186658:0:0:0:0:
182,192,186558,1,0,0:0:0:0:
402,192,186658,128,0,186758:0:0:0:0:
256,192,186758,1,0,0:0:0:0:
36,192,186758,1,0,0:0:0:0:
475,192,186858,128,0,186958:0:0:0:0:
109,192,186958,1,0,0:0:0:0:
329,192,187058,128,0,187158:0:0:0:0:
402,192,187158,128,8,187258:0:1:0:0:
256,192,187158,1,0,0:0:0:0:
36,192,187158,1,0,0:0:0:0:
182,192,187358,128,0,187458:0:0:0:0:
329,192,187358,1,0,0:0:0:0:
109,192,187458,128,0,187558:0:0:0:0:
36,192,187558,128,0,187658:0:0:0:0:
256,192,187558,1,0,0:0:0:0:
402,192,187558,1,0,0:0:0:0:
475,192,187758,128,0,187858:0:0:0:0:
256,192,187758,1,0,0:0:0:0:
402,192,187958,128,8,188058:0:1:0:0:
182,192,187958,1,0,0:0:0:0:
36,192,187958,1,0,0:0:0:0:
329,192,188158,128,0,188258:0:0:0:0:
109,192,188158,1,0,0:0:0:0:
402,192,188258,128,0,188358:0:0:0:0:
256,192,188358,1,0,0:0:0:0:
36,192,188358,1,0,0:0:0:0:
475,192,188458,128,0,188558:0:0:0:0:
329,192,188558,1,0,0:0:0:0:
402,192,188658,128,0,188758:0:0:0:0:
329,192,188758,128,8,188858:0:1:0:0:
182,192,188758,1,0,0:0:0:0:
36,192,188758,1,0,0:0:0:0:
256,192,188858,128,0,188958:0:0:0:0:
182,192,188958,128,0,189058:0:0:0:0:
475,192,188958,1,0,0:0:0:0:
109,192,189058,128,0,189158:0:0:0:0:
36,192,189158,128,0,189258:0:0:0:0:
402,192,189158,1,0,0:0:0:0:
256,192,189158,1,0,0:0:0:0:
109,192,189358,128,0,189458:0:0:0:0:
329,192,189358,1,0,0:0:0:0:
36,192,189558,128,8,189658:0:1:0:0:
475,192,189558,1,0,0:0:0:0:
256,192,189558,1,0,0:0:0:0:
182,192,189758,128,0,189858:0:0:0:0:
402,192,189758,1,0,0:0:0:0:
109,192,189858,128,0,189958:0:0:0:0:
329,192,189958,1,0,0:0:0:0:
475,192,189958,1,0,0:0:0:0:
36,192,190058,128,0,190158:0:0:0:0:
256,192,190158,1,0,0:0:0:0:
182,192,190258,128,0,190358:0:0:0:0:
109,192,190358,128,8,190458:0:1:0:0:
329,192,190358,1,0,0:0:0:0:
475,192,190358,1,0,0:0:0:0:
256,192,190558,128,0,190658:0:0:0:0:
402,192,190558,1,0,0:0:0:0:
256,192,190758,128,0,191358:0:0:0:0:
475,192,190758,1,0,0:0:0:0:
36,192,190758,1,0,0:0:0:0:
402,192,190958,1,0,0:0:0:0:
329,192,191158,1,8,0:1:0:0:
109,192,191158,1,0,0:0:0:0:
182,192,191358,128,0,191458:0:0:0:0:
475,192,191358,1,0,0:0:0:0:
109,192,191458,128,0,191558:0:0:0:0:
36,192,191558,128,0,191658:0:0:0:0:
402,192,191558,1,0,0:0:0:0:
256,192,191558,1,0,0:0:0:0:
109,192,191658,128,0,191758:0:0:0:0:
182,192,191758,128,0,191858:0:0:0:0:
475,192,191758,1,0,0:0:0:0:
256,192,191858,128,0,191958:0:0:0:0:
329,192,191958,128,8,192358:0:1:0:0:
36,192,191958,1,0,0:0:0:0:
402,192,191958,1,0,0:0:0:0:
109,192,192158,1,0,0:0:0:0:
475,192,192358,128,4,192458:0:1:0:0:
256,192,192358,1,0,0:0:0:0:
36,192,192358,1,0,0:0:0:0:
402,192,192558,128,0,192658:0:0:0:0:
109,192,192558,1,0,0:0:0:0:
475,192,192758,128,8,192858:0:1:0:0:
329,192,192758,1,0,0:0:0:0:
182,192,192758,1,0,0:0:0:0:
329,192,192958,128,0,193058:0:0:0:0:
109,192,192958,1,0,0:0:0:0:
402,192,193058,128,0,193158:0:0:0:0:
256,192,193158,1,0,0:0:0:0:
36,192,193158,1,0,0:0:0:0:
475,192,193258,128,0,193358:0:0:0:0:
109,192,193358,1,0,0:0:0:0:
329,192,193458,128,0,193558:0:0:0:0:
402,192,193558,128,8,193658:0:1:0:0:
256,192,193558,1,0,0:0:0:0:
36,192,193558,1,0,0:0:0:0:
182,192,193758,128,0,193858:0:0:0:0:
329,192,193758,1,0,0:0:0:0:
109,192,193858,128,0,193958:0:0:0:0:
36,192,193958,128,4,194058:0:1:0:0:
475,192,193958,1,0,0:0:0:0:
256,192,193958,1,0,0:0:0:0:
109,192,194158,128,0,194258:0:0:0:0:
402,192,194158,1,0,0:0:0:0:
36,192,194358,128,0,194458:0:1:0:0:
256,192,194358,1,0,0:0:0:0:
475,192,194358,1,0,0:0:0:0:
182,192,194558,128,0,194658:0:0:0:0:
329,192,194558,1,0,0:0:0:0:
109,192,194658,128,0,194758:0:0:0:0:
256,192,194758,1,0,0:0:0:0:
402,192,194758,1,0,0:0:0:0:
36,192,194858,128,0,194958:0:0:0:0:
329,192,194958,1,0,0:0:0:0:
109,192,195058,128,0,195158:0:0:0:0:
182,192,195158,128,0,195258:0:1:0:0:
475,192,195158,1,0,0:0:0:0:
329,192,195158,1,0,0:0:0:0:
256,192,195258,128,0,195358:0:0:0:0:
329,192,195358,128,0,195458:0:0:0:0:
36,192,195358,1,0,0:0:0:0:
402,192,195458,128,0,195558:0:0:0:0:
475,192,195558,128,4,195658:0:1:0:0:
256,192,195558,1,0,0:0:0:0:
109,192,195558,1,0,0:0:0:0:
36,192,195658,1,0,0:0:0:0:
402,192,195758,128,0,195858:0:0:0:0:
109,192,195758,1,0,0:0:0:0:
182,192,195858,1,0,0:0:0:0:
475,192,195958,128,0,196058:0:1:0:0:
256,192,195958,1,0,0:0:0:0:
182,192,196058,1,0,0:0:0:0:
329,192,196158,128,0,196258:0:0:0:0:
109,192,196158,1,0,0:0:0:0:
402,192,196258,128,0,196358:0:0:0:0:
36,192,196258,1,0,0:0:0:0:
109,192,196358,1,4,0:1:0:0:
475,192,196458,128,0,196558:0:0:0:0:
182,192,196458,1,0,0:0:0:0:
256,192,196558,1,0,0:0:0:0:
329,192,196658,128,0,196758:0:0:0:0:
182,192,196658,1,0,0:0:0:0:
475,192,196758,128,0,196858:0:1:0:0:
109,192,196758,1,0,0:0:0:0:
36,192,196858,1,0,0:0:0:0:
256,192,196958,128,0,197058:0:0:0:0:
109,192,196958,1,0,0:0:0:0:
402,192,197058,1,0,0:0:0:0:
475,192,197158,128,4,197258:0:1:0:0:
36,192,197158,128,0,197258:0:0:0:0:
402,192,197258,128,0,197358:0:0:0:0:
109,192,197258,128,0,197358:0:0:0:0:
475,192,197458,128,0,197558:0:0:0:0:
36,192,197458,128,0,197558:0:0:0:0:
329,192,197658,128,0,197758:0:0:0:0:
182,192,197658,128,0,197758:0:0:0:0:
402,192,197758,128,0,197858:0:0:0:0:
109,192,197758,128,0,197858:0:0:0:0:
329,192,197858,128,0,197958:0:0:0:0:
182,192,197858,128,0,197958:0:0:0:0:
36,192,197958,128,4,198058:0:1:0:0:
475,192,197958,128,0,198058:0:0:0:0:
402,192,198058,128,0,198158:0:0:0:0:
109,192,198058,128,0,198158:0:0:0:0:
475,192,198258,128,0,198358:0:0:0:0:
36,192,198258,128,0,198358:0:0:0:0:
329,192,198458,128,0,198558:0:0:0:0:
182,192,198458,128,0,198558:0:0:0:0:
402,192,198558,128,0,198658:0:0:0:0:
109,192,198558,128,0,198658:0:0:0:0:
475,192,198658,128,0,198758:0:0:0:0:
36,192,198658,128,0,198758:0:0:0:0:
256,192,198758,1,0,0:0:0:0:
402,192,198858,1,0,0:0:0:0:
109,192,198858,1,0,0:0:0:0:
475,192,198958,1,0,0:0:0:0:
36,192,198958,1,0,0:0:0:0:
256,192,199058,1,0,0:0:0:0:
402,192,199158,1,0,0:0:0:0:
109,192,199158,1,0,0:0:0:0:
475,192,199258,1,0,0:0:0:0:
36,192,199258,1,0,0:0:0:0:
256,192,199358,1,0,0:0:0:0:
402,192,199458,1,0,0:0:0:0:
475,192,199558,1,0,0:0:0:0:
256,192,199658,1,0,0:0:0:0:
402,192,199758,1,0,0:0:0:0:
475,192,199858,1,0,0:0:0:0:
