osu file format v14

[General]
AudioFilename: 12. Remember me.mp3
AudioLeadIn: 0
PreviewTime: 117160
Countdown: 0
SampleSet: None
StackLeniency: 0.5
Mode: 0
LetterboxInBreaks: 0
EpilepsyWarning: 1
WidescreenStoryboard: 1

[Editor]
Bookmarks: 9960,19558,23408,73758,123858,198758
DistanceSpacing: 1.5
BeatDivisor: 4
GridSize: 4
TimelineZoom: 1.94

[Metadata]
Title:Remember Me
TitleUnicode:Remember Me
Artist:seleP
ArtistUnicode:seleP
Creator:Bara-
Version:Kin's Painful Past
Source:
Tags:Lily Vocaloid Lilium Doll Sele-P 2nd Album UFERIUM Shmiklak Kenterz Kin Fort Avishay cdhsausageboy Reikosaka 17VA Yooh [Shi-Ra] Murder Suicide Yandere
BeatmapID:1208024
BeatmapSetID:110547

[Difficulty]
HPDrainRate:7
CircleSize:4
OverallDifficulty:7
ApproachRate:9
SliderMultiplier:2.2
SliderTickRate:1

[Events]
//Background and Video events
0,0,"KylXWYr.jpg",0,0
//Break Periods
2,91758,97358
2,144758,156558
//Storyboard Layer 0 (Background)
//Storyboard Layer 1 (Fail)
//Storyboard Layer 2 (Pass)
//Storyboard Layer 3 (Foreground)
//Storyboard Sound Samples

[TimingPoints]
358,400,4,1,1,10,1,0
10358,-100,4,1,1,15,0,0
10758,-100,4,1,1,20,0,0
11158,-100,4,1,1,25,0,0
11558,-100,4,1,1,30,0,0
11858,-100,4,2,1,30,0,0
11958,-100,4,1,1,35,0,0
12358,-100,4,1,1,40,0,0
12758,-100,4,1,1,45,0,0
13158,-100,4,1,1,50,0,0
13188,400,4,1,1,70,1,0
17988,-200,4,1,1,70,0,0
18588,-100,4,1,1,70,0,0
19588,-100,4,1,1,50,0,0
19688,-100,4,1,1,70,0,0
21188,-100,4,1,1,50,0,0
21288,-100,4,1,1,70,0,0
22788,-100,4,1,1,60,0,0
22888,-100,4,1,1,70,0,0
24388,-100,4,1,1,50,0,0
24488,-100,4,1,1,70,0,0
26188,-100,4,1,1,60,0,0
32388,-100,4,1,1,50,0,0
32488,-100,4,1,1,60,0,0
36388,-100,4,1,1,50,0,0
36488,-100,4,1,1,60,0,0
37988,-100,4,1,1,40,0,0
38088,-100,4,1,1,60,0,0
38388,-100,4,1,1,50,0,0
38488,-100,4,1,1,60,0,0
48388,-100,4,1,1,50,0,0
48488,-100,4,1,1,60,0,0
50388,-100,4,1,1,40,0,0
50588,-100,4,1,1,60,0,0
50788,-100,4,1,1,50,0,0
51188,-100,4,1,1,40,0,0
51388,-100,4,1,1,60,0,0
53158,400,4,1,1,70,1,1
55458,-100,4,1,1,40,0,1
55658,-100,4,1,1,55,0,1
55758,-100,4,1,1,70,0,1
59558,-100,4,1,1,50,0,1
59658,-100,4,1,1,70,0,1
61158,-100,4,1,1,60,0,1
61258,-100,4,1,1,70,0,1
62758,-100,4,1,1,40,0,1
62858,-100,4,1,1,70,0,1
63558,-100,4,1,1,50,0,1
63658,-100,4,1,1,70,0,1
64358,-100,4,1,1,50,0,1
64458,-100,4,1,1,70,0,1
65158,-100,4,1,1,55,0,1
65258,-100,4,1,1,70,0,1
65558,-100,4,1,1,40,0,1
65658,-100,4,1,1,70,0,1
72358,-100,4,1,1,50,0,1
72458,-100,4,1,1,70,0,1
73958,-100,4,1,1,40,0,1
74058,-100,4,1,1,70,0,1
74858,-100,4,1,1,55,0,1
75058,-100,4,1,1,70,0,1
75558,-100,4,1,1,40,0,1
75658,-100,4,1,1,70,0,1
76358,-100,4,1,1,50,0,1
76458,-100,4,1,1,70,0,1
77158,-100,4,1,1,60,0,1
77258,-100,4,1,1,70,0,1
77958,-100,4,1,1,40,0,1
78058,-100,4,1,1,70,0,1
78758,-100,4,1,1,60,0,0
83558,-200,4,1,1,60,0,0
84158,-100,4,1,1,60,0,0
85158,-100,4,1,1,50,0,0
85258,-100,4,1,1,60,0,0
86758,-100,4,1,1,40,0,0
86858,-100,4,1,1,60,0,0
88358,-100,4,1,1,50,0,0
88458,-100,4,1,1,60,0,0
89958,-100,4,1,1,40,0,0
90058,-100,4,1,1,60,0,0
90758,-100,4,1,1,50,0,0
90858,-100,4,1,1,60,0,0
91558,-100,4,1,1,80,0,0
97958,-133.333333333333,4,2,1,40,0,0
104358,-133.333333333333,4,2,1,50,0,0
110758,-100,4,2,1,60,0,0
118758,-100,4,1,1,70,0,1
125158,-100,4,1,1,40,0,1
125258,-100,4,1,1,70,0,1
128358,-100,4,1,1,50,0,1
128458,-100,4,1,1,70,0,1
129158,-100,4,1,1,50,0,1
129258,-100,4,1,1,70,0,1
129958,-100,4,1,1,50,0,1
130058,-100,4,1,1,70,0,1
130758,-100,4,1,1,40,0,1
130858,-100,4,1,1,70,0,1
131158,-100,4,1,1,70,0,0
131458,-100,4,1,1,70,0,0
131558,-80,4,1,1,70,0,1
133158,-80,4,1,1,40,0,1
133258,-80,4,1,1,70,0,1
134758,-80,4,1,1,50,0,1
134958,-80,4,1,1,70,0,1
136358,-80,4,1,1,40,0,1
136458,-80,4,1,1,70,0,1
137958,-80,4,1,1,50,0,1
138058,-80,4,1,1,70,0,1
138758,-80,4,1,1,50,0,1
138858,-80,4,1,1,70,0,1
139558,-80,4,1,1,50,0,1
139658,-80,4,1,1,70,0,1
140358,-80,4,1,1,50,0,1
140458,-80,4,1,1,70,0,1
141158,-80,4,1,1,60,0,1
141258,-80,4,1,1,70,0,1
141958,-80,4,1,1,50,0,1
142058,-80,4,1,1,70,0,1
142758,-80,4,1,1,60,0,1
142858,-80,4,1,1,70,0,1
143558,-80,4,1,1,60,0,1
143658,-80,4,1,1,70,0,1
144358,-100,4,1,1,80,0,0
157158,-100,4,2,1,30,0,0
160358,-100,4,1,1,70,0,1
162658,-100,4,1,1,40,0,1
162858,-100,4,1,1,55,0,1
162958,-100,4,1,1,70,0,1
166758,-100,4,1,1,50,0,1
166858,-100,4,1,1,70,0,1
168358,-100,4,1,1,60,0,1
168458,-100,4,1,1,70,0,1
169058,-100,4,1,1,40,0,1
169258,-100,4,1,1,55,0,1
169558,-100,4,1,1,70,0,1
169958,-100,4,1,1,50,0,1
170058,-100,4,1,1,70,0,1
170758,-100,4,1,1,50,0,1
170858,-100,4,1,1,70,0,1
171558,-100,4,1,1,50,0,1
171658,-100,4,1,1,70,0,1
172358,-100,4,1,1,40,0,1
172458,-100,4,1,1,70,0,1
172758,-100,4,1,1,40,0,1
172858,-100,4,1,1,70,0,1
173158,-100,4,1,1,70,0,1
175458,-100,4,1,1,40,0,1
175658,-100,4,1,1,55,0,1
175758,-100,4,1,1,70,0,1
178658,-100,4,1,1,55,0,1
178758,-100,4,1,1,70,0,1
179358,-100,4,1,1,55,0,1
179558,-100,4,1,1,50,0,1
179658,-100,4,1,1,70,0,1
181158,-100,4,1,1,50,0,1
181258,-100,4,1,1,70,0,1
181958,-100,4,1,1,40,0,1
182058,-100,4,1,1,55,0,1
182358,-100,4,1,1,70,0,1
182758,-100,4,1,1,50,0,1
182858,-100,4,1,1,70,0,1
183558,-100,4,1,1,40,0,1
183658,-100,4,1,1,70,0,1
184358,-100,4,1,1,50,0,1
184458,-100,4,1,1,70,0,1
185158,-100,4,1,1,50,0,1
185258,-100,4,1,1,70,0,1
185558,-100,4,1,1,50,0,1
185758,-100,4,1,1,70,0,1
185958,-100,4,1,1,60,0,0
190758,-200,4,1,1,60,0,0
190858,-100,4,1,1,60,0,0
192358,-100,4,1,1,40,0,0
192458,-100,4,1,1,60,0,0
193958,-100,4,1,1,50,0,0
194058,-100,4,1,1,60,0,0
197158,-100,4,1,1,40,0,0
197258,-100,4,1,1,60,0,0
197958,-100,4,1,1,50,0,0
198058,-100,4,1,1,60,0,0
198658,-100,4,1,1,100,0,0

[Colours]
Combo1 : 0,0,176
Combo2 : 255,0,0
Combo3 : 0,255,255
Combo4 : 0,255,0
Combo5 : 255,255,0
Combo6 : 255,0,255
Combo7 : 255,128,192
Combo8 : 255,128,0

[HitObjects]
256,192,9958,12,2,11858,0:0:0:0:
256,192,11958,12,4,13188,0:0:0:0:
444,52,13388,5,0,0:0:0:0:
344,120,13588,2,0,P|312:172|308:236,1,110,8|0,0:0|0:0,0:0:0:0:
360,280,13888,2,0,B|308:267|308:267|252:279,1,110
132,304,14188,1,0,0:0:0:0:
108,280,14288,1,0,0:0:0:0:
84,256,14388,2,0,P|108:200|88:136,1,110,8|0,0:0|0:0,0:0:0:0:
48,44,14688,1,0,0:0:0:0:
48,44,14788,6,0,P|102:57|155:45,1,110
464,43,15188,2,0,P|410:56|357:44,1,110,8|0,0:0|0:0,0:0:0:0:
203,119,15488,2,0,P|257:107|310:119,1,110
388,160,15788,1,0,0:0:0:0:
388,160,15888,1,0,0:0:0:0:
388,160,15988,2,0,L|452:200,1,55,8|0,0:0|0:0,0:0:0:0:
352,240,16188,2,0,L|375:311,1,55
272,280,16388,6,0,B|248:332|248:332|208:368,2,110,0|0|8,0:0|0:0|0:0,0:0:0:0:
320,168,16988,1,0,0:0:0:0:
320,168,17088,2,0,B|264:172|264:172|208:152,1,110
84,188,17388,2,0,L|146:210,1,55
188,328,17588,2,0,L|84:291,1,110,8|0,0:0|0:0,0:0:0:0:
188,328,17988,6,0,P|252:336|324:264,1,165,0|0,0:0|0:0,0:0:0:0:
340,172,18688,5,0,0:0:0:0:
340,172,18788,2,0,B|352:148|352:148|372:128,1,55
348,8,18988,2,0,B|336:31|336:31|316:51,1,55
196,76,19188,2,0,B|208:52|208:52|228:32,1,55,8|0,0:0|0:0,0:0:0:0:
232,172,19388,1,0,0:0:0:0:
220,188,19588,6,0,P|192:248|208:304,1,110,4|0,0:0|0:0,0:0:0:0:
320,272,19988,2,0,P|348:211|331:155,1,110,8|0,0:0|0:0,0:0:0:0:
312,40,20288,2,0,B|328:96|328:96|360:92|396:108|408:136,1,110
476,176,20588,1,0,0:0:0:0:
476,176,20688,2,0,P|474:203|465:229,1,55,0|8,0:0|0:0,0:0:0:0:
152,328,20988,2,0,P|154:301|163:275,1,55
184,236,21188,6,0,B|140:204|140:204|124:148,2,110,4|0|8,0:0|0:0|0:0,0:0:0:0:
288,296,21788,1,0,0:0:0:0:
288,296,21888,2,0,P|308:240|360:200,1,110
424,112,22288,1,0,0:0:0:0:
424,112,22388,2,0,L|424:56,1,55,8|0,0:0|0:0,0:0:0:0:
296,80,22588,2,0,L|296:135,1,55
172,168,22788,6,0,L|172:52,2,110,4|0|8,0:0|0:0|0:0,0:0:0:0:
120,276,23388,1,0,0:0:0:0:
120,276,23488,2,0,P|168:264|232:280,1,110
272,276,23788,2,0,P|292:252|300:220,1,55
172,168,23988,2,0,B|156:116|156:116|168:48,2,110,8|0|4,0:0|0:0|0:0,0:0:0:0:
340,168,24488,6,0,B|356:116|356:116|344:48,2,110
248,64,24988,2,0,L|231:116,1,55
164,236,25188,1,0,0:0:0:0:
164,236,25288,2,0,B|167:193|167:193|140:168|136:128,2,110
268,328,25788,2,0,P|300:332|336:324,1,55
400,204,25988,1,4,0:0:0:0:
256,100,26188,5,0,0:0:0:0:
176,188,26388,2,0,P|156:240|160:304,1,110,8|0,0:0|0:0,0:0:0:0:
256,364,26788,2,0,P|308:344|376:352,1,110
404,356,27088,2,0,B|400:296|400:296|412:236,1,110
420,204,27388,1,0,0:0:0:0:
388,88,27588,5,0,0:0:0:0:
284,148,27788,1,0,0:0:0:0:
212,52,27988,2,0,P|172:104|168:156,1,110,8|0,0:0|0:0,0:0:0:0:
238,242,28388,2,0,P|274:201|284:148,1,110,0|0,0:0|0:0,0:0:0:0:
212,52,28788,2,0,L|158:37,1,55,8|0,0:0|0:0,0:0:0:0:
116,28,28988,2,0,P|116:88|92:136,1,110
12,220,29388,5,0,0:0:0:0:
92,312,29588,1,8,0:0:0:0:
208,272,29788,1,0,0:0:0:0:
208,152,29988,2,0,B|248:108|248:108|316:96,1,110
340,96,30288,2,0,P|372:148|376:212,1,110,0|0,0:0|0:0,0:0:0:0:
372,240,30588,1,0,0:0:0:0:
288,324,30788,6,0,B|204:252|164:376|80:288,1,220,0|8,0:0|0:0,0:0:0:0:
20,192,31388,2,0,P|8:156|16:112,1,55
12,96,31588,2,0,B|96:24|136:148|220:60,1,220,0|8,0:0|0:0,0:0:0:0:
284,252,32188,1,0,0:0:0:0:
428,116,32388,6,0,P|456:176|448:236,1,110,4|0,0:0|0:0,0:0:0:0:
388,320,32788,2,0,P|456:340|512:320,2,110,8|0|0,0:0|0:0|0:0,0:0:0:0:
284,252,33388,1,0,0:0:0:0:
248,276,33488,2,0,B|200:304|200:304|144:304,1,110
16,240,33788,2,0,B|63:212|63:212|120:212,1,110
148,96,34188,5,0,0:0:0:0:
256,44,34388,1,8,0:0:0:0:
364,96,34588,1,0,0:0:0:0:
472,44,34788,2,0,P|488:108|476:152,1,110
460,188,35088,2,0,B|404:176|404:176|352:188,1,110
312,204,35388,1,0,0:0:0:0:
64,292,35588,6,0,P|84:224|76:188,1,110,4|0,0:0|0:0,0:0:0:0:
20,80,35988,1,8,0:0:0:0:
128,28,36188,1,0,0:0:0:0:
228,272,36388,2,0,P|280:256|352:264,1,110,4|0,0:0|0:0,0:0:0:0:
380,268,36688,2,0,B|408:224|408:224|464:196,1,110
500,184,36988,1,0,0:0:0:0:
256,56,37188,6,0,P|152:52|104:144,1,220,4|8,0:0|0:0,0:0:0:0:
256,372,37788,1,0,0:0:0:0:
407,144,37988,2,0,P|396:88|352:48,1,110,4|0,0:0|0:0,0:0:0:0:
104,239,38388,2,0,P|116:295|160:336,1,110,12|0,0:0|0:0,0:0:0:0:
256,192,38788,6,0,P|268:136|248:88,1,110,4|0,0:2|0:0,0:0:0:0:
144,24,39188,1,8,0:0:0:0:
44,92,39388,1,0,0:0:0:0:
56,212,39588,2,0,P|108:288|180:300,2,165
44,92,40388,2,0,B|88:56|88:56|144:76|200:56|200:56|244:92,1,220,0|8,0:0|0:0,0:0:0:0:
332,164,40988,2,0,L|374:198,1,55
403,231,41188,2,0,P|389:334|288:355,1,220,0|8,0:0|0:0,0:0:0:0:
256,240,41788,1,0,0:0:0:0:
148,300,41988,6,0,P|132:244|148:184,1,110
176,168,42288,2,0,B|220:136|220:136|243:85,1,110
264,48,42588,2,0,P|320:64|380:60,1,110
492,44,42988,1,0,0:0:0:0:
492,44,43188,2,0,P|504:96|480:160,1,110,8|0,0:0|0:0,0:0:0:0:
392,224,43588,6,0,B|296:284|268:176|164:256,1,220,0|8,0:0|0:0,0:0:0:0:
72,196,44188,2,0,P|64:148|72:120,1,55
84,104,44388,2,0,B|170:36|198:144|294:84,1,220,0|8,0:0|0:0,0:0:0:0:
480,16,44988,1,0,0:0:0:0:
440,212,45188,6,0,P|384:200|328:216,1,110,4|0,0:0|0:0,0:0:0:0:
256,304,45588,1,8,0:0:0:0:
178,212,45788,1,0,0:0:0:0:
99,303,45988,2,0,P|61:232|75:152,2,165
178,212,46788,6,0,B|216:184|264:184|298:248|350:248|396:216,1,220,0|8,0:0|0:0,0:0:0:0:
496,168,47388,2,0,B|504:140|504:140|504:104,1,55
492,72,47588,2,0,B|454:44|406:44|372:108|320:108|274:76,1,220,0|8,0:0|0:0,0:0:0:0:
92,32,48188,1,0,0:0:0:0:
204,196,48388,6,0,P|220:256|196:320,1,110,4|0,0:0|0:0,0:0:0:0:
184,340,48688,2,0,B|128:332|128:332|72:344,1,110
32,356,48988,1,0,0:0:0:0:
308,360,49188,2,0,B|360:371|360:371|416:363,1,110,4|0,0:0|0:0,0:0:0:0:
460,352,49488,2,0,P|448:296|468:208,1,110
468,204,49788,1,0,0:0:0:0:
256,28,49988,5,0,0:0:0:0:
256,48,50088,1,0,0:0:0:0:
256,68,50188,2,0,B|204:84|204:84|168:128,1,110,0|12,0:0|0:0,0:0:0:0:
92,224,50588,1,0,0:0:0:0:
336,352,50788,2,0,P|368:320|384:252,1,110,4|0,0:0|0:0,0:0:0:0:
348,144,51188,1,12,0:0:0:0:
256,220,51388,1,0,0:0:0:0:
256,192,51588,12,4,53158,0:0:0:0:
168,316,53358,5,0,0:0:0:0:
84,228,53558,2,0,P|64:172|80:108,1,110,8|0,0:0|0:0,0:0:0:0:
180,164,53958,1,0,0:0:0:0:
272,88,54158,2,0,P|300:144|292:200,1,110,0|8,0:0|0:0,0:0:0:0:
244,300,54558,1,0,0:0:0:0:
332,384,54758,5,0,0:0:0:0:
440,328,54958,1,0,0:0:0:0:
416,208,55158,2,0,P|416:152|440:104,1,110,8|0,0:0|0:0,0:0:0:0:
460,80,55458,1,8,0:0:0:0:
256,72,55658,2,0,L|256:16,1,55,8|0,0:0|0:0,0:0:0:0:
72,104,55958,2,0,P|96:153|96:208,1,110,8|0,0:0|0:0,0:0:0:0:
52,320,56358,5,0,0:0:0:0:
164,360,56558,1,0,0:0:0:0:
256,280,56758,2,0,P|276:224|260:160,1,110,8|0,0:0|0:0,0:0:0:0:
232,60,57158,2,0,B|288:72|288:72|352:68,1,110
384,64,57458,1,0,0:0:0:0:
384,64,57558,1,8,0:0:0:0:
372,264,57758,1,0,0:0:0:0:
372,264,57958,6,0,P|272:223|172:263,1,220,0|8,0:0|0:0,0:0:0:0:
60,304,58558,1,0,0:0:0:0:
40,264,58658,1,0,0:0:0:0:
60,224,58758,2,0,P|64:168|48:116,1,110
256,12,59158,1,8,0:0:0:0:
256,132,59358,1,0,0:0:0:0:
463,117,59558,6,0,P|447:169|451:223,1,110,4|0,0:0|0:0,0:0:0:0:
472,344,59958,2,0,B|416:332|416:332|348:340,1,110,8|0,0:0|0:0,0:0:0:0:
244,348,60358,2,0,P|212:284|220:204,1,110
216,204,60658,2,0,B|160:184|160:184|104:188,1,110
64,192,60958,1,0,0:0:0:0:
300,236,61158,6,0,B|355:255|355:255|412:251,1,110,4|0,0:0|0:0,0:0:0:0:
452,252,61458,1,0,0:0:0:0:
252,48,61658,1,0,0:0:0:0:
212,32,61758,2,0,P|160:24|104:36,1,110
24,128,62158,1,0,0:0:0:0:
40,168,62258,1,0,0:0:0:0:
24,208,62358,2,0,B|24:268|24:268|52:312,1,110,8|0,0:0|0:0,0:0:0:0:
332,364,62758,6,0,B|377:343|377:343|410:293,1,110,4|0,0:0|0:0,0:0:0:0:
432,256,63058,1,0,0:0:0:0:
456,220,63158,1,8,0:0:0:0:
464,100,63358,1,0,0:0:0:0:
280,256,63558,2,0,P|228:288|160:288,1,110,4|0,0:0|0:0,0:0:0:0:
136,284,63858,2,0,B|112:232|112:232|116:176,1,110
120,136,64158,1,0,0:0:0:0:
256,364,64358,6,0,P|312:376|384:352,1,110,4|0,0:0|0:0,0:0:0:0:
372,244,64758,1,8,0:0:0:0:
480,304,64958,1,0,0:0:0:0:
264,192,65158,2,0,P|248:140|260:84,1,110,4|0,0:0|0:0,0:0:0:0:
492,20,65558,2,0,P|508:72|496:127,1,110,12|0,0:0|0:0,0:0:0:0:
264,192,65958,6,0,P|204:204|152:188,1,110,4|0,0:0|0:0,0:0:0:0:
88,92,66358,2,0,P|147:80|200:96,1,110,8|0,0:0|0:0,0:0:0:0:
264,192,66758,2,0,P|304:240|356:260,1,110
392,264,67058,2,0,B|404:208|404:208|444:164,1,110
476,144,67358,1,0,0:0:0:0:
396,56,67558,5,0,0:0:0:0:
256,280,67758,1,0,0:0:0:0:
116,56,67958,2,0,P|84:108|80:164,1,110,8|0,0:0|0:0,0:0:0:0:
80,188,68258,2,0,B|84:244|84:244|112:296,1,110
128,320,68558,1,0,0:0:0:0:
256,200,68758,1,8,0:0:0:0:
364,256,68958,1,0,0:0:0:0:
364,256,69058,1,0,0:0:0:0:
364,256,69158,6,0,P|420:276|484:268,1,110
428,160,69558,1,8,0:0:0:0:
332,88,69758,1,0,0:0:0:0:
256,180,69958,2,0,P|244:240|256:292,1,110
272,328,70258,2,0,B|324:312|324:312|388:320,1,110
424,328,70558,1,0,0:0:0:0:
188,128,70758,6,0,P|164:243|192:340,1,220,0|8,0:0|0:0,0:0:0:0:
308,380,71358,1,0,0:0:0:0:
328,360,71458,1,0,0:0:0:0:
340,336,71558,2,0,P|356:264|340:196,1,110
172,48,71958,2,0,P|156:120|172:188,1,110,8|0,0:0|0:0,0:0:0:0:
196,284,72258,1,0,0:0:0:0:
196,284,72358,6,0,B|244:268|244:268|308:276,1,110,4|0,0:0|0:0,0:0:0:0:
424,292,72758,1,8,0:0:0:0:
424,292,72958,2,0,P|440:224|428:172,1,110
240,40,73358,1,0,0:0:0:0:
240,39,73458,2,0,P|224:92|230:146,1,110
244,188,73758,1,0,0:0:0:0:
444,16,73958,6,0,P|459:68|453:122,1,110,4|0,0:0|0:0,0:0:0:0:
440,164,74258,2,0,P|392:148|328:148,1,110
292,161,74558,2,0,L|244:188,1,55,0|0,0:0|0:0,0:0:0:0:
104,160,74758,2,0,L|152:133,1,55,0|8,0:0|0:0,0:0:0:0:
260,316,75058,2,0,P|240:336|212:348,1,55,0|8,0:0|0:0,0:0:0:0:
96,380,75358,5,0,0:0:0:0:
96,380,75458,1,0,0:0:0:0:
96,380,75558,2,0,P|60:328|68:268,1,110,4|0,0:0|0:0,0:0:0:0:
136,76,75858,2,0,P|204:108|216:212,1,165
200,320,76358,2,0,P|252:308|320:324,1,110,4|0,0:0|0:0,0:0:0:0:
348,332,76658,2,0,P|380:284|392:224,1,110,0|0,0:0|0:0,0:0:0:0:
384,188,76958,1,0,0:0:0:0:
160,48,77158,6,0,P|128:96|116:155,1,110,4|0,0:0|0:0,0:0:0:0:
140,264,77558,1,8,0:0:0:0:
248,320,77758,1,0,0:0:0:0:
280,332,77858,1,0,0:0:0:0:
312,336,77958,2,0,P|364:328|440:272,1,110,4|0,0:0|0:0,0:0:0:0:
196,192,78358,1,8,0:0:0:0:
413,83,78558,1,0,0:0:0:0:
413,83,78758,6,0,P|432:136|428:192,1,110,4|0,0:0|0:0,0:0:0:0:
380,300,79158,1,8,0:0:0:0:
140,340,79358,2,0,L|80:352,1,55
272,192,79658,1,0,0:0:0:0:
86,33,79858,2,0,L|140:44,1,55,0|8,0:0|0:0,0:0:0:0:
426,33,80158,2,0,L|372:44,1,55
284,128,80358,6,0,B|341:116|341:116|372:128|408:112,1,110
484,200,80758,2,0,P|496:256|480:320,1,110,8|0,0:0|0:0,0:0:0:0:
336,380,81058,2,0,P|326:326|338:272,1,110,0|0,0:0|0:0,0:0:0:0:
372,192,81358,1,0,0:0:0:0:
372,192,81458,1,0,0:0:0:0:
372,192,81558,2,0,L|400:136,1,55,8|0,0:0|0:0,0:0:0:0:
372,24,81758,2,0,L|347:73,1,55
232,112,81958,6,0,L|284:12,2,110,0|0|8,0:0|0:0|0:0,0:0:0:0:
184,224,82558,1,0,0:0:0:0:
184,224,82658,2,0,P|240:232|292:256,1,110
412,326,82958,2,0,L|364:300,1,55
348,136,83158,2,0,L|444:188,1,110,8|0,0:0|0:0,0:0:0:0:
348,136,83558,6,0,P|268:128|200:184,1,165
160,256,84258,5,0,0:0:0:0:
160,256,84358,2,0,L|132:316,1,55
28,232,84558,2,0,L|79:213,1,55
248,276,84758,2,0,L|266:327,1,55,8|0,0:0|0:0,0:0:0:0:
208,156,84958,1,0,0:0:0:0:
216,136,85158,6,0,P|248:80|300:52,1,110,4|0,0:0|0:0,0:0:0:0:
404,24,85558,2,0,B|428:72|428:72|432:128,1,110,8|0,0:0|0:0,0:0:0:0:
480,196,85858,2,0,P|424:176|376:200,1,110
428,308,86158,1,0,0:0:0:0:
428,308,86258,2,0,L|448:368,1,55,0|8,0:0|0:0,0:0:0:0:
136,240,86558,2,0,L|86:215,1,55
204,188,86758,6,0,L|302:236,2,110,4|0|8,0:0|0:0|0:0,0:0:0:0:
96,132,87358,1,0,0:0:0:0:
96,132,87458,2,0,B|132:88|132:88|180:64,1,110
296,32,87858,1,0,0:0:0:0:
296,32,87958,2,0,P|328:28|372:36,1,55,8|0,0:0|0:0,0:0:0:0:
468,132,88158,2,0,P|436:128|392:136,1,55
296,232,88358,6,0,P|360:240|408:232,2,110,4|0|8,0:0|0:0|0:0,0:0:0:0:
188,180,88958,1,0,0:0:0:0:
188,180,89058,2,0,P|180:244|196:296,1,110
216,324,89358,2,0,P|256:332|284:328,1,55
416,248,89558,2,0,P|440:208|424:128,2,110,8|0|4,0:0|0:0|0:0,0:0:0:0:
243,204,90058,6,0,P|292:178|346:181,2,110
332,368,90558,2,0,P|360:360|388:344,1,55
464,176,90758,1,4,0:0:0:0:
464,176,90858,2,0,P|472:248|448:304,2,110
264,176,91358,2,0,P|256:208|256:240,2,55,0|0|4,0:0|0:0|2:1,0:0:0:0:
108,88,97958,6,0,P|148:80|192:84,1,82.5000031471254,4|0,0:1|0:0,0:0:0:0:
276,112,98358,1,2,0:0:0:0:
236,192,98558,1,0,0:0:0:0:
276,272,98758,2,0,P|304:312|344:336,1,82.5000031471254,2|0,0:0|0:0,0:0:0:0:
331,330,99058,2,0,P|376:320|432:332,1,82.5000031471254,2|0,0:0|0:0,0:0:0:0:
472,224,99358,2,0,P|427:234|371:222,1,82.5000031471254,2|2,0:0|0:0,0:0:0:0:
332,160,99758,5,0,0:0:0:0:
256,208,99958,1,0,0:0:0:0:
180,160,100158,1,0,0:0:0:0:
104,208,100358,2,0,P|92:168|100:120,1,82.5000031471254,2|0,0:0|0:0,0:0:0:0:
112,100,100658,2,0,P|152:72|208:76,1,82.5000031471254,2|0,0:0|0:0,0:0:0:0:
296,92,100958,1,2,0:0:0:0:
296,92,101158,6,0,B|312:132|312:132|308:188,1,82.5000031471254,6|0,0:0|0:0,0:0:0:0:
292,260,101558,1,2,0:0:0:0:
212,300,101758,1,0,0:0:0:0:
212,300,101958,2,0,P|164:284|108:292,1,82.5000031471254,6|0,0:0|0:0,0:0:0:0:
76,184,102258,2,0,P|124:200|180:192,1,82.5000031471254,2|0,0:0|0:0,0:0:0:0:
240,168,102558,1,2,0:0:0:0:
240,168,102758,5,4,0:0:0:0:
397,77,102958,1,0,0:0:0:0:
397,77,103158,1,4,0:0:0:0:
487,234,103358,1,0,0:0:0:0:
487,234,103558,1,4,0:0:0:0:
330,325,103758,1,0,0:0:0:0:
330,325,103958,1,4,0:0:0:0:
240,168,104158,1,0,0:0:0:0:
240,168,104358,6,0,P|276:128|308:112,1,82.5000031471254,4|0,0:1|0:0,0:0:0:0:
388,92,104758,1,2,0:0:0:0:
388,268,104958,1,0,0:0:0:0:
220,312,105158,2,0,P|168:316|120:304,1,82.5000031471254,2|0,0:0|0:0,0:0:0:0:
138,310,105458,2,0,P|112:264|64:240,1,82.5000031471254,2|0,0:0|0:0,0:0:0:0:
44,236,105758,1,2,0:0:0:0:
64,148,105958,6,0,B|104:140|112:104|112:104|136:124|136:124|148:80|192:68,1,165.000006294251,2|0,0:0|0:0,0:0:0:0:
356,48,106558,2,0,L|364:92,1,41.2500015735627,2|0,0:0|0:0,0:0:0:0:
372,164,106758,2,0,B|344:168|320:152|320:152|284:164|244:160|204:136,1,165.000006294251,2|0,0:0|0:0,0:0:0:0:
68,32,107558,5,2,0:0:0:0:
28,112,107758,1,0,0:0:0:0:
28,112,107858,2,0,P|12:168|28:236,1,123.750004720688,2|0,0:0|0:0,0:0:0:0:
76,308,108358,2,0,P|132:288|168:288,1,82.5000031471254,2|0,0:0|0:0,0:0:0:0:
244,308,108758,1,0,0:0:0:0:
332,336,108958,1,0,0:0:0:0:
332,336,109158,6,0,P|360:276|348:172,1,165.000006294251,2|0,0:0|0:0,0:0:0:0:
256,88,109758,2,0,P|232:80|212:80,1,41.2500015735627,2|0,0:0|0:0,0:0:0:0:
144,88,109958,2,0,B|96:116|96:176|96:176|96:248,1,165.000006294251,2|0,0:0|0:0,0:0:0:0:
144,312,110558,1,0,0:0:0:0:
144,312,110758,6,0,P|196:300|252:312,1,110,4|0,0:1|0:0,0:0:0:0:
364,360,111158,1,2,0:0:0:0:
464,292,111358,1,0,0:0:0:0:
464,292,111558,2,0,P|480:212|448:116,2,165,2|2|0,0:0|0:0|0:0,0:0:0:0:
364,360,112358,2,0,P|256:360|164:284,1,220,2|0,0:0|0:0,0:0:0:0:
132,180,112958,2,0,P|128:144|136:104,1,55,2|0,0:0|0:0,0:0:0:0:
144,84,113158,2,0,P|216:100|276:80,1,110,2|0,0:0|0:0,0:0:0:0:
364,48,113558,6,0,P|418:40|470:56,1,110,2|0,0:0|0:0,0:0:0:0:
470,327,113958,2,0,P|418:343|364:336,1,110,6|0,0:0|0:0,0:0:0:0:
324,320,114258,2,0,B|268:308|268:308|204:320,1,110,2|0,0:0|0:0,0:0:0:0:
172,328,114558,1,2,0:0:0:0:
24,108,114758,2,0,B|80:120|80:120|144:108,1,110,6|0,0:0|0:0,0:0:0:0:
176,100,115058,2,0,P|232:88|288:96,1,110,2|0,0:0|0:0,0:0:0:0:
324,108,115358,1,2,0:0:0:0:
144,300,115558,5,6,0:0:0:0:
121,323,115658,1,2,0:0:0:0:
100,348,115758,2,0,L|84:236,1,110,0|4,0:0|0:0,0:0:0:0:
4,148,116158,1,0,0:0:0:0:
232,16,116358,2,0,L|248:128,1,110,4|0,0:0|0:0,0:0:0:0:
392,348,116758,2,0,L|376:236,1,110,4|0,0:0|0:0,0:0:0:0:
256,192,117158,12,4,118758,0:0:0:0:
172,300,118958,5,0,0:0:0:0:
168,320,119058,2,0,P|228:312|288:328,1,110
480,240,119358,1,0,0:0:0:0:
480,240,119458,1,0,0:0:0:0:
480,240,119558,2,0,P|420:247|360:231,1,110
292,196,119858,2,0,B|300:144|300:144|284:88,1,110,0|0,0:0|0:0,0:0:0:0:
172,16,120158,2,0,L|191:87,1,55
120,184,120358,6,0,L|90:77,1,110
208,144,120658,2,0,L|237:250,1,110
252,296,120958,2,0,P|292:308|312:304,1,55
492,208,121158,2,0,P|440:196|384:204,1,110,0|0,0:0|0:0,0:0:0:0:
340,216,121458,1,0,0:0:0:0:
196,24,121658,1,0,0:0:0:0:
196,24,121758,2,0,P|192:80|140:132,1,110
76,32,122158,5,0,0:0:0:0:
52,56,122258,1,0,0:0:0:0:
40,88,122358,1,8,0:0:0:0:
32,120,122458,2,0,P|32:160|40:184,1,55
124,320,122658,1,0,0:0:0:0:
124,320,122758,2,0,P|180:312|240:324,1,110
388,240,123058,2,0,P|332:248|272:236,1,110
236,228,123358,2,0,P|236:188|220:148,1,55
184,4,123558,6,0,P|176:68|196:116,1,110
328,224,123858,2,0,P|336:288|316:336,1,110
292,364,124158,2,0,L|236:356,1,55
104,240,124358,2,0,L|213:255,1,110
408,240,124658,1,0,0:0:0:0:
408,240,124758,2,0,L|353:248,1,55,8|0,0:0|0:0,0:0:0:0:
248,166,124958,2,0,L|240:112,1,55
144,20,125158,6,0,B|152:76|152:76|140:104|148:136,1,110,4|0,0:0|0:0,0:0:0:0:
156,172,125458,2,0,P|172:204|196:224,1,55,0|8,0:0|0:0,0:0:0:0:
260,268,125658,1,0,0:0:0:0:
260,268,125758,2,0,P|288:260|332:264,1,55
448,312,125958,2,0,P|432:256|444:200,1,110
344,56,126258,2,0,P|359:111|348:167,1,110
324,196,126558,2,0,L|272:220,1,55
180,368,126758,6,0,L|279:321,1,110
208,160,127058,2,0,L|108:206,1,110
64,220,127358,2,0,P|48:192|40:148,1,55
160,36,127558,2,0,P|220:28|284:40,1,110
352,68,127858,1,0,0:0:0:0:
352,68,127958,2,0,L|404:96,1,55,8|0,0:0|0:0,0:0:0:0:
332,152,128158,2,0,L|348:208,1,55
180,152,128358,6,0,L|148:257,1,110,4|0,0:0|0:0,0:0:0:0:
88,312,128658,2,0,B|140:304|140:304|212:328,1,110
372,312,128958,2,0,L|305:289,1,55
208,156,129158,2,0,L|312:190,1,110,4|0,0:0|0:0,0:0:0:0:
356,204,129458,2,0,P|396:160|408:104,1,110
400,68,129758,2,0,L|464:52,1,55
293,41,129958,6,0,L|400:68,1,110,4|0,0:0|0:0,0:0:0:0:
462,177,130258,2,0,L|356:204,1,110,0|0,0:0|0:0,0:0:0:0:
312,212,130558,2,0,L|258:198,1,55,0|0,0:0|0:0,0:0:0:0:
72,252,130758,2,0,L|178:279,1,110,4|0,0:0|0:0,0:0:0:0:
264,300,131058,1,0,0:0:0:0:
264,300,131158,2,0,P|304:308|344:304,1,55,8|0,0:0|0:0,0:0:0:0:
408,148,131358,2,0,P|367:140|327:144,1,55
464,340,131558,6,0,P|500:272|500:208,1,137.5,4|0,0:0|0:0,0:0:0:0:
488,160,131858,1,0,0:0:0:0:
224,16,132058,2,0,L|244:96,1,68.75
264,156,132258,1,0,0:0:0:0:
264,156,132358,2,0,P|340:144|404:156,1,137.5
488,296,132658,2,0,P|412:307|348:295,1,137.5
280,272,132958,2,0,L|204:248,1,68.75
132,114,133158,6,0,L|264:156,1,137.5,4|0,0:0|0:0,0:0:0:0:
192,352,133458,2,0,L|60:310,1,137.5,0|0,0:0|0:0,0:0:0:0:
12,288,133758,2,0,P|16:248|8:216,1,68.75
100,80,133958,2,0,P|88:144|104:224,1,137.5
128,264,134258,2,0,P|168:248|216:248,1,68.75,0|8,0:0|0:0,0:0:0:0:
304,252,134458,1,0,0:0:0:0:
304,252,134558,2,0,P|328:184|312:112,1,137.5,0|4,0:0|0:0,0:0:0:0:
196,28,134958,5,0,0:0:0:0:
196,28,135058,2,0,P|172:96|188:168,1,137.5,0|0,0:0|0:0,0:0:0:0:
232,220,135358,2,0,P|256:188|260:152,1,68.75
100,32,135558,2,0,P|88:116|116:200,1,137.5,0|0,0:0|0:0,0:0:0:0:
136,236,135858,2,0,P|140:320|72:356,1,137.5
76,280,136158,2,0,L|40:200,1,68.75
44,40,136358,6,0,L|100:165,1,137.5,4|0,0:0|0:0,0:0:0:0:
136,236,136658,2,0,P|208:212|288:224,1,137.5
340,240,136958,2,0,L|412:264,1,68.75
496,116,137158,2,0,L|365:72,1,137.5
292,48,137458,1,0,0:0:0:0:
292,48,137558,2,0,P|248:40|204:48,1,68.75,8|0,0:0|0:0,0:0:0:0:
40,136,137758,2,0,P|84:144|128:136,1,68.75
184,132,137958,6,0,P|172:216|196:284,1,137.5,4|0,0:0|0:0,0:0:0:0:
324,356,138258,2,0,P|335:272|311:204,1,137.5
280,156,138558,2,0,L|244:88,1,68.75
40,72,138758,2,0,L|104:193,1,137.5,4|0,0:0|0:0,0:0:0:0:
144,260,139058,2,0,P|212:244|280:264,1,137.5,0|0,0:0|0:0,0:0:0:0:
456,156,139358,1,0,0:0:0:0:
456,156,139458,1,0,0:0:0:0:
456,156,139558,6,0,P|388:172|320:152,1,137.5,4|0,0:0|0:0,0:0:0:0:
256,120,139858,2,0,P|192:108|124:148,1,137.5
84,200,140158,2,0,P|76:240|88:288,1,68.75
264,364,140358,2,0,P|288:300|282:232,1,137.5,4|0,0:0|0:0,0:0:0:0:
256,160,140658,1,0,0:0:0:0:
256,160,140758,2,0,L|224:84,1,68.75,8|0,0:0|0:0,0:0:0:0:
72,44,140958,2,0,L|98:107,1,68.75
164,260,141158,6,0,P|232:280|296:260,1,137.5,4|0,0:0|0:0,0:0:0:0:
360,224,141458,2,0,P|348:160|368:88,1,137.5
408,28,141758,2,0,P|440:76|436:116,1,68.75
412,288,141958,2,0,P|344:304|280:240,1,137.5,4|0,0:0|0:0,0:0:0:0:
100,288,142258,2,0,P|168:304|232:240,1,137.5
256,200,142558,2,0,L|256:132,1,68.75,0|0,0:0|0:0,0:0:0:0:
432,24,142758,6,0,B|432:88|432:88|460:160,1,137.5,4|0,0:0|0:0,0:0:0:0:
388,260,143058,2,0,B|388:196|388:196|360:124,1,137.5,0|0,0:0|0:0,0:0:0:0:
252,68,143358,2,0,L|278:136,1,68.75
272,340,143558,2,0,L|222:212,1,137.5,4|0,0:0|0:0,0:0:0:0:
188,144,143858,2,0,P|120:128|56:152,1,137.5
32,272,144158,2,0,B|36:308|36:308|52:352,1,68.75
168,352,144358,5,4,0:0:0:0:
256,192,157158,12,2,159058,0:0:0:0:
256,192,159158,12,4,160358,0:0:0:0:
52,336,160558,6,0,P|72:284|68:224,1,110,0|8,0:0|0:0,0:0:0:0:
196,108,160958,2,0,P|175:160|179:220,1,110
228,324,161358,1,0,0:0:0:0:
228,324,161458,1,0,0:0:0:0:
228,324,161558,2,0,P|280:308|336:316,1,110,8|0,0:0|0:0,0:0:0:0:
464,164,161958,5,0,0:0:0:0:
464,164,162158,2,0,P|412:180|356:172,1,110,0|8,0:0|0:0,0:0:0:0:
248,124,162558,2,0,L|192:104,1,55,0|8,0:0|0:0,0:0:0:0:
416,316,162858,2,0,L|467:334,1,55,8|0,0:0|0:0,0:0:0:0:
164,296,163158,2,0,P|108:256|84:204,1,110,8|0,0:0|0:0,0:0:0:0:
76,100,163558,5,0,0:0:0:0:
76,100,163758,2,0,P|144:72|208:80,1,110,0|8,0:0|0:0,0:0:0:0:
256,164,164158,1,0,0:0:0:0:
332,72,164358,2,0,P|387:75|436:100,1,110,0|0,0:0|0:0,0:0:0:0:
452,140,164658,1,0,0:0:0:0:
444,184,164758,2,0,P|416:236|368:264,1,110,8|0,0:0|0:0,0:0:0:0:
256,296,165158,5,0,0:0:0:0:
138,262,165358,1,0,0:0:0:0:
372,328,165558,2,0,P|404:280|400:200,1,110,8|0,0:0|0:0,0:0:0:0:
380,136,165858,1,0,0:0:0:0:
380,136,165958,2,0,P|324:148|264:136,1,110
160,92,166358,1,8,0:0:0:0:
256,348,166558,1,0,0:0:0:0:
152,84,166758,6,0,P|120:148|120:200,1,110,4|0,0:0|0:0,0:0:0:0:
144,304,167158,1,8,0:0:0:0:
144,304,167358,2,0,P|200:296|252:304,1,110
368,340,167758,1,0,0:0:0:0:
384,311,167858,1,0,0:0:0:0:
401,282,167958,2,0,P|384:232|392:168,1,110,8|0,0:0|0:0,0:0:0:0:
110,101,168358,6,0,P|128:152|120:216,1,110,4|0,0:0|0:0,0:0:0:0:
108,248,168658,2,0,L|88:304,1,55,0|8,0:0|0:0,0:0:0:0:
256,124,168958,2,0,L|274:72,1,55,0|8,0:0|0:0,0:0:0:0:
304,312,169258,1,8,0:0:0:0:
316,352,169358,1,8,0:0:0:0:
456,212,169558,2,0,P|472:156|456:96,1,110,8|0,0:0|0:0,0:0:0:0:
420,32,169858,1,0,0:0:0:0:
420,32,169958,6,0,P|372:52|312:44,1,110,4|0,0:0|0:0,0:0:0:0:
92,112,170258,2,0,P|140:92|200:100,1,110,0|0,0:0|0:0,0:0:0:0:
236,120,170558,1,0,0:0:0:0:
236,120,170758,2,0,P|208:184|212:236,1,110,4|0,0:0|0:0,0:0:0:0:
296,328,171058,2,0,P|324:264|320:212,1,110
308,184,171358,1,0,0:0:0:0:
308,184,171558,6,0,P|352:156|420:156,1,110,4|0,0:0|0:0,0:0:0:0:
452,164,171858,2,0,L|516:176,1,55,0|8,0:0|0:0,0:0:0:0:
432,272,172158,1,0,0:0:0:0:
399,265,172258,1,0,0:0:0:0:
367,259,172358,2,0,B|356:316|356:316|328:364,1,110,4|0,0:0|0:0,0:0:0:0:
144,259,172758,2,0,B|156:316|156:316|182:361,1,110,12|0,0:0|0:0,0:0:0:0:
256,120,173158,5,4,0:0:0:0:
352,44,173358,1,0,0:0:0:0:
448,120,173558,1,8,0:0:0:0:
400,232,173758,2,0,P|352:244|288:228,1,110
192,168,174158,1,0,0:0:0:0:
192,168,174258,1,0,0:0:0:0:
192,168,174358,2,0,P|160:216|160:296,1,110,8|0,0:0|0:0,0:0:0:0:
324,368,174758,6,0,P|356:320|355:239,1,110
312,160,175158,1,8,0:0:0:0:
384,64,175358,2,0,P|408:44|436:36,1,55,0|8,0:0|0:0,0:0:0:0:
128,64,175658,2,0,P|104:44|76:36,1,55,8|0,0:0|0:0,0:0:0:0:
20,140,175958,2,0,P|8:196|24:268,1,110,8|0,0:0|0:0,0:0:0:0:
60,360,176358,5,0,0:0:0:0:
60,360,176558,2,0,P|120:340|168:344,1,110,0|8,0:0|0:0,0:0:0:0:
284,372,176958,1,0,0:0:0:0:
284,372,177158,2,0,P|316:324|324:256,1,110
320,228,177458,1,0,0:0:0:0:
312,184,177558,2,0,P|308:128|336:64,1,110,8|0,0:0|0:0,0:0:0:0:
220,296,177958,6,0,P|128:328|48:244,1,220,0|8,0:0|0:0,0:0:0:0:
180,100,178558,2,0,L|192:24,2,55,0|8|0,0:0|0:0|0:0,0:0:0:0:
220,296,178958,1,0,0:0:0:0:
404,120,179158,1,8,0:0:0:0:
216,304,179358,2,0,L|176:348,1,55,8|8,0:0|0:0,0:0:0:0:
48,304,179558,6,0,L|121:222,1,110,4|0,0:0|0:0,0:0:0:0:
216,144,179958,2,0,P|272:160|340:144,1,110,8|0,0:0|0:0,0:0:0:0:
432,100,180358,1,0,0:0:0:0:
464,216,180558,2,0,L|472:276,1,55
476,316,180758,2,0,P|404:308|344:328,1,110,8|0,0:0|0:0,0:0:0:0:
36,316,181158,6,0,P|89:325|143:315,1,110,4|0,0:0|0:0,0:0:0:0:
236,280,181458,1,0,0:0:0:0:
236,280,181558,2,0,L|228:224,1,55,8|0,0:0|0:0,0:0:0:0:
300,76,181758,2,0,L|316:193,1,110,0|8,0:0|0:0,0:0:0:0:
356,204,182058,1,8,0:0:0:0:
107,323,182258,1,8,0:0:0:0:
148,304,182358,2,0,L|163:195,1,110,8|0,0:0|0:0,0:0:0:0:
184,108,182658,5,0,0:0:0:0:
184,108,182758,2,0,P|248:92|316:104,1,110,4|0,0:0|0:0,0:0:0:0:
436,176,183058,2,0,P|372:192|304:180,1,110,0|0,0:0|0:0,0:0:0:0:
288,176,183358,1,0,0:0:0:0:
172,216,183558,2,0,P|156:268|160:328,1,110,4|0,0:0|0:0,0:0:0:0:
56,236,183858,2,0,P|72:183|68:123,1,110
52,88,184158,1,0,0:0:0:0:
284,20,184358,6,0,P|281:74|297:126,1,110,4|0,0:0|0:0,0:0:0:0:
320,164,184658,2,0,P|372:152|432:168,1,110
500,212,184958,2,0,P|504:244|496:280,1,55
352,364,185158,2,0,P|340:304|352:232,1,110,4|0,0:0|0:0,0:0:0:0:
424,164,185558,1,12,0:0:0:0:
256,268,185758,1,0,0:0:0:0:
240,72,185958,6,0,P|180:88|132:76,1,110,4|0,0:0|0:0,0:0:0:0:
24,28,186358,2,0,B|32:84|32:84|16:136,1,110,0|0,0:0|0:0,0:0:0:0:
88,252,186658,2,0,B|80:196|80:196|96:143,1,110
256,20,187058,2,0,L|240:75,1,55,0|8,0:0|0:0,0:0:0:0:
304,268,187358,2,0,L|319:215,2,55
260,380,187758,5,0,0:0:0:0:
140,368,187958,2,0,P|128:304|144:240,1,110,8|0,0:0|0:0,0:0:0:0:
156,220,188258,2,0,B|212:228|212:228|284:216,1,110
384,188,188658,1,0,0:0:0:0:
384,188,188758,2,0,L|400:124,1,55,8|0,0:0|0:0,0:0:0:0:
344,8,188958,2,0,L|328:72,1,55
212,132,189158,6,0,L|238:25,2,110,0|0|8,0:0|0:0|0:0,0:0:0:0:
180,248,189758,1,0,0:0:0:0:
180,248,189858,2,0,P|240:240|300:248,2,110
44,276,190358,2,0,P|32:224|48:156,1,110,8|0,0:0|0:0,0:0:0:0:
44,276,190758,6,0,P|68:324|192:356,1,165
212,360,191458,5,0,0:0:0:0:
212,360,191558,2,0,L|284:344,1,55
388,236,191758,2,0,L|315:252,1,55
204,208,191958,2,0,L|276:192,1,55,8|0,0:0|0:0,0:0:0:0:
132,296,192158,2,0,L|78:307,1,55
104,144,192358,6,0,L|219:118,1,110,4|0,0:0|0:0,0:0:0:0:
332,96,192758,2,0,P|352:144|344:208,1,110,8|0,0:0|0:0,0:0:0:0:
332,240,193058,1,0,0:0:0:0:
256,332,193258,1,0,0:0:0:0:
180,240,193458,2,0,P|164:209|160:184,1,55,0|8,0:0|0:0,0:0:0:0:
268,48,193758,2,0,L|332:36,1,55
480,88,193958,6,0,L|371:108,1,110,4|0,0:0|0:0,0:0:0:0:
284,192,194358,1,8,0:0:0:0:
116,88,194558,1,0,0:0:0:0:
116,88,194658,2,0,P|88:144|88:204,1,110
228,292,195058,2,0,L|273:322,1,55,0|8,0:0|0:0,0:0:0:0:
360,276,195258,2,0,L|307:241,1,55
232,188,195458,1,0,0:0:0:0:
232,188,195558,6,0,P|244:120|232:76,2,110,4|0|8,0:0|0:0|0:0,0:0:0:0:
176,296,196158,1,0,0:0:0:0:
160,336,196258,2,0,P|216:328|280:340,2,110
76,232,196758,2,0,P|68:168|80:120,2,110,8|0|4,0:0|0:0|0:0,0:0:0:0:
220,232,197258,6,0,P|228:168|216:120,2,110
148,96,197758,2,0,L|148:41,2,55,0|0|12,0:0|0:0|0:0,0:0:0:0:
152,272,198058,2,0,P|200:308|248:304,2,110
220,232,198558,1,0,0:0:0:0:
332,336,198658,1,0,0:3:0:0:
