osu file format v14

[General]
AudioFilename: 12. Remember me.mp3
AudioLeadIn: 0
PreviewTime: 117160
Countdown: 0
SampleSet: Normal
StackLeniency: 0.5
Mode: 0
LetterboxInBreaks: 0
EpilepsyWarning: 1
WidescreenStoryboard: 1

[Editor]
Bookmarks: 9960,19558,23408,73758,123858,198758
DistanceSpacing: 1.5
BeatDivisor: 4
GridSize: 4
TimelineZoom: 1.94

[Metadata]
Title:Remember Me
TitleUnicode:Remember Me
Artist:seleP
ArtistUnicode:seleP
Creator:Bara-
Version:Fort's Dark and Cold World
Source:
Tags:Lily Vocaloid Lilium Doll Sele-P 2nd Album UFERIUM Shmiklak Kenterz Kin Fort Avishay cdhsausageboy Reikosaka 17VA Yooh [Shi-Ra] Murder Suicide Yandere
BeatmapID:1191832
BeatmapSetID:110547

[Difficulty]
HPDrainRate:7
CircleSize:4
OverallDifficulty:8
ApproachRate:9
SliderMultiplier:1.8
SliderTickRate:4

[Events]
//Background and Video events
0,0,"KylXWYr.jpg",0,0
//Break Periods
2,91758,97358
2,98158,100558
2,110958,113358
2,144558,156558
//Storyboard Layer 0 (Background)
//Storyboard Layer 1 (Fail)
//Storyboard Layer 2 (Pass)
//Storyboard Layer 3 (Foreground)
//Storyboard Sound Samples

[TimingPoints]
358,400,4,1,1,10,1,0
10358,-100,4,1,1,15,0,0
10758,-100,4,1,1,20,0,0
11158,-100,4,1,1,25,0,0
11558,-100,4,1,1,30,0,0
11858,-100,4,2,1,30,0,0
11958,-100,4,1,1,35,0,0
12358,-100,4,1,1,40,0,0
12758,-100,4,1,1,45,0,0
13158,-100,4,1,1,50,0,0
13188,400,4,1,1,70,1,0
13188,-50,4,1,1,70,0,0
17988,-200,4,1,1,70,0,0
18588,-100,4,1,1,70,0,0
26188,-100,4,1,1,60,0,0
50238,-100,4,1,1,10,0,0
51588,-100,4,1,1,80,0,0
53158,400,4,1,1,70,1,1
53158,-50,4,1,1,70,0,1
78758,-100,4,1,1,60,0,0
83558,-200,4,1,1,60,0,0
84158,-100,4,1,1,60,0,0
91558,-100,4,2,1,40,0,0
97958,-133.333333333333,4,2,1,40,0,0
104358,-133.333333333333,4,2,1,50,0,0
110758,-100,4,2,1,60,0,0
118758,-50,4,1,1,70,0,1
131158,-100,4,1,1,70,0,0
131558,-50,4,1,1,70,0,1
144358,-100,4,1,1,60,0,0
157158,-100,4,2,1,30,0,0
160358,-100,4,1,1,70,0,1
173158,-50,4,1,1,70,0,1
179558,-50,4,1,1,70,0,1
185958,-100,4,1,1,60,0,0
190758,-200,4,1,1,60,0,0
190858,-100,4,1,1,60,0,0
198758,-100,4,2,1,5,0,0

[Colours]
Combo1 : 0,0,176
Combo2 : 255,0,0
Combo3 : 0,255,255
Combo4 : 0,255,0
Combo5 : 255,255,0
Combo6 : 255,0,255
Combo7 : 255,128,192
Combo8 : 255,128,0

[HitObjects]
420,108,9958,6,0,L|384:116,7,22.5,0|0|0|0|0|0|0|0,0:0|0:0|0:0|0:0|0:0|0:0|0:0|0:0,0:0:0:0:
372,96,10358,2,0,L|336:100,7,22.5,0|0|0|0|0|0|0|0,0:0|0:0|0:0|0:0|0:0|0:0|0:0|0:0,0:0:0:0:
324,84,10758,2,0,L|312:108,7,22.5,0|0|0|0|0|0|0|0,0:0|0:0|0:0|0:0|0:0|0:0|0:0|0:0,0:0:0:0:
284,100,11158,2,0,L|288:140,7,22.5,0|0|0|0|0|0|0|0,0:0|0:0|0:0|0:0|0:0|0:0|0:0|0:0,0:0:0:0:
256,132,11558,6,0,L|248:168,32,22.5,0|0|0|0|0|0|0|0|0|0|0|0|0|0|0|0|0|0|0|0|0|0|0|0|0|0|0|0|0|0|0|0|0,0:0|0:0|0:0|0:0|0:0|0:0|0:0|0:0|0:0|0:0|0:0|0:0|0:0|0:0|0:0|0:0|0:0|0:0|0:0|0:0|0:0|0:0|0:0|0:0|0:0|0:0|0:0|0:0|0:0|0:0|0:0|0:0|0:0,0:0:0:0:
228,140,13188,6,0,P|192:168|148:76,1,180,4|0,0:0|0:0,0:0:0:0:
360,84,13588,2,0,B|380:192|332:188|380:276,1,180,8|0,0:0|0:0,0:0:0:0:
472,300,13888,2,0,P|428:356|316:352,1,180
240,288,14188,2,0,P|220:344|224:380,1,90
128,320,14388,2,0,B|132:288|152:248|152:248|108:188|36:212,1,180,8|0,0:0|0:0,0:0:0:0:
24,104,14688,1,0,0:0:0:0:
24,104,14788,6,0,P|76:96|196:148,1,180
256,56,15088,1,0,0:0:0:0:
256,56,15188,2,0,P|304:136|304:244,1,180,8|0,0:0|0:0,0:0:0:0:
344,324,15488,2,0,P|392:296|428:172,1,180
408,76,15788,2,0,P|460:80|504:128,1,90
196,120,15988,6,0,P|168:64|176:24,1,90,8|0,0:0|0:0,0:0:0:0:
112,248,16188,2,0,P|140:304|132:344,1,90,0|0,0:0|0:0,0:0:0:0:
20,240,16388,6,0,L|200:204,1,180,4|0,0:0|0:0,0:0:0:0:
276,132,16688,1,0,0:0:0:0:
276,132,16788,2,0,P|284:64|196:0,1,180,8|0,0:0|0:0,0:0:0:0:
112,56,17088,2,0,B|108:112|108:112|128:144|128:144|124:240,1,180
148,316,17388,2,0,P|216:344|260:332,1,90
336,364,17588,2,0,B|308:264|308:264|360:244|376:192,1,180,8|0,0:0|0:0,0:0:0:0:
408,116,17888,1,0,0:0:0:0:
408,116,17988,6,0,P|384:88|328:64,1,90,0|8,0:0|0:0,0:0:0:0:
232,96,18588,1,0,0:0:0:0:
232,96,18688,1,0,0:0:0:0:
232,96,18788,6,0,P|204:88|176:92,1,45
188,172,18988,2,0,P|144:188|132:200,1,45
192,252,19188,2,0,P|192:288|196:304,1,45,8|0,0:0|0:0,0:0:0:0:
272,276,19388,2,0,P|308:292|320:292,1,45
384,332,19588,6,0,P|396:292|376:240,1,90,4|0,0:0|0:0,0:0:0:0:
428,180,19888,1,0,0:0:0:0:
428,180,19988,2,0,P|404:140|412:80,1,90,8|0,0:0|0:0,0:0:0:0:
472,12,20288,2,0,P|496:52|488:112,1,90,0|0,0:0|0:0,0:0:0:0:
332,92,20588,2,0,P|344:52|364:36,1,45
240,76,20788,2,0,P|176:108|132:104,1,90
60,68,21088,1,0,0:0:0:0:
60,68,21188,6,0,P|56:104|72:176,1,90
124,212,21488,1,0,0:0:0:0:
124,212,21588,2,0,P|88:240|28:232,1,90,8|0,0:0|0:0,0:0:0:0:
192,172,21888,2,0,P|232:184|260:232,1,90
264,304,22188,2,0,L|236:348,1,45
392,288,22388,6,0,L|440:296,1,45,8|0,0:0|0:0,0:0:0:0:
416,188,22588,2,0,L|456:152,1,45
344,128,22788,6,0,P|352:80|344:28,1,90,4|0,0:0|0:0,0:0:0:0:
264,88,23088,1,0,0:0:0:0:
264,88,23188,2,0,P|208:96|168:72,1,90,8|0,0:0|0:0,0:0:0:0:
84,132,23488,2,0,P|128:148|156:200,1,90
128,288,23788,2,0,P|96:320|72:328,1,45
44,220,23988,6,0,P|8:196|0:184,1,45,8|0,0:0|0:0,0:0:0:0:
216,252,24188,2,0,P|220:296|200:336,1,90
200,335,24488,1,0,0:0:0:0:
308,344,24688,1,0,0:0:0:0:
308,344,24788,2,0,P|328:352|360:348,1,45,8|0,0:0|0:0,0:0:0:0:
336,244,24988,2,0,L|352:204|360:184,1,45
280,56,25188,2,0,P|284:96|288:108,1,45
436,180,25388,2,0,P|420:148|400:136,1,45
144,132,25588,6,0,L|84:140,2,45,8|0|0,0:0|0:0|0:0,0:0:0:0:
196,152,25888,1,0,0:0:0:0:
196,152,25988,6,0,P|248:140|288:156,1,90
348,104,26288,1,0,0:0:0:0:
348,104,26388,2,0,P|388:120|444:112,1,90,8|0,0:0|0:0,0:0:0:0:
400,36,26688,1,0,0:0:0:0:
504,160,26788,2,0,L|492:280,1,90
408,312,27088,2,0,L|420:192,1,90
340,352,27388,1,0,0:0:0:0:
340,352,27488,1,0,0:0:0:0:
340,352,27588,6,0,P|308:332|296:312,1,45
196,340,27788,2,0,P|200:304|216:280,1,45
128,220,27988,2,0,P|156:200|180:192,1,45,8|0,0:0|0:0,0:0:0:0:
88,120,28188,2,0,P|60:128|32:112,1,45
120,44,28388,2,0,P|160:60|212:100,1,90
276,68,28688,1,0,0:0:0:0:
344,112,28788,2,0,P|360:88|364:56,1,45,8|0,0:0|0:0,0:0:0:0:
472,80,28988,2,0,P|472:56|460:12,1,45
383,182,29188,6,0,P|432:184|480:200,1,90
508,296,29488,1,0,0:0:0:0:
416,352,29588,2,0,P|376:344|340:324,1,45,0|0,0:0|0:0,0:0:0:0:
276,292,29788,2,0,P|248:284|224:280,1,45
136,328,29988,2,0,P|116:317|98:303,1,45
108,196,30188,5,0,0:0:0:0:
108,196,30288,2,0,L|88:92,1,90
232,28,30588,2,0,L|220:88,1,45
252,176,30788,2,0,P|288:156|324:112,1,90
319,119,31088,1,0,0:0:0:0:
319,119,31188,1,0,0:0:0:0:
404,52,31388,6,0,P|420:88|420:108,1,45
416,256,31588,2,0,P|416:224|424:192,1,45
472,308,31788,1,0,0:0:0:0:
472,308,31888,2,0,L|372:324,1,90
292,268,32188,2,0,P|276:300|272:328,1,45
176,260,32388,6,0,P|140:268|76:236,1,90,4|0,0:0|0:0,0:0:0:0:
60,148,32688,1,0,0:0:0:0:
128,64,32788,2,0,P|152:88|160:112,1,45,8|0,0:0|0:0,0:0:0:0:
228,180,32988,2,0,P|248:152|252:128,1,45
260,36,33188,2,0,P|288:48|332:104,1,90
376,188,33488,2,0,P|404:160|424:100,1,90
484,204,33788,2,0,P|468:240|468:264,1,45
412,340,33988,6,0,P|368:316|320:304,1,90,4|0,0:0|0:0,0:0:0:0:
228,340,34288,1,0,0:0:0:0:
128,304,34388,2,0,P|84:296|44:256,1,90,8|0,0:0|0:0,0:0:0:0:
56,160,34688,1,0,0:0:0:0:
104,64,34788,2,0,P|136:92|144:108,1,45
168,196,34988,1,0,0:0:0:0:
168,196,35088,2,0,P|208:200|252:160,1,90
260,64,35388,2,0,L|320:72,1,45
408,32,35588,6,0,L|432:80,1,45,4|0,0:0|0:0,0:0:0:0:
340,268,35788,2,0,L|356:172,1,90,0|8,0:0|0:0,0:0:0:0:
464,192,36088,1,0,0:0:0:0:
464,192,36188,2,0,L|472:248,1,45
416,328,36388,2,0,P|380:356|320:360,1,90
244,308,36688,2,0,P|204:300|144:312,1,90
52,332,36988,2,0,L|64:272,1,45
28,184,37188,6,0,P|72:188|180:164,1,135,4|0,0:0|0:0,0:0:0:0:
228,88,37588,2,0,P|264:80|352:116,1,135,12|0,0:0|0:0,0:0:0:0:
456,148,37988,2,0,P|424:192|336:200,1,135,4|0,0:0|0:0,0:0:0:0:
304,304,38388,2,0,P|260:280|220:276,1,90,12|0,0:0|0:0,0:0:0:0:
120,312,38688,1,0,0:0:0:0:
120,312,38788,6,0,L|108:208,1,90,4|0,0:0|0:0,0:0:0:0:
104,116,39188,1,8,0:0:0:0:
200,68,39388,1,0,0:0:0:0:
308,68,39588,2,0,P|296:124|264:148,1,90
276,252,39888,2,0,P|328:240|368:264,1,90
456,204,40188,1,0,0:0:0:0:
456,204,40288,1,0,0:0:0:0:
456,204,40388,2,0,P|424:164|428:116,1,90,4|0,0:0|0:0,0:0:0:0:
484,36,40788,6,0,P|448:28|420:32,1,45,8|0,0:0|0:0,0:0:0:0:
176,80,40988,2,0,P|208:88|236:92,1,45
380,96,41188,2,0,P|308:152|212:192,1,180,0|8,0:0|0:0,0:0:0:0:
120,172,41688,1,0,0:0:0:0:
120,172,41788,2,0,P|92:144|88:132,1,45
288,256,41988,6,0,P|276:288|252:300,1,45,0|0,0:0|0:0,0:0:0:0:
168,336,42188,2,0,L|352:332,1,180
384,232,42688,1,0,0:0:0:0:
300,164,42788,2,0,P|252:172|216:208,1,90
328,76,43088,1,0,0:0:0:0:
328,76,43188,2,0,P|380:84|384:80,1,45,8|0,0:0|0:0,0:0:0:0:
212,44,43388,2,0,P|176:48|152:64,1,45
424,140,43588,6,0,P|444:104|428:48,1,90
124,144,43988,2,0,P|120:184|144:244,1,90,8|0,0:0|0:0,0:0:0:0:
176,268,44288,1,0,0:0:0:0:
228,284,44388,2,0,P|232:244|228:228,1,45
236,132,44588,2,0,P|272:148|288:164,1,45
324,248,44788,2,0,P|352:240|380:248,1,45,8|0,0:0|0:0,0:0:0:0:
380,136,44988,2,0,P|420:148|444:148,1,45
476,300,45188,6,0,P|436:328|336:324,1,135
124,184,45588,2,0,P|96:216|80:280,1,90,8|0,0:0|0:0,0:0:0:0:
256,136,45888,1,0,0:0:0:0:
256,136,45988,2,0,L|120:100,2,135,0|0|0,0:0|0:0|0:0,0:0:0:0:
256,28,46688,1,0,0:0:0:0:
348,80,46788,2,0,P|384:88|444:76,1,90
476,180,47088,1,0,0:0:0:0:
448,284,47188,2,0,P|400:272|392:272,1,45,8|0,0:0|0:0,0:0:0:0:
244,292,47388,2,0,P|284:312|300:312,1,45
240,212,47588,6,0,L|168:328,1,135
72,340,47988,2,0,B|72:292|72:292|64:260|64:260|68:216,1,90
88,156,48288,1,0,0:0:0:0:
36,64,48388,2,0,P|64:56|136:72,1,90,0|0,0:0|0:0,0:0:0:0:
232,48,48688,2,0,P|280:56|340:44,1,90
416,104,48988,2,0,L|456:64,1,45
344,196,49188,6,0,P|428:192|448:200,1,90,4|0,0:0|0:0,0:0:0:0:
224,256,49488,2,0,P|176:264|136:248,1,90
138,249,49788,1,0,0:0:0:0:
308,152,49988,2,0,P|348:168|364:176,2,45,4|0|0,0:0|0:0|0:0,0:0:0:0:
256,192,50238,12,0,51388,0:0:0:0:
440,72,51588,6,0,L|436:104,30,22.5,0|0|0|0|0|0|0|0|0|0|0|0|0|0|0|0|0|0|0|0|0|0|0|0|0|0|0|0|0|0|0,0:0|0:0|0:0|0:0|0:0|0:0|0:0|0:0|0:0|0:0|0:0|0:0|0:0|0:0|0:0|0:0|0:0|0:0|0:0|0:0|0:0|0:0|0:0|0:0|0:0|0:0|0:0|0:0|0:0|0:0|0:0,0:0:0:0:
440,72,53158,6,0,P|376:68|252:108,1,180
92,228,53558,2,0,P|156:236|268:208,1,180,8|0,0:0|0:0,0:0:0:0:
184,136,53858,1,0,0:0:0:0:
184,136,53958,2,0,P|120:128|80:128,1,90
392,252,54158,2,0,P|448:236|472:208,1,90
368,176,54358,2,0,L|340:360,1,180,8|0,0:0|0:0,0:0:0:0:
232,344,54658,1,0,0:0:0:0:
192,244,54758,2,0,P|244:244|292:280,1,90
60,256,54958,2,0,P|64:176|84:152,1,90
44,64,55158,6,0,L|256:88,1,180,8|0,0:0|0:0,0:0:0:0:
324,48,55458,1,0,0:0:0:0:
324,48,55558,2,0,B|384:72|384:72|436:48|496:72,1,180
444,168,55858,1,0,0:0:0:0:
344,204,55958,2,0,L|260:160,1,90,8|0,0:0|0:0,0:0:0:0:
192,244,56158,2,0,L|296:304,1,90
140,116,56358,6,0,P|96:152|80:284,1,180
160,336,56658,1,0,0:0:0:0:
268,340,56758,2,0,L|388:320,1,90,8|0,0:0|0:0,0:0:0:0:
452,268,56958,2,0,L|340:224,1,90
288,164,57158,2,0,P|340:136|464:160,1,180
252,80,57458,2,0,P|200:96|64:56,1,180
280,0,57758,2,0,P|320:24|344:60,1,90
360,276,57958,6,0,L|156:312,1,180,4|0,0:0|0:0,0:0:0:0:
80,276,58258,1,0,0:0:0:0:
100,168,58358,2,0,P|148:188|172:224,1,90,8|0,0:0|0:0,0:0:0:0:
272,180,58558,2,0,P|324:188|384:164,1,90
164,88,58758,2,0,L|8:200,1,180
252,80,59058,2,0,P|236:32|192:8,2,90,0|8|0,0:0|0:0|0:0,0:0:0:0:
216,296,59358,2,0,P|292:328|328:328,1,90
404,296,59558,6,0,L|368:76,1,180
374,118,59858,1,0,0:0:0:0:
374,118,59958,2,0,P|440:128|488:112,1,90,8|0,0:0|0:0,0:0:0:0:
256,188,60158,2,0,P|190:178|142:194,1,90
128,284,60358,2,0,P|188:304|328:276,1,180
252,80,60658,2,0,P|296:56|320:20,2,90,0|8|0,0:0|0:0|0:0,0:0:0:0:
144,68,60958,1,0,0:0:0:0:
96,88,61058,1,0,0:0:0:0:
60,128,61158,6,0,P|64:184|140:292,1,180
240,296,61458,2,0,P|212:348|180:372,2,90,0|8|0,0:0|0:0|0:0,0:0:0:0:
184,200,61758,2,0,P|244:192|292:208,1,90
344,284,61958,2,0,P|376:240|376:196,1,90
488,208,62158,2,0,P|472:156|432:104,1,90
400,32,62358,2,0,P|356:72|348:104,1,90,8|0,0:0|0:0,0:0:0:0:
240,84,62558,1,0,0:0:0:0:
240,84,62658,1,0,0:0:0:0:
240,84,62758,6,0,P|168:72|72:124,1,180,4|0,0:0|0:0,0:0:0:0:
172,168,63058,2,0,P|136:212|128:336,1,180
236,348,63358,2,0,P|296:364|344:356,1,90
432,344,63558,6,0,P|408:292|284:264,1,180,4|0,0:0|0:0,0:0:0:0:
340,160,63858,2,0,P|276:176|256:68,1,180
404,88,64158,2,0,P|436:136|432:176,1,90
256,192,64358,12,0,65758,0:0:0:0:
388,136,65958,6,0,P|328:128|212:176,1,180
124,116,66258,1,0,0:0:0:0:
124,116,66358,2,0,P|60:120|24:104,1,90,8|0,0:0|0:0,0:0:0:0:
292,312,66558,2,0,P|356:308|392:324,1,90
168,264,66758,2,0,P|104:284|0:236,1,180
216,80,67058,2,0,P|252:144|252:268,1,180,8|0,0:0|0:0,0:0:0:0:
388,352,67358,2,0,P|377:308|393:256,1,90,8|0,0:0|0:0,0:0:0:0:
344,80,67558,2,0,P|344:136|464:172,1,180,4|0,0:0|0:0,0:0:0:0:
428,76,67858,1,0,0:0:0:0:
428,76,67958,6,0,L|220:112,1,180,8|0,0:0|0:0,0:0:0:0:
156,52,68258,2,0,P|100:88|8:20,1,180
11,35,68558,2,0,L|28:132,1,90
64,336,68758,2,0,L|80:239,1,90,8|0,0:0|0:0,0:0:0:0:
160,172,68958,2,0,L|192:280,1,90
248,348,69158,6,0,P|264:304|256:168,1,180
296,72,69458,1,0,0:0:0:0:
400,48,69558,2,0,P|384:108|388:152,1,90,8|0,0:0|0:0,0:0:0:0:
452,340,69758,1,0,0:0:0:0:
452,340,69858,2,0,P|468:280|376:304,1,180,0|0,0:0|0:0,0:0:0:0:
280,240,70158,2,0,P|200:256|188:252,1,90
212,148,70358,2,0,P|148:136|116:96,1,90,8|0,0:0|0:0,0:0:0:0:
296,72,70558,2,0,P|340:132|348:180,1,90
84,216,70758,6,0,P|104:148|104:20,1,180
20,108,71058,1,0,0:0:0:0:
8,216,71158,2,0,P|24:268|64:292,1,90,8|0,0:0|0:0,0:0:0:0:
160,276,71358,2,0,P|216:268|252:288,1,90
324,352,71558,2,0,L|236:168,1,180,4|0,0:0|0:0,0:0:0:0:
220,352,71858,2,0,P|256:304|400:288,1,180,8|0,0:0|0:0,0:0:0:0:
460,332,72158,2,0,P|472:284|456:216,1,90,8|0,0:0|0:0,0:0:0:0:
308,96,72358,6,0,L|120:112,1,180,4|0,0:0|0:0,0:0:0:0:
44,44,72658,1,0,0:0:0:0:
152,24,72758,2,0,P|192:64|204:136,1,90,8|0,0:0|0:0,0:0:0:0:
92,280,72958,2,0,L|64:168,1,90
212,276,73158,2,0,P|120:300|56:360,1,180,4|0,0:0|0:0,0:0:0:0:
196,192,73458,2,0,P|288:168|352:108,1,180,8|0,0:0|0:0,0:0:0:0:
456,84,73758,2,0,P|416:40|360:28,1,90,8|0,0:0|0:0,0:0:0:0:
412,192,73958,2,0,P|412:264|496:344,1,180,4|0,0:0|0:0,0:0:0:0:
324,196,74258,2,0,B|348:100|348:100|284:32,1,180,8|0,0:0|0:0,0:0:0:0:
196,88,74558,2,0,P|88:152|232:268,1,360,8|0,0:0|0:0,0:0:0:0:
308,332,75058,2,0,P|364:308|408:332,2,90,0|12|0,0:0|0:0|0:0,0:0:0:0:
204,356,75358,6,0,P|144:356|80:332,1,90,0|0,0:0|0:0,0:0:0:0:
308,88,75558,2,0,P|260:156|164:204,1,180,4|0,0:0|0:0,0:0:0:0:
340,204,75858,2,0,P|388:136|484:88,1,180,4|0,0:0|0:0,0:0:0:0:
248,12,76158,2,0,P|212:56|200:96,1,90,4|0,0:0|0:0,0:0:0:0:
432,204,76358,6,0,P|396:136|268:88,1,180,4|0,0:0|0:0,0:0:0:0:
204,280,76658,2,0,L|408:320,1,180,4|0,0:0|0:0,0:0:0:0:
480,360,76958,2,0,P|480:300|460:272,1,90,4|0,0:0|0:0,0:0:0:0:
148,196,77158,2,0,P|112:252|156:360,1,180,4|0,0:0|0:0,0:0:0:0:
64,152,77458,1,0,0:0:0:0:
64,152,77558,2,0,P|96:104|100:72,1,90,8|0,0:0|0:0,0:0:0:0:
208,84,77758,1,0,0:0:0:0:
208,84,77858,2,0,P|260:52|312:52,2,90,0|0|0,0:0|0:0|0:0,0:0:0:0:
244,184,78158,2,0,P|296:208|344:208,1,90
400,128,78358,2,0,P|444:168|444:216,1,90,8|0,0:0|0:0,0:0:0:0:
424,304,78558,2,0,P|352:336|304:332,1,90
236,316,78758,6,0,P|180:292|136:296,1,90,4|0,0:0|0:0,0:0:0:0:
52,228,79058,1,0,0:0:0:0:
52,228,79158,2,0,P|92:216|128:168,1,90,8|0,0:0|0:0,0:0:0:0:
100,84,79458,2,0,P|148:76|204:96,1,90,0|0,0:0|0:0,0:0:0:0:
252,172,79758,2,0,P|276:148|292:124,1,45,0|0,0:0|0:0,0:0:0:0:
328,40,79958,6,0,P|360:64|368:88,1,45,8|0,0:0|0:0,0:0:0:0:
392,284,80158,2,0,P|360:288|336:284,1,45
436,148,80358,2,0,L|488:232,1,90
483,224,80658,1,0,0:0:0:0:
483,224,80758,2,0,L|420:208,1,45,8|0,0:0|0:0,0:0:0:0:
172,264,80958,1,0,0:0:0:0:
172,264,81058,2,0,L|235:280,2,45,0|0|0,0:0|0:0|0:0,0:0:0:0:
124,108,81358,2,0,P|152:88|176:80,1,45
300,248,81558,6,0,P|312:296|312:304,1,45,8|0,0:0|0:0,0:0:0:0:
96,300,81758,2,0,P|84:252|84:244,1,45
336,164,81958,2,0,P|380:180|424:216,1,90
416,316,82258,1,0,0:0:0:0:
312,348,82358,2,0,P|260:340|224:312,1,90,8|0,0:0|0:0,0:0:0:0:
268,108,82658,2,0,P|308:80|360:80,1,90
452,44,82958,2,0,P|456:80|452:108,1,45
124,168,83158,6,0,P|112:136|128:64,1,90,8|0,0:0|0:0,0:0:0:0:
212,248,83458,1,0,0:0:0:0:
212,248,83558,6,0,L|68:260,1,135
77,259,84258,1,0,0:0:0:0:
77,259,84358,6,0,P|44:224|40:212,1,45,0|0,0:0|0:0,0:0:0:0:
316,212,84558,2,0,P|324:248|320:276,1,45
220,132,84758,2,0,L|312:120,1,90,8|0,0:0|0:0,0:0:0:0:
309,120,85058,1,0,0:0:0:0:
309,120,85158,6,0,P|316:76|316:56,1,45,4|0,0:0|0:0,0:0:0:0:
116,156,85358,2,0,P|128:184|148:200,1,45
164,352,85558,2,0,P|216:328|256:324,1,90,8|0,0:0|0:0,0:0:0:0:
460,288,85858,2,0,P|396:300|364:288,1,90
276,248,86158,2,0,P|304:216|320:208,1,45
416,96,86358,2,0,L|432:196,1,90,8|0,0:0|0:0,0:0:0:0:
180,284,86658,1,0,0:0:0:0:
180,284,86758,6,0,P|176:240|192:192,1,90
280,332,87058,1,0,0:0:0:0:
148,360,87158,2,0,P|120:344|104:316,1,45,8|0,0:0|0:0,0:0:0:0:
96,228,87358,1,0,0:0:0:0:
36,136,87458,2,0,P|48:88|48:44,1,90
156,68,87758,2,0,P|188:56|216:56,1,45
412,84,87958,6,0,P|408:116|396:144,1,45,8|0,0:0|0:0,0:0:0:0:
256,196,88158,2,0,P|248:160|248:140,1,45
436,256,88358,2,0,L|328:272,1,90,4|0,0:0|0:0,0:0:0:0:
264,336,88658,1,0,0:0:0:0:
168,288,88758,2,0,P|148:320|152:344,1,45,8|0,0:0|0:0,0:0:0:0:
60,260,88958,1,0,0:0:0:0:
124,172,89058,2,0,L|136:64,1,90
52,12,89358,2,0,P|32:48|32:64,1,45
296,108,89558,6,0,P|328:108|356:96,1,45,8|0,0:0|0:0,0:0:0:0:
180,80,89758,2,0,P|148:80|120:92,1,45,0|0,0:0|0:0,0:0:0:0:
256,196,89958,1,0,0:0:0:0:
256,196,90058,2,0,P|296:204|336:236,1,90
440,208,90358,2,0,P|444:248|440:272,1,45,8|0,0:0|0:0,0:0:0:0:
376,136,90558,2,0,P|400:120|428:124,1,45
304,332,90758,5,0,0:0:0:0:
304,332,90858,2,0,P|264:324|204:300,1,90
112,332,91158,2,0,L|120:280,1,45,12|0,0:0|0:0,0:0:0:0:
32,220,91358,2,0,L|56:164,1,45
36,72,91558,1,4,0:0:0:0:
256,192,97958,5,4,0:0:0:0:
256,192,101158,5,4,0:0:0:0:
256,192,101958,1,4,0:0:0:0:
256,192,102758,5,4,0:0:0:0:
256,192,103158,1,4,0:0:0:0:
256,192,103558,1,4,0:0:0:0:
256,192,103958,1,4,0:0:0:0:
400,116,104358,6,0,P|360:96|344:64,1,67.5000025749208,4|0,0:0|0:0,0:0:0:0:
268,92,104758,2,0,P|228:80|196:80,1,67.5000025749208,2|0,0:0|0:0,0:0:0:0:
132,120,105158,2,0,P|104:96|84:28,2,101.250003862381,2|2|2,0:0|0:0|0:0,0:0:0:0:
68,168,105958,2,0,P|104:232|92:296,1,135.000005149842,2|0,0:0|0:0,0:0:0:0:
144,356,106558,2,0,P|168:336|176:336,1,33.7500012874604,2|0,0:0|0:0,0:0:0:0:
208,220,106758,2,0,P|240:244|336:212,1,135.000005149842,2|2,0:0|0:0,0:0:0:0:
326,224,107258,1,0,0:0:0:0:
326,224,107358,1,0,0:0:0:0:
304,88,107558,6,0,P|240:96|232:104,1,67.5000025749208,2|0,0:0|0:0,0:0:0:0:
164,68,107858,2,0,P|116:76|100:68,1,67.5000025749208,2|0,0:0|0:0,0:0:0:0:
24,48,108158,2,0,P|20:76|24:92,1,33.7500012874604,2|0,0:0|0:0,0:0:0:0:
32,204,108358,2,0,P|64:188|100:180,1,67.5000025749208,2|2,0:0|0:0,0:0:0:0:
132,192,108658,1,0,0:0:0:0:
164,216,108758,2,0,P|164:252|156:296,1,67.5000025749208,2|0,0:0|0:0,0:0:0:0:
96,336,109158,6,0,P|148:332|232:344,1,135.000005149842,2|0,0:0|0:0,0:0:0:0:
312,340,109758,2,0,L|304:296,1,33.7500012874604,2|0,0:0|0:0,0:0:0:0:
376,268,109958,2,0,P|368:244|408:144,1,135.000005149842,2|0,0:0|0:0,0:0:0:0:
444,76,110558,2,0,P|428:72|400:68,1,33.7500012874604,2|0,0:0|0:0,0:0:0:0:
260,124,110758,5,4,0:0:0:0:
260,124,113958,5,4,0:0:0:0:
248,120,114758,1,4,0:0:0:0:
224,124,115558,5,4,0:0:0:0:
228,132,115958,1,4,0:0:0:0:
236,128,116358,1,4,0:0:0:0:
232,116,116758,1,4,0:0:0:0:
228,104,117158,6,0,L|200:128,30,22.5,0|0|0|0|0|0|0|0|0|0|0|0|0|0|0|0|0|0|0|0|0|0|0|0|0|0|0|0|0|0|0,0:0|0:0|0:0|0:0|0:0|0:0|0:0|0:0|0:0|0:0|0:0|0:0|0:0|0:0|0:0|0:0|0:0|0:0|0:0|0:0|0:0|0:0|0:0|0:0|0:0|0:0|0:0|0:0|0:0|0:0|0:0,0:0:0:0:
124,84,118758,6,0,P|116:136|216:216,1,180,12|0,0:0|0:0,0:0:0:0:
140,304,119058,2,0,P|212:296|320:352,1,180,8|0,0:0|0:0,0:0:0:0:
348,240,119358,2,0,P|396:256|448:248,1,90,8|0,0:0|0:0,0:0:0:0:
432,36,119558,2,0,P|336:20|248:64,1,180,8|0,0:0|0:0,0:0:0:0:
72,156,119858,2,0,P|148:172|252:152,1,180,8|0,0:0|0:0,0:0:0:0:
464,160,120158,2,0,P|404:136|356:132,1,90,8|0,0:0|0:0,0:0:0:0:
192,244,120358,6,0,P|164:200|200:72,1,180,8|0,0:0|0:0,0:0:0:0:
428,304,120658,2,0,L|240:332,1,180,8|0,0:0|0:0,0:0:0:0:
328,128,120958,2,0,P|364:168|384:216,1,90,8|0,0:0|0:0,0:0:0:0:
136,316,121158,2,0,L|252:160,1,180,8|0,0:0|0:0,0:0:0:0:
48,80,121458,2,0,P|120:100|228:64,1,180,8|0,0:0|0:0,0:0:0:0:
412,164,121758,2,0,P|372:200|336:212,1,90,8|0,0:0|0:0,0:0:0:0:
416,68,121958,6,0,L|472:256,1,180,8|0,0:0|0:0,0:0:0:0:
260,308,122258,2,0,P|156:312|84:248,1,180,8|0,0:0|0:0,0:0:0:0:
312,228,122558,2,0,P|344:272|348:320,1,90,8|0,0:0|0:0,0:0:0:0:
44,192,122758,2,0,L|260:168,1,180,8|0,0:0|0:0,0:0:0:0:
440,288,123058,2,0,L|224:312,1,180,8|0,0:0|0:0,0:0:0:0:
244,92,123358,2,0,P|288:112|308:156,1,90,8|0,0:0|0:0,0:0:0:0:
124,260,123558,6,0,L|160:64,1,180,8|0,0:0|0:0,0:0:0:0:
464,188,123858,2,0,L|268:240,1,180,8|0,0:0|0:0,0:0:0:0:
72,108,124158,2,0,P|128:88|180:88,1,90,8|0,0:0|0:0,0:0:0:0:
368,136,124358,2,0,L|360:348,1,180,8|0,0:0|0:0,0:0:0:0:
272,116,124658,2,0,P|316:60|432:72,1,180,8|0,0:0|0:0,0:0:0:0:
252,200,124958,2,0,P|200:176|184:144,1,90,8|0,0:0|0:0,0:0:0:0:
424,276,125158,6,0,L|328:292,1,90,8|0,0:0|0:0,0:0:0:0:
228,288,125358,2,0,P|160:276|108:280,1,90,0|8,0:0|0:0,0:0:0:0:
48,216,125558,2,0,P|92:168|208:136,1,180,0|8,0:0|0:0,0:0:0:0:
188,28,125858,1,0,0:0:0:0:
188,28,125958,2,0,P|256:44|304:44,1,90,8|0,0:0|0:0,0:0:0:0:
336,136,126158,2,0,P|384:112|444:112,1,90,0|8,0:0|0:0,0:0:0:0:
396,212,126358,2,0,P|312:228|236:160,1,180,0|8,0:0|0:0,0:0:0:0:
144,216,126658,1,0,0:0:0:0:
144,216,126758,6,0,P|120:160|88:136,1,90,8|0,0:0|0:0,0:0:0:0:
52,352,126958,2,0,L|144:320,1,90,0|8,0:0|0:0,0:0:0:0:
240,360,127158,2,0,P|268:324|404:344,1,180,0|8,0:0|0:0,0:0:0:0:
476,264,127458,1,0,0:0:0:0:
476,264,127558,6,0,P|408:224|416:108,1,180,8|0,0:0|0:0,0:0:0:0:
292,128,127858,2,0,P|244:76|112:88,1,180,8|0,0:0|0:0,0:0:0:0:
36,48,128158,2,0,P|44:112|68:152,1,90,8|0,0:0|0:0,0:0:0:0:
40,240,128358,6,0,P|108:240|148:200,1,90,8|0,0:0|0:0,0:0:0:0:
188,144,128558,1,0,0:0:0:0:
188,144,128658,2,0,L|120:344,1,180,8|0,0:0|0:0,0:0:0:0:
236,304,128958,2,0,P|288:308|336:288,1,90,8|0,0:0|0:0,0:0:0:0:
428,328,129158,2,0,P|424:268|380:216,1,90,8|0,0:0|0:0,0:0:0:0:
308,208,129358,1,0,0:0:0:0:
308,208,129458,2,0,P|364:220|448:132,1,180,8|0,0:0|0:0,0:0:0:0:
344,112,129758,2,0,P|272:88|224:80,1,90,8|0,0:0|0:0,0:0:0:0:
148,76,129958,6,0,P|196:76|328:36,1,180,8|0,0:0|0:0,0:0:0:0:
144,160,130258,2,0,P|80:168|52:184,2,90,8|0|0,0:0|0:0|0:0,0:0:0:0:
456,248,130558,2,0,L|352:264,1,90,8|0,0:0|0:0,0:0:0:0:
156,304,130758,2,0,P|192:260|308:184,1,180,8|0,0:0|0:0,0:0:0:0:
400,176,131058,2,0,P|424:132|428:80,2,90,8|0|0,0:0|0:0|0:0,0:0:0:0:
272,308,131358,1,8,0:0:0:0:
272,308,131458,1,0,0:0:0:0:
272,308,131558,6,0,L|200:136,1,180,12|0,0:0|0:0,0:0:0:0:
100,176,131858,2,0,P|104:96|136:60,2,90,8|0|0,0:0|0:0|0:0,0:0:0:0:
412,84,132158,2,0,P|376:48|328:40,1,90,8|0,0:0|0:0,0:0:0:0:
144,256,132358,2,0,B|224:188|252:256|337:179,1,180,8|0,0:0|0:0,0:0:0:0:
392,272,132658,1,8,0:0:0:0:
392,272,132758,2,0,P|432:236|476:236,1,90
244,136,132958,2,0,P|236:84|248:44,1,90,8|0,0:0|0:0,0:0:0:0:
272,304,133158,6,0,L|168:156,1,180,8|0,0:0|0:0,0:0:0:0:
64,124,133458,1,8,0:0:0:0:
64,124,133558,2,0,P|100:72|136:68,1,90
336,92,133758,2,0,P|344:148|336:184,1,90,8|0,0:0|0:0,0:0:0:0:
140,268,133958,2,0,L|36:260,1,90,8|0,0:0|0:0,0:0:0:0:
260,220,134158,2,0,L|272:320,2,90,0|8|0,0:0|0:0|0:0,0:0:0:0:
160,176,134458,1,0,0:0:0:0:
160,176,134558,2,0,P|184:108|224:88,1,90,8|0,0:0|0:0,0:0:0:0:
276,24,134758,6,0,P|336:116|352:200,1,180,12|0,0:0|0:0,0:0:0:0:
324,288,135058,1,8,0:0:0:0:
228,340,135158,2,0,P|156:352|120:344,1,90
104,96,135358,2,0,P|176:84|212:92,1,90,8|0,0:0|0:0,0:0:0:0:
260,224,135558,2,0,L|48:208,1,180,8|0,0:0|0:0,0:0:0:0:
404,176,135858,1,8,0:0:0:0:
404,176,135958,2,0,P|420:288|408:312,1,90
256,128,136158,2,0,P|336:72|400:68,1,90,8|0,0:0|0:0,0:0:0:0:
228,340,136358,6,0,P|180:256|160:176,1,180,8|0,0:0|0:0,0:0:0:0:
256,128,136658,1,8,0:0:0:0:
336,200,136758,2,0,L|324:304,1,90
48,236,136958,2,0,L|36:132,1,90,8|0,0:0|0:0,0:0:0:0:
344,40,137158,2,0,P|368:144|324:212,1,180,8|0,0:0|0:0,0:0:0:0:
124,148,137458,2,0,P|264:120|316:128,1,180,8|0,0:0|0:0,0:0:0:0:
444,284,137758,2,0,P|360:316|324:312,1,90,8|0,0:0|0:0,0:0:0:0:
264,272,137958,5,12,0:0:0:0:
160,308,138058,2,0,P|76:344|40:340,2,90,0|0|8,0:0|0:0|0:0,0:0:0:0:
208,96,138358,2,0,P|140:64|104:72,1,90
300,196,138558,2,0,P|392:192|424:168,1,90,8|0,0:0|0:0,0:0:0:0:
124,148,138758,2,0,L|84:256,1,90,12|0,0:0|0:0,0:0:0:0:
484,132,138958,2,0,P|388:96|372:104,1,90,0|8,0:0|0:0,0:0:0:0:
264,272,139158,1,0,0:0:0:0:
468,336,139258,2,0,P|496:236|492:216,1,90,0|8,0:0|0:0,0:0:0:0:
368,28,139458,1,0,0:0:0:0:
368,28,139558,6,0,P|356:80|312:152,1,90,12|0,0:0|0:0,0:0:0:0:
240,152,139758,2,0,P|136:152|88:120,1,90,0|8,0:0|0:0,0:0:0:0:
56,104,139958,2,0,P|140:48|204:52,1,90
392,236,140158,1,8,0:0:0:0:
392,236,140258,2,0,P|352:328|328:348,2,90,0|12|0,0:0|0:0|0:0,0:0:0:0:
176,244,140558,2,0,P|200:336|216:356,1,90,0|8,0:0|0:0,0:0:0:0:
328,156,140758,2,0,P|280:72|248:68,1,90
184,80,140958,1,8,0:0:0:0:
108,160,141058,1,0,0:0:0:0:
176,244,141158,6,0,P|248:240|288:228,1,90,12|0,0:0|0:0,0:0:0:0:
444,112,141358,2,0,P|368:56|344:56,1,90,0|8,0:0|0:0,0:0:0:0:
56,248,141558,2,0,P|104:336|124:348,1,90
328,156,141758,2,0,P|260:152|224:172,1,90,8|0,0:0|0:0,0:0:0:0:
392,316,141958,2,0,L|460:220,1,90,12|0,0:0|0:0,0:0:0:0:
344,52,142158,1,0,0:0:0:0:
288,260,142258,2,0,L|296:360,2,90,8|0|0,0:0|0:0|0:0,0:0:0:0:
232,52,142558,2,0,P|128:24|96:36,1,90,8|0,0:0|0:0,0:0:0:0:
176,244,142758,6,0,P|292:248|396:216,1,180,12|0,0:0|0:0,0:0:0:0:
148,160,143058,2,0,P|80:240|76:276,2,90,8|4|0,0:0|0:0|0:0,0:0:0:0:
424,176,143358,2,0,P|440:244|416:284,1,90,8|0,0:0|0:0,0:0:0:0:
248,152,143558,2,0,L|344:92,1,90,8|0,0:0|0:0,0:0:0:0:
304,320,143758,1,0,0:0:0:0:
304,320,143858,2,0,P|208:336|76:300,1,180,8|0,0:0|0:0,0:0:0:0:
256,64,144158,2,0,P|328:112|336:148,1,90,8|0,0:0|0:0,0:0:0:0:
256,240,144358,5,4,0:0:0:0:
256,192,157158,12,0,160158,0:0:0:0:
416,112,160358,6,0,P|340:108|304:120,1,90
252,192,160658,1,0,0:0:0:0:
324,272,160758,2,0,P|352:232|352:212,1,45,8|0,0:0|0:0,0:0:0:0:
156,140,160958,2,0,P|136:176|132:204,1,45,0|0,0:0|0:0,0:0:0:0:
264,328,161158,2,0,L|388:344,1,90,4|0,0:0|0:0,0:0:0:0:
148,276,161458,2,0,P|96:300|56:304,1,90,8|0,0:0|0:0,0:0:0:0:
32,200,161758,2,0,P|24:144|36:116,1,45,8|0,0:0|0:0,0:0:0:0:
268,40,161958,6,0,P|296:84|304:144,1,90
224,192,162258,1,0,0:0:0:0:
224,192,162358,2,0,L|208:108,1,45,8|0,0:0|0:0,0:0:0:0:
416,64,162558,1,0,0:0:0:0:
416,64,162658,2,0,P|428:120|432:176,1,90,0|0,0:0|0:0,0:0:0:0:
492,244,162958,2,0,P|448:284|432:288,1,45,0|0,0:0|0:0,0:0:0:0:
380,348,163158,2,0,P|340:328|312:324,1,45,8|0,0:0|0:0,0:0:0:0:
244,276,163358,2,0,P|196:296|168:292,1,45
252,84,163558,6,0,P|300:112|320:184,1,90,4|0,0:0|0:0,0:0:0:0:
348,244,163858,1,0,0:0:0:0:
348,244,163958,2,0,P|392:216|408:192,1,45,8|0,0:0|0:0,0:0:0:0:
180,40,164158,2,0,P|164:88|164:100,1,45
108,248,164358,2,0,L|212:220,1,90,4|0,0:0|0:0,0:0:0:0:
460,164,164658,2,0,P|480:216|468:264,1,90,8|0,0:0|0:0,0:0:0:0:
488,348,164958,2,0,P|440:340|420:328,1,45,8|0,0:0|0:0,0:0:0:0:
376,124,165158,6,0,P|412:84|456:76,1,90,4|0,0:0|0:0,0:0:0:0:
445,75,165458,1,0,0:0:0:0:
445,75,165558,2,0,L|376:72,1,45,8|0,0:0|0:0,0:0:0:0:
272,176,165758,2,0,L|220:136,1,45
100,60,165958,2,0,L|76:224,1,135,0|8,0:0|0:0,0:0:0:0:
80,193,166358,5,0,0:0:0:0:
92,300,166558,2,0,L|152:284,1,45,8|0,0:0|0:0,0:0:0:0:
228,340,166758,6,0,P|288:320|344:332,1,90,4|0,0:0|0:0,0:0:0:0:
376,232,167058,1,0,0:0:0:0:
464,296,167158,2,0,P|472:224|472:180,1,90,8|0,0:0|0:0,0:0:0:0:
420,112,167458,1,0,0:0:0:0:
320,72,167558,2,0,L|284:112,1,45
180,100,167758,2,0,L|200:152,1,45
120,220,167958,2,0,P|168:240|224:232,1,90,8|0,0:0|0:0,0:0:0:0:
304,196,168258,1,0,0:0:0:0:
56,184,168358,6,0,L|80:312,1,90,4|0,0:0|0:0,0:0:0:0:
228,340,168658,2,0,P|292:344|348:328,1,90,8|0,0:0|0:0,0:0:0:0:
432,216,168958,2,0,P|440:168|436:136,1,45,8|0,0:0|0:0,0:0:0:0:
320,52,169158,2,0,P|276:56|236:72,1,45,4|0,0:0|0:0,0:0:0:0:
208,144,169358,1,0,0:0:0:0:
304,196,169458,2,0,P|344:188|368:176,2,45,0|8|0,0:0|0:0|0:0,0:0:0:0:
208,144,169758,2,0,P|144:144|124:152,1,45
88,60,169958,6,0,P|64:96|56:132,1,45,4|0,0:0|0:0,0:0:0:0:
332,280,170158,2,0,P|372:252|384:232,1,45
96,228,170358,2,0,L|104:304,1,45,8|0,0:0|0:0,0:0:0:0:
300,108,170558,2,0,P|264:72|248:68,1,45
268,340,170758,2,0,P|316:360|328:360,1,45
424,140,170958,2,0,L|408:64,1,45
200,236,171158,2,0,L|188:308,1,45,8|0,0:0|0:0,0:0:0:0:
296,252,171358,1,0,0:0:0:0:
236,164,171458,1,0,0:0:0:0:
140,116,171558,6,0,P|76:124|24:148,1,90,4|0,0:0|0:0,0:0:0:0:
232,40,171858,2,0,P|296:32|348:8,1,90,8|0,0:0|0:0,0:0:0:0:
396,100,172158,2,0,P|424:64|428:28,1,45,8|0,0:0|0:0,0:0:0:0:
300,172,172358,2,0,L|348:348,1,180,4|8,0:0|0:0,0:0:0:0:
347,345,172858,1,0,0:0:0:0:
347,345,172958,1,0,0:0:0:0:
347,345,173058,1,0,0:0:0:0:
347,345,173158,6,0,P|424:352|464:324,1,90,4|0,0:0|0:0,0:0:0:0:
120,268,173358,2,0,P|32:292|12:328,1,90
252,324,173558,2,0,P|256:228|224:208,1,90,8|0,0:0|0:0,0:0:0:0:
184,40,173758,2,0,P|152:148|156:172,1,90
348,212,173958,2,0,P|360:144|320:28,1,180,4|0,0:0|0:0,0:0:0:0:
268,132,174258,2,0,P|372:128|456:56,1,180,8|0,0:0|0:0,0:0:0:0:
488,180,174558,2,0,P|452:248|448:304,1,90,8|0,0:0|0:0,0:0:0:0:
124,272,174758,6,0,P|152:176|100:80,1,180,4|0,0:0|0:0,0:0:0:0:
60,192,175058,2,0,P|196:200|240:248,1,180,8|0,0:0|0:0,0:0:0:0:
240,332,175358,2,0,P|304:296|336:252,1,90,8|0,0:0|0:0,0:0:0:0:
424,296,175558,2,0,P|384:180|384:144,1,90,4|0,0:0|0:0,0:0:0:0:
428,112,175758,2,0,P|332:92|288:112,1,90
248,36,175958,2,0,P|244:136|256:160,1,90,8|0,0:0|0:0,0:0:0:0:
272,228,176158,1,0,0:0:0:0:
272,228,176258,1,0,0:0:0:0:
240,332,176358,6,0,P|136:340|64:300,1,180,4|0,0:0|0:0,0:0:0:0:
120,212,176658,1,0,0:0:0:0:
56,124,176758,2,0,P|68:56|56:16,1,90,8|0,0:0|0:0,0:0:0:0:
256,136,176958,2,0,P|356:112|416:140,1,90
424,312,177158,2,0,P|336:304|284:284,1,90,0|0,0:0|0:0,0:0:0:0:
176,156,177358,1,0,0:0:0:0:
176,156,177458,2,0,P|176:100|208:56,2,90,0|8|0,0:0|0:0|0:0,0:0:0:0:
416,164,177758,2,0,P|440:72|424:32,1,90
144,288,177958,6,0,L|502:260,1,360,4|8,0:0|0:0,0:0:0:0:
503,260,178458,1,0,0:0:0:0:
503,260,178558,2,0,P|425:336|373:336,1,90
176,156,178758,2,0,P|260:100|316:104,1,90
324,24,178958,2,0,P|440:64|480:52,1,90
260,228,179158,2,0,P|352:188|468:188,1,180,8|0,0:0|0:0,0:0:0:0:
380,280,179458,1,0,0:0:0:0:
280,320,179558,6,0,P|184:284|176:268,1,90,4|0,0:0|0:0,0:0:0:0:
96,344,179758,2,0,P|100:252|112:236,1,90
20,184,179958,2,0,P|96:148|128:156,1,90,8|0,0:0|0:0,0:0:0:0:
128,44,180158,2,0,P|240:84|292:76,1,90
424,52,180358,2,0,L|288:200,1,180,4|0,0:0|0:0,0:0:0:0:
92,136,180658,2,0,P|208:140|288:84,1,180,8|0,0:0|0:0,0:0:0:0:
444,228,180958,2,0,P|340:244|300:272,1,90,8|0,0:0|0:0,0:0:0:0:
140,264,181158,2,4,P|240:312|336:312,1,180
284,208,181458,1,0,0:0:0:0:
244,108,181558,6,0,P|144:48|112:60,1,90,8|0,0:0|0:0,0:0:0:0:
168,156,181758,2,0,B|248:100|324:128|324:128|420:176|524:104,1,360,4|0,0:0|0:0,0:0:0:0:
420,52,182258,1,0,0:0:0:0:
284,208,182358,2,0,P|360:236|404:240,1,90,8|0,0:0|0:0,0:0:0:0:
80,88,182558,6,0,P|60:188|72:216,1,90
380,172,182758,2,0,L|172:248,1,180,4|0,0:0|0:0,0:0:0:0:
124,300,183058,2,0,P|224:348|304:288,1,180,8|0,0:0|0:0,0:0:0:0:
308,108,183358,2,0,P|224:144|208:164,1,90,8|0,0:0|0:0,0:0:0:0:
476,352,183558,2,0,L|456:128,1,180,4|0,0:0|0:0,0:0:0:0:
148,80,183858,2,0,P|100:172|164:232,1,180,8|0,0:0|0:0,0:0:0:0:
432,84,184158,6,0,P|380:20|324:24,1,90,8|0,0:0|0:0,0:0:0:0:
268,28,184358,2,0,L|284:208,1,180,4|0,0:0|0:0,0:0:0:0:
356,288,184658,2,0,P|392:232|388:184,2,90,0|8|0,0:0|0:0|0:0,0:0:0:0:
52,176,184958,2,0,L|40:312,1,90
256,192,185158,12,4,185958,0:0:0:0:
448,124,186358,6,0,L|336:112,1,90,8|0,0:0|0:0,0:0:0:0:
358,114,186658,1,0,0:0:0:0:
284,192,186858,1,0,0:0:0:0:
284,192,186958,1,0,0:0:0:0:
208,116,187158,1,8,0:0:0:0:
144,204,187358,1,0,0:0:0:0:
144,204,187458,1,0,0:0:0:0:
144,204,187558,2,0,P|96:216|48:200,1,90
248,308,187958,6,0,P|296:296|344:312,1,90,8|0,0:0|0:0,0:0:0:0:
334,306,188258,1,0,0:0:0:0:
432,260,188458,1,0,0:0:0:0:
432,260,188558,2,0,P|400:220|388:220,1,45
416,60,188758,6,0,P|432:108|448:124,1,45,8|0,0:0|0:0,0:0:0:0:
280,164,188958,2,0,P|332:148|364:156,1,45
168,96,189158,6,0,L|64:120,1,90
80,116,189458,1,0,0:0:0:0:
80,116,189558,1,8,0:0:0:0:
48,220,189758,1,0,0:0:0:0:
48,220,189858,1,0,0:0:0:0:
104,312,190058,1,0,0:0:0:0:
104,312,190158,2,0,L|152:292,1,45
240,348,190358,2,0,P|280:324|360:340,1,90,8|0,0:0|0:0,0:0:0:0:
484,348,190758,6,0,L|444:248,1,90,0|8,0:0|0:0,0:0:0:0:
444,156,191358,6,0,L|384:188,1,45
324,104,191558,1,0,0:0:0:0:
324,104,191658,1,0,0:0:0:0:
324,104,191758,2,0,L|256:116,1,45
188,52,191958,2,0,L|164:104,1,45,8|0,0:0|0:0,0:0:0:0:
60,104,192158,2,0,L|72:164,1,45
52,308,192358,6,0,P|68:264|124:232,1,90,4|0,0:0|0:0,0:0:0:0:
256,292,192658,1,0,0:0:0:0:
256,292,192758,2,0,L|204:308,1,45,8|0,0:0|0:0,0:0:0:0:
236,200,192958,1,0,0:0:0:0:
236,200,193058,2,0,P|304:216|344:256,1,90
424,200,193358,2,0,P|428:256|424:280,1,45
336,112,193558,2,0,P|372:72|424:60,1,90,8|0,0:0|0:0,0:0:0:0:
405,60,193858,1,0,0:0:0:0:
405,60,193958,5,0,0:0:0:0:
88,120,194158,1,0,0:0:0:0:
240,60,194358,1,8,0:0:0:0:
144,312,194558,1,0,0:0:0:0:
144,312,194658,1,0,0:0:0:0:
412,292,194858,2,0,L|464:300,1,45
308,268,195058,1,0,0:0:0:0:
308,268,195158,6,0,P|304:308|312:324,1,45,8|0,0:0|0:0,0:0:0:0:
228,236,195358,2,0,P|168:240|152:232,1,45
244,152,195558,2,0,L|364:180,1,90
331,172,195858,1,0,0:0:0:0:
331,172,195958,1,8,0:0:0:0:
412,100,196158,1,0,0:0:0:0:
412,100,196258,1,0,0:0:0:0:
144,124,196458,1,0,0:0:0:0:
144,124,196558,2,0,L|156:48,1,45
52,208,196758,1,8,0:0:0:0:
52,208,196858,1,0,0:0:0:0:
52,208,196958,1,0,0:0:0:0:
108,300,197158,5,4,0:0:0:0:
108,300,197258,2,0,P|164:292|228:316,1,90
348,244,197558,2,0,P|300:248|272:236,1,45
200,212,197758,2,0,B|228:176|228:176|240:128,1,90
376,48,198058,6,0,B|348:84|348:84|336:132,1,90
424,192,198358,2,0,P|436:164|436:128,1,45
116,172,198558,2,0,P|104:228|112:252,1,45
256,192,198758,12,0,200358,0:0:0:0:
