osu file format v14

[General]
AudioFilename: 12. Remember me.mp3
AudioLeadIn: 0
PreviewTime: 117160
Countdown: 0
SampleSet: Normal
StackLeniency: 0.3
Mode: 0
LetterboxInBreaks: 0
EpilepsyWarning: 1
WidescreenStoryboard: 1

[Editor]
Bookmarks: 9960,19558,23408,78758
DistanceSpacing: 1.2
BeatDivisor: 4
GridSize: 4
TimelineZoom: 1.5

[Metadata]
Title:Remember Me
TitleUnicode:Remember Me
Artist:seleP
ArtistUnicode:seleP
Creator:Bara-
Version:Despair
Source:
Tags:Lily Vocaloid Lilium Doll Sele-P 2nd Album UFERIUM Shmiklak Kenterz Kin Fort Avishay cdhsausageboy Reikosaka 17VA Yooh [Shi-Ra] Murder Suicide Yandere
BeatmapID:469727
BeatmapSetID:110547

[Difficulty]
HPDrainRate:6
CircleSize:4
OverallDifficulty:6
ApproachRate:7
SliderMultiplier:1.6
SliderTickRate:2

[Events]
//Background and Video events
0,0,"KylXWYr.jpg",0,0
//Break Periods
2,78958,90658
2,144558,156258
//Storyboard Layer 0 (Background)
//Storyboard Layer 1 (Fail)
//Storyboard Layer 2 (Pass)
//Storyboard Layer 3 (Foreground)
Sprite,Foreground,Centre,"ring.png",320,240 M,0,144358,,291,286 F,1,144358,147558,1,0 S,1,144358,147558,0.2402587,4.204129 P,0,144358,147558,A
//Storyboard Sound Samples

[TimingPoints]
358,400,4,1,1,10,1,0
10358,-100,4,1,1,15,0,0
10758,-100,4,1,1,20,0,0
11158,-100,4,1,1,25,0,0
11558,-100,4,1,1,30,0,0
11858,-100,4,2,1,30,0,0
11958,-100,4,1,1,35,0,0
12358,-100,4,1,1,40,0,0
12758,-100,4,1,1,45,0,0
13158,-100,4,1,1,50,0,0
13188,400,4,1,1,70,1,0
19588,-100,4,1,1,50,0,0
19688,-100,4,1,1,70,0,0
21188,-100,4,1,1,50,0,0
21288,-100,4,1,1,70,0,0
22788,-100,4,1,1,60,0,0
22888,-100,4,1,1,70,0,0
24388,-100,4,1,1,50,0,0
24488,-100,4,1,1,70,0,0
26188,-100,4,1,1,60,0,0
32388,-100,4,1,1,50,0,0
32488,-100,4,1,1,60,0,0
36388,-100,4,1,1,50,0,0
36488,-100,4,1,1,60,0,0
37988,-100,4,1,1,40,0,0
38088,-100,4,1,1,60,0,0
38388,-100,4,1,1,50,0,0
38488,-100,4,1,1,60,0,0
48388,-100,4,1,1,50,0,0
48488,-100,4,1,1,60,0,0
50388,-100,4,1,1,40,0,0
50588,-100,4,1,1,60,0,0
50788,-100,4,1,1,50,0,0
51188,-100,4,1,1,40,0,0
51388,-100,4,1,1,60,0,0
53158,400,4,1,1,70,1,1
55458,-100,4,1,1,40,0,1
55658,-100,4,1,1,55,0,1
55758,-100,4,1,1,70,0,1
59558,-100,4,1,1,50,0,1
59658,-100,4,1,1,70,0,1
61158,-100,4,1,1,60,0,1
61258,-100,4,1,1,70,0,1
62758,-100,4,1,1,40,0,1
62858,-100,4,1,1,70,0,1
63558,-100,4,1,1,50,0,1
63658,-100,4,1,1,70,0,1
64358,-100,4,1,1,50,0,1
64458,-100,4,1,1,70,0,1
65158,-100,4,1,1,55,0,1
65258,-100,4,1,1,70,0,1
65558,-100,4,1,1,40,0,1
65658,-100,4,1,1,70,0,1
72358,-100,4,1,1,50,0,1
72458,-100,4,1,1,70,0,1
73958,-100,4,1,1,40,0,1
74058,-100,4,1,1,70,0,1
74858,-100,4,1,1,55,0,1
75058,-100,4,1,1,70,0,1
75558,-100,4,1,1,40,0,1
75658,-100,4,1,1,70,0,1
76358,-100,4,1,1,50,0,1
76458,-100,4,1,1,70,0,1
77158,-100,4,1,1,60,0,1
77258,-100,4,1,1,70,0,1
77958,-100,4,1,1,40,0,1
78058,-100,4,1,1,70,0,1
78758,-100,4,1,1,60,0,0
91558,-133.333333333333,4,2,1,20,0,0
97958,-100,4,2,1,25,0,0
98758,-133.333333333333,4,2,1,25,0,0
101158,-100,4,2,1,25,0,0
101958,-133.333333333333,4,2,1,25,0,0
104358,-133.333333333333,4,2,1,30,0,0
112358,-133.333333333333,4,2,1,40,0,0
113958,-133.333333333333,4,2,1,50,0,0
114758,-133.333333333333,4,2,1,55,0,0
115558,-133.333333333333,4,2,1,60,0,0
118758,-100,4,1,1,70,0,1
125158,-100,4,1,1,40,0,1
125258,-100,4,1,1,70,0,1
128358,-100,4,1,1,50,0,1
128458,-100,4,1,1,70,0,1
129158,-100,4,1,1,50,0,1
129258,-100,4,1,1,70,0,1
129958,-100,4,1,1,50,0,1
130058,-100,4,1,1,70,0,1
130758,-100,4,1,1,40,0,1
130858,-100,4,1,1,70,0,1
131158,-100,4,1,1,70,0,0
131558,-83.3333333333333,4,1,1,70,0,1
133158,-83.3333333333333,4,1,1,40,0,1
133258,-83.3333333333333,4,1,1,70,0,1
134758,-83.3333333333333,4,1,1,50,0,1
134958,-83.3333333333333,4,1,1,70,0,1
136358,-83.3333333333333,4,1,1,40,0,1
136458,-83.3333333333333,4,1,1,70,0,1
137958,-76.9230769230769,4,1,1,50,0,1
138058,-76.9230769230769,4,1,1,70,0,1
138758,-76.9230769230769,4,1,1,50,0,1
138858,-76.9230769230769,4,1,1,70,0,1
139558,-76.9230769230769,4,1,1,50,0,1
139658,-76.9230769230769,4,1,1,70,0,1
140358,-76.9230769230769,4,1,1,50,0,1
140458,-76.9230769230769,4,1,1,70,0,1
141158,-76.9230769230769,4,1,1,60,0,1
141258,-76.9230769230769,4,1,1,70,0,1
141958,-76.9230769230769,4,1,1,50,0,1
142058,-76.9230769230769,4,1,1,70,0,1
142758,-76.9230769230769,4,1,1,60,0,1
142858,-76.9230769230769,4,1,1,70,0,1
143558,-76.9230769230769,4,1,1,60,0,1
143658,-76.9230769230769,4,1,1,70,0,1
144358,-100,4,1,1,80,0,0
157158,-100,4,2,1,30,0,0
159958,-100,4,2,1,30,0,0
160358,-100,4,1,1,70,0,1
162658,-100,4,1,1,40,0,1
162858,-100,4,1,1,55,0,1
162958,-100,4,1,1,70,0,1
166758,-100,4,1,1,50,0,1
166858,-100,4,1,1,70,0,1
168358,-100,4,1,1,60,0,1
168458,-100,4,1,1,70,0,1
169058,-100,4,1,1,40,0,1
169258,-100,4,1,1,55,0,1
169558,-100,4,1,1,70,0,1
169958,-100,4,1,1,50,0,1
170058,-100,4,1,1,70,0,1
170758,-100,4,1,1,50,0,1
170858,-100,4,1,1,70,0,1
171558,-100,4,1,1,50,0,1
171658,-100,4,1,1,70,0,1
172358,-100,4,1,1,40,0,1
172458,-100,4,1,1,70,0,1
172758,-100,4,1,1,40,0,1
172858,-100,4,1,1,70,0,1
175458,-100,4,1,1,40,0,1
175658,-100,4,1,1,55,0,1
175758,-100,4,1,1,70,0,1
178658,-100,4,1,1,55,0,1
178758,-100,4,1,1,70,0,1
179358,-100,4,1,1,55,0,1
179558,-100,4,1,1,50,0,1
179658,-100,4,1,1,70,0,1
181158,-100,4,1,1,50,0,1
181258,-100,4,1,1,70,0,1
181958,-100,4,1,1,40,0,1
182058,-100,4,1,1,55,0,1
182358,-100,4,1,1,70,0,1
182758,-100,4,1,1,50,0,1
182858,-100,4,1,1,70,0,1
183558,-100,4,1,1,40,0,1
183658,-100,4,1,1,70,0,1
184358,-100,4,1,1,50,0,1
184458,-100,4,1,1,70,0,1
185158,-100,4,1,1,50,0,1
185258,-100,4,1,1,70,0,1
185558,-100,4,1,1,50,0,1
185758,-100,4,1,1,70,0,1
185958,-100,4,1,1,60,0,0
192358,-100,4,1,1,40,0,0
192458,-100,4,1,1,60,0,0
193958,-100,4,1,1,50,0,0
194058,-100,4,1,1,60,0,0
197158,-100,4,1,1,40,0,0
197258,-100,4,1,1,60,0,0
197958,-100,4,1,1,50,0,0
198058,-100,4,1,1,60,0,0
198658,-100,4,1,1,100,0,0

[Colours]
Combo1 : 0,0,176
Combo2 : 255,0,0
Combo3 : 0,255,255
Combo4 : 0,255,0
Combo5 : 255,255,0
Combo6 : 255,0,255
Combo7 : 255,128,192
Combo8 : 255,128,0

[HitObjects]
256,192,9958,12,0,12358,3:0:0:0:
161,52,13188,6,0,L|181:129,1,80,4|0,0:0|0:0,0:0:0:0:
102,144,13588,2,0,L|82:221,1,80,8|0,0:0|0:0,0:0:0:0:
8,254,13988,2,0,P|35:287|145:269,1,160,0|8,0:0|0:0,0:0:0:0:
196,216,14588,1,0,0:0:0:0:
256,163,14788,6,0,B|296:158|296:158|337:165,1,80
374,234,15188,2,0,B|413:240|413:240|453:235,1,80,8|0,0:0|0:0,0:0:0:0:
507,176,15588,2,0,P|476:248|505:320,1,160,0|8,0:0|0:0,0:0:0:0:
433,355,16188,1,0,0:0:0:0:
353,357,16388,6,0,P|304:351|250:353,1,80,4|0,0:0|0:0,0:0:0:0:
193,341,16788,2,0,P|153:340|113:335,1,80,8|0,0:0|0:0,0:0:0:0:
40,368,17188,2,0,P|34:321|119:255,1,160,0|8,0:0|0:0,0:0:0:0:
186,222,17788,1,0,0:0:0:0:
264,205,17988,6,0,B|345:209|345:209|433:187,1,160,4|8,0:0|0:0,0:0:0:0:
453,82,18588,1,0,0:0:0:0:
453,82,18688,1,0,0:0:0:0:
453,82,18788,2,0,B|372:78|372:78|284:100,1,160,4|8,0:0|0:0,0:0:0:0:
214,96,19388,1,0,0:0:0:0:
148,142,19588,6,0,P|138:174|146:231,1,80,4|0,0:0|0:0,0:0:0:0:
203,271,19988,2,0,P|213:303|205:360,1,80,8|0,0:0|0:0,0:0:0:0:
134,320,20388,2,0,L|327:292,1,160,0|8,0:0|0:0,0:0:0:0:
340,232,20988,1,0,0:0:0:0:
388,168,21188,6,0,P|414:203|417:246,2,80,4|0|8,0:0|0:0|0:0,0:0:0:0:
321,123,21788,2,0,B|243:106|243:106|158:122,1,160,0|0,0:0|0:0,0:0:0:0:
125,191,22388,2,0,P|98:168|83:116,1,80,8|0,0:0|0:0,0:0:0:0:
164,120,22788,6,0,P|204:186|169:257,1,160,4|8,0:0|0:0,0:0:0:0:
98,340,23388,2,0,B|98:222|98:222|125:191,1,160,0|0,0:0|0:0,0:0:0:0:
164,120,23988,2,0,L|164:39,1,80,8|0,0:0|0:0,0:0:0:0:
242,84,24388,6,0,L|242:206,2,120,4|0|0,0:0|0:0|0:0,0:0:0:0:
318,126,25188,2,0,L|318:248,2,120,4|0|0,0:0|0:0|0:0,0:0:0:0:
390,67,25988,6,0,P|406:106|410:155,1,80,4|0,0:0|0:0,0:0:0:0:
404,230,26388,2,0,P|409:269|424:306,1,80,8|0,0:0|0:0,0:0:0:0:
476,367,26788,2,0,P|424:342|319:358,1,160,0|8,0:0|0:0,0:0:0:0:
245,363,27388,1,0,0:0:0:0:
165,353,27588,6,0,B|127:343|127:343|100:312,1,80,0|0,0:0|0:0,0:0:0:0:
129,237,27988,2,0,B|102:206|102:206|64:196,1,80,8|0,0:0|0:0,0:0:0:0:
14,259,28388,2,0,P|47:214|13:120,1,160,0|8,0:0|0:0,0:0:0:0:
48,49,28988,1,0,0:0:0:0:
126,33,29188,6,0,L|218:27,1,80,4|0,0:0|0:0,0:0:0:0:
224,105,29588,2,0,L|316:111,1,80,8|0,0:0|0:0,0:0:0:0:
361,165,29988,2,0,P|382:119|350:49,2,120,0|0|0,0:0|0:0|0:0,0:0:0:0:
288,198,30788,6,0,P|350:213|401:300,1,160,4|8,0:0|0:0,0:0:0:0:
304,346,31388,1,0,0:0:0:0:
304,346,31488,1,0,0:0:0:0:
304,346,31588,2,0,P|242:331|191:244,1,160,4|8,0:0|0:0,0:0:0:0:
209,176,32188,1,0,0:0:0:0:
265,119,32388,6,0,P|306:116|344:138,1,80,4|0,0:0|0:0,0:0:0:0:
374,206,32788,2,0,P|409:223|448:220,1,80,8|0,0:0|0:0,0:0:0:0:
427,143,33188,2,0,L|392:310,1,160,0|8,0:0|0:0,0:0:0:0:
324,338,33788,1,0,0:0:0:0:
245,350,33988,6,0,P|199:352|155:343,1,80,4|0,0:0|0:0,0:0:0:0:
157,266,34388,2,0,P|117:259|77:262,1,80,8|0,0:0|0:0,0:0:0:0:
14,312,34788,2,0,P|54:253|20:164,1,160,0|8,0:0|0:0,0:0:0:0:
54,96,35388,1,0,0:0:0:0:
129,123,35588,6,0,P|170:127|236:116,1,80,4|0,0:0|0:0,0:0:0:0:
242,195,35988,2,0,P|281:191|321:195,1,80,8|0,0:0|0:0,0:0:0:0:
394,228,36388,2,0,B|406:190|406:190|390:154|390:154|399:109,2,120,4|0|0,0:0|0:0|0:0,0:0:0:0:
366,303,37188,5,4,0:0:0:0:
293,336,37388,1,0,0:0:0:0:
213,333,37588,2,0,P|160:331|124:317,1,80,12|0,0:0|0:0,0:0:0:0:
134,242,37988,2,0,P|95:231|55:231,1,80,4|0,0:0|0:0,0:0:0:0:
9,165,38388,1,12,0:0:0:0:
61,70,38588,1,0,0:0:0:0:
61,70,38688,1,0,0:0:0:0:
61,70,38788,6,0,L|146:53,1,80,4|0,0:0|0:0,0:0:0:0:
157,133,39188,2,0,L|242:150,1,80,8|0,0:0|0:0,0:0:0:0:
312,128,39588,2,0,P|312:175|257:227,2,120,0|0|0,0:0|0:0|0:0,0:0:0:0:
262,64,40388,6,0,P|299:48|347:56,1,80,0|0,0:0|0:0,0:0:0:0:
397,105,40788,2,0,P|436:108|472:92,1,80,8|0,0:0|0:0,0:0:0:0:
426,27,41188,2,0,L|450:195,1,160,0|8,0:0|0:0,0:0:0:0:
415,258,41788,1,0,0:0:0:0:
345,296,41988,6,0,P|381:331|454:329,2,120,4|0|0,0:0|0:0|0:0,0:0:0:0:
282,245,42788,2,0,B|242:237|242:237|196:238,1,80,0|0,0:0|0:0,0:0:0:0:
127,266,43188,2,0,B|87:266|87:266|47:258,1,80,8|0,0:0|0:0,0:0:0:0:
39,178,43588,6,0,B|84:113|84:113|170:87,1,160,4|8,0:0|0:0,0:0:0:0:
272,121,44188,1,0,0:0:0:0:
272,121,44288,1,0,0:0:0:0:
272,121,44388,2,0,B|227:186|227:186|141:212,1,160,4|8,0:0|0:0,0:0:0:0:
56,249,44988,1,0,0:0:0:0:
56,249,45088,1,0,0:0:0:0:
56,249,45188,6,0,P|57:293|77:333,1,80,4|0,0:0|0:0,0:0:0:0:
131,272,45588,2,0,P|130:228|110:188,1,80,8|0,0:0|0:0,0:0:0:0:
44,157,45988,2,0,P|70:129|150:126,2,120,0|0|0,0:0|0:0|0:0,0:0:0:0:
32,236,46788,6,0,B|30:278|30:278|39:321,1,80,4|0,0:0|0:0,0:0:0:0:
109,351,47188,1,8,0:0:0:0:
188,362,47388,1,0,0:0:0:0:
188,362,47488,1,0,0:0:0:0:
188,362,47588,2,0,L|281:367,1,80,0|0,0:0|0:0,0:0:0:0:
291,289,47988,2,0,L|384:284,1,80,8|0,0:0|0:0,0:0:0:0:
427,228,48388,6,0,P|449:274|416:351,2,120,4|0|0,0:0|0:0|0:0,0:0:0:0:
352,198,49188,2,0,P|330:152|363:75,2,120,4|0|0,0:0|0:0|0:0,0:0:0:0:
410,142,49988,1,4,0:0:0:0:
410,142,50088,1,0,0:0:0:0:
410,142,50188,1,0,0:0:0:0:
256,192,50388,12,12,51588,0:0:0:0:
46,92,53158,5,4,0:0:0:0:
87,160,53358,1,0,0:0:0:0:
150,209,53558,2,0,P|192:216|242:210,1,80,8|0,0:0|0:0,0:0:0:0:
283,154,53958,2,0,P|306:226|254:283,1,160,0|8,0:0|0:0,0:0:0:0:
174,290,54558,1,0,0:0:0:0:
94,279,54758,6,0,P|49:275|13:281,1,80,0|0,0:0|0:0,0:0:0:0:
44,354,55158,2,0,P|89:358|125:352,1,80,8|0,0:0|0:0,0:0:0:0:
174,290,55558,2,0,B|255:287|255:287|337:292,1,160,0|8,0:0|0:0,0:0:0:0:
379,358,56158,1,0,0:0:0:0:
409,284,56358,6,0,P|391:242|356:221,1,80,4|0,0:0|0:0,0:0:0:0:
286,201,56758,2,0,P|254:177|240:140,1,80,8|0,0:0|0:0,0:0:0:0:
295,61,57158,2,0,B|319:40|319:40|320:128,2,120
215,68,57958,6,0,B|136:85|136:85|42:84,1,160,4|8,0:0|0:0,0:0:0:0:
33,160,58558,1,0,0:0:0:0:
33,160,58658,1,0,0:0:0:0:
33,160,58758,2,0,L|117:160,1,80,4|0,0:0|0:0,0:0:0:0:
169,216,59158,2,0,L|253:216,1,80,8|0,0:0|0:0,0:0:0:0:
305,302,59558,6,0,L|221:302,2,80,4|0|8,0:0|0:0|0:0,0:0:0:0:
376,267,60158,1,0,0:0:0:0:
407,194,60358,2,0,L|405:59,2,120
456,261,61158,6,0,L|458:396,2,120,4|0|0,0:0|0:0|0:0,0:0:0:0:
407,193,61958,2,0,P|364:191|314:197,1,80
285,275,62358,2,0,P|328:277|378:271,1,80,8|0,0:0|0:0,0:0:0:0:
318,355,62758,5,4,3:1:0:0:
238,366,62958,1,0,3:1:0:0:
161,344,63158,1,8,3:1:0:0:
100,292,63358,1,0,3:1:0:0:
70,217,63558,2,0,L|67:174,2,40,4|8|0,3:1|3:1|3:1,3:1:0:0:
139,167,63958,2,0,L|142:124,2,40,8|0|0,3:1|3:1|3:1,3:1:0:0:
206,210,64358,5,4,3:1:0:0:
224,216,64458,1,0,3:1:0:0:
244,218,64558,1,0,3:1:0:0:
264,215,64658,1,0,3:1:0:0:
282,206,64758,2,0,L|318:182,3,40,12|0|0|0,3:1|3:1|3:1|3:1,3:1:0:0:
354,122,65158,5,4,3:1:0:0:
373,115,65258,1,8,3:1:0:0:
393,113,65358,1,0,3:1:0:0:
412,117,65458,1,0,3:1:0:0:
430,125,65558,2,0,L|465:149,3,40,12|0|0|0,3:1|3:1|3:1|3:1,3:1:0:0:
483,217,65958,6,0,B|484:259|484:259|471:304,1,80,4|0,0:0|0:0,0:0:0:0:
384,282,66358,2,0,B|373:318|373:318|374:360,1,80,8|0,0:0|0:0,0:0:0:0:
300,282,66758,2,0,P|309:247|378:200,2,120,0|0|0,0:0|0:0|0:0,0:0:0:0:
226,336,67558,6,0,P|183:339|140:330,1,80,0|0,0:0|0:0,0:0:0:0:
94,265,67958,2,0,P|54:258|14:261,1,80,8|0,0:0|0:0,0:0:0:0:
49,341,68358,2,0,L|58:162,1,160,0|8,0:0|0:0,0:0:0:0:
98,103,68958,1,0,0:0:0:0:
98,103,69058,1,0,0:0:0:0:
98,103,69158,6,0,L|188:86,1,80,4|0,0:0|0:0,0:0:0:0:
183,176,69558,2,0,L|261:190,1,80,8|0,0:0|0:0,0:0:0:0:
325,252,69958,2,0,P|349:210|321:135,2,120,0|0|0,0:0|0:0|0:0,0:0:0:0:
240,276,70758,6,0,P|273:327|379:317,1,160,4|8,0:0|0:0,0:0:0:0:
475,226,71358,1,0,0:0:0:0:
475,226,71458,1,0,0:0:0:0:
475,226,71558,2,0,B|354:226|354:226|324:252,1,160,4|8,0:0|0:0,0:0:0:0:
240,276,72158,1,8,0:0:0:0:
240,276,72258,1,8,0:0:0:0:
240,276,72358,6,0,L|148:255,1,80,4|0,0:0|0:0,0:0:0:0:
158,169,72758,2,0,L|66:190,1,80,8|0,0:0|0:0,0:0:0:0:
0,149,73158,2,0,P|-8:207|24:255,2,120,0|0|0,0:0|0:0|0:0,0:0:0:0:
82,119,73958,2,0,P|90:60|57:12,2,120,4|0|0,0:0|0:0|0:0,0:0:0:0:
4,77,74758,2,0,L|165:35,1,160,0|8,0:0|0:0,0:0:0:0:
243,63,75358,1,8,0:0:0:0:
243,63,75458,1,8,0:0:0:0:
243,63,75558,6,0,B|282:69|282:69|323:64|323:64|366:69,2,120,4|0|8,0:0|0:0|0:0,0:0:0:0:
202,141,76358,2,0,B|163:147|163:147|122:142|122:142|79:147,2,120,4|8|8,0:0|0:0|0:0,0:0:0:0:
288,157,77158,5,4,3:1:0:0:
282,176,77258,1,0,3:1:0:0:
272,193,77358,1,0,3:1:0:0:
258,207,77458,1,0,3:1:0:0:
241,217,77558,1,12,3:1:0:0:
223,227,77658,1,0,3:1:0:0:
210,241,77758,1,0,3:1:0:0:
200,258,77858,1,0,3:1:0:0:
194,278,77958,2,0,P|183:304|171:315,7,40,4|0|0|0|12|0|0|0,3:1|3:1|3:1|3:1|3:1|3:1|3:1|3:1,0:0:0:0:
136,333,78758,5,0,3:1:0:0:
85,190,91558,6,0,B|95:249|95:249|134:307,1,120.000004577637,4|0,0:0|0:0,0:0:0:0:
163,171,92358,2,0,P|142:130|95:108,2,90.0000034332277,0|0|0,0:0|0:0|0:0,0:0:0:0:
189,237,93158,2,0,P|218:256|247:255,1,60.0000022888184,0|0,0:0|0:0,0:0:0:0:
311,235,93558,2,0,P|340:236|364:254,1,60.0000022888184,0|0,0:0|0:0,0:0:0:0:
373,325,93958,2,0,P|410:313|434:245,2,90.0000034332277,0|0|0,0:0|0:0|0:0,0:0:0:0:
301,323,94758,6,0,B|241:326|241:326|158:315,1,120.000004577637,2|0,0:0|0:0,0:0:0:0:
114,190,95558,2,0,B|174:187|174:187|257:198,1,120.000004577637,2|0,0:0|0:0,0:0:0:0:
300,221,96158,1,0,0:0:0:0:
368,241,96358,2,0,B|486:257|486:257|502:227|492:205|469:200,2,180.000006866455,2|0|0,0:0|0:0|0:0,0:0:0:0:
232,202,97958,5,4,0:0:0:0:
232,202,101158,5,4,0:0:0:0:
232,202,101958,1,4,0:0:0:0:
232,202,102758,2,0,B|243:142|243:142|233:80,1,120.000004577637,4|4,0:0|0:0,0:0:0:0:
148,199,103558,2,0,P|164:255|226:285,1,120.000004577637,4|4,0:0|0:0,0:0:0:0:
321,203,104358,6,0,L|232:202,2,90.0000034332277,4|0|0,0:0|0:0|0:0,0:0:0:0:
368,258,105158,2,0,L|457:259,2,90.0000034332277,2|0|0,0:0|0:0|0:0,0:0:0:0:
305,294,105958,2,0,B|186:292|186:292|120:312,1,180.000006866455,2|0,0:0|0:0,0:0:0:0:
113,238,106758,2,0,B|171:220|171:220|290:222,1,180.000006866455,2|0,0:0|0:0,0:0:0:0:
362,226,107558,6,0,P|354:187|299:150,2,90.0000034332277,4|0|0,0:0|0:0|0:0,0:0:0:0:
328,290,108358,2,0,P|366:299|400:289,1,60.0000022888184,2|0,0:0|0:0,0:0:0:0:
442,249,108758,2,0,P|471:245|500:254,1,60.0000022888184,0|0,0:0|0:0,0:0:0:0:
465,317,109158,2,0,L|490:129,1,180.000006866455,4|0,0:0|0:0,0:0:0:0:
498,66,109958,2,0,P|442:78|414:143,1,120.000004577637,4|4,0:0|0:0,0:0:0:0:
380,194,110558,1,0,0:0:0:0:
324,148,110758,6,0,L|282:140,15,30.0000011444092,4|0|0|0|0|0|0|0|0|0|0|0|0|0|0|0,3:2|3:2|3:2|3:2|3:2|3:2|3:2|3:2|3:2|3:2|3:2|3:2|3:2|3:2|3:2|3:2,0:0:0:0:
285,107,112358,2,0,L|243:115,15,30.0000011444092,4|0|0|0|0|0|0|0|0|0|0|0|0|0|0|0,3:2|3:2|3:2|3:2|3:2|3:2|3:2|3:2|3:2|3:2|3:2|3:2|3:2|3:2|3:2|3:2,0:0:0:0:
248,148,113958,6,0,L|206:140,7,30.0000011444092,4|0|0|0|0|0|0|0,3:2|3:2|3:2|3:2|3:2|3:2|3:2|3:2,0:0:0:0:
209,107,114758,2,0,L|167:115,7,30.0000011444092,4|0|0|0|0|0|0|0,3:2|3:2|3:2|3:2|3:2|3:2|3:2|3:2,0:0:0:0:
173,148,115558,6,0,L|131:140,3,30.0000011444092,4|0|0|0,3:2|3:2|3:2|3:2,0:0:0:0:
134,107,115958,2,0,L|92:115,3,30.0000011444092,4|0|0|0,3:2|3:2|3:2|3:2,0:0:0:0:
97,148,116358,2,0,L|55:140,3,30.0000011444092,4|0|0|0,3:2|3:2|3:2|3:2,0:0:0:0:
58,107,116758,2,0,L|16:115,3,30.0000011444092,4|0|0|0,3:2|3:2|3:2|3:2,0:0:0:0:
256,192,117158,12,4,118358,3:2:0:0:
89,61,118758,6,0,B|72:99|72:99|75:141,1,80,4|0,0:0|0:0,0:0:0:0:
94,181,119058,2,0,B|96:219|96:219|79:257,1,80,0|0,0:0|0:0,0:0:0:0:
49,294,119358,1,0,0:0:0:0:
138,329,119558,2,0,L|224:335,1,80,0|0,0:0|0:0,0:0:0:0:
266,251,119958,2,0,L|352:245,1,80,8|0,0:0|0:0,0:0:0:0:
436,277,120358,6,0,P|442:234|423:189,1,80,0|0,0:0|0:0,0:0:0:0:
408,156,120658,2,0,P|396:118|402:78,1,80,0|0,0:0|0:0,0:0:0:0:
417,33,120958,1,0,0:0:0:0:
321,44,121158,2,0,B|283:51|283:51|240:51,1,80,0|0,0:0|0:0,0:0:0:0:
192,133,121558,2,0,B|150:133|150:133|112:140,1,80,8|0,0:0|0:0,0:0:0:0:
164,220,121958,6,0,P|211:223|247:207,1,80,4|0,0:0|0:0,0:0:0:0:
273,175,122258,2,0,P|310:161|349:166,1,80,0|0,0:0|0:0,0:0:0:0:
394,183,122558,1,0,0:0:0:0:
475,233,122758,2,0,P|487:187|479:149,1,80,0|0,0:0|0:0,0:0:0:0:
454,117,123058,2,0,P|449:77|461:39,1,80,0|0,0:0|0:0,0:0:0:0:
487,1,123358,1,0,0:0:0:0:
395,30,123558,6,0,B|357:42|357:42|307:41,1,80,4|0,0:0|0:0,0:0:0:0:
282,74,123858,2,0,B|241:73|241:73|203:85,1,80,0|0,0:0|0:0,0:0:0:0:
161,107,124158,1,0,0:0:0:0:
103,184,124358,2,0,B|141:196|141:196|191:195,1,80,4|0,0:0|0:0,0:0:0:0:
216,228,124658,2,0,B|256:227|256:227|294:239,1,80,0|0,0:0|0:0,0:0:0:0:
337,261,124958,1,0,0:0:0:0:
399,334,125158,6,0,P|426:292|427:253,1,80,4|0,3:1|3:1,0:0:0:0:
410,217,125458,2,0,P|415:177|439:145,1,80,0|0,3:1|3:1,0:0:0:0:
464,104,125758,1,0,3:1:0:0:
379,57,125958,2,0,B|341:48|341:48|295:56,1,80,0|0,3:1|3:1,0:0:0:0:
230,120,126358,2,0,B|189:127|189:127|151:118,1,80,8|0,3:1|3:1,0:0:0:0:
60,148,126758,6,0,P|56:103|108:39,2,120,4|0|0,3:1|3:1|3:1,0:0:0:0:
101,234,127558,2,0,B|125:266|125:266|168:278,1,80,0|0,3:1|3:1,0:0:0:0:
211,273,127858,2,0,B|249:283|249:283|273:315,1,80,0|0,3:1|3:1,0:0:0:0:
295,358,128158,1,0,3:1:0:0:
377,309,128358,6,0,L|416:300,7,40,4|0|0|0|8|0|0|0,3:1|3:1|3:1|3:1|3:1|3:1|3:1|3:1,0:0:0:0:
395,256,129158,2,0,L|434:247,7,40,4|0|0|0|8|0|0|0,3:1|3:1|3:1|3:1|3:1|3:1|3:1|3:1,0:0:0:0:
453,203,129958,6,0,L|492:194,7,40,4|0|0|0|12|0|0|0,3:1|3:1|3:1|3:1|3:1|3:1|3:1|3:1,0:0:0:0:
471,150,130758,2,0,L|510:141,7,40,4|0|0|0|12|0|0|0,3:1|3:1|3:1|3:1|3:1|3:1|3:1|3:1,0:0:0:0:
395,150,131558,6,0,B|348:145|348:145|298:130,1,95.9999970703126,4|2,3:1|0:0,0:0:0:0:
239,95,131858,2,0,B|192:80|192:80|145:75,1,95.9999970703126,2|2,0:0|0:0,0:0:0:0:
85,116,132158,1,2,0:0:0:0:
80,259,132358,2,0,P|116:283|176:286,1,95.9999970703126,2|2,0:0|0:0,0:0:0:0:
235,263,132658,2,0,P|282:266|322:291,1,95.9999970703126,2|2,0:0|0:0,0:0:0:0:
355,355,132958,1,2,0:0:0:0:
459,256,133158,6,0,B|483:215|483:215|486:164,1,95.9999970703126,6|2,0:0|0:0,0:0:0:0:
417,144,133458,2,0,B|419:95|419:95|443:54,1,95.9999970703126,2|2,0:0|0:0,0:0:0:0:
501,11,133758,1,2,0:0:0:0:
357,26,133958,2,0,B|309:26|309:26|264:50,1,95.9999970703126,2|2,0:0|0:0,0:0:0:0:
282,119,134258,2,0,B|239:141|239:141|191:142,1,95.9999970703126,2|2,0:0|0:0,0:0:0:0:
125,116,134558,1,2,0:0:0:0:
163,254,134758,6,0,B|129:289|129:289|76:297|23:277,2,143.999995605469,6|2|2,0:0|0:0|0:0,0:0:0:0:
299,299,135558,2,0,B|333:264|333:264|386:256|439:276,2,143.999995605469,6|2|2,0:0|0:0|0:0,0:0:0:0:
435,348,136358,6,0,P|486:323|501:267,1,95.9999970703126,6|2,0:0|0:0,0:0:0:0:
493,212,136658,2,0,P|442:237|427:293,1,95.9999970703126,2|2,0:0|0:0,0:0:0:0:
435,348,136958,1,2,0:0:0:0:
292,367,137158,2,0,B|245:370|245:370|197:356,1,95.9999970703126,6|2,0:0|0:0,0:0:0:0:
177,213,137558,2,0,B|130:199|130:199|83:202,1,95.9999970703126,12|2,0:0|0:0,0:0:0:0:
211,290,137958,6,0,P|256:245|256:193,1,103.999995239258,6|10,3:1|3:1,0:0:0:0:
239,137,138258,2,0,P|248:86|287:54,1,103.999995239258,2|2,3:1|3:1,0:0:0:0:
310,123,138558,1,10,3:1:0:0:
455,114,138758,2,0,P|468:176|439:219,1,103.999995239258,14|10,3:1|3:1,0:0:0:0:
395,258,139058,2,0,P|375:305|390:353,1,103.999995239258,2|2,3:1|3:1,0:0:0:0:
447,308,139358,1,10,3:1:0:0:
308,353,139558,6,0,B|257:360|257:360|196:352,1,103.999995239258,14|10,3:1|3:1,0:0:0:0:
178,284,139858,2,0,B|125:277|125:277|74:284,1,103.999995239258,2|2,3:1|3:1,0:0:0:0:
16,328,140158,1,10,3:1:0:0:
28,192,140358,2,0,B|59:150|59:150|107:113,1,103.999995239258,14|10,3:1|3:1,0:0:0:0:
168,148,140658,2,0,B|209:116|209:116|240:74,1,103.999995239258,2|2,3:1|3:1,0:0:0:0:
263,6,140958,1,10,3:1:0:0:
397,60,141158,5,14,3:1:0:0:
412,80,141258,1,0,3:1:0:0:
419,105,141358,1,10,3:1:0:0:
416,131,141458,1,2,3:1:0:0:
403,153,141558,1,12,3:1:0:0:
391,176,141658,1,2,3:1:0:0:
388,201,141758,1,10,3:1:0:0:
394,226,141858,1,2,3:1:0:0:
410,247,141958,2,0,L|447:289,7,51.999997619629,14|0|10|2|12|2|10|2,3:1|3:1|3:1|3:1|3:1|3:1|3:1|3:1,0:0:0:0:
506,324,142758,5,14,3:1:0:0:
489,343,142858,1,0,3:1:0:0:
466,356,142958,1,14,3:1:0:0:
441,359,143058,1,2,3:1:0:0:
416,352,143158,1,12,3:1:0:0:
392,345,143258,1,2,3:1:0:0:
366,348,143358,1,14,3:1:0:0:
343,360,143458,1,2,3:1:0:0:
327,380,143558,6,0,P|301:383|265:378,3,51.999997619629,14|0|10|2,3:1|3:1|3:1|3:1,0:0:0:0:
234,320,143958,2,0,P|208:317|182:320,3,51.999997619629,12|2|14|2,3:1|3:1|3:1|3:1,0:0:0:0:
122,364,144358,5,14,3:1:0:0:
256,192,157158,12,0,159958,3:0:0:0:
466,292,160358,5,4,0:0:0:0:
425,224,160558,1,0,0:0:0:0:
362,175,160758,2,0,P|320:168|270:174,1,80,8|0,0:0|0:0,0:0:0:0:
224,226,161158,2,0,P|204:153|256:96,1,160,0|8,0:0|0:0,0:0:0:0:
338,94,161758,1,0,0:0:0:0:
418,105,161958,6,0,P|463:109|499:103,1,80,0|0,0:0|0:0,0:0:0:0:
468,30,162358,2,0,P|423:26|387:32,1,80,8|0,0:0|0:0,0:0:0:0:
338,94,162758,2,0,B|257:97|257:97|175:92,1,160,0|8,0:0|0:0,0:0:0:0:
133,26,163358,1,0,0:0:0:0:
103,100,163558,6,0,P|121:142|156:163,1,80,4|0,0:0|0:0,0:0:0:0:
226,183,163958,2,0,P|258:207|272:244,1,80,8|0,0:0|0:0,0:0:0:0:
217,323,164358,2,0,B|193:344|193:344|192:256,2,120,0|0|0,0:0|0:0|0:0,0:0:0:0:
297,316,165158,6,0,B|376:299|376:299|470:300,1,160,4|8,0:0|0:0,0:0:0:0:
479,224,165758,1,0,0:0:0:0:
479,224,165858,1,0,0:0:0:0:
479,224,165958,2,0,L|395:224,1,80,4|0,0:0|0:0,0:0:0:0:
343,168,166358,2,0,L|259:168,1,80,8|0,0:0|0:0,0:0:0:0:
207,82,166758,6,0,L|291:82,2,80,4|0|8,0:0|0:0|0:0,0:0:0:0:
136,117,167358,1,0,0:0:0:0:
105,190,167558,2,0,L|107:325,2,120
56,123,168358,6,0,L|54:-12,2,120,4|0|0,0:0|0:0|0:0,0:0:0:0:
105,191,169158,2,0,P|148:193|198:187,1,80
227,109,169558,2,0,P|184:107|134:113,1,80,8|0,0:0|0:0,0:0:0:0:
194,29,169958,5,4,3:1:0:0:
274,18,170158,1,0,3:1:0:0:
351,40,170358,1,8,3:1:0:0:
412,92,170558,1,0,3:1:0:0:
442,167,170758,2,0,L|445:210,2,40,4|8|0,3:1|3:1|3:1,3:1:0:0:
373,217,171158,2,0,L|370:260,2,40,8|0|0,3:1|3:1|3:1,3:1:0:0:
306,174,171558,5,4,3:1:0:0:
288,168,171658,1,0,3:1:0:0:
268,166,171758,1,0,3:1:0:0:
248,169,171858,1,0,3:1:0:0:
230,178,171958,2,0,L|194:202,3,40,12|0|0|0,3:1|3:1|3:1|3:1,3:1:0:0:
158,262,172358,5,4,3:1:0:0:
139,269,172458,1,8,3:1:0:0:
119,271,172558,1,0,3:1:0:0:
100,267,172658,1,0,3:1:0:0:
82,259,172758,2,0,L|47:235,3,40,12|0|0|0,3:1|3:1|3:1|3:1,3:1:0:0:
29,167,173158,6,0,B|28:125|28:125|41:80,1,80,4|0,0:0|0:0,0:0:0:0:
128,102,173558,2,0,B|139:66|139:66|138:24,1,80,8|0,0:0|0:0,0:0:0:0:
212,102,173958,2,0,P|203:137|134:184,2,120,0|0|0,0:0|0:0|0:0,0:0:0:0:
286,48,174758,6,0,P|329:45|372:54,1,80,0|0,0:0|0:0,0:0:0:0:
418,119,175158,2,0,P|458:126|498:123,1,80,8|0,0:0|0:0,0:0:0:0:
463,43,175558,2,0,L|454:222,1,160,0|8,0:0|0:0,0:0:0:0:
414,281,176158,1,0,0:0:0:0:
414,281,176258,1,0,0:0:0:0:
414,281,176358,6,0,L|324:298,1,80,4|0,0:0|0:0,0:0:0:0:
329,208,176758,2,0,L|251:194,1,80,8|0,0:0|0:0,0:0:0:0:
187,132,177158,2,0,P|163:174|191:249,2,120,0|0|0,0:0|0:0|0:0,0:0:0:0:
272,108,177958,6,0,P|239:57|133:67,1,160,4|8,0:0|0:0,0:0:0:0:
37,158,178558,1,0,0:0:0:0:
37,158,178658,1,0,0:0:0:0:
37,158,178758,2,0,B|158:158|158:158|188:132,1,160,4|8,0:0|0:0,0:0:0:0:
272,108,179358,1,8,0:0:0:0:
272,108,179458,1,8,0:0:0:0:
272,108,179558,6,0,L|364:129,1,80,4|0,0:0|0:0,0:0:0:0:
354,215,179958,2,0,L|446:194,1,80,8|0,0:0|0:0,0:0:0:0:
512,235,180358,2,0,P|520:177|488:129,2,120,0|0|0,0:0|0:0|0:0,0:0:0:0:
430,265,181158,2,0,P|422:324|455:372,2,120,4|0|0,0:0|0:0|0:0,0:0:0:0:
508,307,181958,2,0,L|347:349,1,160,0|8,0:0|0:0,0:0:0:0:
269,321,182558,1,8,0:0:0:0:
269,321,182658,1,8,0:0:0:0:
269,321,182758,6,0,B|230:315|230:315|189:320|189:320|146:315,2,120,4|0|8,0:0|0:0|0:0,0:0:0:0:
310,243,183558,2,0,B|349:237|349:237|390:242|390:242|433:237,2,120,4|8|8,0:0|0:0|0:0,0:0:0:0:
224,227,184358,5,4,3:1:0:0:
230,208,184458,1,0,3:1:0:0:
240,191,184558,1,0,3:1:0:0:
254,177,184658,1,0,3:1:0:0:
271,167,184758,1,12,3:1:0:0:
289,157,184858,1,0,3:1:0:0:
302,143,184958,1,0,3:1:0:0:
312,126,185058,1,0,3:1:0:0:
318,106,185158,2,0,P|329:80|341:69,7,40,4|0|0|0|12|0|0|0,3:1|3:1|3:1|3:1|3:1|3:1|3:1|3:1,0:0:0:0:
376,51,185958,6,0,P|426:49|466:52,1,80,4|2,3:1|0:0,0:0:0:0:
479,147,186358,2,0,P|429:149|389:146,1,80,10|2,0:0|0:0,0:0:0:0:
306,123,186758,2,0,P|304:166|382:242,1,160,0|10,0:0|0:0,0:0:0:0:
454,306,187358,1,2,0:0:0:0:
361,333,187558,6,0,L|280:339,1,80,2|2,0:0|0:0,0:0:0:0:
225,260,187958,2,0,L|144:254,1,80,10|2,0:0|0:0,0:0:0:0:
64,306,188358,2,0,P|98:258|54:159,1,160,0|10,0:0|0:0,0:0:0:0:
38,76,188958,1,2,0:0:0:0:
130,52,189158,6,0,B|171:44|171:44|217:47,1,80,6|2,0:0|0:0,0:0:0:0:
244,135,189558,2,0,B|282:137|282:137|323:129,1,80,10|2,0:0|0:0,0:0:0:0:
392,62,189958,2,0,P|418:115|372:213,1,160,0|10,0:0|0:0,0:0:0:0:
310,267,190558,1,2,0:0:0:0:
248,179,190758,6,0,B|167:175|167:175|79:197,1,160,6|8,0:0|0:0,0:0:0:0:
59,302,191358,1,2,0:0:0:0:
59,302,191458,1,2,0:0:0:0:
59,302,191558,2,0,B|140:306|140:306|228:284,1,160,6|8,0:0|0:0,0:0:0:0:
298,288,192158,1,0,0:0:0:0:
364,242,192358,6,0,P|374:210|366:153,1,80,6|2,0:0|0:0,0:0:0:0:
309,113,192758,2,0,P|299:81|307:24,1,80,10|2,0:0|0:0,0:0:0:0:
378,64,193158,2,0,L|185:92,1,160,0|10,0:0|0:0,0:0:0:0:
172,152,193758,1,2,0:0:0:0:
124,216,193958,6,0,P|98:181|95:138,2,80,6|2|10,0:0|0:0|0:0,0:0:0:0:
191,261,194558,2,0,B|269:278|269:278|354:262,1,160,2|0,0:0|0:0,0:0:0:0:
387,193,195158,2,0,P|414:216|429:268,1,80,10|2,0:0|0:0,0:0:0:0:
348,264,195558,6,0,P|308:198|343:127,1,160,6|10,3:1|3:1,0:0:0:0:
414,44,196158,2,0,B|414:162|414:162|387:193,1,160,2|0,3:1|3:1,0:0:0:0:
348,264,196758,2,0,L|348:345,1,80,10|2,3:1|3:1,0:0:0:0:
265,294,197158,6,0,B|227:305|227:305|244:345|241:389,2,120,6|2|2,3:1|3:1|3:1,0:0:0:0:
250,198,197958,2,0,B|288:187|288:187|271:147|274:103,2,120,14|2|2,3:1|3:1|3:1,0:0:0:0:
220,200,198658,1,2,3:1:0:0:
