osu file format v14

[General]
AudioFilename: 12. Remember me.mp3
AudioLeadIn: 0
PreviewTime: 117160
Countdown: 0
SampleSet: Normal
StackLeniency: 0.6
Mode: 1
LetterboxInBreaks: 0
EpilepsyWarning: 1
WidescreenStoryboard: 1

[Editor]
Bookmarks: 13160,16560,19560,22760,25760,85160,91560
DistanceSpacing: 1
BeatDivisor: 4
GridSize: 32
TimelineZoom: 2.5

[Metadata]
Title:Remember Me
TitleUnicode:Remember Me
Artist:seleP
ArtistUnicode:seleP
Creator:Bara-
Version:Cdh's Oni
Source:
Tags:Lily Vocaloid Lilium Doll Sele-P 2nd Album UFERIUM Shmiklak Kenterz Kin Fort Avishay cdhsausageboy Reikosaka 17VA Yooh [Shi-Ra] Murder Suicide Yandere
BeatmapID:1191945
BeatmapSetID:110547

[Difficulty]
HPDrainRate:5
CircleSize:2
OverallDifficulty:5
ApproachRate:5
SliderMultiplier:1.59999992680548
SliderTickRate:1

[Events]
//Background and Video events
0,0,"KylXWYr.jpg",0,0
//Break Periods
//Storyboard Layer 0 (Background)
//Storyboard Layer 1 (Fail)
//Storyboard Layer 2 (Pass)
//Storyboard Layer 3 (Foreground)
//Storyboard Sound Samples

[TimingPoints]
358,400,4,1,0,100,1,0
13188,400,4,1,0,100,1,0
53158,400,4,1,0,100,1,1
78758,-100,4,1,0,100,0,0
91558,-100,4,1,0,100,0,0
118758,-90.9090909090909,4,1,0,100,0,1
144358,-90.9090909090909,4,1,0,100,0,0
144458,-100,4,1,0,100,0,0
157158,-100,4,1,0,100,0,0
160358,-90.9090909090909,4,1,0,100,0,1
173158,-83.3333333333333,4,1,0,100,0,1
185958,-90.9090909090909,4,1,0,100,0,0
192358,-100,4,1,0,100,0,0

[Colours]
Combo1 : 255,255,0
Combo2 : 255,0,0
Combo3 : 0,255,255
Combo4 : 250,0,125
Combo5 : 0,0,255
Combo6 : 0,255,0
Combo7 : 255,128,0
Combo8 : 0,128,0

[HitObjects]
256,192,358,5,8,0:0:0:0:
256,192,1958,1,0,0:0:0:0:
256,192,2758,1,8,0:0:0:0:
256,192,3558,1,0,0:0:0:0:
256,192,5158,1,0,0:0:0:0:
256,192,6358,1,8,0:0:0:0:
256,192,6558,1,0,0:0:0:0:
256,192,6758,1,0,0:0:0:0:
256,192,8358,1,8,0:0:0:0:
256,192,9158,1,0,0:0:0:0:
256,192,9958,1,8,0:0:0:0:
256,192,10058,1,8,0:0:0:0:
256,192,10158,1,8,0:0:0:0:
256,192,10258,1,8,0:0:0:0:
256,192,10358,1,8,0:0:0:0:
256,192,10458,1,8,0:0:0:0:
256,192,10558,1,0,0:0:0:0:
256,192,10758,1,8,0:0:0:0:
256,192,10858,1,8,0:0:0:0:
256,192,10958,1,0,0:0:0:0:
256,192,11058,1,0,0:0:0:0:
256,192,11158,1,8,0:0:0:0:
256,192,11258,1,8,0:0:0:0:
256,192,11358,1,0,0:0:0:0:
256,192,11458,1,0,0:0:0:0:
256,192,11558,1,8,0:0:0:0:
256,192,11958,1,8,0:0:0:0:
256,192,12358,1,8,0:0:0:0:
256,192,12758,1,8,0:0:0:0:
256,192,13188,1,4,0:0:0:0:
256,192,13388,1,0,0:0:0:0:
256,192,13588,1,8,0:0:0:0:
256,192,13788,1,8,0:0:0:0:
256,192,13988,1,0,0:0:0:0:
256,192,14088,1,8,0:0:0:0:
256,192,14288,1,8,0:0:0:0:
256,192,14388,1,0,0:0:0:0:
256,192,14588,1,8,0:0:0:0:
256,192,14688,1,0,0:0:0:0:
256,192,14788,1,8,0:0:0:0:
256,192,14988,1,0,0:0:0:0:
256,192,15188,1,8,0:0:0:0:
256,192,15388,1,0,0:0:0:0:
256,192,15488,1,0,0:0:0:0:
256,192,15588,1,8,0:0:0:0:
256,192,15688,1,0,0:0:0:0:
256,192,15888,1,0,0:0:0:0:
256,192,15988,1,8,0:0:0:0:
256,192,16088,1,0,0:0:0:0:
256,192,16188,1,0,0:0:0:0:
256,192,16288,1,0,0:0:0:0:
256,192,16388,1,8,0:0:0:0:
256,192,16588,1,0,0:0:0:0:
256,192,16788,1,8,0:0:0:0:
256,192,16988,1,0,0:0:0:0:
256,192,17188,1,0,0:0:0:0:
256,192,17288,1,8,0:0:0:0:
256,192,17488,1,8,0:0:0:0:
256,192,17688,1,8,0:0:0:0:
256,192,17788,1,0,0:0:0:0:
256,192,17988,1,0,0:0:0:0:
256,192,18188,1,8,0:0:0:0:
256,192,18388,1,0,0:0:0:0:
256,192,18588,1,8,0:0:0:0:
256,192,18688,1,0,0:0:0:0:
256,192,18788,1,8,0:0:0:0:
256,192,18988,1,8,0:0:0:0:
256,192,19088,1,0,0:0:0:0:
256,192,19188,1,0,0:0:0:0:
256,192,19588,1,8,0:0:0:0:
256,192,19788,1,0,0:0:0:0:
256,192,19988,1,8,0:0:0:0:
256,192,20188,1,0,0:0:0:0:
256,192,20288,1,8,0:0:0:0:
256,192,20488,1,8,0:0:0:0:
256,192,20688,1,8,0:0:0:0:
256,192,20788,1,0,0:0:0:0:
256,192,20988,1,8,0:0:0:0:
256,192,21188,1,8,0:0:0:0:
256,192,21388,1,0,0:0:0:0:
256,192,21588,1,8,0:0:0:0:
256,192,21788,1,0,0:0:0:0:
256,192,21888,1,8,0:0:0:0:
256,192,22088,1,8,0:0:0:0:
256,192,22288,1,0,0:0:0:0:
256,192,22388,1,0,0:0:0:0:
256,192,22488,1,8,0:0:0:0:
256,192,22588,1,8,0:0:0:0:
256,192,22688,1,0,0:0:0:0:
256,192,22788,1,8,0:0:0:0:
256,192,22988,1,0,0:0:0:0:
256,192,23188,1,8,0:0:0:0:
256,192,23388,1,0,0:0:0:0:
256,192,23488,1,8,0:0:0:0:
256,192,23688,1,8,0:0:0:0:
256,192,23888,1,0,0:0:0:0:
256,192,23988,1,8,0:0:0:0:
256,192,24188,1,8,0:0:0:0:
256,192,24388,1,8,0:0:0:0:
256,192,24488,1,8,0:0:0:0:
256,192,24688,1,8,0:0:0:0:
256,192,24888,1,0,0:0:0:0:
256,192,24988,1,8,0:0:0:0:
256,192,25088,1,0,0:0:0:0:
256,192,25188,1,8,0:0:0:0:
256,192,25288,1,8,0:0:0:0:
256,192,25488,1,8,0:0:0:0:
256,192,25688,1,0,0:0:0:0:
256,192,25788,1,8,0:0:0:0:
256,192,25888,1,0,0:0:0:0:
256,192,25988,1,0,0:0:0:0:
256,192,26388,1,0,0:0:0:0:
256,192,26488,1,8,0:0:0:0:
256,192,26588,1,0,0:0:0:0:
256,192,26788,1,8,0:0:0:0:
256,192,26988,1,8,0:0:0:0:
256,192,27088,1,0,0:0:0:0:
256,192,27288,1,8,0:0:0:0:
256,192,27388,1,0,0:0:0:0:
256,192,27588,1,0,0:0:0:0:
256,192,27788,1,8,0:0:0:0:
256,192,27988,1,8,0:0:0:0:
256,192,28088,1,8,0:0:0:0:
256,192,28188,1,0,0:0:0:0:
256,192,28388,1,0,0:0:0:0:
256,192,28588,1,8,0:0:0:0:
256,192,28688,1,0,0:0:0:0:
256,192,28888,1,8,0:0:0:0:
256,192,28988,1,0,0:0:0:0:
256,192,29188,1,0,0:0:0:0:
256,192,29588,1,0,0:0:0:0:
256,192,29688,1,0,0:0:0:0:
256,192,29788,1,8,0:0:0:0:
256,192,29988,1,0,0:0:0:0:
256,192,30188,1,8,0:0:0:0:
256,192,30288,1,0,0:0:0:0:
256,192,30488,1,8,0:0:0:0:
256,192,30588,1,0,0:0:0:0:
256,192,30788,1,8,0:0:0:0:
256,192,30888,1,0,0:0:0:0:
256,192,30988,1,0,0:0:0:0:
256,192,31088,1,8,0:0:0:0:
256,192,31288,1,0,0:0:0:0:
256,192,31388,1,8,0:0:0:0:
256,192,31588,1,0,0:0:0:0:
256,192,31688,1,0,0:0:0:0:
256,192,31788,1,8,0:0:0:0:
256,192,31888,1,0,0:0:0:0:
256,192,32088,1,8,0:0:0:0:
256,192,32188,1,0,0:0:0:0:
256,192,32388,1,8,0:0:0:0:
256,192,32788,1,8,0:0:0:0:
256,192,32888,1,0,0:0:0:0:
256,192,32988,1,0,0:0:0:0:
256,192,33188,1,0,0:0:0:0:
256,192,33388,1,0,0:0:0:0:
256,192,33488,1,8,0:0:0:0:
256,192,33688,1,8,0:0:0:0:
256,192,33788,1,0,0:0:0:0:
256,192,33988,1,8,0:0:0:0:
256,192,34188,1,0,0:0:0:0:
256,192,34388,1,0,0:0:0:0:
256,192,34488,1,8,0:0:0:0:
256,192,34588,1,8,0:0:0:0:
256,192,34788,1,8,0:0:0:0:
256,192,34988,1,8,0:0:0:0:
256,192,35088,1,8,0:0:0:0:
256,192,35288,1,8,0:0:0:0:
256,192,35388,1,0,0:0:0:0:
256,192,35588,1,4,0:0:0:0:
256,192,35988,1,0,0:0:0:0:
256,192,36088,1,0,0:0:0:0:
256,192,36188,1,8,0:0:0:0:
256,192,36388,1,4,0:0:0:0:
256,192,36588,1,8,0:0:0:0:
256,192,36688,1,0,0:0:0:0:
256,192,36888,1,0,0:0:0:0:
256,192,36988,1,8,0:0:0:0:
256,192,37188,1,4,0:0:0:0:
256,192,37388,1,0,0:0:0:0:
256,192,37588,1,4,0:0:0:0:
256,192,37788,1,0,0:0:0:0:
256,192,37988,1,12,0:0:0:0:
256,192,38188,1,8,0:0:0:0:
256,192,38388,1,12,0:0:0:0:
256,192,38588,1,8,0:0:0:0:
256,192,38788,1,0,0:0:0:0:
256,192,38888,1,8,0:0:0:0:
256,192,38988,1,8,0:0:0:0:
256,192,39188,1,8,0:0:0:0:
256,192,39388,1,0,0:0:0:0:
256,192,39588,1,0,0:0:0:0:
256,192,39688,1,8,0:0:0:0:
256,192,39788,1,0,0:0:0:0:
256,192,39888,1,8,0:0:0:0:
256,192,39988,1,8,0:0:0:0:
256,192,40188,1,0,0:0:0:0:
256,192,40388,1,8,0:0:0:0:
256,192,40488,1,8,0:0:0:0:
256,192,40588,1,0,0:0:0:0:
256,192,40788,1,0,0:0:0:0:
256,192,40988,1,0,0:0:0:0:
256,192,41088,1,8,0:0:0:0:
256,192,41188,1,8,0:0:0:0:
256,192,41388,1,0,0:0:0:0:
256,192,41488,1,8,0:0:0:0:
256,192,41688,1,0,0:0:0:0:
256,192,41788,1,0,0:0:0:0:
256,192,41988,1,0,0:0:0:0:
256,192,42188,1,8,0:0:0:0:
256,192,42288,1,0,0:0:0:0:
256,192,42488,1,0,0:0:0:0:
256,192,42588,1,8,0:0:0:0:
256,192,42788,1,0,0:0:0:0:
256,192,42988,1,8,0:0:0:0:
256,192,43088,1,0,0:0:0:0:
256,192,43288,1,0,0:0:0:0:
256,192,43388,1,8,0:0:0:0:
256,192,43588,1,8,0:0:0:0:
256,192,43688,1,8,0:0:0:0:
256,192,43888,1,8,0:0:0:0:
256,192,44188,1,8,0:0:0:0:
256,192,44288,1,8,0:0:0:0:
256,192,44388,1,0,0:0:0:0:
256,192,44588,1,8,0:0:0:0:
256,192,44688,1,0,0:0:0:0:
256,192,44888,1,0,0:0:0:0:
256,192,44988,1,8,0:0:0:0:
256,192,45188,1,4,0:0:0:0:
256,192,45588,1,8,0:0:0:0:
256,192,45688,1,8,0:0:0:0:
256,192,45788,1,0,0:0:0:0:
256,192,45988,1,0,0:0:0:0:
256,192,46188,1,0,0:0:0:0:
256,192,46288,1,2,0:0:0:0:
256,192,46488,1,0,0:0:0:0:
256,192,46588,1,8,0:0:0:0:
256,192,46788,1,0,0:0:0:0:
256,192,46888,1,0,0:0:0:0:
256,192,46988,1,0,0:0:0:0:
256,192,47188,1,8,0:0:0:0:
256,192,47388,1,0,0:0:0:0:
256,192,47488,1,8,0:0:0:0:
256,192,47588,1,0,0:0:0:0:
256,192,47788,1,0,0:0:0:0:
256,192,47988,1,8,0:0:0:0:
256,192,48088,1,8,0:0:0:0:
256,192,48188,1,8,0:0:0:0:
256,192,48388,1,4,0:0:0:0:
256,192,48588,1,8,0:0:0:0:
256,192,48688,1,0,0:0:0:0:
256,192,48888,1,8,0:0:0:0:
256,192,48988,1,0,0:0:0:0:
256,192,49188,1,12,0:0:0:0:
256,192,49388,1,0,0:0:0:0:
256,192,49488,1,8,0:0:0:0:
256,192,49688,1,0,0:0:0:0:
256,192,49788,1,8,0:0:0:0:
256,192,49988,1,8,0:0:0:0:
256,192,50088,1,8,0:0:0:0:
256,192,50188,1,8,0:0:0:0:
256,192,50388,1,0,0:0:0:0:
256,192,50488,1,0,0:0:0:0:
256,192,50588,1,0,0:0:0:0:
256,192,50788,1,8,0:0:0:0:
256,192,50888,1,8,0:0:0:0:
256,192,50988,1,8,0:0:0:0:
256,192,51188,1,0,0:0:0:0:
256,192,51588,1,0,0:0:0:0:
256,192,51688,1,0,0:0:0:0:
256,192,51788,1,8,0:0:0:0:
256,192,51988,1,0,0:0:0:0:
256,192,52088,1,0,0:0:0:0:
256,192,52188,1,8,0:0:0:0:
256,192,52388,1,8,0:0:0:0:
256,192,52488,1,8,0:0:0:0:
256,192,52588,1,0,0:0:0:0:
256,192,52688,1,8,0:0:0:0:
256,192,52788,1,0,0:0:0:0:
256,192,52888,1,8,0:0:0:0:
256,192,52988,1,0,0:0:0:0:
256,192,53158,1,4,0:0:0:0:
256,192,53358,1,0,0:0:0:0:
256,192,53458,1,8,0:0:0:0:
256,192,53658,1,8,0:0:0:0:
256,192,53758,1,8,0:0:0:0:
256,192,53958,1,0,0:0:0:0:
256,192,54158,1,0,0:0:0:0:
256,192,54258,1,0,0:0:0:0:
256,192,54358,1,8,0:0:0:0:
256,192,54458,1,8,0:0:0:0:
256,192,54558,1,8,0:0:0:0:
256,192,54758,1,8,0:0:0:0:
256,192,54958,1,8,0:0:0:0:
256,192,55058,1,0,0:0:0:0:
256,192,55258,1,0,0:0:0:0:
256,192,55358,1,8,0:0:0:0:
256,192,55558,1,0,0:0:0:0:
256,192,55658,1,8,0:0:0:0:
256,192,55858,1,8,0:0:0:0:
256,192,55958,1,8,0:0:0:0:
256,192,56358,1,0,0:0:0:0:
256,192,56558,1,8,0:0:0:0:
256,192,56658,1,8,0:0:0:0:
256,192,56858,1,0,0:0:0:0:
256,192,56958,1,8,0:0:0:0:
256,192,57158,1,0,0:0:0:0:
256,192,57358,1,0,0:0:0:0:
256,192,57458,1,0,0:0:0:0:
256,192,57558,1,8,0:0:0:0:
256,192,57658,1,0,0:0:0:0:
256,192,57758,1,0,0:0:0:0:
256,192,57958,1,8,0:0:0:0:
256,192,58058,1,0,0:0:0:0:
256,192,58158,1,0,0:0:0:0:
256,192,58358,1,8,0:0:0:0:
256,192,58558,1,8,0:0:0:0:
256,192,58658,1,0,0:0:0:0:
256,192,58758,1,8,0:0:0:0:
256,192,58958,1,8,0:0:0:0:
256,192,59058,1,0,0:0:0:0:
256,192,59258,1,0,0:0:0:0:
256,192,59358,1,8,0:0:0:0:
256,192,59558,1,4,0:0:0:0:
256,192,59758,1,0,0:0:0:0:
256,192,59958,1,0,0:0:0:0:
256,192,60158,1,8,0:0:0:0:
256,192,60358,1,8,0:0:0:0:
256,192,60558,1,0,0:0:0:0:
256,192,60658,1,8,0:0:0:0:
256,192,60758,1,0,0:0:0:0:
256,192,60858,1,8,0:0:0:0:
256,192,60958,1,8,0:0:0:0:
256,192,61158,1,4,0:0:0:0:
256,192,61358,1,8,0:0:0:0:
256,192,61458,1,0,0:0:0:0:
256,192,61658,1,0,0:0:0:0:
256,192,61758,1,8,0:0:0:0:
256,192,61958,1,0,0:0:0:0:
256,192,62058,1,8,0:0:0:0:
256,192,62258,1,8,0:0:0:0:
256,192,62358,1,8,0:0:0:0:
256,192,62758,1,4,0:0:0:0:
256,192,62958,1,8,0:0:0:0:
256,192,63058,1,8,0:0:0:0:
256,192,63258,1,8,0:0:0:0:
256,192,63358,1,8,0:0:0:0:
256,192,63558,1,4,0:0:0:0:
256,192,63758,1,8,0:0:0:0:
256,192,63858,1,8,0:0:0:0:
256,192,64058,1,8,0:0:0:0:
256,192,64158,1,8,0:0:0:0:
256,192,64358,1,0,0:0:0:0:
256,192,64458,1,0,0:0:0:0:
256,192,64558,1,8,0:0:0:0:
256,192,64758,1,0,0:0:0:0:
256,192,64858,1,8,0:0:0:0:
256,192,64958,1,0,0:0:0:0:
256,192,65158,1,0,0:0:0:0:
256,192,65258,1,0,0:0:0:0:
256,192,65358,1,0,0:0:0:0:
256,192,65458,1,0,0:0:0:0:
256,192,65558,1,8,0:0:0:0:
256,192,65658,1,8,0:0:0:0:
256,192,65758,1,0,0:0:0:0:
256,192,65958,1,4,0:0:0:0:
256,192,66158,1,0,0:0:0:0:
256,192,66258,1,0,0:0:0:0:
256,192,66458,1,0,0:0:0:0:
256,192,66558,1,8,0:0:0:0:
256,192,66758,1,0,0:0:0:0:
256,192,66958,1,0,0:0:0:0:
256,192,67058,1,0,0:0:0:0:
256,192,67158,1,2,0:0:0:0:
256,192,67258,1,0,0:0:0:0:
256,192,67358,1,8,0:0:0:0:
256,192,67558,1,8,0:0:0:0:
256,192,67758,1,8,0:0:0:0:
256,192,67858,1,0,0:0:0:0:
256,192,68058,1,0,0:0:0:0:
256,192,68158,1,0,0:0:0:0:
256,192,68358,1,0,0:0:0:0:
256,192,68458,1,8,0:0:0:0:
256,192,68658,1,8,0:0:0:0:
256,192,68758,1,8,0:0:0:0:
256,192,68858,1,8,0:0:0:0:
256,192,68958,1,8,0:0:0:0:
256,192,69158,1,0,0:0:0:0:
256,192,69358,1,0,0:0:0:0:
256,192,69458,1,8,0:0:0:0:
256,192,69658,1,8,0:0:0:0:
256,192,69758,1,8,0:0:0:0:
256,192,69958,1,8,0:0:0:0:
256,192,70158,1,8,0:0:0:0:
256,192,70258,1,0,0:0:0:0:
256,192,70458,1,0,0:0:0:0:
256,192,70558,1,0,0:0:0:0:
256,192,70758,1,8,0:0:0:0:
256,192,71158,1,0,0:0:0:0:
256,192,71358,1,8,0:0:0:0:
256,192,71458,1,8,0:0:0:0:
256,192,71558,1,8,0:0:0:0:
256,192,71758,1,0,0:0:0:0:
256,192,71858,1,0,0:0:0:0:
256,192,71958,1,8,0:0:0:0:
256,192,72158,1,0,0:0:0:0:
256,192,72358,1,0,0:0:0:0:
256,192,72558,1,0,0:0:0:0:
256,192,72658,1,8,0:0:0:0:
256,192,72858,1,0,0:0:0:0:
256,192,72958,1,8,0:0:0:0:
256,192,73158,1,0,0:0:0:0:
256,192,73358,1,0,0:0:0:0:
256,192,73458,1,8,0:0:0:0:
256,192,73558,1,0,0:0:0:0:
256,192,73658,1,8,0:0:0:0:
256,192,73758,1,0,0:0:0:0:
256,192,73958,1,8,0:0:0:0:
256,192,74158,1,8,0:0:0:0:
256,192,74258,1,0,0:0:0:0:
256,192,74458,1,0,0:0:0:0:
256,192,74558,1,8,0:0:0:0:
256,192,74758,1,0,0:0:0:0:
256,192,74858,1,8,0:0:0:0:
256,192,75058,1,8,0:0:0:0:
256,192,75158,1,8,0:0:0:0:
256,192,75358,1,8,0:0:0:0:
256,192,75558,1,4,0:0:0:0:
256,192,75758,1,0,0:0:0:0:
256,192,75858,1,0,0:0:0:0:
256,192,75958,1,8,0:0:0:0:
256,192,76158,1,8,0:0:0:0:
256,192,76258,1,8,0:0:0:0:
256,192,76358,1,0,0:0:0:0:
256,192,76558,1,8,0:0:0:0:
256,192,76658,1,8,0:0:0:0:
256,192,76758,1,0,0:0:0:0:
256,192,76858,1,0,0:0:0:0:
256,192,76958,1,8,0:0:0:0:
256,192,77158,1,8,0:0:0:0:
256,192,77258,1,0,0:0:0:0:
256,192,77358,1,0,0:0:0:0:
256,192,77458,1,8,0:0:0:0:
256,192,77558,1,8,0:0:0:0:
256,192,77658,1,0,0:0:0:0:
256,192,77758,1,8,0:0:0:0:
256,192,77958,1,8,0:0:0:0:
256,192,78058,1,0,0:0:0:0:
256,192,78158,1,8,0:0:0:0:
256,192,78258,1,8,0:0:0:0:
256,192,78358,1,0,0:0:0:0:
256,192,78458,1,8,0:0:0:0:
256,192,78558,1,8,0:0:0:0:
256,192,78758,1,0,0:0:0:0:
256,192,78958,1,0,0:0:0:0:
256,192,79158,1,8,0:0:0:0:
256,192,79358,1,8,0:0:0:0:
256,192,79558,1,0,0:0:0:0:
256,192,79658,1,8,0:0:0:0:
256,192,79858,1,8,0:0:0:0:
256,192,80058,1,8,0:0:0:0:
256,192,80158,1,0,0:0:0:0:
256,160,80358,1,8,0:0:0:0:
256,160,80558,1,0,0:0:0:0:
256,160,80758,1,0,0:0:0:0:
256,160,80958,1,8,0:0:0:0:
256,160,81158,1,8,0:0:0:0:
256,160,81258,1,0,0:0:0:0:
256,160,81458,1,0,0:0:0:0:
256,160,81558,1,8,0:0:0:0:
256,160,81658,1,0,0:0:0:0:
256,160,81758,1,0,0:0:0:0:
256,160,81858,1,0,0:0:0:0:
256,160,81958,1,8,0:0:0:0:
256,160,82158,1,8,0:0:0:0:
256,160,82358,1,0,0:0:0:0:
256,160,82558,1,0,0:0:0:0:
256,160,82658,1,8,0:0:0:0:
256,160,82858,1,8,0:0:0:0:
256,160,83058,1,8,0:0:0:0:
256,160,83158,1,0,0:0:0:0:
256,160,83358,1,0,0:0:0:0:
256,160,83558,1,0,0:0:0:0:
256,160,83958,1,0,0:0:0:0:
256,160,84158,1,8,0:0:0:0:
256,160,84258,1,8,0:0:0:0:
256,160,84358,1,0,0:0:0:0:
256,160,84558,1,8,0:0:0:0:
256,160,84758,1,0,0:0:0:0:
256,160,85158,1,8,0:0:0:0:
256,160,85358,1,0,0:0:0:0:
256,160,85558,1,8,0:0:0:0:
256,160,85758,1,0,0:0:0:0:
256,160,85858,1,8,0:0:0:0:
256,160,86058,1,8,0:0:0:0:
256,160,86258,1,8,0:0:0:0:
256,160,86358,1,0,0:0:0:0:
256,160,86558,1,8,0:0:0:0:
256,160,86758,1,8,0:0:0:0:
256,160,86958,1,0,0:0:0:0:
256,160,87158,1,8,0:0:0:0:
256,160,87358,1,0,0:0:0:0:
256,160,87458,1,8,0:0:0:0:
256,160,87658,1,8,0:0:0:0:
256,160,87858,1,0,0:0:0:0:
256,160,87958,1,8,0:0:0:0:
256,160,88058,1,8,0:0:0:0:
256,160,88158,1,0,0:0:0:0:
256,160,88258,1,8,0:0:0:0:
256,160,88358,1,0,0:0:0:0:
256,160,88558,1,0,0:0:0:0:
256,160,88758,1,8,0:0:0:0:
256,160,88958,1,0,0:0:0:0:
256,160,89058,1,8,0:0:0:0:
256,160,89258,1,8,0:0:0:0:
256,160,89458,1,0,0:0:0:0:
256,160,89558,1,8,0:0:0:0:
256,160,89758,1,8,0:0:0:0:
256,160,89958,1,8,0:0:0:0:
256,160,90058,1,8,0:0:0:0:
256,160,90258,1,8,0:0:0:0:
256,160,90358,1,8,0:0:0:0:
256,160,90458,1,0,0:0:0:0:
256,160,90558,1,8,0:0:0:0:
256,160,90758,1,8,0:0:0:0:
256,160,90858,1,0,0:0:0:0:
256,160,91058,1,8,0:0:0:0:
256,160,91158,1,0,0:0:0:0:
256,160,91258,1,0,0:0:0:0:
256,160,91358,1,8,0:0:0:0:
256,160,91558,1,0,0:0:0:0:
256,160,91958,1,0,0:0:0:0:
256,160,92358,1,0,0:0:0:0:
256,160,92658,1,0,0:0:0:0:
256,160,92958,1,0,0:0:0:0:
256,160,93158,1,0,0:0:0:0:
256,160,93558,1,0,0:0:0:0:
256,160,93958,1,0,0:0:0:0:
256,160,94258,1,0,0:0:0:0:
256,160,94558,1,0,0:0:0:0:
256,160,94758,1,0,0:0:0:0:
256,160,95158,1,0,0:0:0:0:
256,160,95258,1,0,0:0:0:0:
256,160,95358,1,0,0:0:0:0:
256,160,95558,1,0,0:0:0:0:
256,160,95858,1,0,0:0:0:0:
256,160,96158,1,0,0:0:0:0:
256,160,96358,2,0,L|320:160,4,35.0000001490115
256,160,96958,1,0,0:0:0:0:
256,160,97058,1,0,0:0:0:0:
256,160,97158,1,0,0:0:0:0:
256,160,97758,1,0,0:0:0:0:
256,160,97958,1,4,0:0:0:0:
256,160,98158,1,0,0:0:0:0:
256,160,98358,1,8,0:0:0:0:
256,160,98558,1,0,0:0:0:0:
256,160,98758,1,8,0:0:0:0:
256,160,98958,1,8,0:0:0:0:
256,160,99058,1,0,0:0:0:0:
256,160,99258,1,8,0:0:0:0:
256,160,99358,1,0,0:0:0:0:
256,160,99558,1,0,0:0:0:0:
256,160,99758,1,0,0:0:0:0:
256,160,99958,1,8,0:0:0:0:
256,160,100158,1,0,0:0:0:0:
256,160,100358,1,8,0:0:0:0:
256,160,100558,1,8,0:0:0:0:
256,160,100658,1,0,0:0:0:0:
256,160,100858,1,8,0:0:0:0:
256,160,100958,1,0,0:0:0:0:
256,160,101158,1,4,0:0:0:0:
256,160,101358,1,0,0:0:0:0:
256,160,101558,1,8,0:0:0:0:
256,160,101758,1,0,0:0:0:0:
256,160,101958,1,4,0:0:0:0:
256,160,102158,1,0,0:0:0:0:
256,160,102258,1,0,0:0:0:0:
256,160,102458,1,8,0:0:0:0:
256,160,102558,1,0,0:0:0:0:
256,160,102758,1,4,0:0:0:0:
256,160,103158,1,4,0:0:0:0:
256,160,103558,1,4,0:0:0:0:
256,160,103958,1,4,0:0:0:0:
256,160,104358,1,0,0:0:0:0:
256,160,104458,1,0,0:0:0:0:
256,160,104558,1,8,0:0:0:0:
256,160,104758,1,8,0:0:0:0:
256,160,104958,1,8,0:0:0:0:
256,160,105158,1,0,0:0:0:0:
256,160,105258,1,0,0:0:0:0:
256,160,105358,1,8,0:0:0:0:
256,160,105558,1,8,0:0:0:0:
256,160,105758,1,0,0:0:0:0:
256,160,105958,1,0,0:0:0:0:
256,160,106358,1,8,0:0:0:0:
256,160,106558,1,8,0:0:0:0:
256,160,106658,1,0,0:0:0:0:
256,160,106758,1,0,0:0:0:0:
256,160,107558,1,8,0:0:0:0:
256,160,107758,1,0,0:0:0:0:
256,160,107858,1,8,0:0:0:0:
256,160,108058,1,8,0:0:0:0:
256,160,108158,1,0,0:0:0:0:
256,160,108358,1,8,0:0:0:0:
256,160,108558,1,0,0:0:0:0:
256,160,108758,1,8,0:0:0:0:
256,160,108958,1,8,0:0:0:0:
256,160,109158,1,0,0:0:0:0:
256,160,109358,1,0,0:0:0:0:
224,160,109558,1,8,0:0:0:0:
256,160,109758,1,0,0:0:0:0:
256,160,109858,1,0,0:0:0:0:
256,160,109958,1,0,0:0:0:0:
256,160,110158,1,8,0:0:0:0:
256,160,110258,1,0,0:0:0:0:
256,160,110458,1,8,0:0:0:0:
256,160,110558,1,0,0:0:0:0:
256,160,110758,1,12,0:0:0:0:
256,192,112358,1,12,0:0:0:0:
256,192,113958,1,12,0:0:0:0:
256,192,114358,1,12,0:0:0:0:
256,192,114758,1,12,0:0:0:0:
256,192,115158,1,12,0:0:0:0:
256,192,115558,1,8,0:0:0:0:
256,192,115658,1,8,0:0:0:0:
256,192,115758,1,8,0:0:0:0:
256,192,115958,1,8,0:0:0:0:
256,192,116058,1,8,0:0:0:0:
256,192,116158,1,8,0:0:0:0:
256,192,116358,1,8,0:0:0:0:
256,192,116458,1,8,0:0:0:0:
256,192,116558,1,8,0:0:0:0:
256,192,116658,1,8,0:0:0:0:
256,192,116758,1,8,0:0:0:0:
256,192,116858,1,8,0:0:0:0:
256,192,116958,1,8,0:0:0:0:
256,192,117158,1,0,0:0:0:0:
256,192,117258,1,0,0:0:0:0:
256,192,117358,1,8,0:0:0:0:
256,192,117458,1,0,0:0:0:0:
256,192,117558,1,8,0:0:0:0:
256,192,117658,1,0,0:0:0:0:
256,192,117758,1,8,0:0:0:0:
256,192,117958,1,8,0:0:0:0:
256,192,118058,1,8,0:0:0:0:
256,192,118158,1,0,0:0:0:0:
256,192,118258,1,0,0:0:0:0:
256,192,118358,1,8,0:0:0:0:
256,192,118458,1,8,0:0:0:0:
256,192,118558,1,0,0:0:0:0:
256,192,118758,1,4,0:0:0:0:
256,192,118958,1,0,0:0:0:0:
256,192,119058,1,8,0:0:0:0:
256,192,119258,1,8,0:0:0:0:
256,192,119358,1,0,0:0:0:0:
256,192,119458,1,8,0:0:0:0:
288,192,119558,1,0,0:0:0:0:
288,192,119758,1,0,0:0:0:0:
288,192,119858,1,0,0:0:0:0:
288,192,120058,1,0,0:0:0:0:
256,192,120158,1,8,0:0:0:0:
256,192,120258,1,8,0:0:0:0:
288,192,120358,1,0,0:0:0:0:
256,192,120558,1,0,0:0:0:0:
256,192,120658,1,8,0:0:0:0:
256,192,120858,1,0,0:0:0:0:
256,192,120958,1,8,0:0:0:0:
256,192,121058,1,8,0:0:0:0:
256,192,121158,1,8,0:0:0:0:
256,192,121358,1,0,0:0:0:0:
256,192,121458,1,0,0:0:0:0:
256,192,121658,1,8,0:0:0:0:
256,192,121758,1,8,0:0:0:0:
256,192,121858,1,0,0:0:0:0:
256,192,121958,1,0,0:0:0:0:
256,192,122158,1,8,0:0:0:0:
256,192,122258,1,0,0:0:0:0:
256,192,122458,1,0,0:0:0:0:
256,192,122558,1,8,0:0:0:0:
256,192,122658,1,8,0:0:0:0:
256,192,122758,1,0,0:0:0:0:
256,192,122958,1,0,0:0:0:0:
256,192,123058,1,0,0:0:0:0:
256,192,123258,1,0,0:0:0:0:
256,192,123358,1,8,0:0:0:0:
256,192,123458,1,0,0:0:0:0:
256,192,123558,1,0,0:0:0:0:
256,192,123758,1,0,0:0:0:0:
256,192,123858,1,8,0:0:0:0:
256,192,124058,1,8,0:0:0:0:
256,192,124158,1,0,0:0:0:0:
256,192,124258,1,8,0:0:0:0:
256,192,124358,1,0,0:0:0:0:
256,192,124558,1,8,0:0:0:0:
256,192,124658,1,0,0:0:0:0:
256,192,124858,1,8,0:0:0:0:
256,192,124958,1,0,0:0:0:0:
256,192,125158,1,4,0:0:0:0:
256,192,125358,1,0,0:0:0:0:
256,192,125458,1,8,0:0:0:0:
256,192,125658,1,8,0:0:0:0:
256,192,125758,1,8,0:0:0:0:
256,192,125858,1,0,0:0:0:0:
256,192,125958,1,0,0:0:0:0:
256,192,126158,1,0,0:0:0:0:
256,192,126258,1,0,0:0:0:0:
256,192,126458,1,0,0:0:0:0:
256,192,126558,1,8,0:0:0:0:
256,192,126658,1,0,0:0:0:0:
256,192,126758,1,8,0:0:0:0:
256,192,126958,1,0,0:0:0:0:
256,192,127058,1,8,0:0:0:0:
256,192,127258,1,0,0:0:0:0:
256,192,127358,1,8,0:0:0:0:
256,192,127558,1,0,0:0:0:0:
256,192,127758,1,8,0:0:0:0:
256,192,127858,1,0,0:0:0:0:
256,192,128058,1,8,0:0:0:0:
256,192,128158,1,0,0:0:0:0:
256,192,128358,1,4,0:0:0:0:
256,192,128558,1,0,0:0:0:0:
256,192,128658,1,0,0:0:0:0:
256,192,128858,1,8,0:0:0:0:
256,192,128958,1,0,0:0:0:0:
256,192,129158,1,4,0:0:0:0:
256,192,129358,1,0,0:0:0:0:
256,192,129458,1,0,0:0:0:0:
256,192,129658,1,8,0:0:0:0:
256,192,129758,1,0,0:0:0:0:
256,192,129958,1,4,0:0:0:0:
256,192,130358,1,4,0:0:0:0:
256,192,130758,1,12,0:0:0:0:
256,192,131158,1,12,0:0:0:0:
256,192,131558,1,8,0:0:0:0:
256,192,131758,1,8,0:0:0:0:
256,192,131858,1,0,0:0:0:0:
256,192,131958,1,8,0:0:0:0:
256,192,132058,1,8,0:0:0:0:
256,192,132158,1,0,0:0:0:0:
256,192,132358,1,8,0:0:0:0:
256,192,132558,1,0,0:0:0:0:
256,192,132658,1,0,0:0:0:0:
256,192,132758,1,8,0:0:0:0:
256,192,132858,1,8,0:0:0:0:
256,192,132958,1,0,0:0:0:0:
256,192,133158,1,8,0:0:0:0:
256,192,133358,1,8,0:0:0:0:
256,192,133458,1,0,0:0:0:0:
256,192,133558,1,8,0:0:0:0:
256,192,133658,1,8,0:0:0:0:
256,192,133758,1,8,0:0:0:0:
256,192,133958,1,4,0:0:0:0:
256,192,134158,1,4,0:0:0:0:
256,192,134358,1,12,0:0:0:0:
256,192,134558,1,12,0:0:0:0:
256,192,134758,1,0,0:0:0:0:
256,192,134958,1,8,0:0:0:0:
256,192,135058,1,0,0:0:0:0:
256,192,135158,1,8,0:0:0:0:
256,192,135258,1,8,0:0:0:0:
256,192,135358,1,0,0:0:0:0:
256,192,135558,1,0,0:0:0:0:
256,192,135758,1,8,0:0:0:0:
256,192,135858,1,0,0:0:0:0:
256,192,135958,1,0,0:0:0:0:
256,192,136058,1,8,0:0:0:0:
256,192,136158,1,0,0:0:0:0:
256,192,136358,1,0,0:0:0:0:
256,192,136558,1,8,0:0:0:0:
256,192,136658,1,0,0:0:0:0:
256,192,136758,1,8,0:0:0:0:
256,192,136858,1,8,0:0:0:0:
256,192,136958,1,0,0:0:0:0:
256,192,137158,1,12,0:0:0:0:
256,192,137358,1,12,0:0:0:0:
256,192,137558,1,4,0:0:0:0:
256,192,137758,1,4,0:0:0:0:
256,192,137958,1,0,0:0:0:0:
256,192,138058,1,0,0:0:0:0:
256,192,138158,1,0,0:0:0:0:
256,192,138258,1,0,0:0:0:0:
256,192,138358,1,8,0:0:0:0:
256,192,138458,1,8,0:0:0:0:
256,192,138558,1,8,0:0:0:0:
256,192,138758,1,8,0:0:0:0:
256,192,138858,1,8,0:0:0:0:
256,192,138958,1,8,0:0:0:0:
256,192,139058,1,8,0:0:0:0:
256,192,139158,1,0,0:0:0:0:
256,192,139258,1,0,0:0:0:0:
256,192,139358,1,8,0:0:0:0:
256,192,139558,1,0,0:0:0:0:
256,192,139658,1,0,0:0:0:0:
256,192,139758,1,8,0:0:0:0:
256,192,139858,1,8,0:0:0:0:
256,192,139958,1,0,0:0:0:0:
256,192,140058,1,8,0:0:0:0:
256,192,140158,1,8,0:0:0:0:
256,192,140358,1,4,0:0:0:0:
256,192,140558,1,4,0:0:0:0:
256,192,140758,1,4,0:0:0:0:
256,192,140958,1,4,0:0:0:0:
256,192,141158,1,8,0:0:0:0:
256,192,141258,1,0,0:0:0:0:
256,192,141358,1,0,0:0:0:0:
256,192,141558,1,8,0:0:0:0:
256,192,141658,1,0,0:0:0:0:
256,192,141758,1,0,0:0:0:0:
256,192,141958,1,8,0:0:0:0:
256,192,142058,1,0,0:0:0:0:
256,192,142158,1,0,0:0:0:0:
256,192,142358,1,8,0:0:0:0:
256,192,142458,1,0,0:0:0:0:
256,192,142558,1,0,0:0:0:0:
256,192,142758,1,8,0:0:0:0:
256,192,142858,1,0,0:0:0:0:
256,192,142958,1,8,0:0:0:0:
256,192,143158,1,8,0:0:0:0:
256,192,143258,1,0,0:0:0:0:
256,192,143358,1,8,0:0:0:0:
256,192,143558,1,8,0:0:0:0:
256,192,143658,1,0,0:0:0:0:
256,192,143758,1,8,0:0:0:0:
256,192,143958,1,8,0:0:0:0:
256,192,144058,1,8,0:0:0:0:
256,192,144158,1,8,0:0:0:0:
256,192,144358,1,4,0:0:0:0:
256,192,144558,1,0,0:0:0:0:
256,192,144758,1,8,0:0:0:0:
256,192,144958,1,8,0:0:0:0:
256,192,145358,1,8,0:0:0:0:
256,192,145558,1,8,0:0:0:0:
256,192,145758,1,8,0:0:0:0:
256,192,145958,1,0,0:0:0:0:
256,192,146158,1,0,0:0:0:0:
256,192,146358,1,8,0:0:0:0:
256,192,146558,1,8,0:0:0:0:
256,192,146658,1,0,0:0:0:0:
256,192,146758,1,0,0:0:0:0:
256,192,147158,1,8,0:0:0:0:
256,192,147558,1,0,0:0:0:0:
256,192,147758,1,0,0:0:0:0:
256,192,147958,1,8,0:0:0:0:
256,192,148158,1,0,0:0:0:0:
256,192,148358,1,0,0:0:0:0:
256,192,148558,1,0,0:0:0:0:
256,192,148758,1,8,0:0:0:0:
256,192,148958,1,0,0:0:0:0:
256,192,149158,1,0,0:0:0:0:
256,192,149358,1,0,0:0:0:0:
256,192,149558,1,8,0:0:0:0:
256,192,149758,1,8,0:0:0:0:
256,192,149858,1,0,0:0:0:0:
256,192,149958,1,8,0:0:0:0:
256,192,150358,1,8,0:0:0:0:
256,192,150758,1,4,0:0:0:0:
256,192,150958,1,0,0:0:0:0:
256,192,151158,1,12,0:0:0:0:
256,192,151358,1,0,0:0:0:0:
256,192,151558,1,0,0:0:0:0:
256,192,151958,1,4,0:0:0:0:
256,192,152158,1,8,0:0:0:0:
256,192,152358,1,4,0:0:0:0:
256,192,152558,1,8,0:0:0:0:
256,192,152758,1,0,0:0:0:0:
256,192,152958,1,0,0:0:0:0:
256,192,153158,1,8,0:0:0:0:
256,192,153358,1,8,0:0:0:0:
256,192,153558,1,0,0:0:0:0:
256,192,153758,1,8,0:0:0:0:
256,192,153958,1,12,0:0:0:0:
256,192,154158,1,0,0:0:0:0:
256,192,154358,1,0,0:0:0:0:
256,192,154558,1,8,0:0:0:0:
256,192,154758,1,0,0:0:0:0:
256,192,154958,1,8,0:0:0:0:
256,192,155158,1,4,0:0:0:0:
256,192,155358,12,8,156958,0:0:0:0:
256,192,157158,5,0,0:0:0:0:
256,192,157258,1,0,0:0:0:0:
256,192,157358,1,8,0:0:0:0:
256,192,157558,1,0,0:0:0:0:
256,192,157658,1,0,0:0:0:0:
256,192,157758,1,8,0:0:0:0:
256,192,157958,1,0,0:0:0:0:
256,192,158058,1,0,0:0:0:0:
256,192,158158,1,8,0:0:0:0:
256,192,158358,1,0,0:0:0:0:
256,192,158458,1,0,0:0:0:0:
256,192,158558,1,8,0:0:0:0:
256,192,158758,1,0,0:0:0:0:
256,192,158858,1,0,0:0:0:0:
256,192,158958,1,8,0:0:0:0:
256,192,159058,1,8,0:0:0:0:
256,192,159158,1,0,0:0:0:0:
256,192,159258,1,0,0:0:0:0:
256,192,159358,1,8,0:0:0:0:
256,192,159558,1,8,0:0:0:0:
256,192,159658,1,8,0:0:0:0:
256,192,159758,1,8,0:0:0:0:
256,192,159858,1,8,0:0:0:0:
256,192,159958,1,8,0:0:0:0:
256,192,160058,1,8,0:0:0:0:
256,192,160158,1,8,0:0:0:0:
256,192,160358,1,4,0:0:0:0:
256,192,160558,1,8,0:0:0:0:
256,192,160758,1,0,0:0:0:0:
256,192,160858,1,0,0:0:0:0:
256,192,160958,1,8,0:0:0:0:
256,192,161158,1,0,0:0:0:0:
256,192,161358,1,8,0:0:0:0:
256,192,161458,1,0,0:0:0:0:
256,192,161658,1,0,0:0:0:0:
256,192,161758,1,8,0:0:0:0:
256,192,161958,1,0,0:0:0:0:
256,192,162158,1,8,0:0:0:0:
256,192,162358,1,0,0:0:0:0:
256,192,162458,1,0,0:0:0:0:
256,192,162558,1,8,0:0:0:0:
256,192,162758,1,0,0:0:0:0:
256,192,162958,1,8,0:0:0:0:
256,192,163058,1,8,0:0:0:0:
256,192,163158,1,0,0:0:0:0:
256,192,163258,1,0,0:0:0:0:
256,192,163358,1,8,0:0:0:0:
256,192,163558,1,0,0:0:0:0:
256,192,163758,1,8,0:0:0:0:
256,192,163958,1,0,0:0:0:0:
256,192,164058,1,8,0:0:0:0:
256,192,164158,1,8,0:0:0:0:
256,192,164358,1,8,0:0:0:0:
256,192,164558,1,8,0:0:0:0:
256,192,164658,1,0,0:0:0:0:
256,192,164858,1,0,0:0:0:0:
256,192,164958,1,8,0:0:0:0:
256,192,165158,1,0,0:0:0:0:
256,192,165358,1,8,0:0:0:0:
256,192,165558,1,0,0:0:0:0:
256,192,165658,1,8,0:0:0:0:
256,192,165758,1,8,0:0:0:0:
256,192,165958,1,8,0:0:0:0:
256,192,166158,1,8,0:0:0:0:
256,192,166258,1,0,0:0:0:0:
256,192,166358,1,0,0:0:0:0:
256,192,166458,1,0,0:0:0:0:
256,192,166558,1,8,0:0:0:0:
256,192,166758,1,12,0:0:0:0:
256,192,166958,1,0,0:0:0:0:
256,192,167158,1,0,0:0:0:0:
256,192,167258,1,0,0:0:0:0:
256,192,167358,1,8,0:0:0:0:
256,192,167558,1,8,0:0:0:0:
256,192,167758,1,0,0:0:0:0:
256,192,167858,1,0,0:0:0:0:
256,192,168058,1,8,0:0:0:0:
256,192,168158,1,8,0:0:0:0:
256,192,168358,1,12,0:0:0:0:
256,192,168558,1,0,0:0:0:0:
256,192,168758,1,0,0:0:0:0:
256,192,168858,1,0,0:0:0:0:
256,192,168958,1,8,0:0:0:0:
256,192,169158,1,0,0:0:0:0:
256,192,169358,1,0,0:0:0:0:
256,192,169458,1,0,0:0:0:0:
256,192,169558,1,8,0:0:0:0:
256,192,169758,1,0,0:0:0:0:
256,192,169858,1,0,0:0:0:0:
256,192,169958,1,8,0:0:0:0:
256,192,170158,1,0,0:0:0:0:
256,192,170258,1,0,0:0:0:0:
256,192,170558,1,0,0:0:0:0:
256,192,170658,1,0,0:0:0:0:
256,192,170758,1,8,0:0:0:0:
256,192,170958,1,0,0:0:0:0:
256,192,171058,1,0,0:0:0:0:
256,192,171358,1,8,0:0:0:0:
256,192,171558,1,4,0:0:0:0:
256,192,171758,1,4,0:0:0:0:
256,192,171958,1,12,0:0:0:0:
256,192,172158,1,12,0:0:0:0:
256,192,172358,1,4,0:0:0:0:
256,192,172558,1,12,0:0:0:0:
256,192,172758,1,12,0:0:0:0:
256,192,173158,1,0,0:0:0:0:
256,192,173258,1,8,0:0:0:0:
288,192,173358,1,8,0:0:0:0:
256,192,173458,1,8,0:0:0:0:
256,192,173558,1,0,0:0:0:0:
256,192,173758,1,0,0:0:0:0:
256,192,173958,1,8,0:0:0:0:
256,192,174058,1,8,0:0:0:0:
256,192,174158,1,0,0:0:0:0:
256,192,174358,1,8,0:0:0:0:
256,192,174558,1,0,0:0:0:0:
256,192,174758,1,8,0:0:0:0:
256,192,174858,1,8,0:0:0:0:
256,192,174958,1,8,0:0:0:0:
256,192,175158,1,0,0:0:0:0:
256,192,175358,1,8,0:0:0:0:
256,192,175558,1,8,0:0:0:0:
256,192,175658,1,8,0:0:0:0:
256,192,175758,1,8,0:0:0:0:
256,192,175958,1,0,0:0:0:0:
256,192,176158,1,8,0:0:0:0:
256,192,176358,1,0,0:0:0:0:
256,192,176458,1,0,0:0:0:0:
256,192,176558,1,8,0:0:0:0:
256,192,176758,1,0,0:0:0:0:
256,192,176858,1,0,0:0:0:0:
256,192,176958,1,8,0:0:0:0:
256,192,177158,1,0,0:0:0:0:
256,192,177258,1,0,0:0:0:0:
256,192,177358,1,8,0:0:0:0:
256,192,177458,1,8,0:0:0:0:
256,192,177558,1,0,0:0:0:0:
256,192,177758,1,0,0:0:0:0:
256,192,177958,1,0,0:0:0:0:
256,192,178158,1,8,0:0:0:0:
256,192,178258,1,8,0:0:0:0:
256,192,178358,1,8,0:0:0:0:
256,192,178558,1,0,0:0:0:0:
256,192,178758,1,0,0:0:0:0:
256,192,178858,1,8,0:0:0:0:
256,192,178958,1,8,0:0:0:0:
256,192,179058,1,0,0:0:0:0:
256,192,179158,1,8,0:0:0:0:
256,192,179258,1,0,0:0:0:0:
256,192,179358,1,0,0:0:0:0:
256,192,179558,1,0,0:0:0:0:
256,192,179758,1,8,0:0:0:0:
256,192,179858,1,8,0:0:0:0:
256,192,179958,1,8,0:0:0:0:
256,192,180158,1,0,0:0:0:0:
256,192,180358,1,8,0:0:0:0:
256,192,180458,1,8,0:0:0:0:
256,192,180558,1,8,0:0:0:0:
256,192,180758,1,0,0:0:0:0:
256,192,180958,1,8,0:0:0:0:
256,192,181158,1,0,0:0:0:0:
256,192,181258,1,0,0:0:0:0:
256,192,181358,1,0,0:0:0:0:
256,192,181558,1,8,0:0:0:0:
256,192,181758,1,0,0:0:0:0:
256,192,181958,1,8,0:0:0:0:
256,192,182058,1,8,0:0:0:0:
256,192,182158,1,8,0:0:0:0:
256,192,182358,1,0,0:0:0:0:
256,192,182558,1,8,0:0:0:0:
256,192,182758,1,0,0:0:0:0:
256,192,182858,1,0,0:0:0:0:
256,192,182958,1,0,0:0:0:0:
256,192,183158,1,8,0:0:0:0:
256,192,183258,1,8,0:0:0:0:
256,192,183358,1,8,0:0:0:0:
256,192,183558,1,0,0:0:0:0:
256,192,183658,1,0,0:0:0:0:
256,192,183758,1,0,0:0:0:0:
256,192,183958,1,8,0:0:0:0:
256,192,184058,1,8,0:0:0:0:
256,192,184158,1,8,0:0:0:0:
256,192,184358,1,0,0:0:0:0:
256,192,184458,1,0,0:0:0:0:
256,192,184558,1,0,0:0:0:0:
256,192,184658,1,0,0:0:0:0:
256,192,184758,1,8,0:0:0:0:
256,192,184858,1,8,0:0:0:0:
256,192,184958,1,8,0:0:0:0:
256,192,185158,1,8,0:0:0:0:
256,192,185258,1,8,0:0:0:0:
256,192,185358,1,8,0:0:0:0:
256,192,185458,1,8,0:0:0:0:
256,192,185558,1,0,0:0:0:0:
256,192,185658,1,0,0:0:0:0:
256,192,185758,1,0,0:0:0:0:
256,192,185958,1,4,0:0:0:0:
256,192,186158,1,8,0:0:0:0:
256,192,186358,1,8,0:0:0:0:
256,192,186558,1,0,0:0:0:0:
256,192,186758,1,0,0:0:0:0:
256,192,186858,1,8,0:0:0:0:
256,192,187058,1,8,0:0:0:0:
256,192,187258,1,0,0:0:0:0:
256,192,187358,1,0,0:0:0:0:
256,192,187558,1,8,0:0:0:0:
256,192,187758,1,0,0:0:0:0:
256,192,187958,1,0,0:0:0:0:
256,192,188158,1,8,0:0:0:0:
256,192,188358,1,8,0:0:0:0:
256,192,188458,1,0,0:0:0:0:
256,192,188658,1,8,0:0:0:0:
256,192,188758,1,8,0:0:0:0:
256,192,188858,1,0,0:0:0:0:
256,192,188958,1,8,0:0:0:0:
256,192,189058,1,0,0:0:0:0:
256,192,189158,1,0,0:0:0:0:
256,192,189358,1,0,0:0:0:0:
256,192,189558,1,8,0:0:0:0:
256,192,189758,1,8,0:0:0:0:
256,192,189958,1,0,0:0:0:0:
256,192,190058,1,8,0:0:0:0:
256,192,190258,1,8,0:0:0:0:
256,192,190458,1,8,0:0:0:0:
256,192,190558,1,0,0:0:0:0:
256,192,190758,1,0,0:0:0:0:
256,192,190958,1,8,0:0:0:0:
256,192,191158,1,0,0:0:0:0:
256,192,191358,1,8,0:0:0:0:
256,192,191458,1,8,0:0:0:0:
256,192,191558,1,0,0:0:0:0:
256,192,191758,1,8,0:0:0:0:
256,192,191858,1,8,0:0:0:0:
256,192,191958,1,0,0:0:0:0:
256,192,192058,1,0,0:0:0:0:
256,192,192158,1,0,0:0:0:0:
224,192,192358,1,0,0:0:0:0:
256,192,192558,1,0,0:0:0:0:
256,192,192758,1,8,0:0:0:0:
256,192,192958,1,8,0:0:0:0:
256,192,193058,1,8,0:0:0:0:
256,192,193258,1,8,0:0:0:0:
256,192,193458,1,8,0:0:0:0:
256,192,193558,1,8,0:0:0:0:
256,192,193758,1,0,0:0:0:0:
256,192,193958,1,8,0:0:0:0:
256,192,194158,1,0,0:0:0:0:
256,192,194358,1,8,0:0:0:0:
256,192,194558,1,8,0:0:0:0:
256,192,194658,1,0,0:0:0:0:
256,192,194858,1,0,0:0:0:0:
256,192,195058,1,0,0:0:0:0:
256,192,195158,1,8,0:0:0:0:
256,192,195258,1,8,0:0:0:0:
256,192,195358,1,8,0:0:0:0:
256,192,195458,1,8,0:0:0:0:
256,192,195558,1,0,0:0:0:0:
256,192,195758,1,0,0:0:0:0:
256,192,195958,1,8,0:0:0:0:
256,192,196158,1,8,0:0:0:0:
256,192,196258,1,0,0:0:0:0:
256,192,196458,1,0,0:0:0:0:
256,192,196658,1,8,0:0:0:0:
256,192,196758,1,0,0:0:0:0:
256,192,196958,1,8,0:0:0:0:
256,192,197158,1,8,0:0:0:0:
256,192,197258,1,8,0:0:0:0:
256,192,197458,1,8,0:0:0:0:
256,192,197658,1,0,0:0:0:0:
256,192,197758,1,8,0:0:0:0:
256,192,197858,1,0,0:0:0:0:
256,192,197958,1,8,0:0:0:0:
256,192,198058,1,8,0:0:0:0:
256,192,198258,1,8,0:0:0:0:
256,192,198358,1,8,0:0:0:0:
256,192,198458,1,0,0:0:0:0:
256,192,198658,1,4,0:0:0:0:
