osu file format v14

[General]
AudioFilename: 12. Remember me.mp3
AudioLeadIn: 0
PreviewTime: 117160
Countdown: 0
SampleSet: Normal
StackLeniency: 0.3
Mode: 1
LetterboxInBreaks: 0
EpilepsyWarning: 1
WidescreenStoryboard: 1

[Editor]
Bookmarks: 13160,16560,19560,22760,25760,85160,91560
DistanceSpacing: 1
BeatDivisor: 4
GridSize: 4
TimelineZoom: 1.3

[Metadata]
Title:Remember Me
TitleUnicode:Remember Me
Artist:seleP
ArtistUnicode:seleP
Creator:Bara-
Version:Cdh's Muzukashii
Source:
Tags:Lily Vocaloid Lilium Doll Sele-P 2nd Album UFERIUM Shmiklak Kenterz Kin Fort Avishay cdhsausageboy Reikosaka 17VA Yooh [Shi-Ra] Murder Suicide Yandere
BeatmapID:1191944
BeatmapSetID:110547

[Difficulty]
HPDrainRate:4
CircleSize:5
OverallDifficulty:4
ApproachRate:5
SliderMultiplier:1.40000000596046
SliderTickRate:1

[Events]
//Background and Video events
0,0,"KylXWYr.jpg",0,0
//Break Periods
//Storyboard Layer 0 (Background)
//Storyboard Layer 1 (Fail)
//Storyboard Layer 2 (Pass)
//Storyboard Layer 3 (Foreground)
//Storyboard Sound Samples

[TimingPoints]
358,400,4,1,0,100,1,0
13188,400,4,1,0,100,1,0
53158,400,4,1,0,100,1,1
78758,-100,4,1,0,100,0,0
91558,-100,4,1,0,100,0,0
118758,-100,4,1,0,100,0,1
144358,-100,4,1,0,100,0,0
160358,-100,4,1,0,100,0,1
185958,-100,4,1,0,100,0,0

[Colours]
Combo1 : 255,255,0
Combo2 : 255,0,0
Combo3 : 0,255,255
Combo4 : 250,0,125
Combo5 : 0,0,255
Combo6 : 0,255,0
Combo7 : 255,128,0
Combo8 : 0,128,0

[HitObjects]
256,192,358,5,8,0:0:0:0:
256,192,1958,1,0,0:0:0:0:
256,192,2758,1,8,0:0:0:0:
256,192,3558,1,0,0:0:0:0:
256,192,6358,1,8,0:0:0:0:
256,192,6558,1,8,0:0:0:0:
256,192,6758,1,0,0:0:0:0:
256,192,8358,1,8,0:0:0:0:
256,192,9158,1,0,0:0:0:0:
256,192,9958,2,0,B|232:288|232:288|276:300|360:280|416:200|360:92|312:84|272:72|216:72|176:104|156:144|144:192|171:240|171:240|160:278|160:278|160:336|188:368|264:372|317:356|358:336|416:256,1,980.000004172322
256,192,13188,5,4,0:0:0:0:
256,192,13588,1,8,0:0:0:0:
256,192,13988,1,0,0:0:0:0:
256,192,14188,1,0,0:0:0:0:
256,224,14388,1,8,0:0:0:0:
256,192,14788,1,0,0:0:0:0:
256,192,15188,1,8,0:0:0:0:
256,192,15588,1,0,0:0:0:0:
256,192,15788,1,0,0:0:0:0:
256,192,15988,1,2,0:0:0:0:
256,192,16088,1,2,0:0:0:0:
256,192,16188,1,2,0:0:0:0:
256,192,16388,1,0,0:0:0:0:
256,192,16788,1,8,0:0:0:0:
256,192,17188,1,0,0:0:0:0:
256,192,17388,1,0,0:0:0:0:
256,192,17588,1,8,0:0:0:0:
256,192,17988,1,0,0:0:0:0:
256,192,18388,1,8,0:0:0:0:
256,192,18588,1,0,0:0:0:0:
256,192,18688,1,0,0:0:0:0:
256,192,18788,1,0,0:0:0:0:
256,192,19588,1,4,0:0:0:0:
256,192,19988,1,8,0:0:0:0:
256,192,20388,1,0,0:0:0:0:
256,192,20588,1,0,0:0:0:0:
256,192,20788,1,8,0:0:0:0:
256,192,21188,1,4,0:0:0:0:
256,192,21588,1,8,0:0:0:0:
256,192,21988,1,0,0:0:0:0:
256,192,22188,1,8,0:0:0:0:
256,192,22388,1,8,0:0:0:0:
256,192,22488,1,8,0:0:0:0:
256,192,22588,1,8,0:0:0:0:
256,192,22788,1,0,0:0:0:0:
260,196,23188,1,8,0:0:0:0:
256,192,23588,1,0,0:0:0:0:
256,192,23788,1,0,0:0:0:0:
256,192,23988,1,8,0:0:0:0:
256,192,24388,2,0,L|320:192,12,35.0000001490115
256,192,25988,1,4,0:0:0:0:
256,192,26388,1,8,0:0:0:0:
256,192,26788,1,0,0:0:0:0:
256,192,26988,1,0,0:0:0:0:
256,192,27188,1,8,0:0:0:0:
224,192,27388,1,0,0:0:0:0:
256,192,27588,1,0,0:0:0:0:
224,192,27988,1,8,0:0:0:0:
224,192,28388,1,8,0:0:0:0:
224,192,28588,1,0,0:0:0:0:
224,192,28788,1,8,0:0:0:0:
224,192,29188,1,0,0:0:0:0:
224,192,29588,1,8,0:0:0:0:
224,192,29988,1,0,0:0:0:0:
224,192,30188,1,8,0:0:0:0:
192,192,30388,1,8,0:0:0:0:
224,192,30788,1,0,0:0:0:0:
224,192,31588,1,8,0:0:0:0:
224,192,32388,1,4,0:0:0:0:
224,192,32788,1,8,0:0:0:0:
224,192,33188,1,0,0:0:0:0:
224,192,33388,1,0,0:0:0:0:
224,192,33588,1,8,0:0:0:0:
224,192,33788,1,0,0:0:0:0:
224,192,33988,1,0,0:0:0:0:
224,192,34388,1,8,0:0:0:0:
224,192,34788,1,8,0:0:0:0:
224,192,34988,1,0,0:0:0:0:
224,192,35188,1,8,0:0:0:0:
224,192,35588,1,4,0:0:0:0:
248,192,36388,1,12,0:0:0:0:
248,192,37188,1,0,0:0:0:0:
224,188,37588,1,8,0:0:0:0:
256,192,37988,1,0,0:0:0:0:
256,192,38188,1,0,0:0:0:0:
256,192,38388,1,8,0:0:0:0:
256,192,38788,1,4,0:0:0:0:
256,192,39188,1,8,0:0:0:0:
256,192,39588,1,0,0:0:0:0:
256,192,39888,1,0,0:0:0:0:
256,192,40188,1,0,0:0:0:0:
256,192,40388,1,8,0:0:0:0:
256,192,40588,1,0,0:0:0:0:
256,192,40788,1,8,0:0:0:0:
256,192,41188,1,0,0:0:0:0:
256,192,41388,1,8,0:0:0:0:
256,192,41588,1,8,0:0:0:0:
256,192,41988,1,8,0:0:0:0:
256,192,42188,1,8,0:0:0:0:
256,192,42388,1,8,0:0:0:0:
256,192,42788,1,0,0:0:0:0:
256,192,42988,1,2,0:0:0:0:
256,192,43188,1,0,0:0:0:0:
256,192,43588,1,10,0:0:0:0:
256,192,43788,1,0,0:0:0:0:
256,192,43988,1,8,0:0:0:0:
256,192,44388,1,2,0:0:0:0:
256,192,45188,1,4,0:0:0:0:
256,192,45588,1,8,0:0:0:0:
256,192,45988,1,0,0:0:0:0:
256,192,46288,1,8,0:0:0:0:
256,192,46588,1,0,0:0:0:0:
256,192,46788,1,0,0:0:0:0:
256,192,47188,1,8,0:0:0:0:
256,192,47588,1,0,0:0:0:0:
256,192,47988,1,0,0:0:0:0:
256,192,48188,1,8,0:0:0:0:
256,192,48388,1,4,0:0:0:0:
256,192,48688,1,0,0:0:0:0:
256,192,48988,1,8,0:0:0:0:
256,192,49188,1,4,0:0:0:0:
256,192,49488,1,0,0:0:0:0:
256,192,49788,1,8,0:0:0:0:
256,192,49988,1,0,0:0:0:0:
256,192,50788,1,0,0:0:0:0:
256,192,51588,12,8,52788,0:0:0:0:
256,192,53158,5,0,0:0:0:0:
256,192,53358,1,0,0:0:0:0:
256,192,53558,1,8,0:0:0:0:
256,192,53758,1,0,0:0:0:0:
256,192,53958,1,8,0:0:0:0:
256,192,54158,1,8,0:0:0:0:
256,192,54358,1,8,0:0:0:0:
256,192,54758,1,8,0:0:0:0:
256,192,54958,1,8,0:0:0:0:
256,192,55158,1,0,0:0:0:0:
256,160,55358,1,8,0:0:0:0:
256,192,55458,1,8,0:0:0:0:
256,192,56358,1,0,0:0:0:0:
256,192,56558,1,0,0:0:0:0:
256,192,56758,1,8,0:0:0:0:
256,192,56958,1,0,0:0:0:0:
256,192,57158,1,8,0:0:0:0:
256,192,57358,1,8,0:0:0:0:
256,192,57558,1,0,0:0:0:0:
256,192,57958,1,0,0:0:0:0:
256,192,58158,1,0,0:0:0:0:
256,192,58358,1,0,0:0:0:0:
256,192,58558,1,8,0:0:0:0:
256,192,58658,1,8,0:0:0:0:
256,192,58758,1,8,0:0:0:0:
256,192,59158,1,8,0:0:0:0:
256,192,59558,1,0,0:0:0:0:
256,192,59758,1,8,0:0:0:0:
256,192,59958,1,8,0:0:0:0:
256,192,60158,1,0,0:0:0:0:
256,192,60358,1,8,0:0:0:0:
256,192,60558,1,8,0:0:0:0:
256,192,60758,1,8,0:0:0:0:
256,192,61158,1,8,0:0:0:0:
256,192,61358,1,8,0:0:0:0:
256,192,61458,1,2,0:0:0:0:
256,192,61658,1,0,0:0:0:0:
256,192,61758,1,0,0:0:0:0:
256,192,62558,1,8,0:0:0:0:
256,192,62758,1,4,0:0:0:0:
256,192,63058,1,8,0:0:0:0:
256,192,63358,1,8,0:0:0:0:
256,192,63558,1,4,0:0:0:0:
256,192,63858,1,8,0:0:0:0:
256,192,64158,1,8,0:0:0:0:
256,192,64358,1,0,0:0:0:0:
256,192,64558,1,0,0:0:0:0:
256,192,64758,1,8,0:0:0:0:
256,192,65158,1,0,0:0:0:0:
256,192,65358,1,0,0:0:0:0:
256,192,65558,1,8,0:0:0:0:
256,192,65958,1,4,0:0:0:0:
256,192,66158,1,0,0:0:0:0:
256,192,66358,1,8,0:0:0:0:
256,192,66558,1,8,0:0:0:0:
256,192,66758,1,8,0:0:0:0:
256,192,66958,1,0,0:0:0:0:
256,192,67158,1,8,0:0:0:0:
256,192,67558,1,8,0:0:0:0:
256,192,67758,1,0,0:0:0:0:
256,192,67958,1,0,0:0:0:0:
256,192,68158,1,8,0:0:0:0:
256,192,68258,1,8,0:0:0:0:
256,192,69158,1,0,0:0:0:0:
256,192,69358,1,0,0:0:0:0:
256,192,69558,1,8,0:0:0:0:
256,192,69758,1,8,0:0:0:0:
256,192,69958,1,0,0:0:0:0:
256,192,70158,1,0,0:0:0:0:
256,192,70358,1,8,0:0:0:0:
256,192,70758,1,0,0:0:0:0:
256,192,70958,1,0,0:0:0:0:
256,192,71158,1,0,0:0:0:0:
256,192,71358,1,8,0:0:0:0:
256,192,71458,1,8,0:0:0:0:
256,192,71558,1,8,0:0:0:0:
256,192,71958,1,8,0:0:0:0:
256,192,72358,1,8,0:0:0:0:
256,192,72558,1,0,0:0:0:0:
256,192,72758,1,8,0:0:0:0:
256,192,72958,1,0,0:0:0:0:
256,192,73158,1,8,0:0:0:0:
256,192,73358,1,8,0:0:0:0:
256,192,73558,1,8,0:0:0:0:
256,192,73958,1,8,0:0:0:0:
256,192,74158,1,8,0:0:0:0:
256,192,74258,1,8,0:0:0:0:
256,192,74458,1,0,0:0:0:0:
256,192,74558,1,0,0:0:0:0:
256,192,75358,1,0,0:0:0:0:
256,192,75558,1,12,0:0:0:0:
256,192,75858,1,8,0:0:0:0:
256,192,76158,1,0,0:0:0:0:
256,192,76358,1,12,0:0:0:0:
256,192,76658,1,8,0:0:0:0:
256,192,76958,1,0,0:0:0:0:
256,192,77158,1,0,0:0:0:0:
256,192,77358,1,0,0:0:0:0:
256,192,77558,1,8,0:0:0:0:
256,192,77758,1,0,0:0:0:0:
256,192,77958,1,8,0:0:0:0:
256,192,78158,1,8,0:0:0:0:
256,192,78358,1,8,0:0:0:0:
256,192,78758,5,4,0:0:0:0:
256,192,79158,1,8,0:0:0:0:
256,192,79558,1,0,0:0:0:0:
256,192,79758,1,0,0:0:0:0:
256,192,79958,1,8,0:0:0:0:
256,192,80358,1,0,0:0:0:0:
256,192,80758,1,8,0:0:0:0:
256,192,81158,1,8,0:0:0:0:
256,192,81358,1,0,0:0:0:0:
256,192,81558,1,8,0:0:0:0:
256,192,81658,1,8,0:0:0:0:
256,192,81758,1,8,0:0:0:0:
256,192,81958,1,0,0:0:0:0:
256,192,82358,1,8,0:0:0:0:
256,192,82758,1,0,0:0:0:0:
256,192,82958,1,0,0:0:0:0:
256,192,83158,1,8,0:0:0:0:
256,192,83558,1,0,0:0:0:0:
256,192,83958,1,8,0:0:0:0:
256,192,84158,1,0,0:0:0:0:
256,192,84258,1,0,0:0:0:0:
256,192,84358,1,0,0:0:0:0:
256,192,85158,1,4,0:0:0:0:
256,192,85558,1,8,0:0:0:0:
256,192,85958,1,0,0:0:0:0:
256,192,86158,1,0,0:0:0:0:
256,192,86358,1,8,0:0:0:0:
256,192,86758,1,4,0:0:0:0:
256,192,87158,1,8,0:0:0:0:
256,192,87558,1,8,0:0:0:0:
256,192,87758,1,0,0:0:0:0:
256,192,87958,1,8,0:0:0:0:
256,192,88058,1,8,0:0:0:0:
256,192,88158,1,8,0:0:0:0:
256,192,88358,1,4,0:0:0:0:
256,192,88758,1,8,0:0:0:0:
256,192,89158,1,0,0:0:0:0:
256,192,89358,1,0,0:0:0:0:
256,192,89558,1,8,0:0:0:0:
256,192,89958,2,0,L|320:192,12,35.0000001490115
256,192,91558,1,0,0:0:0:0:
256,192,91958,1,8,0:0:0:0:
256,192,92358,1,0,0:0:0:0:
256,192,92558,1,0,0:0:0:0:
256,192,92758,1,8,0:0:0:0:
256,192,93158,1,0,0:0:0:0:
256,192,93958,1,0,0:0:0:0:
256,192,94158,1,0,0:0:0:0:
256,192,94358,1,8,0:0:0:0:
256,192,94758,1,0,0:0:0:0:
256,192,95558,1,0,0:0:0:0:
256,192,96358,1,0,0:0:0:0:
256,192,96758,1,0,0:0:0:0:
256,192,97158,1,0,0:0:0:0:
256,192,97958,5,4,0:0:0:0:
256,192,98758,1,8,0:0:0:0:
256,192,99558,1,0,0:0:0:0:
256,192,100358,1,8,0:0:0:0:
256,192,101158,1,4,0:0:0:0:
256,192,101958,1,4,0:0:0:0:
256,192,102758,1,4,0:0:0:0:
256,192,103158,1,12,0:0:0:0:
256,192,103558,1,4,0:0:0:0:
256,192,103958,1,12,0:0:0:0:
256,192,104358,1,0,0:0:0:0:
256,192,104558,1,0,0:0:0:0:
256,192,104758,1,8,0:0:0:0:
256,192,105158,1,0,0:0:0:0:
256,192,105558,1,8,0:0:0:0:
256,192,105958,1,0,0:0:0:0:
256,192,106158,1,0,0:0:0:0:
256,192,106358,1,8,0:0:0:0:
256,192,106758,1,8,0:0:0:0:
256,192,107558,1,8,0:0:0:0:
256,192,107758,1,8,0:0:0:0:
256,192,107958,1,0,0:0:0:0:
256,192,108358,1,8,0:0:0:0:
256,192,108758,1,0,0:0:0:0:
256,192,109158,1,8,0:0:0:0:
256,192,109358,1,0,0:0:0:0:
256,192,109558,1,8,0:0:0:0:
256,192,109958,1,0,0:0:0:0:
256,192,110758,1,4,0:0:0:0:
256,192,110958,1,8,0:0:0:0:
256,192,111158,1,8,0:0:0:0:
256,192,111558,1,0,0:0:0:0:
256,192,111958,1,8,0:0:0:0:
256,192,112358,1,12,0:0:0:0:
256,192,112558,1,0,0:0:0:0:
256,192,112758,1,0,0:0:0:0:
256,192,113158,1,8,0:0:0:0:
256,192,113958,1,0,0:0:0:0:
256,192,114058,1,0,0:0:0:0:
256,192,114158,1,0,0:0:0:0:
256,192,114358,1,0,0:0:0:0:
256,192,114758,1,8,0:0:0:0:
256,192,114858,1,8,0:0:0:0:
256,192,114958,1,8,0:0:0:0:
288,192,115158,1,8,0:0:0:0:
256,192,115558,1,0,0:0:0:0:
256,192,115658,1,0,0:0:0:0:
256,192,115758,1,0,0:0:0:0:
256,192,115958,1,0,0:0:0:0:
256,192,116058,1,0,0:0:0:0:
256,192,116158,1,0,0:0:0:0:
256,192,116358,1,0,0:0:0:0:
256,192,116758,1,8,0:0:0:0:
256,192,117158,12,8,118358,0:0:0:0:
256,192,118758,5,4,0:0:0:0:
256,192,118958,1,0,0:0:0:0:
256,192,119058,1,0,0:0:0:0:
256,192,119358,1,8,0:0:0:0:
256,192,119558,1,0,0:0:0:0:
256,192,119758,1,0,0:0:0:0:
256,192,119858,1,0,0:0:0:0:
256,192,120158,1,8,0:0:0:0:
256,192,120358,1,0,0:0:0:0:
256,192,120558,1,0,0:0:0:0:
256,192,120658,1,0,0:0:0:0:
256,192,120958,1,8,0:0:0:0:
256,192,121158,1,0,0:0:0:0:
256,192,121958,1,8,0:0:0:0:
256,192,122158,1,0,0:0:0:0:
256,192,122258,1,0,0:0:0:0:
256,192,122558,1,8,0:0:0:0:
256,192,122758,1,8,0:0:0:0:
256,192,122958,1,0,0:0:0:0:
256,192,123058,1,0,0:0:0:0:
256,192,123358,1,8,0:0:0:0:
256,192,123558,1,8,0:0:0:0:
256,192,123758,1,0,0:0:0:0:
256,192,123858,1,0,0:0:0:0:
256,192,124158,1,0,0:0:0:0:
256,192,124358,1,8,0:0:0:0:
256,192,125158,1,4,0:0:0:0:
256,192,125358,1,8,0:0:0:0:
256,192,125458,1,8,0:0:0:0:
256,192,125758,1,8,0:0:0:0:
256,192,125958,1,0,0:0:0:0:
256,192,126158,1,8,0:0:0:0:
256,192,126258,1,8,0:0:0:0:
256,192,126558,1,8,0:0:0:0:
256,192,126758,1,0,0:0:0:0:
256,192,126958,1,8,0:0:0:0:
256,192,127058,1,8,0:0:0:0:
256,192,127358,1,8,0:0:0:0:
256,192,127558,1,0,0:0:0:0:
256,192,127758,1,8,0:0:0:0:
256,192,127958,1,0,0:0:0:0:
256,192,128158,1,0,0:0:0:0:
256,192,128358,1,8,0:0:0:0:
256,192,128558,1,0,0:0:0:0:
256,192,128658,1,0,0:0:0:0:
256,192,128958,1,0,0:0:0:0:
256,192,129158,1,8,0:0:0:0:
256,192,129358,1,0,0:0:0:0:
256,192,129458,1,0,0:0:0:0:
256,192,129758,1,0,0:0:0:0:
256,192,129958,1,8,0:0:0:0:
256,192,130158,1,0,0:0:0:0:
256,192,130258,1,0,0:0:0:0:
256,192,130558,1,0,0:0:0:0:
256,192,130758,1,8,0:0:0:0:
224,192,130958,1,0,0:0:0:0:
256,192,131058,1,0,0:0:0:0:
256,192,131558,1,0,0:0:0:0:
256,192,131758,1,0,0:0:0:0:
256,192,131958,1,8,0:0:0:0:
256,192,132158,1,8,0:0:0:0:
256,192,132358,1,0,0:0:0:0:
256,192,132558,1,0,0:0:0:0:
256,192,132758,1,8,0:0:0:0:
256,192,133158,1,0,0:0:0:0:
256,192,133358,1,0,0:0:0:0:
256,192,133558,1,8,0:0:0:0:
256,192,133758,1,8,0:0:0:0:
256,192,133958,1,0,0:0:0:0:
256,192,134158,1,8,0:0:0:0:
256,192,134358,1,0,0:0:0:0:
256,192,134758,1,0,0:0:0:0:
256,192,134958,1,0,0:0:0:0:
256,192,135158,1,8,0:0:0:0:
256,192,135358,1,0,0:0:0:0:
256,192,135558,1,0,0:0:0:0:
256,192,135758,1,8,0:0:0:0:
256,192,135958,1,8,0:0:0:0:
256,192,136358,1,0,0:0:0:0:
256,192,136558,1,0,0:0:0:0:
256,192,136758,1,8,0:0:0:0:
256,192,136958,1,0,0:0:0:0:
256,192,137158,1,0,0:0:0:0:
256,192,137358,1,8,0:0:0:0:
256,192,137558,1,8,0:0:0:0:
256,192,137958,1,0,0:0:0:0:
256,192,138158,1,8,0:0:0:0:
256,192,138358,1,0,0:0:0:0:
288,192,138558,1,8,0:0:0:0:
288,192,138758,1,0,0:0:0:0:
288,192,138958,1,8,0:0:0:0:
288,192,139158,1,0,0:0:0:0:
288,192,139358,1,8,0:0:0:0:
256,192,139558,1,0,0:0:0:0:
256,192,139758,1,8,0:0:0:0:
288,192,139958,1,0,0:0:0:0:
288,192,140158,1,8,0:0:0:0:
320,192,140358,1,0,0:0:0:0:
320,192,140558,1,8,0:0:0:0:
320,192,140758,1,0,0:0:0:0:
288,192,140958,1,8,0:0:0:0:
292,192,141158,1,0,0:0:0:0:
292,196,141558,1,8,0:0:0:0:
292,196,141758,1,0,0:0:0:0:
292,196,141858,1,0,0:0:0:0:
292,196,141958,1,8,0:0:0:0:
292,196,142258,1,8,0:0:0:0:
292,196,142558,1,0,0:0:0:0:
292,196,142658,1,0,0:0:0:0:
292,196,142758,1,8,0:0:0:0:
292,196,143058,1,8,0:0:0:0:
292,196,143358,1,0,0:0:0:0:
292,196,143458,1,0,0:0:0:0:
292,196,143558,1,8,0:0:0:0:
292,196,143858,1,8,0:0:0:0:
256,192,144158,1,0,0:0:0:0:
268,192,144358,1,0,0:0:0:0:
256,192,144558,1,0,0:0:0:0:
256,192,144758,1,8,0:0:0:0:
256,192,144958,1,0,0:0:0:0:
256,224,145358,1,8,0:0:0:0:
256,192,145558,1,8,0:0:0:0:
256,192,145958,1,0,0:0:0:0:
256,192,146158,1,0,0:0:0:0:
256,192,146358,1,8,0:0:0:0:
256,192,146558,1,0,0:0:0:0:
256,192,147158,1,8,0:0:0:0:
256,192,147558,1,8,0:0:0:0:
256,192,147758,1,0,0:0:0:0:
256,192,147958,1,0,0:0:0:0:
256,192,148158,1,8,0:0:0:0:
256,192,148558,1,8,0:0:0:0:
256,192,148758,1,0,0:0:0:0:
256,192,149158,1,8,0:0:0:0:
256,192,149358,1,0,0:0:0:0:
256,192,149558,1,0,0:0:0:0:
256,192,149758,1,8,0:0:0:0:
256,192,150358,1,0,0:0:0:0:
256,192,150758,1,0,0:0:0:0:
256,192,150958,1,0,0:0:0:0:
256,192,151158,1,8,0:0:0:0:
288,192,151358,1,8,0:0:0:0:
256,192,151758,1,0,0:0:0:0:
256,192,151958,1,8,0:0:0:0:
256,192,152358,1,0,0:0:0:0:
256,192,152558,1,0,0:0:0:0:
256,192,152758,1,8,0:0:0:0:
256,192,152958,1,8,0:0:0:0:
256,192,153558,1,8,0:0:0:0:
256,192,153958,1,0,0:0:0:0:
256,192,154158,1,0,0:0:0:0:
256,192,154358,1,8,0:0:0:0:
256,192,154758,1,0,0:0:0:0:
256,192,154958,1,8,0:0:0:0:
256,192,155158,1,0,0:0:0:0:
256,192,155558,2,8,L|320:192,12,35.0000001490115
256,192,157158,2,0,B|232:288|232:288|276:300|360:280|416:200|360:92|312:84|272:72|216:72|176:104|156:144|144:192|171:240|171:240|160:278|160:278|160:336|188:368|264:372|317:356|358:336|416:256,1,980.000004172322
256,192,160358,5,4,0:0:0:0:
256,192,160558,1,8,0:0:0:0:
256,192,160758,1,8,0:0:0:0:
256,192,160958,1,0,0:0:0:0:
256,192,161158,1,8,0:0:0:0:
256,192,161358,1,8,0:0:0:0:
256,192,161558,1,0,0:0:0:0:
256,192,161958,1,0,0:0:0:0:
256,192,162158,1,8,0:0:0:0:
256,192,162358,1,0,0:0:0:0:
256,160,162558,1,8,0:0:0:0:
256,192,162658,1,8,0:0:0:0:
256,192,163558,1,0,0:0:0:0:
256,192,163758,1,0,0:0:0:0:
256,192,163958,1,8,0:0:0:0:
256,192,164158,1,8,0:0:0:0:
256,192,164358,1,0,0:0:0:0:
256,192,164558,1,0,0:0:0:0:
256,192,164758,1,8,0:0:0:0:
256,192,165158,1,0,0:0:0:0:
256,192,165358,1,0,0:0:0:0:
256,192,165558,1,0,0:0:0:0:
256,192,165758,1,8,0:0:0:0:
256,192,165858,1,8,0:0:0:0:
256,192,165958,1,8,0:0:0:0:
256,192,166358,1,8,0:0:0:0:
256,192,166758,1,0,0:0:0:0:
256,192,166958,1,0,0:0:0:0:
256,192,167158,1,8,0:0:0:0:
256,192,167358,1,0,0:0:0:0:
256,192,167558,1,8,0:0:0:0:
256,192,167758,1,8,0:0:0:0:
256,192,167858,1,8,0:0:0:0:
256,192,168358,1,4,0:0:0:0:
256,192,168558,1,8,0:0:0:0:
256,192,168658,1,8,0:0:0:0:
256,192,168858,1,0,0:0:0:0:
256,192,168958,1,0,0:0:0:0:
256,192,169758,1,8,0:0:0:0:
256,192,169958,1,4,0:0:0:0:
256,192,170258,1,8,0:0:0:0:
256,192,170558,1,8,0:0:0:0:
256,192,170758,1,4,0:0:0:0:
256,192,171058,1,8,0:0:0:0:
256,192,171358,1,8,0:0:0:0:
256,192,171558,1,0,0:0:0:0:
256,192,171758,1,0,0:0:0:0:
256,192,171958,1,8,0:0:0:0:
256,192,172158,1,0,0:0:0:0:
256,192,172358,1,0,0:0:0:0:
256,192,172558,1,0,0:0:0:0:
256,192,172758,1,8,0:0:0:0:
256,192,173158,1,4,0:0:0:0:
256,192,173358,1,0,0:0:0:0:
256,192,173558,1,8,0:0:0:0:
256,192,173758,1,8,0:0:0:0:
256,192,173958,1,0,0:0:0:0:
256,192,174158,1,0,0:0:0:0:
256,192,174358,1,8,0:0:0:0:
256,192,174758,1,8,0:0:0:0:
256,192,174958,1,8,0:0:0:0:
256,192,175158,1,8,0:0:0:0:
256,192,175358,1,0,0:0:0:0:
256,192,175458,1,0,0:0:0:0:
256,192,176358,1,0,0:0:0:0:
256,192,176558,1,8,0:0:0:0:
256,192,176758,1,8,0:0:0:0:
256,192,176958,1,0,0:0:0:0:
256,192,177158,1,8,0:0:0:0:
256,192,177358,1,8,0:0:0:0:
256,192,177558,1,0,0:0:0:0:
256,192,177958,1,0,0:0:0:0:
256,192,178158,1,0,0:0:0:0:
256,192,178358,1,0,0:0:0:0:
256,192,178558,1,8,0:0:0:0:
256,192,178658,1,8,0:0:0:0:
256,192,178758,1,8,0:0:0:0:
256,192,179158,1,8,0:0:0:0:
256,192,179558,1,8,0:0:0:0:
256,192,179758,1,0,0:0:0:0:
256,192,179958,1,8,0:0:0:0:
256,192,180158,1,0,0:0:0:0:
256,192,180358,1,8,0:0:0:0:
256,192,180758,1,8,0:0:0:0:
256,192,181158,1,8,0:0:0:0:
256,192,181358,1,8,0:0:0:0:
256,192,181458,1,8,0:0:0:0:
256,192,181658,1,0,0:0:0:0:
256,192,181758,1,0,0:0:0:0:
256,192,182558,1,8,0:0:0:0:
256,192,182758,1,4,0:0:0:0:
256,192,183058,1,8,0:0:0:0:
256,192,183358,1,8,0:0:0:0:
256,192,183558,1,4,0:0:0:0:
256,192,183858,1,8,0:0:0:0:
256,192,184158,1,8,0:0:0:0:
256,192,184358,1,0,0:0:0:0:
256,192,184558,1,0,0:0:0:0:
256,192,184758,1,8,0:0:0:0:
256,192,185158,1,0,0:0:0:0:
256,192,185358,1,0,0:0:0:0:
256,192,185558,1,8,0:0:0:0:
256,192,185958,5,4,0:0:0:0:
256,192,186358,1,8,0:0:0:0:
256,192,186758,1,0,0:0:0:0:
256,192,186958,1,0,0:0:0:0:
256,224,187158,1,8,0:0:0:0:
256,192,187558,1,0,0:0:0:0:
256,192,187958,1,8,0:0:0:0:
256,192,188358,1,8,0:0:0:0:
256,192,188558,1,0,0:0:0:0:
256,192,188758,1,8,0:0:0:0:
256,192,188858,1,8,0:0:0:0:
256,192,188958,1,8,0:0:0:0:
256,192,189158,1,0,0:0:0:0:
256,192,189558,1,8,0:0:0:0:
256,192,189958,1,0,0:0:0:0:
256,192,190158,1,0,0:0:0:0:
256,192,190358,1,8,0:0:0:0:
256,192,190758,1,0,0:0:0:0:
256,192,191158,1,8,0:0:0:0:
256,192,191358,1,0,0:0:0:0:
256,192,191458,1,0,0:0:0:0:
256,192,191558,1,0,0:0:0:0:
256,192,192358,1,4,0:0:0:0:
256,192,192758,1,8,0:0:0:0:
256,192,193158,1,0,0:0:0:0:
256,192,193358,1,0,0:0:0:0:
256,192,193558,1,8,0:0:0:0:
256,192,193958,1,4,0:0:0:0:
256,192,194358,1,8,0:0:0:0:
256,192,194758,1,8,0:0:0:0:
256,192,194958,1,0,0:0:0:0:
256,192,195158,1,8,0:0:0:0:
256,192,195258,1,8,0:0:0:0:
256,192,195358,1,8,0:0:0:0:
256,192,195558,1,4,0:0:0:0:
256,192,195958,1,8,0:0:0:0:
256,192,196358,1,0,0:0:0:0:
256,192,196558,1,0,0:0:0:0:
256,192,196758,1,8,0:0:0:0:
256,192,197158,1,8,0:0:0:0:
256,192,197458,1,8,0:0:0:0:
256,192,197758,1,8,0:0:0:0:
256,192,197958,1,8,0:0:0:0:
256,192,198058,1,8,0:0:0:0:
256,192,198258,1,8,0:0:0:0:
256,192,198458,1,8,0:0:0:0:
256,192,198658,1,4,0:0:0:0:
