osu file format v14

[General]
AudioFilename: 12. Remember me.mp3
AudioLeadIn: 0
PreviewTime: 117160
Countdown: 0
SampleSet: Normal
StackLeniency: 0.5
Mode: 0
LetterboxInBreaks: 0
EpilepsyWarning: 1
WidescreenStoryboard: 1

[Editor]
Bookmarks: 9960,19558,23408,37988,38788,65758,65958,72558,73758,90758,123858,143558,198758
DistanceSpacing: 1.15
BeatDivisor: 4
GridSize: 4
TimelineZoom: 2.24

[Metadata]
Title:Remember Me
TitleUnicode:Remember Me
Artist:seleP
ArtistUnicode:seleP
Creator:Bara-
Version:A's Suicide
Source:
Tags:Lily Vocaloid Lilium Doll Sele-P 2nd Album UFERIUM Shmiklak Kenterz Kin Fort Avishay cdhsausageboy Reikosaka 17VA Yooh [Shi-Ra] Murder Suicide Yandere
BeatmapID:1191831
BeatmapSetID:110547

[Difficulty]
HPDrainRate:7
CircleSize:4
OverallDifficulty:7
ApproachRate:9.6
SliderMultiplier:2.4
SliderTickRate:4

[Events]
//Background and Video events
0,0,"KylXWYr.jpg",0,0
//Break Periods
2,91758,97449
2,98158,100649
2,144758,156649
//Storyboard Layer 0 (Background)
//Storyboard Layer 1 (Fail)
//Storyboard Layer 2 (Pass)
//Storyboard Layer 3 (Foreground)
//Storyboard Sound Samples

[TimingPoints]
358,400,4,1,1,10,1,0
9958,-133.333333333333,4,1,1,10,0,0
10358,-133.333333333333,4,1,1,15,0,0
10758,-133.333333333333,4,1,1,20,0,0
11158,-133.333333333333,4,1,1,25,0,0
11558,-133.333333333333,4,1,1,30,0,0
11858,-133.333333333333,4,2,1,30,0,0
11958,-133.333333333333,4,1,1,35,0,0
12358,-133.333333333333,4,1,1,40,0,0
12758,-133.333333333333,4,1,1,45,0,0
13158,-133.333333333333,4,1,1,50,0,0
13188,400,4,1,1,70,1,0
17988,-125,4,1,1,70,0,0
18588,-100,4,1,1,70,0,0
25688,-50,4,1,1,70,0,0
25988,-125,4,1,1,55,0,0
53158,400,4,1,1,70,1,1
53158,-66.6666666666667,4,1,1,70,0,1
59558,-60.6060606060606,4,1,1,70,0,1
65958,-66.6666666666667,4,1,1,70,0,1
75158,-100,4,1,1,70,0,1
75358,-66.6666666666667,4,1,1,70,0,1
78758,-100,4,1,1,70,0,0
83558,-133.333333333333,4,1,1,60,0,0
84158,-100,4,1,1,60,0,0
91358,-66.6666666666667,4,1,1,60,0,0
91558,-100,4,2,1,40,0,0
97958,-133.333333333333,4,2,1,40,0,0
104358,-133.333333333333,4,2,1,50,0,0
105958,-166.666666666667,4,2,1,50,0,0
106758,-147.058823529412,4,2,1,50,0,0
107558,-133.333333333333,4,2,1,50,0,0
110658,-133.333333333333,4,2,1,5,0,0
110758,-200,4,2,1,60,0,0
110858,-200,4,2,1,20,0,0
111558,-166.666666666667,4,2,1,30,0,0
112358,-125,4,2,1,40,0,0
112758,-111.111111111111,4,2,1,45,0,0
113158,-100,4,2,1,50,0,0
113558,-90.9090909090909,4,2,1,55,0,0
113958,-100,4,2,1,60,0,0
117158,-125,4,2,1,60,0,0
118758,-60.6060606060606,4,1,1,70,0,1
130758,-60.6060606060606,4,1,1,70,0,0
131558,-55.5555555555556,4,1,1,70,0,1
142758,-100,4,1,1,70,0,1
142958,-90.9090909090909,4,1,1,70,0,1
143158,-83.3333333333333,4,1,1,70,0,1
143358,-76.9230769230769,4,1,1,70,0,1
143558,-60.6060606060606,4,1,1,70,0,1
143758,-57.1428571428571,4,1,1,70,0,1
143958,-54.054054054054,4,1,1,70,0,1
144158,-51.2820512820513,4,1,1,70,0,1
144358,-100,4,1,1,60,0,0
157158,-100,4,2,1,30,0,0
160358,-66.6666666666667,4,1,1,70,0,1
173158,-66.6666666666667,4,1,1,70,0,1
182358,-100,4,1,1,70,0,1
182558,-66.6666666666667,4,1,1,70,0,1
185958,-100,4,1,1,60,0,0
190758,-133.333333333333,4,1,1,60,0,0
191458,-100,4,1,1,60,0,0

[Colours]
Combo1 : 0,0,176
Combo2 : 255,0,0
Combo3 : 0,255,255
Combo4 : 0,255,0
Combo5 : 255,255,0
Combo6 : 255,0,255
Combo7 : 255,128,192
Combo8 : 255,128,0

[HitObjects]
176,72,9958,6,0,L|120:80,3,45.0000017166138,0|0|0|0,0:0|0:0|0:0|0:0,0:0:0:0:
204,160,10358,2,0,L|148:168,3,45.0000017166138,0|0|0|0,0:0|0:0|0:0|0:0,0:0:0:0:
284,104,10758,1,0,0:0:0:0:
306,104,10858,1,0,0:0:0:0:
328,105,10958,1,0,0:0:0:0:
351,106,11058,1,0,0:0:0:0:
373,107,11158,1,0,0:0:0:0:
413,85,11258,1,0,0:0:0:0:
433,43,11358,1,0,0:0:0:0:
425,0,11458,1,0,0:0:0:0:
488,112,11558,5,0,0:0:0:0:
463,150,11658,1,0,0:0:0:0:
456,196,11758,1,0,0:0:0:0:
467,241,11858,1,0,0:0:0:0:
495,277,11958,1,0,0:0:0:0:
469,256,12058,1,0,0:0:0:0:
436,249,12158,1,0,0:0:0:0:
404,258,12258,1,0,0:0:0:0:
380,279,12358,6,0,L|308:272,7,45.0000017166138
416,360,13188,6,0,B|384:376|384:376|340:364|340:364|300:368,1,120,4|0,0:0|0:0,0:0:0:0:
80,256,13588,2,0,L|205:270,1,120,8|0,0:0|0:0,0:0:0:0:
393,216,13888,2,0,P|302:244|258:224,1,120,0|0,0:0|0:0,0:0:0:0:
116,211,14188,2,0,P|91:227|79:255,1,60
204,184,14388,2,0,P|241:112|215:65,1,120,8|0,0:0|0:0,0:0:0:0:
280,0,14688,1,0,0:0:0:0:
371,32,14788,6,0,L|510:39,1,120,0|0,0:0|0:0,0:0:0:0:
141,32,15188,2,0,L|2:39,1,120,8|0,0:0|0:0,0:0:0:0:
8,120,15488,2,0,P|12:148|4:179,1,60,0|0,0:0|0:0,0:0:0:0:
21,345,15688,2,0,L|141:352,1,120,0|0,0:0|0:0,0:0:0:0:
216,292,15988,6,0,P|188:279|168:257,1,60,8|0,0:0|0:0,0:0:0:0:
200,172,16188,1,0,0:0:0:0:
236,88,16288,1,0,0:0:0:0:
140,96,16388,6,0,P|83:115|24:107,1,120,4|0,0:0|0:0,0:0:0:0:
368,220,16788,2,0,P|426:212|483:231,1,120,8|0,0:0|0:0,0:0:0:0:
343,336,17088,2,0,B|280:347|280:347|228:326,1,120,0|0,0:0|0:0,0:0:0:0:
124,244,17388,2,0,P|99:220|51:214,1,60,0|0,0:0|0:0,0:0:0:0:
232,179,17588,2,0,P|234:102|217:35,1,120,8|0,0:0|0:0,0:0:0:0:
88,352,17988,6,0,B|120:352|152:336|152:336|224:256|80:256|152:336|152:336|184:352|224:352,1,288
256,352,18688,1,0,0:0:0:0:
288,336,18788,2,0,P|300:288|288:252,1,60,8|0,0:0|0:0,0:0:0:0:
112,224,18988,2,0,P|160:236|196:224,1,60,0|0,0:0|0:0,0:0:0:0:
400,160,19188,2,0,P|352:148|316:160,1,60,8|0,0:0|0:0,0:0:0:0:
224,48,19388,2,0,P|212:96|224:132,1,60,8|0,0:0|0:0,0:0:0:0:
297,276,19588,6,0,L|448:264,1,120,4|0,0:0|0:0,0:0:0:0:
200,352,19988,2,0,L|49:340,1,120,8|0,0:0|0:0,0:0:0:0:
36,267,20288,1,0,0:0:0:0:
112,224,20388,2,0,L|192:208,2,60,0|0|0,0:0|0:0|0:0,0:0:0:0:
32,176,20688,1,0,0:0:0:0:
32,176,20788,2,0,P|27:116|36:48,1,120,8|0,0:0|0:0,0:0:0:0:
104,4,21088,1,0,0:0:0:0:
160,96,21188,6,0,P|219:101|272:75,1,120,4|0,0:0|0:0,0:0:0:0:
415,272,21588,2,0,P|358:259|322:212,1,120,8|0,0:0|0:0,0:0:0:0:
208,184,21888,2,0,P|178:183|150:193,1,60
200,304,22088,2,0,B|220:344|220:344|264:368|336:348,1,120,0|0,0:0|0:0,0:0:0:0:
416,272,22388,2,0,P|386:275|360:289,1,60,8|0,0:0|0:0,0:0:0:0:
412,168,22588,2,0,P|430:144|438:115,1,60,0|0,0:0|0:0,0:0:0:0:
400,16,22788,5,4,0:0:0:0:
92,124,22988,2,0,P|132:128|160:120,1,60,0|0,0:0|0:0,0:0:0:0:
296,48,23188,2,0,L|172:52,1,120,8|0,0:0|0:0,0:0:0:0:
12,20,23488,2,0,L|20:88,1,60,0|4,0:0|0:0,0:0:0:0:
111,211,23688,2,0,B|192:168|192:168|192:240,1,120,0|0,0:0|0:0,0:0:0:0:
192,196,23988,1,8,0:0:0:0:
128,352,24188,5,0,0:0:0:0:
124,332,24388,2,0,L|48:312,1,60,4|0,0:0|0:0,0:0:0:0:
20,104,24688,1,0,0:0:0:0:
192,196,24888,2,0,L|297:181,1,60,0|0,0:0|0:0,0:0:0:0:
160,40,25188,6,0,L|220:32,1,60,4|0,0:0|0:0,0:0:0:0:
392,8,25488,1,0,0:0:0:0:
480,168,25688,6,0,L|470:287,1,120
356,100,25988,6,0,P|309:102|261:98,1,96,4|0,0:0|0:0,0:0:0:0:
124,232,26388,2,0,P|170:229|218:233,1,96,8|0,0:0|0:0,0:0:0:0:
376,344,26788,2,0,L|368:236,1,96
344,172,27088,2,0,L|356:112,1,48,0|8,0:0|0:0,0:0:0:0:
288,232,27288,1,0,0:0:0:0:
288,232,27388,1,0,0:0:0:0:
244,32,27588,6,0,P|244:88|224:132,1,96,4|0,0:0|0:0,0:0:0:0:
56,172,27988,2,0,P|56:116|76:72,1,96,8|0,0:0|0:0,0:0:0:0:
272,188,28388,2,0,L|268:312,1,96
328,344,28688,2,0,L|380:348,1,48,0|8,0:0|0:0,0:0:0:0:
244,364,28888,1,0,0:0:0:0:
244,364,28988,1,0,0:0:0:0:
92,312,29188,6,0,L|32:304,2,48,4|0|0,0:0|0:0|0:0,0:0:0:0:
180,184,29588,2,0,P|168:128|188:80,1,96,8|0,0:0|0:0,0:0:0:0:
332,200,29988,2,0,P|344:256|324:304,1,96
392,344,30288,2,0,P|424:328|456:328,1,48,0|8,0:0|0:0,0:0:0:0:
424,246,30488,1,0,0:0:0:0:
424,246,30588,1,0,0:0:0:0:
244,248,30788,5,4,0:0:0:0:
228,208,30888,1,0,0:0:0:0:
236,164,30988,1,0,0:0:0:0:
44,272,31188,1,8,0:0:0:0:
88,268,31288,1,0,0:0:0:0:
124,296,31388,2,0,P|156:304|188:304,1,48
369,310,31588,2,0,P|296:299|243:337,1,144
242,338,31988,1,8,0:0:0:0:
428,128,32188,1,8,0:0:0:0:
432,116,32388,6,0,L|312:104,1,96,4|0,0:0|0:0,0:0:0:0:
324,280,32788,2,0,L|228:270,1,96,8|0,0:0|0:0,0:0:0:0:
88,116,33188,2,0,L|183:125,1,96
248,72,33488,2,0,L|252:25,1,48,0|8,0:0|0:0,0:0:0:0:
264,156,33688,1,0,0:0:0:0:
264,156,33788,1,0,0:0:0:0:
112,328,33988,6,0,B|92:312|92:312|108:224,1,96,4|0,0:0|0:0,0:0:0:0:
232,292,34388,1,8,0:0:0:0:
233,283,34488,1,0,0:0:0:0:
235,274,34588,1,0,0:0:0:0:
256,140,34788,2,0,B|220:136|220:136|160:152,1,96
104,64,35088,2,0,L|151:71,1,48,0|8,0:0|0:0,0:0:0:0:
81,142,35288,1,0,0:0:0:0:
81,142,35388,1,0,0:0:0:0:
112,332,35588,6,0,L|216:320,1,96,4|0,0:0|0:0,0:0:0:0:
260,152,35988,2,0,L|348:220,1,96,8|0,0:0|0:0,0:0:0:0:
108,312,36388,2,0,P|114:264|142:226,1,96,4|0,0:0|0:0,0:0:0:0:
48,184,36688,2,0,P|48:207|41:230,1,48,0|8,0:0|0:0,0:0:0:0:
120,152,36888,1,0,0:0:0:0:
120,152,36988,1,0,0:0:0:0:
242,73,37188,6,0,L|113:81,1,96,4|0,0:0|0:0,0:0:0:0:
270,311,37588,2,0,L|399:303,1,96,4|0,0:0|0:0,0:0:0:0:
137,206,37988,2,0,L|145:335,1,96,4|0,0:0|0:0,0:0:0:0:
375,178,38388,2,0,L|367:49,1,96,4|0,0:0|0:0,0:0:0:0:
400,192,38688,1,0,0:0:0:0:
425,206,38788,6,0,L|430:301,1,96,4|0,0:0|0:0,0:0:0:0:
260,200,39188,2,0,L|343:247,1,96
148,236,39588,2,0,B|128:184|128:184|140:96,1,144
140,96,39988,1,8,0:0:0:0:
288,272,40188,1,0,0:0:0:0:
292,288,40388,6,0,L|424:280,1,96,4|0,0:0|0:0,0:0:0:0:
180,352,40788,2,0,L|48:344,1,96,8|0,0:0|0:0,0:0:0:0:
96,300,41088,1,0,0:0:0:0:
112,255,41188,2,0,P|120:209|108:163,1,96
256,60,41588,2,0,P|243:106|252:152,1,96,8|0,0:0|0:0,0:0:0:0:
400,304,41988,6,0,B|424:256|424:256|388:156,2,144,4|2|0,0:0|0:0|0:0,0:0:0:0:
256,356,42788,2,0,L|144:348,1,96
272,132,43188,2,0,L|229:217,1,96,8|0,0:0|0:0,0:0:0:0:
32,264,43588,6,0,L|127:271,1,96
380,192,43988,1,8,0:0:0:0:
384,172,44188,5,0,0:0:0:0:
360,164,44288,1,0,0:0:0:0:
336,156,44388,2,0,B|284:168|284:168|176:148,1,144
194,151,44788,1,8,0:0:0:0:
452,212,44988,1,8,0:0:0:0:
460,232,45188,6,0,L|468:304,2,48,4|0|0,0:0|0:0|0:0,0:0:0:0:
332,344,45588,2,0,P|289:323|241:320,1,96,8|0,0:0|0:0,0:0:0:0:
201,162,45988,2,0,P|155:217|87:240,1,144
87,240,46388,1,8,0:0:0:0:
324,288,46588,1,0,0:0:0:0:
332,268,46788,5,0,0:0:0:0:
364,256,46888,1,0,0:0:0:0:
403,263,46988,1,0,0:0:0:0:
276,96,47188,1,0,0:0:0:0:
275,130,47288,1,0,0:0:0:0:
255,164,47388,2,0,P|228:184|192:184,1,48
29,144,47588,2,0,P|87:107|149:137,1,144
149,137,47988,1,8,0:0:0:0:
52,360,48188,1,8,0:0:0:0:
60,348,48388,6,0,L|168:344,1,96,4|0,0:0|0:0,0:0:0:0:
44,204,48688,2,0,L|32:264,1,48,0|8,0:0|0:0,0:0:0:0:
256,324,48988,1,0,0:0:0:0:
272,292,49188,2,0,L|380:288,1,96,4|0,0:0|0:0,0:0:0:0:
272,120,49488,2,0,L|260:180,1,48,0|8,0:0|0:0,0:0:0:0:
464,348,49788,1,0,0:0:0:0:
272,292,49988,5,0,0:0:0:0:
183,287,50088,1,0,0:0:0:0:
95,282,50188,1,4,0:0:0:0:
256,192,50288,12,0,51388,0:0:0:0:
172,226,51588,6,0,L|196:232,30,24
236,216,53158,6,0,P|263:176|260:120,1,90.0000034332277,4|0,0:0|0:0,0:0:0:0:
408,56,53358,2,0,P|380:95|384:152,1,90.0000034332277,0|0,0:0|0:0,0:0:0:0:
431,291,53558,2,0,B|327:331|327:331|260:320,1,180.000006866455,8|0,0:0|0:0,0:0:0:0:
160,316,53858,1,0,0:0:0:0:
92,244,53958,2,0,P|108:156|40:56,1,180.000006866455
443,77,54358,2,0,P|403:157|420:244,1,180.000006866455,8|0,0:0|0:0,0:0:0:0:
256,364,54758,6,0,L|256:184,1,180.000006866455
139,167,55058,1,0,0:0:0:0:
139,167,55158,2,0,P|107:212|136:352,1,180.000006866455,8|0,0:0|0:0,0:0:0:0:
236,248,55458,2,0,P|197:236|192:276,1,90.0000034332277,8|0,0:0|0:0,0:0:0:0:
340,364,55658,2,0,B|396:336|396:336|428:288|396:216,1,180.000006866455,8|0,0:0|0:0,0:0:0:0:
296,200,55958,2,0,P|168:228|88:124,1,270.000010299683,8|0,0:0|0:0,0:0:0:0:
100,36,56358,6,0,P|144:36|187:24,1,90.0000034332277
288,60,56558,2,0,P|244:60|201:72,1,90.0000034332277
256,152,56758,2,0,B|256:302|256:302|304:276,1,180.000006866455,8|0,0:0|0:0,0:0:0:0:
220,228,57058,1,0,0:0:0:0:
156,168,57158,2,0,L|134:347,1,180.000006866455,8|0,0:0|0:0,0:0:0:0:
356,216,57458,2,0,L|378:37,1,180.000006866455,8|0,0:0|0:0,0:0:0:0:
234,112,57758,2,0,P|272:116|256:152,1,90.0000034332277
64,200,57958,6,0,P|131:255|217:240,1,180.000006866455
61,35,58258,1,0,0:0:0:0:
61,35,58358,2,0,P|93:117|63:199,1,180.000006866455,8|0,0:0|0:0,0:0:0:0:
40,336,58658,2,0,P|80:337|81:297,1,90.0000034332277,0|8,0:0|0:0,0:0:0:0:
188,348,58858,2,0,P|316:360|364:328,1,180.000006866455,8|0,0:0|0:0,0:0:0:0:
416,252,59158,2,0,L|426:148,1,90.0000034332277,8|0,0:0|0:0,0:0:0:0:
392,29,59358,1,0,0:0:0:0:
200,36,59558,6,0,B|300:56|300:56|396:28,1,198.000001888275,4|0,0:0|0:0,0:0:0:0:
504,332,59958,2,0,B|404:312|404:312|308:340,1,198.000001888275,8|0,0:0|0:0,0:0:0:0:
68,316,60358,2,0,P|184:292|180:192,1,198.000001888275
192,148,60658,1,0,0:0:0:0:
144,84,60758,1,8,0:0:0:0:
424,148,60958,2,0,L|412:252,1,99.0000009441376
336,335,61158,6,0,B|256:312|256:312|148:352,1,198.000001888275,4|0,0:0|0:0,0:0:0:0:
68,316,61458,2,0,L|60:208,1,99.0000009441376
52,104,61658,1,0,0:0:0:0:
54,92,61758,1,0,0:0:0:0:
56,80,61858,1,0,0:0:0:0:
122,35,61958,5,0,0:0:0:0:
180,92,62058,1,0,0:0:0:0:
256,116,62158,1,0,0:0:0:0:
332,92,62258,1,0,0:0:0:0:
390,35,62358,1,8,0:0:0:0:
440,124,62458,1,0,0:0:0:0:
408,220,62558,2,0,L|307:208,1,99.0000009441376
97,317,62758,6,0,L|301:341,1,198.000001888275,4|8,0:0|0:0,0:0:0:0:
408,220,63058,2,0,L|211:196,1,198.000001888275,8|0,0:0|0:0,0:0:0:0:
131,131,63358,2,0,P|82:137|41:111,1,99.0000009441376,8|0,0:0|0:0,0:0:0:0:
163,338,63558,6,0,P|128:250|41:273,1,198.000001888275,4|8,0:0|0:0,0:0:0:0:
42,112,63858,2,0,P|131:131|162:45,1,198.000001888275,8|0,0:0|0:0,0:0:0:0:
324,88,64158,1,8,0:0:0:0:
324,88,64258,1,8,0:0:0:0:
324,88,64358,6,0,P|444:96|512:12,1,198.000001888275,4|0,0:0|0:0,0:0:0:0:
188,88,64658,2,0,P|68:96|0:12,1,198.000001888275,8|0,0:0|0:0,0:0:0:0:
24,148,64958,1,0,0:0:0:0:
93,218,65058,1,0,0:0:0:0:
188,249,65158,6,0,L|304:209,1,99.0000009441376,12|0,0:0|0:0,0:0:0:0:
417,55,65358,2,0,L|324:88,1,99.0000009441376,8|0,0:0|0:0,0:0:0:0:
246,168,65558,1,12,0:0:0:0:
188,249,65658,1,0,0:0:0:0:
93,218,65758,1,8,0:0:0:0:
93,119,65858,1,0,0:0:0:0:
188,88,65958,6,0,B|235:72|235:72|288:84,1,90.0000034332277,4|0,0:0|0:0,0:0:0:0:
464,64,66158,2,0,B|417:80|417:80|364:68,1,90.0000034332277,0|0,0:0|0:0,0:0:0:0:
428,336,66358,2,0,P|403:250|427:165,1,180.000006866455,8|0,0:0|0:0,0:0:0:0:
376,244,66658,1,0,0:0:0:0:
310,309,66758,2,0,B|240:352|240:352|184:328|145:331,2,180.000006866455,0|0|8,0:0|0:0|0:0,0:0:0:0:
376,244,67258,1,0,0:0:0:0:
316,171,67358,2,0,P|342:136|383:120,1,90.0000034332277,0|0,0:0|0:0,0:0:0:0:
226,208,67558,5,0,0:0:0:0:
136,199,67658,1,0,0:0:0:0:
47,190,67758,2,0,P|36:136|49:89,1,90.0000034332277,0|0,0:0|0:0,0:0:0:0:
141,19,67958,2,0,L|136:198,1,180.000006866455,8|0,0:0|0:0,0:0:0:0:
230,28,68258,2,0,L|226:208,1,180.000006866455,8|0,0:0|0:0,0:0:0:0:
320,48,68558,2,0,B|380:40|380:40|424:72,1,90.0000034332277,8|0,0:0|0:0,0:0:0:0:
393,172,68758,2,0,P|432:192|448:233,1,90.0000034332277,0|8,0:0|0:0,0:0:0:0:
432,328,68958,1,0,0:0:0:0:
432,328,69058,1,0,0:0:0:0:
432,328,69158,6,0,P|320:340|248:316,1,180.000006866455,4|0,0:0|0:0,0:0:0:0:
184,264,69458,1,0,0:0:0:0:
96,280,69558,2,0,P|62:250|44:209,1,90.0000034332277,8|0,0:0|0:0,0:0:0:0:
144,112,69758,2,0,P|131:154|136:199,1,90.0000034332277
219,165,69958,2,0,P|245:128|283:106,1,90.0000034332277,0|0,0:0|0:0,0:0:0:0:
456,26,70158,1,0,0:0:0:0:
376,52,70258,1,0,0:0:0:0:
296,28,70358,2,0,L|116:31,1,180.000006866455,8|0,0:0|0:0,0:0:0:0:
216,356,70758,6,0,L|395:352,1,180.000006866455,0|0,0:0|0:0,0:0:0:0:
368,256,71058,1,0,0:0:0:0:
308,176,71158,2,0,P|272:151|228:151,1,90.0000034332277,8|0,0:0|0:0,0:0:0:0:
32,208,71358,2,0,P|68:233|112:233,1,90.0000034332277,0|0,0:0|0:0,0:0:0:0:
228,152,71558,2,0,P|207:191|212:235,1,90.0000034332277
134,330,71758,6,0,L|44:337,1,90.0000034332277,8|0,0:0|0:0,0:0:0:0:
104,152,71958,2,0,L|4:100,1,90.0000034332277,8|0,0:0|0:0,0:0:0:0:
262,54,72158,1,8,0:0:0:0:
352,40,72258,1,8,0:0:0:0:
437,70,72358,6,0,L|444:160,1,90.0000034332277,4|0,0:0|0:0,0:0:0:0:
382,313,72558,2,0,L|376:224,1,90.0000034332277,0|0,0:0|0:0,0:0:0:0:
288,220,72758,1,8,0:0:0:0:
216,272,72858,2,0,P|132:256|104:220,2,90.0000034332277
277,194,73158,2,0,P|197:156|108:156,1,180.000006866455,8|0,0:0|0:0,0:0:0:0:
69,308,73458,2,0,P|150:347|240:348,1,180.000006866455,8|0,0:0|0:0,0:0:0:0:
336,304,73758,1,8,0:0:0:0:
388,208,73858,1,0,0:0:0:0:
352,108,73958,6,0,L|240:88,1,90.0000034332277,4|0,0:0|0:0,0:0:0:0:
114,184,74158,1,0,0:0:0:0:
160,276,74258,2,0,P|200:312|240:316,1,90.0000034332277,0|8,0:0|0:0,0:0:0:0:
336,304,74458,1,0,0:0:0:0:
231,239,74558,2,0,P|200:204|191:161,1,90.0000034332277
277,164,74758,1,8,0:0:0:0:
160,276,74858,2,0,P|115:199|124:111,1,180.000006866455
216,24,75158,2,0,L|208:96,1,60,8|0,0:0|0:0,0:0:0:0:
388,72,75358,1,0,0:0:0:0:
388,72,75458,1,0,0:0:0:0:
388,72,75558,6,0,L|480:32,1,90.0000034332277,4|0,0:0|0:0,0:0:0:0:
500,140,75758,1,0,0:0:0:0:
471,248,75858,2,0,P|402:301|317:285,1,180.000006866455,8|0,0:0|0:0,0:0:0:0:
120,208,76158,2,0,P|115:163|129:120,1,90.0000034332277,8|0,0:0|0:0,0:0:0:0:
196,352,76358,6,0,P|148:359|84:337,2,90.0000034332277,4|0|0,0:0|0:0|0:0,0:0:0:0:
24,104,76658,2,0,P|0:240|28:312,1,180.000006866455,8|0,0:0|0:0,0:0:0:0:
124,280,76958,2,0,B|105:239|105:239|105:193,1,90.0000034332277,8|0,0:0|0:0,0:0:0:0:
106,11,77158,5,4,0:0:0:0:
106,37,77258,1,0,0:0:0:0:
107,63,77358,1,0,0:0:0:0:
108,89,77458,1,0,0:0:0:0:
108,115,77558,1,4,0:0:0:0:
109,141,77658,1,0,0:0:0:0:
108,167,77758,2,0,P|60:214|8:222,1,90.0000034332277
124,320,77958,5,8,0:3:0:0:
190,364,78058,1,0,0:0:0:0:
256,320,78158,1,8,0:3:0:0:
322,364,78258,1,0,0:0:0:0:
388,320,78358,2,0,P|404:248|392:200,1,90.0000034332277,8|0,0:3|0:0,0:0:0:0:
109,232,78558,2,0,P|109:277|124:320,1,90.0000034332277,8|0,0:3|0:0,0:0:0:0:
256,176,78758,6,0,L|344:180,1,60,4|0,0:0|0:0,0:0:0:0:
419,102,78958,2,0,L|360:100,1,60,0|0,0:0|0:0,0:0:0:0:
156,64,79158,2,0,P|207:92|266:85,1,120,8|0,0:0|0:0,0:0:0:0:
256,176,79458,2,0,B|249:276|249:276|272:248,1,120,0|0,0:0|0:0,0:0:0:0:
256,348,79758,1,0,0:0:0:0:
182,360,79858,1,0,0:0:0:0:
114,328,79958,2,0,P|84:312|44:312,1,60,8|0,0:0|0:0,0:0:0:0:
344,360,80158,2,0,L|414:344,1,60,0|0,0:0|0:0,0:0:0:0:
484,288,80358,6,0,P|435:253|372:256,1,120,0|0,0:0|0:0,0:0:0:0:
64,216,80758,2,0,P|136:232|192:200,1,120,8|0,0:0|0:0,0:0:0:0:
311,87,81058,2,0,P|255:70|199:89,1,120,0|0,0:0|0:0,0:0:0:0:
252,204,81358,2,0,L|332:196,1,60,0|0,0:0|0:0,0:0:0:0:
199,89,81558,2,0,P|169:95|140:91,1,60,8|0,0:0|0:0,0:0:0:0:
64,216,81758,2,0,P|37:201|18:178,1,60,0|0,0:0|0:0,0:0:0:0:
48,24,81958,6,0,L|192:16,1,120,0|0,0:0|0:0,0:0:0:0:
426,90,82358,2,0,B|372:72|372:72|311:87,1,120,8|0,0:0|0:0,0:0:0:0:
251,203,82658,2,0,B|306:222|306:222|367:207,1,120,0|0,0:0|0:0,0:0:0:0:
476,292,82958,2,0,L|412:308,1,60
232,320,83158,2,0,L|118:282,1,120,8|0,0:0|0:0,0:0:0:0:
72,52,83558,6,0,B|72:88|124:160|124:160|172:48|260:48,1,270.000010299683,0|0,0:0|0:0,0:0:0:0:
256,44,84258,1,0,0:0:0:0:
288,60,84358,2,0,P|332:72|360:72,1,60,8|0,0:0|0:0,0:0:0:0:
434,143,84558,2,0,P|405:153|376:156,1,60,0|0,0:0|0:0,0:0:0:0:
165,311,84757,2,0,P|195:314|224:324,1,60,8|0,0:0|0:0,0:0:0:0:
136,228,84958,2,0,P|90:234|65:246,1,60,8|0,0:0|0:0,0:0:0:0:
256,192,85158,6,0,P|204:140|136:120,1,120,4|0,0:0|0:0,0:0:0:0:
328,312,85558,2,0,P|375:276|400:216,1,120,8|0,0:0|0:0,0:0:0:0:
468,48,85858,2,0,B|400:52|400:52|344:32,1,120
444,144,86158,2,0,L|473:196,1,60
390,247,86358,2,0,L|374:366,1,120,8|0,0:0|0:0,0:0:0:0:
268,356,86658,1,0,0:0:0:0:
268,356,86758,6,0,P|241:302|242:243,1,120,4|0,0:0|0:0,0:0:0:0:
244,28,87158,2,0,P|270:81|269:140,1,120,8|0,0:0|0:0,0:0:0:0:
108,176,87458,2,0,P|81:122|82:63,1,120,0|0,0:0|0:0,0:0:0:0:
64,256,87758,2,0,L|16:200,1,60,0|0,0:0|0:0,0:0:0:0:
196,320,87958,2,0,P|160:332|120:360,1,60,8|0,0:0|0:0,0:0:0:0:
200,220,88158,2,0,P|236:208|276:180,1,60,0|0,0:0|0:0,0:0:0:0:
400,292,88358,6,0,P|363:299|268:268,1,120,4|0,0:0|0:0,0:0:0:0:
48,112,88758,2,0,B|100:68|100:68|204:80,1,120,8|0,0:0|0:0,0:0:0:0:
348,96,89058,2,0,B|296:140|296:140|244:134,1,120,0|0,0:0|0:0,0:0:0:0:
328,224,89358,2,0,L|374:185,1,60,0|0,0:0|0:0,0:0:0:0:
400,292,89558,1,8,0:0:0:0:
112,292,89758,1,0,0:0:0:0:
184,88,89958,5,4,0:0:0:0:
184,88,90058,2,0,P|264:92|304:64,2,120,0|8|0,0:0|0:0|0:0,0:0:0:0:
292,172,90558,2,0,L|296:236,1,60,8|0,0:0|0:0,0:0:0:0:
223,307,90758,1,4,0:0:0:0:
223,307,90858,2,0,P|143:311|103:283,2,120,0|8|0,0:0|0:0|0:0,0:0:0:0:
328,360,91358,102,0,P|385:352|440:356,1,90.0000034332277,8|0,0:0|0:0,0:0:0:0:
472,232,91558,1,4,0:0:0:0:
24,240,97958,5,4,0:0:0:0:
392,144,101158,5,4,0:0:0:0:
256,344,101958,5,4,0:0:0:0:
120,144,102758,5,4,0:0:0:0:
153,268,103158,1,4,0:0:0:0:
256,344,103558,1,4,0:0:0:0:
359,268,103958,1,4,0:0:0:0:
392,144,104358,6,0,P|435:154|476:138,1,90.0000034332277,4|0,0:0|0:0,0:0:0:0:
464,32,104758,2,0,P|420:21|379:37,1,90.0000034332277,2|0,0:0|0:0,0:0:0:0:
292,100,105158,2,0,B|228:104|228:104|206:68|160:56,1,135.000005149841,2|0,0:0|0:0,0:0:0:0:
108,92,105558,2,0,L|116:196,1,90.0000034332277,0|2,0:0|0:0,0:0:0:0:
358,302,105958,6,0,P|319:207|216:197,1,215.999993408203,2|2,0:0|0:0,0:0:0:0:
200,216,106658,1,0,0:0:0:0:
187,242,106758,6,0,P|250:344|130:356,1,285.600001743164,2|0,0:0|0:0,0:0:0:0:
72,312,107558,6,0,L|64:196,1,90.0000034332277,2|0,0:0|0:0,0:0:0:0:
128,180,107858,2,0,L|120:64,1,90.0000034332277,0|0,0:0|0:0,0:0:0:0:
180,28,108158,2,0,L|200:68,1,45.0000017166138,0|0,0:0|0:0,0:0:0:0:
288,120,108358,2,0,L|296:4,1,90.0000034332277,2|0,0:0|0:0,0:0:0:0:
432,72,108758,1,2,0:0:0:0:
410,197,108958,1,0,0:0:0:0:
344,304,109158,6,0,B|260:348|260:348|208:268|208:268|120:308,1,270.000010299683,2|2,0:0|0:0,0:0:0:0:
96,316,109858,1,0,0:0:0:0:
60,296,109958,2,0,P|48:216|220:88,1,315.000012016297,2|0,0:0|0:0,0:0:0:0:
288,116,110758,6,0,L|324:108,7,30,12|0|0|0|0|0|0|0,0:0|0:0|0:0|0:0|0:0|0:0|0:0|0:0,0:0:0:0:
332,192,111558,6,0,L|384:200,7,35.9999989013672,0|0|0|0|8|0|0|0,0:0|0:0|0:0|0:0|0:3|0:0|0:0|0:0,0:0:0:0:
304,284,112358,6,0,L|296:336,3,48,12|0|0|0,0:0|0:0|0:0|0:0,0:0:0:0:
232,220,112758,6,0,L|196:280,3,53.9999983520508,0|0|0|0,0:0|0:0|0:0|0:0,0:0:0:0:
196,136,113158,6,0,L|136:168,3,60,0|0|0|0,0:0|0:0|0:0|0:0,0:0:0:0:
300,88,113558,6,0,P|329:94|368:92,1,66.0000020141602,12|0,0:0|0:0,0:0:0:0:
452,240,113758,2,0,P|423:234|384:236,1,66.0000020141602,0|0,0:0|0:0,0:0:0:0:
152,294,113958,6,0,P|177:241|232:220,1,120,8|0,0:3|0:0,0:0:0:0:
122,368,114258,2,0,P|78:330|72:272,1,120,0|0,0:0|0:0,0:0:0:0:
224,360,114558,2,0,L|232:292,1,60,0|0,0:0|0:0,0:0:0:0:
309,101,114758,6,0,L|428:80,1,120,8|0,0:3|0:0,0:0:0:0:
220,64,115058,2,0,L|388:88,1,120,0|0,0:0|0:0,0:0:0:0:
464,32,115358,2,0,L|428:80,1,60,0|0,0:0|0:0,0:0:0:0:
328,192,115558,5,12,0:0:0:0:
256,240,115658,1,0,0:0:0:0:
184,192,115758,1,0,0:0:0:0:
256,192,115858,12,0,116958,0:0:0:0:
172,226,117158,6,0,L|196:232,31,24
275,215,118758,6,0,P|259:121|330:58,1,198.000001888275,4|0,0:0|0:0,0:0:0:0:
376,243,119058,2,0,P|315:316|221:304,1,198.000001888275,8|0,0:0|0:0,0:0:0:0:
72,280,119358,2,0,P|116:300|140:352,1,99.0000009441376,8|0,0:0|0:0,0:0:0:0:
4,216,119558,6,0,B|48:184|48:184|36:16,1,198.000001888275,8|0,0:0|0:0,0:0:0:0:
276,32,119858,2,0,P|144:44|128:128,1,198.000001888275,8|0,0:0|0:0,0:0:0:0:
101,226,120158,2,0,P|51:227|3:215,1,99.0000009441376,8|0,0:0|0:0,0:0:0:0:
248,384,120358,6,0,P|341:355|368:248,1,198.000001888275,8|0,0:0|0:0,0:0:0:0:
368,101,120658,2,0,P|341:142|346:190,1,99.0000009441376,8|0,0:0|0:0,0:0:0:0:
143,282,120858,2,0,P|170:241|165:193,2,99.0000009441376,8|0|0,0:0|0:0|0:0,0:0:0:0:
220,372,121158,6,0,L|199:132,1,198.000001888275,8|0,0:0|0:0,0:0:0:0:
301,31,121458,2,0,P|326:125|287:214,1,198.000001888275,8|0,0:0|0:0,0:0:0:0:
125,229,121758,2,0,P|80:188|67:133,1,99.0000009441376,8|0,0:0|0:0,0:0:0:0:
149,18,121958,6,0,B|148:116|148:116|248:48,1,198.000001888275,8|0,0:0|0:0,0:0:0:0:
125,229,122258,2,0,L|223:221,1,99.0000009441376,8|0,0:0|0:0,0:0:0:0:
360,128,122458,2,0,L|252:136,1,99.0000009441376,8|0,0:0|0:0,0:0:0:0:
12,256,122658,1,0,0:0:0:0:
68,336,122758,6,0,L|265:353,1,198.000001888275,8|0,0:0|0:0,0:0:0:0:
148,124,123058,2,0,L|345:141,1,198.000001888275,8|0,0:0|0:0,0:0:0:0:
304,88,123358,1,8,0:0:0:0:
288,176,123458,1,0,0:0:0:0:
273,264,123558,6,0,B|406:260|406:260|322:204,1,198.000001888275,8|0,0:0|0:0,0:0:0:0:
102,204,123858,2,0,B|168:224|168:224|288:176,1,198.000001888275,8|0,0:0|0:0,0:0:0:0:
452,48,124158,2,0,P|404:56|360:32,1,99.0000009441376,8|0,0:0|0:0,0:0:0:0:
468,148,124358,6,0,B|456:188|436:208|436:208|468:240|472:268|472:268|440:296|442:316,1,198.000001888275,8|0,0:0|0:0,0:0:0:0:
336,340,124658,2,0,B|220:324|220:324|124:336,1,198.000001888275,8|0,0:0|0:0,0:0:0:0:
16,236,124958,2,0,L|114:232,1,99.0000009441376,8|0,0:0|0:0,0:0:0:0:
197,133,125158,5,8,0:0:0:0:
208,116,125258,1,0,0:0:0:0:
220,100,125358,1,0,0:0:0:0:
232,84,125458,1,0,0:0:0:0:
244,68,125558,2,0,P|316:72|348:60,1,99.0000009441376,8|0,0:0|0:0,0:0:0:0:
452,48,125758,2,0,P|412:108|406:142,1,99.0000009441376
379,243,125958,5,8,0:0:0:0:
368,260,126058,1,0,0:0:0:0:
356,276,126158,1,0,0:0:0:0:
344,292,126258,1,0,0:0:0:0:
332,308,126358,2,0,B|296:328|296:328|239:315,1,99.0000009441376,8|0,0:0|0:0,0:0:0:0:
149,240,126558,2,0,B|185:220|185:220|242:233,1,99.0000009441376
156,336,126758,6,0,P|72:284|88:168,1,198.000001888275,8|0,0:0|0:0,0:0:0:0:
356,48,127058,2,2,P|437:96|441:191,1,198.000001888275,8|0,0:0|0:0,0:0:0:0:
203,195,127358,2,0,P|252:216|300:204,1,99.0000009441376,8|0,0:0|0:0,0:0:0:0:
55,74,127558,6,0,B|84:80|168:92|168:92|240:48,1,198.000001888275,8|0,0:0|0:0,0:0:0:0:
304,108,127858,1,0,0:0:0:0:
360,172,127958,2,0,B|426:176|426:176|454:192,1,99.0000009441376,8|0,0:0|0:0,0:0:0:0:
260,248,128158,2,0,B|194:244|194:244|165:227,1,99.0000009441376
24,196,128358,6,0,B|0:248|20:324|20:324|56:352|96:336,1,198.000001888275,8|0,0:0|0:0,0:0:0:0:
168,312,128658,1,0,0:0:0:0:
254,326,128758,2,0,P|301:339|344:316,1,99.0000009441376,8|0,0:0|0:0,0:0:0:0:
346,136,128958,2,0,P|347:184|378:222,1,99.0000009441376
456,12,129158,6,0,B|424:60|424:60|264:48,1,198.000001888275,8|0,0:0|0:0,0:0:0:0:
188,80,129458,1,0,0:0:0:0:
96,40,129558,2,0,P|104:92|92:164,1,99.0000009441376,8|0,0:0|0:0,0:0:0:0:
256,148,129758,2,0,P|232:195|181:247,1,99.0000009441376,0|0,0:0|0:0,0:0:0:0:
325,328,129958,6,0,P|278:353|207:366,1,99.0000009441376,8|0,0:0|0:0,0:0:0:0:
156,356,130158,1,0,0:0:0:0:
88,316,130258,1,0,0:0:0:0:
48,248,130358,2,0,P|64:176|84:128,1,99.0000009441376,8|0,0:0|0:0,0:0:0:0:
324,327,130558,2,0,P|315:279|300:232,1,99.0000009441376,0|0,0:0|0:0,0:0:0:0:
399,31,130758,6,0,L|432:128,1,99.0000009441376,8|0,0:0|0:0,0:0:0:0:
112,31,130958,2,0,L|80:128,1,99.0000009441376,0|0,0:0|0:0,0:0:0:0:
256,346,131158,2,0,L|256:134,1,198.000001888275,8|0,0:0|0:0,0:0:0:0:
256,148,131458,1,0,0:0:0:0:
350,300,131558,6,0,P|255:344|158:303,1,215.999993408203,12|0,0:0|0:0,0:0:0:0:
103,228,131858,1,0,0:0:0:0:
94,137,131958,2,0,B|112:30,1,107.999996704102,8|0,0:0|0:0,0:0:0:0:
256,148,132158,2,0,B|237:254,1,107.999996704102,0|0,0:0|0:0,0:0:0:0:
464,336,132358,6,0,P|440:192|484:100,1,215.999993408203,8|0,0:0|0:0,0:0:0:0:
420,224,132658,1,0,0:0:0:0:
350,299,132758,2,0,P|296:298|252:269,1,107.999996704102,8|0,0:0|0:0,0:0:0:0:
80,104,132958,2,0,P|133:105|177:134,1,107.999996704102,8|0,0:0|0:0,0:0:0:0:
472,56,133158,6,0,L|256:64,1,215.999993408203,8|0,0:0|0:0,0:0:0:0:
208,180,133458,1,0,0:0:0:0:
208,180,133558,2,0,P|260:171|305:141,1,107.999996704102,8|0,0:0|0:0,0:0:0:0:
340,272,133758,2,0,L|513:262,1,107.999996704102,0|0,0:0|0:0,0:0:0:0:
172,272,133958,6,0,L|-1:262,1,107.999996704102,8|0,0:0|0:0,0:0:0:0:
256,361,134158,1,8,0:0:0:0:
256,333,134258,2,0,B|225:223|289:223|262:121,1,215.999993408203,8|8,0:0|0:0,0:0:0:0:
262,121,134558,1,8,0:0:0:0:
132,200,134658,1,8,0:0:0:0:
132,200,134758,6,0,P|48:192|76:64,1,215.999993408203,12|0,0:0|0:0,0:0:0:0:
96,135,135058,1,0,0:0:0:0:
48,232,135158,2,0,B|48:292|48:292|92:344,1,107.999996704102,8|0,0:0|0:0,0:0:0:0:
432,328,135358,2,0,B|464:292|464:292|464:232,1,107.999996704102,0|8,0:0|0:0,0:0:0:0:
176,72,135558,6,0,B|256:144|256:144|336:72,1,215.999993408203
96,100,135858,2,0,L|260:248,1,215.999993408203,8|8,0:0|0:0,0:0:0:0:
256,244,136158,1,8,0:0:0:0:
256,144,136258,1,8,0:0:0:0:
256,144,136358,6,0,P|380:160|488:104,1,215.999993408203,12|0,0:0|0:0,0:0:0:0:
408,40,136658,1,8,0:0:0:0:
256,144,136758,2,0,L|132:160,1,107.999996704102,0|0,0:0|0:0,0:0:0:0:
356,272,136958,2,0,L|232:288,1,107.999996704102,8|0,0:0|0:0,0:0:0:0:
24,276,137158,6,0,P|50:321|99:342,1,107.999996704102,8|0,0:0|0:0,0:0:0:0:
99,121,137358,2,0,P|50:142|24:188,1,107.999996704102,8|0,0:0|0:0,0:0:0:0:
99,342,137558,1,4,0:0:0:0:
204,56,137758,1,12,0:0:0:0:
496,140,137958,6,0,L|484:252,1,107.999996704102,12|0,0:0|0:0,0:0:0:0:
408,40,138158,2,0,L|396:152,1,107.999996704102,8|0,0:0|0:0,0:0:0:0:
272,300,138358,2,0,L|295:85,1,215.999993408203,12|8,0:0|0:0,0:0:0:0:
220,44,138658,1,0,0:0:0:0:
140,76,138758,6,0,B|124:152|124:152|144:216,1,107.999996704102,12|0,0:0|0:0,0:0:0:0:
32,260,138958,2,8,B|72:326|72:326|98:341,1,107.999996704102
272,299,139158,2,0,P|260:207|173:243,1,215.999993408203,4|8,0:0|0:0,0:0:0:0:
192,328,139458,1,0,0:0:0:0:
272,299,139558,6,0,L|388:292,1,107.999996704102,12|0,0:0|0:0,0:0:0:0:
312,156,139758,2,0,L|419:148,1,107.999996704102,8|0,0:0|0:0,0:0:0:0:
28,200,139958,2,0,B|76:224|76:224|264:212,1,215.999993408203,12|8,0:0|0:0,0:0:0:0:
312,156,140258,1,0,0:0:0:0:
247,88,140358,6,0,L|140:80,1,107.999996704102,12|0,0:0|0:0,0:0:0:0:
392,36,140558,2,0,L|500:28,1,107.999996704102,8|8,0:0|0:0,0:0:0:0:
247,88,140758,2,0,P|223:191|304:251,1,215.999993408203,4|8,0:0|0:0,0:0:0:0:
312,156,141058,1,0,0:0:0:0:
212,212,141158,6,0,B|96:200,1,107.999996704102,12|0,0:0|0:0,0:0:0:0:
28,276,141358,1,12,0:0:0:0:
112,344,141458,1,8,0:0:0:0:
216,312,141558,2,0,L|444:304,1,215.999993408203,12|4,0:0|0:0,0:0:0:0:
460,192,141858,1,0,0:0:0:0:
431,80,141958,6,0,P|352:56|312:60,1,107.999996704102,12|0,0:0|0:0,0:0:0:0:
237,105,142158,1,12,0:0:0:0:
172,204,142258,1,8,0:0:0:0:
216,312,142358,2,0,B|256:208|256:208|232:72,1,215.999993408203,12|4,0:0|0:0,0:0:0:0:
176,48,142658,1,0,0:0:0:0:
100,92,142758,6,0,L|88:168,1,60,12|0,0:0|0:0,0:0:0:0:
179,222,142958,6,0,L|200:160,1,66.0000020141602,4|0,0:0|0:0,0:0:0:0:
304,236,143158,6,0,L|252:324,1,71.9999978027344,12|0,0:0|0:0,0:0:0:0:
347,377,143358,6,0,L|400:320,1,77.9999964294435,4|0,0:0|0:0,0:0:0:0:
444,76,143558,6,0,P|402:101|354:111,1,99.0000009441376,12|0,0:0|0:0,0:0:0:0:
69,77,143758,6,0,P|114:103|165:112,1,105.000001001358,4|0,0:0|0:0,0:0:0:0:
442,306,143958,6,0,P|394:278|339:271,1,110.999999576569,12|0,0:0|0:0,0:0:0:0:
69,304,144158,6,0,P|111:279|188:276,1,117.00000044632,4|0,0:0|0:0,0:0:0:0:
256,80,144358,5,12,0:0:0:0:
256,192,157158,12,0,160258,0:0:0:0:
352,192,160358,6,0,P|404:200|460:180,1,90.0000034332277,4|0,0:0|0:0,0:0:0:0:
240,288,160558,2,0,P|283:278|327:287,1,90.0000034332277,0|0,0:0|0:0,0:0:0:0:
160,192,160758,2,0,B|244:208|244:208|212:104,1,180.000006866455,8|0,0:0|0:0,0:0:0:0:
159,47,161058,1,0,0:0:0:0:
76,80,161158,2,0,B|69:174|69:174|0:240,1,180.000006866455
228,345,161558,2,0,B|166:285|166:285|159:191,1,180.000006866455,8|0,0:0|0:0,0:0:0:0:
356,148,161958,6,0,P|342:223|400:332,1,180.000006866455
442,365,162258,1,0,0:0:0:0:
508,328,162358,2,0,B|445:292|385:352|332:326,1,180.000006866455,8|0,0:0|0:0,0:0:0:0:
160,292,162658,2,0,P|220:272|244:240,1,90.0000034332277,8|0,0:0|0:0,0:0:0:0:
228,360,162858,2,0,P|228:256|164:196,1,180.000006866455,8|0,0:0|0:0,0:0:0:0:
324,168,163158,2,0,B|377:194|437:134|500:170,1,180.000006866455,8|0,0:0|0:0,0:0:0:0:
40,348,163558,6,0,P|50:288|36:232,1,90.0000034332277
67,84,163758,2,0,P|88:123|96:168,1,90.0000034332277,0|0,0:0|0:0,0:0:0:0:
240,288,163958,2,0,B|400:288|400:288|428:260,2,180.000006866455,8|0|8,0:0|0:0|0:0,0:0:0:0:
240,288,164458,2,0,L|248:380,1,90.0000034332277,8|0,0:0|0:0,0:0:0:0:
80,200,164658,1,8,0:0:0:0:
160,148,164758,2,0,B|160:232|160:232|140:344,1,180.000006866455,8|0,0:0|0:0,0:0:0:0:
415,35,165158,6,0,P|423:80|422:125,1,90.0000034332277,8|0,0:0|0:0,0:0:0:0:
328,236,165358,2,0,P|320:176|328:108,1,90.0000034332277
416,280,165558,1,8,0:0:0:0:
364,344,165658,1,0,0:0:0:0:
282,358,165758,2,0,P|216:368|180:344,1,90.0000034332277
64,292,165958,5,8,0:0:0:0:
32,216,166058,1,0,0:0:0:0:
44,136,166158,1,0,0:0:0:0:
96,76,166258,1,8,0:0:0:0:
176,88,166358,2,0,P|164:128|120:156,1,90.0000034332277,8|0,0:0|0:0,0:0:0:0:
372,108,166558,2,0,P|335:87|318:38,1,90.0000034332277,8|0,0:0|0:0,0:0:0:0:
339,250,166758,6,0,P|418:214|498:250,1,180.000006866455,4|0,0:0|0:0,0:0:0:0:
420,320,167058,1,0,0:0:0:0:
324,356,167158,2,0,P|232:356|144:288,1,180.000006866455,8|0,0:0|0:0,0:0:0:0:
148,204,167458,1,0,0:0:0:0:
208,120,167558,2,0,P|252:112|297:112,1,90.0000034332277,8|0,0:0|0:0,0:0:0:0:
260,192,167758,1,0,0:0:0:0:
160,56,167858,2,0,P|248:39|337:43,1,180.000006866455,8|0,0:0|0:0,0:0:0:0:
284,152,168158,2,0,P|235:140|260:116,1,90.0000034332277,8|0,0:0|0:0,0:0:0:0:
348,208,168358,6,0,P|368:108|312:64,1,180.000006866455,4|0,0:0|0:0,0:0:0:0:
420,324,168658,2,0,B|472:312|472:312|336:288,1,180.000006866455,8|0,0:0|0:0,0:0:0:0:
248,272,168958,1,0,0:0:0:0:
154,304,169058,1,0,0:0:0:0:
72,248,169158,6,0,B|12:304|12:304|36:376|112:368,1,180.000006866455,8|0,0:0|0:0,0:0:0:0:
154,304,169458,1,0,0:0:0:0:
168,208,169558,2,0,P|144:148|108:132,1,90.0000034332277,8|0,0:0|0:0,0:0:0:0:
240,56,169758,2,0,L|376:60,1,90.0000034332277,8|0,0:0|0:0,0:0:0:0:
32,204,169958,6,0,L|211:209,1,180.000006866455,4|0,0:0|0:0,0:0:0:0:
500,328,170258,2,0,L|320:322,1,180.000006866455,8|0,0:0|0:0,0:0:0:0:
188,320,170558,6,0,P|132:332|88:324,1,90.0000034332277,8|0,0:0|0:0,0:0:0:0:
44,116,170758,2,0,B|112:120|112:120|180:72|280:72,1,180.000006866455,4|0,0:0|0:0,0:0:0:0:
468,116,171058,2,0,B|400:112|400:112|332:160|232:160,1,180.000006866455,8|0,0:0|0:0,0:0:0:0:
84,272,171358,1,8,0:0:0:0:
156,304,171458,1,0,0:0:0:0:
236,300,171558,6,0,B|320:288|320:288|424:320,1,180.000006866455,4|0,0:0|0:0,0:0:0:0:
276,84,171858,2,0,B|192:96|192:96|88:64,1,180.000006866455,8|0,0:0|0:0,0:0:0:0:
53,167,172158,1,0,0:0:0:0:
84,272,172258,1,0,0:0:0:0:
164,348,172358,6,0,L|260:332,1,90.0000034332277,12|0,0:0|0:0,0:0:0:0:
325,177,172558,2,0,L|236:191,1,90.0000034332277,8|0,0:0|0:0,0:0:0:0:
341,280,172758,1,12,0:0:0:0:
413,232,172858,1,0,0:0:0:0:
423,145,172958,1,8,0:0:0:0:
364,81,173058,1,0,0:0:0:0:
276,84,173158,6,0,B|216:84|216:84|184:52,1,90.0000034332277,4|0,0:0|0:0,0:0:0:0:
53,167,173358,2,0,B|113:167|113:167|145:199,1,90.0000034332277,0|0,0:0|0:0,0:0:0:0:
338,354,173558,2,0,B|292:372|244:372|244:372|164:348,1,180.000006866455,8|0,0:0|0:0,0:0:0:0:
80,315,173858,1,0,0:0:0:0:
154,264,173958,2,0,B|196:224|204:176|204:176|182:102,2,180.000006866455,0|0|8,0:0|0:0|0:0,0:0:0:0:
80,315,174458,1,0,0:0:0:0:
24,244,174558,2,0,B|28:184|28:184|8:136,1,90.0000034332277,0|0,0:0|0:0,0:0:0:0:
80,315,174758,5,0,0:0:0:0:
160,352,174858,1,0,0:0:0:0:
248,332,174958,2,0,P|292:335|335:347,1,90.0000034332277,0|0,0:0|0:0,0:0:0:0:
424,140,175158,2,0,P|420:256|464:348,1,180.000006866455,8|0,0:0|0:0,0:0:0:0:
312,244,175458,2,0,P|316:128|272:36,1,180.000006866455,8|0,0:0|0:0,0:0:0:0:
200,108,175758,2,0,L|120:56,1,90.0000034332277,8|0,0:0|0:0,0:0:0:0:
24,243,175958,2,0,P|38:201|39:156,1,90.0000034332277,0|8,0:0|0:0,0:0:0:0:
160,352,176158,1,0,0:0:0:0:
160,352,176258,1,0,0:0:0:0:
160,352,176358,6,0,P|252:336|284:248,1,180.000006866455,4|0,0:0|0:0,0:0:0:0:
292,176,176658,1,0,0:0:0:0:
332,96,176758,2,0,B|440:88,1,90.0000034332277,8|0,0:0|0:0,0:0:0:0:
146,31,176958,2,0,B|254:23,1,90.0000034332277
184,200,177158,2,0,B|76:208,1,90.0000034332277,8|0,0:0|0:0,0:0:0:0:
248,344,177358,1,0,0:0:0:0:
328,356,177458,1,0,0:0:0:0:
400,316,177558,2,0,P|424:192|400:136,1,180.000006866455,8|0,0:0|0:0,0:0:0:0:
106,145,177958,6,0,P|84:231|112:316,1,180.000006866455,0|0,0:0|0:0,0:0:0:0:
172,372,178258,1,0,0:0:0:0:
248,344,178358,2,0,B|242:254,1,90.0000034332277,8|0,0:0|0:0,0:0:0:0:
320,140,178558,2,0,L|326:229,1,90.0000034332277
400,315,178758,2,0,P|427:281|434:237,1,90.0000034332277
184,200,178958,6,0,L|78:226,1,90.0000034332277,8|0,0:0|0:0,0:0:0:0:
240,380,179158,2,0,L|284:300,1,90.0000034332277,8|0,0:0|0:0,0:0:0:0:
356,171,179358,1,8,0:0:0:0:
320,88,179458,1,8,0:0:0:0:
244,40,179558,6,0,P|200:35|163:60,1,90.0000034332277,4|0,0:0|0:0,0:0:0:0:
48,64,179758,2,0,P|59:107|54:151,1,90.0000034332277
12,232,179958,1,8,0:0:0:0:
43,315,180058,2,0,P|87:326|128:311,2,90.0000034332277,0|0|0,0:0|0:0|0:0,0:0:0:0:
125,182,180358,2,0,B|131:198|155:222|155:222|284:200,1,180.000006866455,8|0,0:0|0:0,0:0:0:0:
176,88,180658,2,0,B|187:98|220:108|220:108|323:28,1,180.000006866455,8|0,0:0|0:0,0:0:0:0:
352,108,180958,1,8,0:0:0:0:
336,196,181058,1,0,0:0:0:0:
320,284,181158,6,0,B|276:296|276:296|235:277,1,90.0000034332277,4|0,0:0|0:0,0:0:0:0:
125,182,181358,1,0,0:0:0:0:
152,92,181458,2,0,B|196:80|196:80|236:98,1,90.0000034332277,0|8,0:0|0:0,0:0:0:0:
244,192,181658,1,0,0:0:0:0:
235,277,181758,2,0,P|192:276|144:252,1,90.0000034332277
64,228,181958,1,8,0:0:0:0:
83,325,182058,2,0,P|146:265|145:177,1,180.000006866455
79,119,182358,2,0,L|20:112,1,60,8|0,0:0|0:0,0:0:0:0:
335,71,182558,1,0,0:0:0:0:
335,71,182658,1,0,0:0:0:0:
335,71,182758,6,0,L|245:81,1,90.0000034332277,4|0,0:0|0:0,0:0:0:0:
152,92,182958,1,0,0:0:0:0:
197,172,183058,2,0,B|283:167|283:167|246:81,1,180.000006866455,8|0,0:0|0:0,0:0:0:0:
335,71,183358,2,0,B|380:88|380:88|432:80,1,90.0000034332277,8|0,0:0|0:0,0:0:0:0:
348,268,183558,2,0,B|303:251|303:251|251:259,2,90.0000034332277,4|0|0,0:0|0:0|0:0,0:0:0:0:
100,332,183858,2,0,L|279:338,1,180.000006866455,8|0,0:0|0:0,0:0:0:0:
157,255,184158,2,0,L|68:252,1,90.0000034332277,8|0,0:0|0:0,0:0:0:0:
48,152,184358,5,4,0:0:0:0:
68,149,184458,1,0,0:0:0:0:
89,147,184558,1,0,0:0:0:0:
109,145,184658,1,0,0:0:0:0:
130,143,184758,1,12,0:0:0:0:
150,141,184858,1,0,0:0:0:0:
171,139,184958,2,0,P|197:102|195:58,1,90.0000034332277,0|0,0:0|0:0,0:0:0:0:
384,60,185158,5,4,0:0:0:0:
428,126,185258,1,0,0:0:0:0:
384,192,185358,1,0,0:0:0:0:
428,258,185458,1,0,0:0:0:0:
384,324,185558,2,0,P|312:340|264:328,1,90.0000034332277,12|0,0:0|0:0,0:0:0:0:
84,244,185758,2,0,P|156:228|204:240,1,90.0000034332277,0|0,0:0|0:0,0:0:0:0:
384,192,185958,6,0,L|324:189,1,60,4|0,0:0|0:0,0:0:0:0:
236,96,186158,2,0,L|295:98,1,60,0|0,0:0|0:0,0:0:0:0:
151,160,186358,2,0,P|135:216|83:243,1,120,8|0,0:0|0:0,0:0:0:0:
160,316,186658,2,0,B|260:323|260:323|232:300,1,120,0|0,0:0|0:0,0:0:0:0:
285,243,186958,1,0,0:0:0:0:
301,166,187058,1,0,0:0:0:0:
316,89,187158,2,0,P|345:92|371:107,1,60,8|0,0:0|0:0,0:0:0:0:
152,72,187358,2,0,L|89:69,1,60,0|0,0:0|0:0,0:0:0:0:
32,184,187558,6,0,L|23:303,1,120,0|0,0:0|0:0,0:0:0:0:
259,352,187958,2,0,P|291:286|274:223,1,120,8|0,0:0|0:0,0:0:0:0:
253,32,188258,2,0,P|220:97|237:160,1,120,0|0,0:0|0:0,0:0:0:0:
300,168,188558,2,0,L|380:160,1,60,0|0,0:0|0:0,0:0:0:0:
212,216,188758,2,0,L|132:224,1,60,8|0,0:0|0:0,0:0:0:0:
76,172,188958,2,0,P|58:146|51:117,1,60,0|0,0:0|0:0,0:0:0:0:
84,36,189158,6,0,L|228:28,1,120,0|0,0:0|0:0,0:0:0:0:
300,168,189558,2,0,B|318:222|318:222|303:283,1,120,8|0,0:0|0:0,0:0:0:0:
212,216,189858,2,0,B|194:162|194:162|209:101,1,120,0|0,0:0|0:0,0:0:0:0:
396,260,190158,2,0,L|382:318,1,60,0|0,0:0|0:0,0:0:0:0:
220,352,190358,2,0,P|164:356|106:314,1,120,8|0,0:0|0:0,0:0:0:0:
301,212,190758,6,0,P|252:116|212:216,1,270.000010299683,0|0,0:0|0:0,0:0:0:0:
256,276,191458,1,0,0:0:0:0:
314,324,191558,2,0,P|342:333|372:336,1,60,8|0,0:0|0:0,0:0:0:0:
443,212,191758,2,0,P|419:230|392:242,1,60,0|0,0:0|0:0,0:0:0:0:
198,324,191958,2,0,P|169:333|139:336,1,60,8|0,0:0|0:0,0:0:0:0:
68,212,192158,2,0,P|92:230|120:242,1,60,8|0,0:0|0:0,0:0:0:0:
192,108,192358,6,0,B|144:116|144:116|96:62,1,120,4|0,0:0|0:0,0:0:0:0:
415,62,192758,2,0,B|368:116|368:116|320:108,1,120,8|0,0:0|0:0,0:0:0:0:
181,181,193058,2,0,P|253:230|300:212,1,120
368,116,193358,2,0,L|371:175,1,60
271,29,193558,2,0,L|255:148,1,120,8|0,0:0|0:0,0:0:0:0:
316,268,193858,1,0,0:0:0:0:
316,268,193958,6,0,P|375:268|428:241,1,120,4|0,0:0|0:0,0:0:0:0:
196,116,194358,2,0,P|136:115|83:142,1,120,8|0,0:0|0:0,0:0:0:0:
316,116,194658,2,0,P|375:116|428:89,1,120,0|0,0:0|0:0,0:0:0:0:
444,192,194958,2,0,L|448:264,1,60,0|0,0:0|0:0,0:0:0:0:
312,327,195158,2,0,L|315:267,1,60,8|0,0:0|0:0,0:0:0:0:
196,188,195358,2,0,L|200:260,1,60,0|0,0:0|0:0,0:0:0:0:
72,352,195558,6,0,L|80:225,1,120,4|0,0:0|0:0,0:0:0:0:
256,32,195958,2,0,L|263:151,1,120,8|0,0:0|0:0,0:0:0:0:
256,352,196258,2,0,L|248:232,1,120,0|0,0:0|0:0,0:0:0:0:
360,380,196558,2,0,L|366:321,1,60
408,192,196758,1,8,0:0:0:0:
104,192,196958,1,0,0:0:0:0:
256,352,197158,5,4,0:0:0:0:
256,352,197258,2,0,B|320:316|320:316|384:324,1,120
104,192,197658,1,0,0:0:0:0:
104,192,197758,2,0,L|180:188,1,60,0|0,0:0|0:0,0:0:0:0:
256,32,197958,5,4,0:0:0:0:
256,32,198058,2,0,B|320:68|320:68|384:60,1,120,0|0,0:0|0:0,0:0:0:0:
408,192,198358,2,0,L|332:188,1,60
184,104,198558,1,0,0:0:0:0:
256,268,198658,1,4,0:0:0:0:
