osu file format v14

[General]
AudioFilename: 12. Remember me.mp3
AudioLeadIn: 0
PreviewTime: 117160
Countdown: 0
SampleSet: Normal
StackLeniency: 0.3
Mode: 0
LetterboxInBreaks: 0
EpilepsyWarning: 1
WidescreenStoryboard: 1

[Editor]
Bookmarks: 9960,13208,91574,104378
DistanceSpacing: 1.2
BeatDivisor: 4
GridSize: 4
TimelineZoom: 1

[Metadata]
Title:Remember Me
TitleUnicode:Remember Me
Artist:seleP
ArtistUnicode:seleP
Creator:Bara-
Version:Loneliness
Source:
Tags:Lily Vocaloid Lilium Doll Sele-P 2nd Album UFERIUM Shmiklak Kenterz Kin Fort Avishay cdhsausageboy Reikosaka 17VA Yooh [Shi-Ra] Murder Suicide Yandere
BeatmapID:446157
BeatmapSetID:110547

[Difficulty]
HPDrainRate:4.3
CircleSize:3.5
OverallDifficulty:4.4
ApproachRate:5.4
SliderMultiplier:1.30000000596046
SliderTickRate:2

[Events]
//Background and Video events
0,0,"KylXWYr.jpg",0,0
//Break Periods
2,78958,90419
2,144558,156019
//Storyboard Layer 0 (Background)
//Storyboard Layer 1 (Fail)
//Storyboard Layer 2 (Pass)
//Storyboard Layer 3 (Foreground)
//Storyboard Sound Samples

[TimingPoints]
358,400,4,1,1,10,1,0
10358,-100,4,1,1,15,0,0
10758,-100,4,1,1,20,0,0
11158,-100,4,1,1,25,0,0
11558,-100,4,1,1,30,0,0
11858,-100,4,2,1,30,0,0
11958,-100,4,1,1,35,0,0
12358,-100,4,1,1,40,0,0
12758,-100,4,1,1,45,0,0
13158,-100,4,1,1,50,0,0
13188,400,4,1,1,70,1,0
19588,-100,4,1,1,50,0,0
19688,-100,4,1,1,70,0,0
21188,-100,4,1,1,50,0,0
21288,-100,4,1,1,70,0,0
22788,-100,4,1,1,60,0,0
22888,-100,4,1,1,70,0,0
24388,-100,4,1,1,50,0,0
24488,-100,4,1,1,70,0,0
26188,-100,4,1,1,60,0,0
32388,-100,4,1,1,50,0,0
32488,-100,4,1,1,60,0,0
36388,-100,4,1,1,50,0,0
36488,-100,4,1,1,60,0,0
37988,-100,4,1,1,40,0,0
38088,-100,4,1,1,60,0,0
38388,-100,4,1,1,50,0,0
38488,-100,4,1,1,60,0,0
48388,-100,4,1,1,50,0,0
48488,-100,4,1,1,60,0,0
50388,-100,4,1,1,40,0,0
50588,-100,4,1,1,60,0,0
50788,-100,4,1,1,50,0,0
51188,-100,4,1,1,40,0,0
51388,-100,4,1,1,60,0,0
53158,400,4,1,1,70,1,1
55458,-100,4,1,1,40,0,1
55658,-100,4,1,1,55,0,1
55758,-100,4,1,1,70,0,1
59558,-100,4,1,1,50,0,1
59658,-100,4,1,1,70,0,1
61158,-100,4,1,1,60,0,1
61258,-100,4,1,1,70,0,1
62758,-100,4,1,1,40,0,1
62858,-100,4,1,1,70,0,1
63558,-100,4,1,1,50,0,1
63658,-100,4,1,1,70,0,1
64358,-100,4,1,1,50,0,1
64458,-100,4,1,1,70,0,1
65158,-100,4,1,1,55,0,1
65258,-100,4,1,1,70,0,1
65558,-100,4,1,1,40,0,1
65658,-100,4,1,1,70,0,1
72358,-100,4,1,1,50,0,1
72458,-100,4,1,1,70,0,1
73958,-100,4,1,1,40,0,1
74058,-100,4,1,1,70,0,1
74858,-100,4,1,1,55,0,1
75058,-100,4,1,1,70,0,1
75558,-100,4,1,1,40,0,1
75658,-100,4,1,1,70,0,1
76358,-100,4,1,1,50,0,1
76458,-100,4,1,1,70,0,1
77158,-100,4,1,1,60,0,1
77258,-100,4,1,1,70,0,1
77958,-100,4,1,1,40,0,1
78058,-100,4,1,1,70,0,1
78758,-100,4,1,1,60,0,0
91558,-133.333333333333,4,2,1,20,0,0
97958,-133.333333333333,4,2,1,25,0,0
104358,-120.481927710843,4,2,1,30,0,0
112358,-120.481927710843,4,2,1,40,0,0
113958,-120.481927710843,4,2,1,50,0,0
114758,-120.481927710843,4,2,1,55,0,0
115558,-120.481927710843,4,2,1,60,0,0
117158,-100,4,2,1,60,0,0
118758,-90.9090909090909,4,1,1,70,0,1
125158,-90.9090909090909,4,1,1,40,0,1
125258,-90.9090909090909,4,1,1,70,0,1
128358,-90.9090909090909,4,1,1,50,0,1
128458,-90.9090909090909,4,1,1,70,0,1
129158,-90.9090909090909,4,1,1,50,0,1
129258,-90.9090909090909,4,1,1,70,0,1
129958,-90.9090909090909,4,1,1,50,0,1
130058,-90.9090909090909,4,1,1,70,0,1
130758,-90.9090909090909,4,1,1,40,0,1
130858,-90.9090909090909,4,1,1,70,0,1
131358,-90.9090909090909,4,1,1,70,0,0
131558,-83.3333333333333,4,1,1,70,0,1
133158,-83.3333333333333,4,1,1,40,0,1
133258,-83.3333333333333,4,1,1,70,0,1
134758,-83.3333333333333,4,1,1,50,0,1
134958,-83.3333333333333,4,1,1,70,0,1
136358,-83.3333333333333,4,1,1,40,0,1
136458,-83.3333333333333,4,1,1,70,0,1
137958,-83.3333333333333,4,1,1,50,0,1
138058,-83.3333333333333,4,1,1,70,0,1
138758,-83.3333333333333,4,1,1,50,0,1
138858,-83.3333333333333,4,1,1,70,0,1
139558,-83.3333333333333,4,1,1,50,0,1
139658,-83.3333333333333,4,1,1,70,0,1
140358,-83.3333333333333,4,1,1,50,0,1
140458,-83.3333333333333,4,1,1,70,0,1
141158,-83.3333333333333,4,1,1,60,0,1
141258,-83.3333333333333,4,1,1,70,0,1
141958,-83.3333333333333,4,1,1,50,0,1
142058,-83.3333333333333,4,1,1,70,0,1
142758,-83.3333333333333,4,1,1,60,0,1
142858,-83.3333333333333,4,1,1,70,0,1
143558,-83.3333333333333,4,1,1,60,0,1
143658,-83.3333333333333,4,1,1,70,0,1
144358,-100,4,1,1,80,0,0
157158,-100,4,2,1,30,0,0
160358,-100,4,1,1,70,0,1
162658,-100,4,1,1,40,0,1
162858,-100,4,1,1,55,0,1
162958,-100,4,1,1,70,0,1
166758,-100,4,1,1,50,0,1
166858,-100,4,1,1,70,0,1
168358,-100,4,1,1,60,0,1
168458,-100,4,1,1,70,0,1
169058,-100,4,1,1,40,0,1
169258,-100,4,1,1,55,0,1
169558,-100,4,1,1,70,0,1
169958,-100,4,1,1,50,0,1
170058,-100,4,1,1,70,0,1
170758,-100,4,1,1,50,0,1
170858,-100,4,1,1,70,0,1
171558,-100,4,1,1,50,0,1
171658,-100,4,1,1,70,0,1
172358,-100,4,1,1,40,0,1
172458,-100,4,1,1,70,0,1
172758,-100,4,1,1,40,0,1
172858,-100,4,1,1,70,0,1
175458,-100,4,1,1,40,0,1
175658,-100,4,1,1,55,0,1
175758,-100,4,1,1,70,0,1
178658,-100,4,1,1,55,0,1
178758,-100,4,1,1,70,0,1
179358,-100,4,1,1,55,0,1
179558,-100,4,1,1,50,0,1
179658,-100,4,1,1,70,0,1
181158,-100,4,1,1,50,0,1
181258,-100,4,1,1,70,0,1
181958,-100,4,1,1,40,0,1
182058,-100,4,1,1,55,0,1
182358,-100,4,1,1,70,0,1
182758,-100,4,1,1,50,0,1
182858,-100,4,1,1,70,0,1
183558,-100,4,1,1,40,0,1
183658,-100,4,1,1,70,0,1
184358,-100,4,1,1,50,0,1
184458,-100,4,1,1,70,0,1
185158,-100,4,1,1,50,0,1
185258,-100,4,1,1,70,0,1
185558,-100,4,1,1,50,0,1
185758,-100,4,1,1,70,0,1
185958,-100,4,1,1,60,0,0
192358,-100,4,1,1,40,0,0
192458,-100,4,1,1,60,0,0
193958,-100,4,1,1,50,0,0
194058,-100,4,1,1,60,0,0
197158,-100,4,1,1,40,0,0
197258,-100,4,1,1,60,0,0
197958,-100,4,1,1,50,0,0
198058,-100,4,1,1,60,0,0
198658,-100,4,1,1,100,0,0

[Colours]
Combo1 : 0,0,176
Combo2 : 255,0,0
Combo3 : 0,255,255
Combo4 : 0,255,0
Combo5 : 255,255,0
Combo6 : 255,0,255
Combo7 : 255,128,192
Combo8 : 255,128,0

[HitObjects]
256,192,9958,12,0,11558,3:0:0:0:
58,80,13188,6,0,B|124:73|124:73|191:80,1,130.000000596046,4|8,0:0|0:0,0:0:0:0:
250,125,13788,1,0,0:0:0:0:
313,170,13988,2,0,B|376:176|376:176|442:169,1,130.000000596046,0|8,0:0|0:0,0:0:0:0:
349,295,14788,6,0,P|314:302|272:300,1,65.000000298023,0|0,0:0|0:0,0:0:0:0:
217,261,15188,2,0,P|184:261|152:267,1,65.000000298023,8|0,0:0|0:0,0:0:0:0:
109,332,15588,2,0,P|79:294|102:210,1,130.000000596046,0|8,0:0|0:0,0:0:0:0:
146,160,16188,1,0,0:0:0:0:
212,118,16388,6,0,P|167:85|88:107,2,130.000000596046,4|8|0,0:0|0:0|0:0,0:0:0:0:
239,191,17388,1,0,0:0:0:0:
285,253,17588,2,0,P|322:262|360:259,1,65.000000298023,8|0,0:0|0:0,0:0:0:0:
405,207,17988,6,0,P|426:257|317:334,1,195.000000894069,4|0,0:0|0:0,0:0:0:0:
257,334,18788,2,0,B|191:327|191:327|117:339|51:334,1,195.000000894069,4|0,0:0|0:0,0:0:0:0:
58,256,19588,6,0,P|129:255|211:240,1,130.000000596046,4|8,0:0|0:0,0:0:0:0:
244,192,20188,1,0,0:0:0:0:
187,138,20388,2,0,P|122:128|58:128,1,130.000000596046,0|8,0:0|0:0,0:0:0:0:
178,28,21188,6,0,L|247:21,1,65.000000298023,4|0,0:0|0:0,0:0:0:0:
283,87,21588,2,0,L|352:94,1,65.000000298023,8|0,0:0|0:0,0:0:0:0:
412,50,21988,2,0,P|424:84|379:162,1,130.000000596046,0|8,0:0|0:0,0:0:0:0:
304,175,22588,1,0,0:0:0:0:
227,159,22788,6,0,L|161:151,2,65.000000298023,4|0|8,0:0|0:0|0:0,0:0:0:0:
247,234,23388,2,0,B|250:299|250:299|199:356,1,130.000000596046,0|0,0:0|0:0,0:0:0:0:
128,346,23988,2,0,L|83:298,1,65.000000298023,8|0,0:0|0:0,0:0:0:0:
67,221,24388,6,0,P|26:243|6:292,2,97.5000004470345,4|0|0,0:0|0:0|0:0,0:0:0:0:
125,169,25188,2,0,P|166:147|186:98,2,97.5000004470345,4|0|0,0:0|0:0|0:0,0:0:0:0:
107,92,25988,5,4,0:0:0:0:
256,46,26388,1,8,0:0:0:0:
405,92,26788,2,0,P|449:108|500:108,2,97.5000004470345,0|0|0,0:0|0:0|0:0,0:0:0:0:
342,138,27588,6,0,L|358:210,1,65.000000298023,0|0,0:0|0:0,0:0:0:0:
278,209,27988,2,0,L|262:281,1,65.000000298023,8|0,0:0|0:0,0:0:0:0:
191,301,28388,2,0,P|220:337|279:347,2,97.5000004470345,0|0|0,0:0|0:0|0:0,0:0:0:0:
155,231,29188,6,0,P|124:213|87:211,1,65.000000298023,4|0,0:0|0:0,0:0:0:0:
19,228,29588,1,8,0:0:0:0:
83,86,29988,2,0,P|44:78|-21:82,2,97.5000004470345,0|0|0,0:0|0:0|0:0,0:0:0:0:
159,102,30788,6,0,B|198:109|289:91|289:91|314:114|310:146|291:154,1,195.000000894069,4|0,0:0|0:0,0:0:0:0:
343,212,31588,2,0,P|376:163|337:34,1,195.000000894069,4|0,0:0|0:0,0:0:0:0:
268,17,32388,6,0,P|236:23|195:28,1,65.000000298023,4|0,0:0|0:0,0:0:0:0:
126,29,32788,2,0,P|93:33|61:38,1,65.000000298023,8|0,0:0|0:0,0:0:0:0:
80,114,33188,2,0,P|81:153|42:235,1,130.000000596046,0|8,0:0|0:0,0:0:0:0:
76,304,33788,1,0,0:0:0:0:
150,325,33988,6,0,B|214:339|214:339|277:324,1,130.000000596046,4|8,0:0|0:0,0:0:0:0:
339,276,34588,1,0,0:0:0:0:
384,212,34788,2,0,P|410:249|408:308,2,97.5000004470345,0|0|0,0:0|0:0|0:0,0:0:0:0:
336,149,35588,6,0,P|310:120|298:90,1,65.000000298023,4|0,0:0|0:0,0:0:0:0:
340,29,35988,2,0,P|293:17|226:69,1,130.000000596046,8|4,0:0|0:0,0:0:0:0:
200,133,36588,1,0,0:0:0:0:
199,210,36788,1,8,0:0:0:0:
279,343,37188,6,0,B|315:350|315:350|347:344,1,65.000000298023,4|0,0:0|0:0,0:0:0:0:
373,272,37588,2,0,B|400:266|400:266|436:273,1,65.000000298023,12|0,0:0|0:0,0:0:0:0:
479,338,37988,2,0,P|509:300|477:208,1,130.000000596046,4|12,0:0|0:0,0:0:0:0:
387,110,38788,6,0,B|323:100|323:100|244:101,1,130.000000596046,4|8,0:0|0:0,0:0:0:0:
236,255,39588,2,0,B|170:255|170:255|106:245,1,130.000000596046,0|8,0:0|0:0,0:0:0:0:
58,183,40188,1,0,0:0:0:0:
22,113,40388,6,0,B|60:96|94:106|121:130|129:156|129:156|160:164|172:136|172:117,1,195.000000894069,0|0,0:0|0:0,0:0:0:0:
167,42,41188,2,0,P|215:51|251:120,1,130.000000596046,0|8,0:0|0:0,0:0:0:0:
256,196,41788,1,0,0:0:0:0:
300,259,41988,6,0,B|328:277|328:277|370:281|393:281,2,97.5000004470345,4|0|0,0:0|0:0|0:0,0:0:0:0:
256,196,42788,2,0,P|220:189|181:190,1,65.000000298023,0|0,0:0|0:0,0:0:0:0:
147,124,43188,2,0,P|114:123|82:116,1,65.000000298023,8|0,0:0|0:0,0:0:0:0:
56,42,43588,6,0,P|9:89|59:191,1,195.000000894069,4|0,0:0|0:0,0:0:0:0:
132,215,44388,2,0,P|186:288|133:362,1,195.000000894069,4|0,0:0|0:0,0:0:0:0:
106,289,45188,6,0,L|367:288,1,260.000001192092,4|0,0:0|0:0,0:0:0:0:
453,158,46388,2,0,P|461:124|449:89,1,65.000000298023,8|0,0:0|0:0,0:0:0:0:
380,125,46788,6,0,P|374:183|421:232,1,130.000000596046,4|8,0:0|0:0,0:0:0:0:
497,247,47388,1,0,0:0:0:0:
475,322,47588,2,0,P|442:343|353:348,1,130.000000596046,0|8,0:0|0:0,0:0:0:0:
286,306,48188,1,0,0:0:0:0:
219,265,48388,6,0,L|118:256,2,97.5000004470345,4|0|0,0:0|0:0|0:0,0:0:0:0:
269,205,49188,2,0,L|370:196,2,97.5000004470345,4|0|0,0:0|0:0|0:0,0:0:0:0:
199,168,49988,1,4,0:0:0:0:
256,192,50188,12,0,51588,0:0:0:0:
103,65,53158,6,0,L|88:138,1,65.000000298023,4|0,0:0|0:0,0:0:0:0:
163,156,53558,2,0,L|178:229,1,65.000000298023,8|0,0:0|0:0,0:0:0:0:
134,285,53958,2,0,P|196:296|245:256,1,130.000000596046,0|8,0:0|0:0,0:0:0:0:
282,104,54758,6,0,P|330:63|392:74,1,130.000000596046,0|8,0:0|0:0,0:0:0:0:
453,123,55358,1,0,0:0:0:0:
425,195,55558,2,0,P|376:235|314:224,1,130.000000596046,0|8,0:0|0:0,0:0:0:0:
183,140,56358,6,0,L|114:150,1,65.000000298023,4|0,0:0|0:0,0:0:0:0:
81,218,56758,2,0,L|145:227,1,65.000000298023,8|0,0:0|0:0,0:0:0:0:
155,304,57158,2,0,P|189:292|217:203,1,130.000000596046,0|8,0:0|0:0,0:0:0:0:
183,140,57758,1,0,0:0:0:0:
118,95,57958,6,0,P|152:67|261:139,1,195.000000894069,4|0,0:0|0:0,0:0:0:0:
298,203,58758,2,0,B|347:226|347:226|404:232,2,97.5000004470345,4|0|0,0:0|0:0|0:0,0:0:0:0:
242,257,59558,6,0,L|361:319,1,130.000000596046,4|8,0:0|0:0,0:0:0:0:
435,313,60158,1,0,0:0:0:0:
479,248,60358,2,0,P|478:202|411:148,1,130.000000596046,0|8,0:0|0:0,0:0:0:0:
346,118,60958,1,0,0:0:0:0:
269,103,61158,6,0,P|290:62|354:41,2,97.5000004470345,4|0|0,0:0|0:0|0:0,0:0:0:0:
256,180,61958,2,0,L|253:251,1,65.000000298023,0|0,0:0|0:0,0:0:0:0:
178,267,62358,2,0,L|175:338,1,65.000000298023,8|0,0:0|0:0,0:0:0:0:
101,359,62758,5,4,0:0:0:0:
153,51,63558,1,4,0:0:0:0:
393,250,64358,2,0,B|423:267|423:267|457:271|494:262,2,97.5000004470345,4|0|0,0:0|0:0|0:0,0:0:0:0:
344,188,65158,1,4,0:0:0:0:
103,319,65958,6,0,L|88:246,1,65.000000298023,4|0,0:0|0:0,0:0:0:0:
163,228,66358,2,0,L|178:155,1,65.000000298023,8|0,0:0|0:0,0:0:0:0:
134,98,66758,2,0,P|196:87|245:128,1,130.000000596046,0|8,0:0|0:0,0:0:0:0:
282,280,67558,6,0,P|330:320|392:309,1,130.000000596046,0|8,0:0|0:0,0:0:0:0:
453,261,68158,1,0,0:0:0:0:
425,189,68358,2,0,P|376:148|314:159,1,130.000000596046,0|8,0:0|0:0,0:0:0:0:
183,244,69158,6,0,L|114:234,1,65.000000298023,4|0,0:0|0:0,0:0:0:0:
81,166,69558,2,0,L|145:156,1,65.000000298023,8|0,0:0|0:0,0:0:0:0:
155,79,69958,2,0,P|189:92|217:181,1,130.000000596046,0|8,0:0|0:0,0:0:0:0:
183,244,70558,1,0,0:0:0:0:
118,289,70758,6,0,P|152:317|261:245,1,195.000000894069,4|0,0:0|0:0,0:0:0:0:
298,181,71558,2,0,B|347:158|347:158|404:152,2,97.5000004470345,4|0|8,0:0|0:0|0:0,0:0:0:0:
242,127,72358,6,0,L|361:65,1,130.000000596046,4|8,0:0|0:0,0:0:0:0:
435,71,72958,1,0,0:0:0:0:
479,136,73158,2,0,P|478:182|411:236,1,130.000000596046,0|8,0:0|0:0,0:0:0:0:
346,266,73758,1,0,0:0:0:0:
269,281,73958,6,0,P|290:322|354:343,2,97.5000004470345,4|0|0,0:0|0:0|0:0,0:0:0:0:
256,204,74758,2,0,L|253:133,1,65.000000298023,0|0,0:0|0:0,0:0:0:0:
178,117,75158,2,0,L|175:46,1,65.000000298023,8|8,0:0|0:0,0:0:0:0:
101,25,75558,5,4,0:0:0:0:
111,180,75958,1,8,0:0:0:0:
153,333,76358,1,4,0:0:0:0:
288,255,76758,1,8,0:0:0:0:
393,134,77158,6,0,B|423:117|423:117|457:113|494:122,2,97.5000004470345,4|0|0,3:1|3:1|3:1,0:0:0:0:
344,196,77958,2,0,P|320:164|317:120,1,65.000000298023,4|0,3:1|3:1,0:0:0:0:
237,134,78358,2,0,P|228:102|208:78,1,65.000000298023,12|0,3:1|3:1,0:0:0:0:
159,139,78758,5,0,3:1:0:0:
150,101,91558,6,0,B|139:150|139:150|141:204,1,97.5000041663645,4|0,0:0|0:0,0:0:0:0:
254,223,92358,2,0,B|265:174|265:174|263:120,1,97.5000041663645,0|0,0:0|0:0,0:0:0:0:
196,30,93158,2,0,P|146:17|65:117,1,195.000008332729,0|0,0:0|0:0,0:0:0:0:
95,227,94358,1,0,0:0:0:0:
166,319,94758,6,0,P|221:333|274:332,1,97.5000041663645,2|0,0:0|0:0,0:0:0:0:
319,231,95558,2,0,P|374:217|427:218,1,97.5000041663645,2|0,0:0|0:0,0:0:0:0:
510,283,96358,2,0,P|476:224|487:130,1,146.250006249547,2|0,0:0|0:0,0:0:0:0:
496,92,97158,2,0,P|437:126|343:115,1,146.250006249547,2|0,0:0|0:0,0:0:0:0:
315,85,97958,5,4,0:0:0:0:
315,85,101158,5,4,0:0:0:0:
81,91,101958,1,4,0:0:0:0:
203,290,102758,6,0,P|246:298|307:276,1,97.5000041663645,4|4,0:0|0:0,0:0:0:0:
344,175,103558,2,0,P|301:167|240:189,1,97.5000041663645,4|4,0:0|0:0,0:0:0:0:
137,246,104358,6,0,P|122:286|125:315,2,53.9500010294102,4|0|0,0:0|0:0|0:0,0:0:0:0:
199,132,105158,2,0,P|216:89|207:25,1,107.90000205882,2|0,0:0|0:0,0:0:0:0:
78,31,105958,2,0,B|33:128|33:128|63:139|77:168,1,161.850003088231,2|0,0:0|0:0,0:0:0:0:
105,219,106758,2,0,B|116:242|146:253|146:253|101:350,1,161.850003088231,2|0,0:0|0:0,0:0:0:0:
160,377,107558,6,0,P|206:371|275:346,1,107.90000205882,4|0,0:0|0:0,0:0:0:0:
277,222,108358,2,0,P|327:204|381:196,1,107.90000205882,2|0,0:0|0:0,0:0:0:0:
485,271,109158,2,0,P|507:195|483:119,1,161.850003088231,4|0,0:0|0:0,0:0:0:0:
427,86,109958,2,0,P|404:162|428:238,1,161.850003088231,4|0,0:0|0:0,0:0:0:0:
485,271,110758,5,4,3:2:0:0:
221,292,113958,5,4,3:2:0:0:
84,71,114758,1,4,3:2:0:0:
344,63,115558,2,0,P|392:61|449:83,1,107.90000205882,4|4,3:2|3:2,0:0:0:0:
362,180,116358,2,0,P|314:182|257:160,1,107.90000205882,4|4,3:2|3:2,0:0:0:0:
146,51,117158,5,4,3:2:0:0:
146,51,118758,6,0,L|165:129,1,71.5000025098322,4|0,0:0|0:0,0:0:0:0:
80,144,119158,2,0,L|61:222,1,71.5000025098322,8|0,0:0|0:0,0:0:0:0:
132,264,119558,2,0,P|78:301|16:291,2,107.250003764748,0|0|0,0:0|0:0|0:0,0:0:0:0:
199,210,120358,6,0,B|237:202|237:202|282:205,1,71.5000025098322,0|0,0:0|0:0,0:0:0:0:
325,269,120758,2,0,B|357:271|357:271|395:263,1,71.5000025098322,8|0,0:0|0:0,0:0:0:0:
453,198,121158,2,0,P|477:233|470:309,2,107.250003764748,0|0|0,0:0|0:0|0:0,0:0:0:0:
368,184,121958,6,0,P|344:149|351:73,2,107.250003764748,4|0|0,0:0|0:0|0:0,0:0:0:0:
428,122,122758,2,0,L|501:118,1,71.5000025098322,0|0,0:0|0:0,0:0:0:0:
512,32,123158,2,0,L|439:36,1,71.5000025098322,8|0,0:0|0:0,0:0:0:0:
361,1,123558,6,0,B|313:2|287:24|287:24|199:27,1,143.000005019664,4|8,0:0|0:0,0:0:0:0:
157,81,124158,1,0,0:0:0:0:
93,138,124358,2,8,B|73:167|73:167|35:179|35:179|9:215,2,107.250003764748,8|8|8,0:3|0:3|0:3,0:3:0:0:
149,203,125158,6,0,B|124:231|124:231|80:254,1,71.5000025098322,4|0,3:1|3:1,0:0:0:0:
156,306,125558,2,0,B|125:321|125:321|100:349,1,71.5000025098322,8|0,3:1|3:1,0:0:0:0:
179,384,125958,2,0,P|214:360|224:263,1,143.000005019664,0|8,3:1|3:1,0:0:0:0:
239,181,126558,1,0,3:1:0:0:
207,104,126758,6,0,P|242:98|280:106,1,71.5000025098322,4|0,3:1|3:1,0:0:0:0:
352,142,127158,2,0,P|385:151|419:141,1,71.5000025098322,8|0,3:1|3:1,0:0:0:0:
488,89,127558,2,0,P|441:154|461:215,1,143.000005019664,0|8,3:1|3:1,0:0:0:0:
385,257,128158,1,0,3:1:0:0:
316,308,128358,6,0,P|354:336|414:337,2,107.250003764748,4|0|0,3:1|3:1|3:1,0:0:0:0:
234,280,129158,2,0,P|196:252|136:251,2,107.250003764748,4|0|0,3:1|3:1|3:1,0:0:0:0:
163,328,129958,6,0,P|120:329|84:308,1,71.5000025098322,4|0,3:1|3:1,0:0:0:0:
10,334,130358,2,0,P|9:291|30:255,1,71.5000025098322,12|0,3:1|3:1,0:0:0:0:
77,200,130758,1,4,3:1:0:0:
88,115,130958,1,0,3:1:0:0:
173,115,131158,1,12,3:1:0:0:
184,30,131358,1,0,3:1:0:0:
288,58,131558,6,0,B|329:62|329:62|381:53,1,77.9999979772566,4|2,3:1|0:0,0:0:0:0:
414,138,131958,2,0,B|373:134|373:134|321:143,1,77.9999979772566,8|2,0:0|0:0,0:0:0:0:
390,218,132358,2,0,P|440:220|494:170,2,116.999996965885,2|2|2,0:0|0:0|0:0,0:0:0:0:
287,249,133158,6,0,L|204:247,1,77.9999979772566,6|2,0:0|0:0,0:0:0:0:
167,164,133558,2,0,L|84:166,1,77.9999979772566,8|2,0:0|0:0,0:0:0:0:
10,114,133958,2,0,P|-7:165|15:229,2,116.999996965885,2|2|2,0:0|0:0|0:0,0:0:0:0:
106,60,134758,6,0,B|143:51|143:51|186:50,1,77.9999979772566,6|2,0:0|0:0,0:0:0:0:
265,95,135158,2,0,B|304:94|304:94|341:85,1,77.9999979772566,8|2,0:0|0:0,0:0:0:0:
423,128,135558,2,0,P|436:72|411:19,2,116.999996965885,6|2|2,0:0|0:0|0:0,0:0:0:0:
359,218,136358,6,0,P|346:273|371:327,2,116.999996965885,6|2|2,0:0|0:0|0:0,0:0:0:0:
436,265,137158,2,0,P|457:296|463:335,1,77.9999979772566,6|2,0:0|0:0,0:0:0:0:
370,326,137558,2,0,P|339:347|300:353,1,77.9999979772566,12|2,0:0|0:0,0:0:0:0:
195,322,137958,6,0,L|112:319,1,77.9999979772566,6|10,3:1|3:1,0:0:0:0:
99,215,138358,2,0,L|182:218,1,77.9999979772566,12|10,3:1|3:1,0:0:0:0:
245,137,138758,2,0,P|273:171|281:246,2,116.999996965885,14|2|10,3:1|3:1|3:1,0:0:0:0:
150,91,139558,6,0,P|183:54|211:44,1,77.9999979772566,14|10,3:1|3:1,0:0:0:0:
307,83,139958,2,0,P|342:66|365:36,1,77.9999979772566,12|10,3:1|3:1,0:0:0:0:
468,62,140358,2,0,B|474:102|474:102|501:131|501:131|508:180,2,116.999996965885,14|2|10,3:1|3:1|3:1,0:0:0:0:
415,153,141158,6,0,P|419:197|439:228,1,77.9999979772566,14|10,3:1|3:1,0:0:0:0:
332,243,141558,2,0,P|351:276|353:315,1,77.9999979772566,12|10,3:1|3:1,0:0:0:0:
253,261,141958,2,0,P|254:209|309:162,2,116.999996965885,14|2|10,3:1|3:1|3:1,0:0:0:0:
210,353,142758,5,14,3:1:0:0:
113,342,142958,1,14,3:1:0:0:
45,273,143158,2,0,P|32:233|34:188,1,77.9999979772566,12|14,3:1|3:1,0:0:0:0:
108,101,143558,1,14,3:1:0:0:
205,112,143758,1,10,3:1:0:0:
273,181,143958,2,0,P|286:221|284:266,1,77.9999979772566,12|14,3:1|3:1,0:0:0:0:
210,353,144358,5,14,3:1:0:0:
256,192,157158,12,0,158758,3:0:0:0:
409,319,160358,6,0,L|424:246,1,65.000000298023,4|0,0:0|0:0,0:0:0:0:
349,228,160758,2,0,L|334:155,1,65.000000298023,8|0,0:0|0:0,0:0:0:0:
378,99,161158,2,0,P|316:88|267:128,1,130.000000596046,0|8,0:0|0:0,0:0:0:0:
230,280,161958,6,0,P|182:321|120:310,1,130.000000596046,0|8,0:0|0:0,0:0:0:0:
59,261,162558,1,0,0:0:0:0:
87,189,162758,2,0,P|136:149|198:160,1,130.000000596046,0|8,0:0|0:0,0:0:0:0:
329,244,163558,6,0,L|398:234,1,65.000000298023,4|0,0:0|0:0,0:0:0:0:
431,166,163958,2,0,L|367:157,1,65.000000298023,8|0,0:0|0:0,0:0:0:0:
357,80,164358,2,0,P|323:92|295:181,1,130.000000596046,0|8,0:0|0:0,0:0:0:0:
329,244,164958,1,0,0:0:0:0:
394,289,165158,6,0,P|360:317|251:245,1,195.000000894069,4|0,0:0|0:0,0:0:0:0:
214,181,165958,2,0,B|165:158|165:158|108:152,2,97.5000004470345,4|0|0,0:0|0:0|0:0,0:0:0:0:
270,127,166758,6,0,L|151:65,1,130.000000596046,4|8,0:0|0:0,0:0:0:0:
77,71,167358,1,0,0:0:0:0:
33,136,167558,2,0,P|34:182|101:236,1,130.000000596046,0|8,0:0|0:0,0:0:0:0:
166,266,168158,1,0,0:0:0:0:
243,281,168358,6,0,P|222:322|158:343,2,97.5000004470345,4|0|0,0:0|0:0|0:0,0:0:0:0:
256,204,169158,2,0,L|259:133,1,65.000000298023,0|0,0:0|0:0,0:0:0:0:
334,117,169558,2,0,L|337:46,1,65.000000298023,8|0,0:0|0:0,0:0:0:0:
411,25,169958,5,4,0:0:0:0:
359,333,170758,1,4,0:0:0:0:
119,134,171558,2,0,B|89:117|89:117|55:113|18:122,2,97.5000004470345,4|0|0,0:0|0:0|0:0,0:0:0:0:
168,196,172358,1,4,0:0:0:0:
409,65,173158,6,0,L|424:138,1,65.000000298023,4|0,0:0|0:0,0:0:0:0:
349,156,173558,2,0,L|334:229,1,65.000000298023,8|0,0:0|0:0,0:0:0:0:
378,286,173958,2,0,P|316:297|267:256,1,130.000000596046,0|8,0:0|0:0,0:0:0:0:
230,104,174758,6,0,P|182:64|120:75,1,130.000000596046,0|8,0:0|0:0,0:0:0:0:
59,123,175358,1,0,0:0:0:0:
87,195,175558,2,0,P|136:236|198:225,1,130.000000596046,0|8,0:0|0:0,0:0:0:0:
329,140,176358,6,0,L|398:150,1,65.000000298023,4|0,0:0|0:0,0:0:0:0:
431,218,176758,2,0,L|367:228,1,65.000000298023,8|0,0:0|0:0,0:0:0:0:
357,305,177158,2,0,P|323:292|295:203,1,130.000000596046,0|8,0:0|0:0,0:0:0:0:
329,140,177758,1,0,0:0:0:0:
394,95,177958,6,0,P|360:67|251:139,1,195.000000894069,4|0,0:0|0:0,0:0:0:0:
214,203,178758,2,0,B|165:226|165:226|108:232,2,97.5000004470345,4|0|8,0:0|0:0|0:0,0:0:0:0:
270,257,179558,6,0,L|151:319,1,130.000000596046,4|8,0:0|0:0,0:0:0:0:
77,313,180158,1,0,0:0:0:0:
33,248,180358,2,0,P|34:202|101:148,1,130.000000596046,0|8,0:0|0:0,0:0:0:0:
166,118,180958,1,0,0:0:0:0:
243,103,181158,6,0,P|222:62|158:41,2,97.5000004470345,4|0|0,0:0|0:0|0:0,0:0:0:0:
256,180,181958,2,0,L|259:251,1,65.000000298023,0|0,0:0|0:0,0:0:0:0:
334,267,182358,2,0,L|337:338,1,65.000000298023,8|8,0:0|0:0,0:0:0:0:
411,359,182758,5,4,0:0:0:0:
359,51,183558,1,4,0:0:0:0:
119,250,184358,6,0,B|89:267|89:267|55:271|18:262,2,97.5000004470345,4|0|0,3:1|3:1|3:1,0:0:0:0:
168,188,185158,2,0,P|192:220|195:264,1,65.000000298023,4|0,3:1|3:1,0:0:0:0:
275,250,185558,2,0,P|284:282|304:306,1,65.000000298023,12|0,3:1|3:1,0:0:0:0:
353,245,185958,6,0,L|356:152,2,65.000000298023,4|2|10,3:1|0:0|0:0,0:0:0:0:
392,313,186558,2,0,B|459:329|459:329|507:302|508:264,1,130.000000596046,2|0,0:0|0:0,0:0:0:0:
446,233,187158,2,0,P|476:215|506:211,1,65.000000298023,10|2,0:0|0:0,0:0:0:0:
483,140,187558,6,0,B|459:113|453:86|453:86|446:48|408:31,1,130.000000596046,2|10,0:0|0:0,0:0:0:0:
380,105,188158,2,0,B|365:137|327:144|327:144|300:150|273:174,1,130.000000596046,2|0,0:0|0:0,0:0:0:0:
266,250,188758,2,0,P|230:239|204:208,1,65.000000298023,10|2,0:0|0:0,0:0:0:0:
134,202,189158,6,0,L|134:271,2,65.000000298023,6|2|10,0:0|0:0|0:0,0:0:0:0:
55,206,189758,2,0,P|63:167|137:123,1,130.000000596046,2|0,0:0|0:0,0:0:0:0:
214,123,190358,2,0,P|246:117|285:99,1,65.000000298023,10|2,0:0|0:0,0:0:0:0:
333,51,190758,6,0,B|308:80|305:113|317:149|342:164|342:164|345:206|314:221|285:215,1,195.000000894069,6|2,0:0|0:0,0:0:0:0:
232,231,191558,2,0,P|252:269|305:294,2,97.5000004470345,6|0|0,0:0|0:0|0:0,0:0:0:0:
166,188,192358,6,0,L|91:182,2,65.000000298023,6|2|10,0:0|0:0|0:0,0:0:0:0:
204,118,192958,2,0,P|242:168|232:231,1,130.000000596046,2|0,0:0|0:0,0:0:0:0:
164,270,193558,2,0,P|200:305|233:307,1,65.000000298023,10|2,0:0|0:0,0:0:0:0:
287,282,193958,6,0,P|316:294|335:320,2,65.000000298023,6|2|10,0:0|0:0|0:0,0:0:0:0:
308,207,194558,2,0,P|366:235|410:302,1,130.000000596046,2|0,0:0|0:0,0:0:0:0:
417,363,195158,2,0,P|456:348|477:319,1,65.000000298023,10|2,0:0|0:0,0:0:0:0:
496,257,195558,5,6,3:1:0:0:
492,179,195758,1,2,3:1:0:0:
450,112,195958,1,10,3:1:0:0:
391,59,196158,2,0,P|353:39|293:34,2,97.5000004470345,2|10|10,3:1|3:1|3:1,0:0:0:0:
375,135,196958,1,2,3:1:0:0:
341,205,197158,6,0,B|337:238|337:238|350:308,2,97.5000004470345,6|2|2,3:1|3:1|3:1,0:0:0:0:
277,154,197958,2,0,B|281:121|281:121|268:51,1,97.5000004470345,14|2,3:1|3:1,0:0:0:0:
198,153,198558,2,0,P|205:188|218:200,1,32.5000001490115,2|2,3:1|3:1,3:1:0:0:
