osu file format v14

[General]
AudioFilename: audio.mp3
AudioLeadIn: 0
PreviewTime: 180187
Countdown: 0
SampleSet: Soft
StackLeniency: 0.3
Mode: 0
LetterboxInBreaks: 0
WidescreenStoryboard: 0

[Editor]
DistanceSpacing: 0.6
BeatDivisor: 4
GridSize: 8
TimelineZoom: 1

[Metadata]
Title:Cecilie
TitleUnicode:Cecilie
Artist:seleP
ArtistUnicode:seleP
Creator:P_O
Version:Your fair skin is being marred by the gashing wounds
Source:
Tags:Featured artist FA lily vocaloid electronic japanese trance Sanctuary yandere
BeatmapID:3108140
BeatmapSetID:1518371

[Difficulty]
HPDrainRate:6
CircleSize:4
OverallDifficulty:8
ApproachRate:8
SliderMultiplier:1.8
SliderTickRate:1

[Events]
//Background and Video events
0,0,"bg.jpg",0,0
//Break Periods
//Storyboard Layer 0 (Background)
//Storyboard Layer 1 (Fail)
//Storyboard Layer 2 (Pass)
//Storyboard Layer 3 (Foreground)
//Storyboard Layer 4 (Overlay)
//Storyboard Sound Samples

[TimingPoints]
188,461.538461538462,4,2,0,40,1,0
188,-133.333333333333,4,2,0,40,0,0
7572,-133.333333333333,4,2,0,75,0,0
14957,-100,4,2,0,90,0,0
74034,-166.666666666667,4,2,0,70,0,0
88803,-125,4,2,0,80,0,0
104495,461.538461538462,4,2,0,90,1,0
148802,-166.666666666667,4,2,0,70,0,0
163571,-125,4,2,0,80,0,0
180187,-62.5,4,2,0,100,0,1
180648,-80,4,2,0,100,0,1
194956,-62.5,4,2,0,100,0,1
195418,-71.4285714285714,4,2,0,100,0,1
210648,461.538461538462,4,2,0,60,1,0
210648,-100,4,2,0,60,0,0
225417,-80,4,2,0,90,0,0
254955,-62.5,4,2,0,100,0,1
255417,-71.4285714285714,4,2,0,100,0,1
269724,-62.5,4,2,0,100,0,1
270186,-71.4285714285714,4,2,0,100,0,1
284494,-80,4,2,0,90,0,0

[Colours]
Combo1 : 222,131,131
Combo2 : 94,213,102
Combo3 : 255,245,191
Combo4 : 129,145,254

[HitObjects]
255,192,188,6,2,L|179:192,1,67.5000025749208
103,192,649,1,2,0:0:0:0:
187,274,880,1,2,0:0:0:0:
103,274,1111,2,2,L|27:274,1,67.5000025749208,2|0,0:0|0:0,0:0:0:0:
103,356,1572,2,2,L|179:356,1,67.5000025749208,2|0,0:0|0:0,0:0:0:0:
313,356,2034,6,2,L|237:356,1,67.5000025749208,2|0,0:0|0:0,0:0:0:0:
387,356,2495,2,2,L|440:302,1,67.5000025749208,2|0,0:0|0:0,0:0:0:0:
434,166,2957,2,2,L|434:242,1,67.5000025749208,2|0,0:0|0:0,0:0:0:0:
434,84,3418,1,2,0:0:0:0:
344,166,3649,1,2,0:0:0:0:
255,166,3880,6,2,L|255:90,1,67.5000025749208
255,15,4341,1,2,0:0:0:0:
173,98,4572,1,2,0:0:0:0:
173,192,4803,2,2,L|173:268,1,67.5000025749208,2|0,0:0|0:0,0:0:0:0:
65,346,5264,2,2,L|65:270,1,67.5000025749208,2|0,0:0|0:0,0:0:0:0:
65,136,5726,6,2,L|65:212,1,67.5000025749208,2|0,0:0|0:0,0:0:0:0:
65,62,6187,2,2,L|118:8,1,67.5000025749208,2|0,0:0|0:0,0:0:0:0:
255,15,6649,2,2,L|179:15,1,67.5000025749208,2|0,0:0|0:0,0:0:0:0:
344,15,7111,1,2,0:0:0:0:
255,98,7341,1,2,0:0:0:0:
433,15,7573,5,8,0:0:0:0:
449,15,7688,1,2,0:0:0:0:
465,15,7803,1,8,0:0:0:0:
465,172,8034,2,0,L|465:96,1,67.5000025749208,8|0,0:0|0:0,0:0:0:0:
465,261,8495,5,8,0:0:0:0:
465,350,8726,1,8,0:0:0:0:
465,366,8841,1,2,0:0:0:0:
380,261,9072,1,8,0:0:0:0:
363,261,9188,1,2,0:0:0:0:
255,261,9418,5,4,0:0:0:0:
239,261,9533,1,2,0:0:0:0:
223,261,9648,1,8,0:0:0:0:
223,103,9880,2,0,L|223:170,1,67.5000025749208,8|0,0:0|0:0,0:0:0:0:
223,14,10341,5,8,0:0:0:0:
133,14,10572,1,8,0:0:0:0:
117,14,10687,1,2,0:0:0:0:
117,154,10918,1,8,0:0:0:0:
117,171,11034,1,2,0:0:0:0:
117,339,11264,5,4,0:0:0:0:
117,312,11380,1,2,0:0:0:0:
117,285,11495,1,8,0:0:0:0:
240,339,11726,1,8,0:0:0:0:
240,217,11957,1,2,0:0:0:0:
356,285,12188,5,4,0:0:0:0:
356,312,12303,1,2,0:0:0:0:
356,339,12419,1,8,0:0:0:0:
479,285,12649,1,8,0:0:0:0:
479,163,12880,1,2,0:0:0:0:
357,109,13111,5,4,0:0:0:0:
357,136,13226,1,2,0:0:0:0:
357,163,13342,1,8,0:0:0:0:
256,55,13572,1,4,0:0:0:0:
256,82,13687,1,2,0:0:0:0:
256,109,13803,1,8,0:0:0:0:
152,163,14034,5,4,0:0:0:0:
152,136,14149,1,2,0:0:0:0:
152,109,14265,1,8,0:0:0:0:
51,217,14495,1,4,0:0:0:0:
51,190,14611,1,2,0:0:0:0:
51,163,14726,1,8,0:0:0:0:
50,349,14957,5,4,0:0:0:0:
152,261,15188,1,8,0:0:0:0:
174,261,15303,1,0,0:0:0:0:
196,261,15418,1,8,0:0:0:0:
331,261,15649,5,8,0:0:0:0:
346,276,15764,1,0,0:0:0:0:
448,188,15995,1,8,0:0:0:0:
433,173,16110,1,0,0:0:0:0:
286,173,16341,2,0,L|191:173,1,90,8|0,0:0|0:0,0:0:0:0:
38,173,16803,5,8,0:0:0:0:
152,100,17034,1,8,0:0:0:0:
174,100,17149,1,0,0:0:0:0:
196,100,17264,1,8,0:0:0:0:
331,100,17495,5,8,0:0:0:0:
346,85,17610,1,0,0:0:0:0:
448,188,17841,1,8,0:0:0:0:
433,173,17956,1,0,0:0:0:0:
433,291,18188,2,0,L|433:386,1,90,8|0,0:0|0:0,0:0:0:0:
433,173,18649,5,4,0:0:0:0:
322,291,18880,1,8,0:0:0:0:
300,291,18995,1,0,0:0:0:0:
278,291,19110,1,8,0:0:0:0:
144,312,19341,5,8,0:0:0:0:
138,291,19456,1,0,0:0:0:0:
26,367,19688,1,8,0:0:0:0:
32,346,19803,1,0,0:0:0:0:
32,166,20034,2,0,L|32:71,1,90,8|0,0:0|0:0,0:0:0:0:
32,256,20495,5,4,0:0:0:0:
145,166,20726,1,8,0:0:0:0:
167,166,20841,1,0,0:0:0:0:
189,166,20956,1,8,0:0:0:0:
189,39,21188,5,8,0:0:0:0:
211,39,21303,1,0,0:0:0:0:
233,39,21418,1,4,0:0:0:0:
248,54,21534,1,0,0:0:0:0:
373,55,21764,1,0,0:0:0:0:
373,32,21880,1,4,0:0:0:0:
329,166,22111,1,8,0:0:0:0:
351,166,22226,1,0,0:0:0:0:
373,166,22341,5,4,0:0:0:0:
497,166,22572,1,8,0:0:0:0:
497,188,22687,1,0,0:0:0:0:
497,210,22802,1,8,0:0:0:0:
482,336,23034,5,8,0:0:0:0:
497,351,23150,1,0,0:0:0:0:
375,321,23380,1,8,0:0:0:0:
390,336,23496,1,0,0:0:0:0:
265,321,23726,2,0,L|167:321,1,90,8|0,0:0|0:0,0:0:0:0:
375,321,24188,5,4,0:0:0:0:
265,229,24418,1,8,0:0:0:0:
265,207,24533,1,0,0:0:0:0:
265,185,24648,1,8,0:0:0:0:
265,58,24880,5,8,0:0:0:0:
250,43,24996,1,0,0:0:0:0:
107,58,25226,1,8,0:0:0:0:
122,43,25342,1,0,0:0:0:0:
122,169,25572,2,0,L|122:267,1,90,8|0,0:0|0:0,0:0:0:0:
206,354,26034,5,4,0:0:0:0:
221,338,26150,1,0,0:0:0:0:
243,338,26265,1,8,0:0:0:0:
265,338,26380,1,0,0:0:0:0:
280,322,26495,1,8,0:0:0:0:
405,322,26726,5,8,0:0:0:0:
420,307,26841,1,2,0:0:0:0:
420,285,26957,1,4,0:0:0:0:
420,263,27072,1,8,0:0:0:0:
405,248,27188,1,8,0:0:0:0:
405,56,27418,2,0,L|307:56,1,90,8|8,0:0|0:0,0:0:0:0:
293,56,27764,1,0,0:0:0:0:
271,56,27879,5,4,0:0:0:0:
166,156,28111,1,8,0:0:0:0:
188,156,28226,1,0,0:0:0:0:
210,156,28341,1,4,0:0:0:0:
106,256,28572,5,8,0:0:0:0:
84,256,28687,1,0,0:0:0:0:
61,256,28803,1,4,0:0:0:0:
41,244,28918,1,0,0:0:0:0:
29,223,29034,1,8,0:0:0:0:
29,198,29149,1,0,0:0:0:0:
16,175,29264,5,8,0:0:0:0:
42,175,29380,1,0,0:0:0:0:
29,152,29495,1,8,0:0:0:0:
16,129,29611,1,0,0:0:0:0:
42,129,29726,6,0,B|74:129|106:97|138:97,1,90,6|0,0:0|0:0,0:0:0:0:
253,98,30188,2,0,B|285:98|317:66|349:66,1,90,10|0,0:0|0:0,0:0:0:0:
480,67,30649,1,8,0:0:0:0:
457,67,30764,1,0,0:0:0:0:
457,215,30995,2,2,B|429:276|429:276|364:303,1,135
256,303,31572,6,0,L|256:213,1,90,10|0,0:0|0:0,0:0:0:0:
366,123,32034,2,0,L|366:213,1,90,10|0,0:0|0:0,0:0:0:0:
366,325,32495,1,8,0:0:0:0:
366,302,32610,1,0,0:0:0:0:
256,303,32841,2,2,B|193:276|193:276|165:215,1,135
1,246,33418,6,0,B|33:246|65:214|97:214,1,90,6|0,0:0|0:0,0:0:0:0:
84,102,33880,2,0,B|52:102|20:134|-12:134,1,90,10|0,0:0|0:0,0:0:0:0:
172,102,34341,1,8,0:0:0:0:
172,79,34456,1,0,0:0:0:0:
309,79,34688,2,2,B|371:105|371:105|399:166,1,135
467,38,35264,6,0,L|467:128,1,90,6|0,0:0|0:0,0:0:0:0:
467,313,35726,2,0,L|467:223,1,90,8|0,0:0|0:0,0:0:0:0:
365,313,36188,1,4,0:0:0:0:
342,313,36303,1,8,0:0:0:0:
256,223,36534,1,8,0:0:0:0:
279,223,36649,1,4,0:0:0:0:
135,223,36880,1,8,0:0:0:0:
112,223,36995,1,0,0:0:0:0:
89,223,37111,6,0,B|57:223|25:255|-7:255,1,90,6|0,0:0|0:0,0:0:0:0:
5,127,37572,2,0,B|5:95|37:63|37:31,1,90,10|0,0:0|0:0,0:0:0:0:
181,36,38034,1,8,0:0:0:0:
181,59,38149,1,0,0:0:0:0:
181,223,38380,2,2,B|207:285|207:285|268:313,1,135
459,313,38957,6,0,L|369:313,1,90,6|0,0:0|0:0,0:0:0:0:
318,157,39418,2,0,L|318:247,1,90,10|0,0:0|0:0,0:0:0:0:
318,76,39880,1,8,0:0:0:0:
318,53,39995,1,0,0:0:0:0:
183,53,40226,2,2,B|121:79|121:79|93:140,1,135
92,331,40803,6,0,L|92:241,1,90,6|0,0:0|0:0,0:0:0:0:
248,190,41264,2,0,L|158:190,1,90,10|0,0:0|0:0,0:0:0:0:
329,190,41726,1,4,0:0:0:0:
352,190,41841,1,0,0:0:0:0:
352,64,42072,2,2,B|414:38|414:38|477:64,1,135
477,190,42649,5,4,0:0:0:0:
477,212,42764,1,0,0:0:0:0:
477,234,42880,1,8,0:0:0:0:
385,346,43111,1,4,0:0:0:0:
386,202,43341,1,8,0:0:0:0:
386,179,43457,1,0,0:0:0:0:
386,156,43572,1,4,0:0:0:0:
294,268,43803,5,8,0:0:0:0:
150,268,44034,1,4,0:0:0:0:
294,156,44264,1,8,0:0:0:0:
294,134,44380,1,0,0:0:0:0:
294,112,44495,6,0,B|294:80|262:48|262:16,1,90,6|0,0:0|0:0,0:0:0:0:
146,28,44957,2,0,B|146:60|114:92|114:124,1,90,10|0,0:0|0:0,0:0:0:0:
115,234,45418,1,8,0:0:0:0:
138,234,45534,1,0,0:0:0:0:
139,355,45764,2,2,B|201:381|201:381|264:355,1,135
450,355,46341,6,0,L|449:265,1,90,6|0,0:0|0:0,0:0:0:0:
293,214,46803,2,0,L|382:214,1,90,10|0,0:0|0:0,0:0:0:0:
472,111,47264,1,8,0:0:0:0:
449,111,47380,1,0,0:0:0:0:
293,111,47611,2,2,B|230:85|230:85|168:111,1,135
168,256,48188,6,0,B|200:256|232:224|264:224,1,90,12|0,0:0|0:0,0:0:0:0:
86,256,48649,2,0,B|54:256|22:288|-10:288,1,90,10|0,0:0|0:0,0:0:0:0:
2,133,49111,1,8,0:0:0:0:
2,111,49226,1,0,0:0:0:0:
168,111,49457,2,2,B|230:85|230:85|293:111,1,135
482,111,50034,6,0,B|482:21,1,90,6|0,0:0|0:0,0:0:0:0:
393,111,50495,1,8,0:0:0:0:
482,224,50726,1,0,0:0:0:0:
304,224,50957,5,4,0:0:0:0:
282,224,51072,1,8,0:0:0:0:
371,111,51303,1,8,0:0:0:0:
393,111,51418,1,4,0:0:0:0:
212,111,51649,1,8,0:0:0:0:
190,111,51764,1,0,0:0:0:0:
168,111,51880,6,0,B|120:111|120:111|88:143,1,90,6|0,0:0|0:0,0:0:0:0:
90,266,52341,2,0,B|90:314|90:314|58:346,1,90,10|0,0:0|0:0,0:0:0:0:
214,266,52803,1,8,0:0:0:0:
236,266,52918,1,0,0:0:0:0:
380,266,53149,2,2,B|406:204|406:204|380:141,1,135
380,349,53726,6,0,B|470:349,2,90,6|0|10,0:0|0:0|0:0,0:0:0:0:
236,349,54418,1,0,0:0:0:0:
236,169,54649,1,8,0:0:0:0:
236,147,54764,1,0,0:0:0:0:
111,66,54995,2,2,B|174:40|174:40|236:66,1,135
413,36,55572,6,0,B|365:36|365:36|333:68,1,90,6|0,0:0|0:0,0:0:0:0:
497,88,56034,2,0,B|497:136|497:136|465:168,1,90,10|0,0:0|0:0,0:0:0:0:
467,346,56495,1,4,0:0:0:0:
467,323,56611,1,0,0:0:0:0:
333,323,56841,2,2,B|271:349|271:349|208:323,1,135
28,323,57418,1,4,0:0:0:0:
51,323,57534,1,0,0:0:0:0:
74,323,57649,1,8,0:0:0:0:
208,203,57880,6,0,B|208:113,1,90,12|0,0:0|0:0,0:0:0:0:
74,203,58341,1,4,0:0:0:0:
51,203,58457,1,0,0:0:0:0:
28,203,58572,1,8,0:0:0:0:
28,23,58803,1,12,0:0:0:0:
208,23,59034,1,8,0:0:0:0:
231,23,59150,1,0,0:0:0:0:
254,23,59264,6,0,B|302:23|302:23|334:54,1,90,4|0,0:0|0:0,0:0:0:0:
458,53,59726,1,8,0:0:0:0:
331,129,59957,1,8,0:0:0:0:
308,129,60072,1,0,0:0:0:0:
390,225,60303,1,8,0:0:0:0:
370,236,60418,1,0,0:0:0:0:
505,237,60649,2,0,L|505:334,1,90,8|0,0:0|0:0,0:0:0:0:
369,327,61111,5,4,0:0:0:0:
238,327,61341,1,8,0:0:0:0:
218,316,61456,1,0,0:0:0:0:
198,305,61572,1,8,0:0:0:0:
198,179,61803,5,8,0:0:0:0:
198,156,61918,1,2,0:0:0:0:
187,136,62034,1,8,0:0:0:0:
168,124,62149,1,0,0:0:0:0:
146,123,62264,1,8,0:0:0:0:
281,123,62495,2,0,L|378:123,1,90,8|0,0:0|0:0,0:0:0:0:
198,16,62957,5,4,0:0:0:0:
54,16,63188,1,8,0:0:0:0:
34,27,63303,1,0,0:0:0:0:
14,38,63419,1,8,0:0:0:0:
14,182,63649,5,8,0:0:0:0:
14,205,63764,1,2,0:0:0:0:
25,225,63880,1,8,0:0:0:0:
44,237,63995,1,0,0:0:0:0:
66,238,64111,1,8,0:0:0:0:
197,237,64341,2,0,L|197:327,1,90,8|0,0:0|0:0,0:0:0:0:
197,146,64803,5,4,0:0:0:0:
332,146,65034,1,8,0:0:0:0:
352,157,65149,1,0,0:0:0:0:
372,168,65265,1,8,0:0:0:0:
372,330,65495,5,8,0:0:0:0:
392,319,65611,1,2,0:0:0:0:
415,319,65726,1,4,0:0:0:0:
438,319,65841,1,0,0:0:0:0:
458,308,65957,5,8,0:0:0:0:
470,289,66072,1,0,0:0:0:0:
471,267,66188,1,12,0:0:0:0:
470,110,66418,1,8,0:0:0:0:
471,87,66533,1,0,0:0:0:0:
471,64,66649,5,4,0:0:0:0:
332,64,66880,1,8,0:0:0:0:
332,41,66996,1,0,0:0:0:0:
332,18,67111,1,8,0:0:0:0:
188,18,67341,5,8,0:0:0:0:
168,29,67456,1,0,0:0:0:0:
265,110,67688,1,8,0:0:0:0:
253,129,67803,1,0,0:0:0:0:
118,129,68034,2,0,L|13:129,1,90,8|0,0:0|0:0,0:0:0:0:
253,129,68495,5,4,0:0:0:0:
253,264,68726,1,8,0:0:0:0:
233,276,68841,1,0,0:0:0:0:
213,287,68957,1,8,0:0:0:0:
80,287,69188,5,8,0:0:0:0:
58,286,69304,1,2,0:0:0:0:
39,274,69419,1,8,0:0:0:0:
28,254,69535,1,0,0:0:0:0:
28,231,69650,1,8,0:0:0:0:
28,374,69880,2,0,L|118:374,1,90,8|0,0:0|0:0,0:0:0:0:
298,375,70341,5,4,0:0:0:0:
274,375,70456,1,0,0:0:0:0:
251,374,70572,1,8,0:0:0:0:
251,230,70803,2,0,L|251:140,1,90,8|0,0:0|0:0,0:0:0:0:
407,231,71264,5,4,0:0:0:0:
383,231,71379,1,8,0:0:0:0:
360,230,71495,1,8,0:0:0:0:
504,231,71726,2,0,L|504:141,1,90,8|0,0:0|0:0,0:0:0:0:
504,5,72188,5,4,0:0:0:0:
465,27,72303,1,0,0:0:0:0:
426,5,72418,1,8,0:0:0:0:
295,27,72649,5,4,0:0:0:0:
256,5,72764,1,0,0:0:0:0:
217,27,72879,1,8,0:0:0:0:
86,5,73111,5,4,0:0:0:0:
64,44,73226,1,2,0:0:0:0:
86,83,73341,1,8,0:0:0:0:
47,105,73457,1,0,0:0:0:0:
47,150,73572,5,4,0:0:0:0:
24,188,73688,1,0,0:0:0:0:
46,227,73803,1,8,0:0:0:0:
45,271,73918,1,8,0:0:0:0:
83,294,74034,6,2,L|158:294,1,53.9999983520508
177,358,74495,2,2,L|252:358,1,53.9999983520508
269,294,74957,2,2,L|344:294,1,53.9999983520508
363,358,75418,2,2,L|438:358,1,53.9999983520508
458,294,75880,5,2,0:0:0:0:
458,219,76111,1,2,0:0:0:0:
458,213,76226,1,0,0:0:0:0:
458,207,76341,1,2,0:0:0:0:
458,132,76572,1,2,0:0:0:0:
417,68,76803,2,2,L|342:68,1,53.9999983520508
309,146,77264,2,2,L|384:146,1,53.9999983520508
230,146,77726,6,2,L|155:146,1,53.9999983520508
176,70,78188,1,0,0:0:0:0:
100,70,78418,1,2,0:0:0:0:
100,76,78533,1,2,0:0:0:0:
100,82,78648,1,2,0:0:0:0:
100,88,78764,1,0,0:0:0:0:
100,94,78879,1,2,0:0:0:0:
100,233,79111,2,2,L|100:308,1,53.9999983520508
176,287,79572,5,2,0:0:0:0:
176,363,79803,1,2,0:0:0:0:
182,363,79918,1,0,0:0:0:0:
188,363,80033,1,2,0:0:0:0:
264,363,80264,2,0,L|302:363,1,26.9999991760254,2|0,0:0|0:0,0:0:0:0:
366,305,80611,2,0,L|328:305,1,26.9999991760254,2|0,0:0|0:0,0:0:0:0:
339,229,80957,2,2,L|339:160,1,53.9999983520508
339,100,81418,5,4,0:0:0:0:
414,100,81649,1,2,0:0:0:0:
420,100,81764,1,0,0:0:0:0:
426,100,81879,1,2,0:0:0:0:
426,176,82111,2,0,L|426:214,1,26.9999991760254,2|0,0:0|0:0,0:0:0:0:
484,278,82457,2,0,L|484:251,1,26.9999991760254,2|0,0:0|0:0,0:0:0:0:
484,354,82803,1,2,0:0:0:0:
408,354,83034,1,2,0:0:0:0:
354,300,83264,5,4,0:0:0:0:
278,300,83495,1,2,0:0:0:0:
272,300,83611,1,0,0:0:0:0:
266,300,83726,1,2,0:0:0:0:
190,300,83957,5,2,0:0:0:0:
190,294,84072,1,2,0:0:0:0:
190,288,84188,1,2,0:0:0:0:
190,282,84303,1,0,0:0:0:0:
190,276,84418,1,2,0:0:0:0:
190,200,84649,2,2,L|112:200,1,53.9999983520508
60,200,85111,5,4,0:0:0:0:
60,124,85341,1,2,0:0:0:0:
60,118,85457,1,0,0:0:0:0:
60,112,85572,1,2,0:0:0:0:
60,36,85803,5,2,0:0:0:0:
66,36,85918,1,2,0:0:0:0:
72,36,86034,1,4,0:0:0:0:
78,36,86149,1,0,0:0:0:0:
84,36,86264,1,2,0:0:0:0:
159,36,86495,1,2,0:0:0:0:
234,36,86726,1,2,0:0:0:0:
234,111,86957,6,2,L|234:189,1,53.9999983520508,6|2,0:0|0:0,0:0:0:0:
356,192,87418,2,2,L|278:192,1,53.9999983520508,6|2,0:0|0:0,0:0:0:0:
233,297,87880,2,2,L|233:243,1,53.9999983520508,6|2,0:0|0:0,0:0:0:0:
119,192,88341,2,2,L|197:192,1,53.9999983520508,6|2,0:0|0:0,0:0:0:0:
356,192,88803,6,0,L|445:192,1,72,12|8,0:0|0:0,0:0:0:0:
500,102,89264,2,0,L|411:102,1,72,8|8,0:0|0:0,0:0:0:0:
327,102,89726,1,8,0:0:0:0:
309,102,89841,1,0,0:0:0:0:
290,102,89957,1,8,0:0:0:0:
290,1,90188,2,0,L|201:1,1,72,8|0,0:0|0:0,0:0:0:0:
117,1,90649,5,8,0:0:0:0:
117,102,90880,1,8,0:0:0:0:
135,102,90995,1,0,0:0:0:0:
154,102,91111,1,8,0:0:0:0:
154,203,91341,5,8,0:0:0:0:
154,221,91457,1,0,0:0:0:0:
154,239,91572,1,8,0:0:0:0:
154,257,91688,1,0,0:0:0:0:
154,275,91803,1,8,0:0:0:0:
154,375,92034,2,0,L|243:375,1,72,8|0,0:0|0:0,0:0:0:0:
326,375,92495,5,4,0:0:0:0:
426,375,92726,1,8,0:0:0:0:
426,357,92842,1,0,0:0:0:0:
426,339,92957,1,8,0:0:0:0:
426,238,93188,5,8,0:0:0:0:
408,238,93304,1,0,0:0:0:0:
390,238,93418,1,8,0:0:0:0:
372,238,93535,1,0,0:0:0:0:
354,238,93650,1,8,0:0:0:0:
354,137,93880,2,0,L|354:47,1,72,8|0,0:0|0:0,0:0:0:0:
253,65,94341,5,4,0:0:0:0:
253,165,94572,1,8,0:0:0:0:
253,183,94688,1,0,0:0:0:0:
253,201,94803,1,8,0:0:0:0:
152,201,95034,5,8,0:0:0:0:
134,201,95150,1,0,0:0:0:0:
116,201,95265,1,4,0:0:0:0:
98,201,95381,1,0,0:0:0:0:
80,201,95496,1,8,0:0:0:0:
80,100,95726,2,0,L|80:11,1,72,8|0,0:0|0:0,0:0:0:0:
181,28,96188,6,0,L|228:28,1,36,4|0,0:0|0:0,0:0:0:0:
238,28,96418,2,0,L|295:28,1,36,4|0,0:0|0:0,0:0:0:0:
295,28,96649,1,8,0:0:0:0:
309,42,96764,1,0,0:0:0:0:
309,61,96880,1,8,0:0:0:0:
309,80,96995,1,0,0:0:0:0:
323,95,97111,6,0,L|370:95,1,36,4|0,0:0|0:0,0:0:0:0:
380,95,97341,2,0,L|413:128,1,36,4|0,0:0|0:0,0:0:0:0:
420,135,97572,1,8,0:0:0:0:
434,149,97687,1,0,0:0:0:0:
433,168,97803,1,8,0:0:0:0:
433,186,97918,1,0,0:0:0:0:
448,201,98034,6,0,L|478:231,1,36,4|0,0:0|0:0,0:0:0:0:
473,247,98264,2,0,L|473:289,1,36,4|0,0:0|0:0,0:0:0:0:
473,304,98495,1,8,0:0:0:0:
458,318,98611,1,0,0:0:0:0:
437,317,98726,1,8,0:0:0:0:
416,316,98841,1,0,0:0:0:0:
401,330,98957,6,0,L|359:330,1,36,4|0,0:0|0:0,0:0:0:0:
343,330,99188,2,0,L|313:359,1,36,4|0,0:0|0:0,0:0:0:0:
295,355,99418,1,8,0:0:0:0:
273,355,99534,1,0,0:0:0:0:
257,370,99649,1,8,0:0:0:0:
235,370,99764,1,0,0:0:0:0:
213,370,99880,6,0,L|157:370,1,36,4|2,0:0|0:0,0:0:0:0:
155,370,100111,2,0,L|115:330,1,36,4|2,0:0|0:0,0:0:0:0:
115,328,100341,1,8,0:0:0:0:
115,307,100457,1,10,0:0:0:0:
115,286,100572,2,0,L|143:257,1,36,4|2,0:0|0:0,0:0:0:0:
140,240,100803,6,0,L|140:199,1,36,4|2,0:0|0:0,0:0:0:0:
140,182,101034,2,0,L|111:153,1,36,4|2,0:0|0:0,0:0:0:0:
93,157,101264,1,8,0:0:0:0:
71,157,101380,1,10,0:0:0:0:
55,141,101495,1,8,0:0:0:0:
55,119,101611,1,10,0:0:0:0:
55,97,101726,6,0,L|55:70,7,18,10|0|0|0|0|0|0|0,0:0|0:0|0:0|0:0|0:0|0:0|0:0|0:0,0:0:0:0:
55,60,102188,6,0,L|74:40,7,18,2|0|0|0|0|0|0|0,0:0|0:0|0:0|0:0|0:0|0:0|0:0|0:0,0:0:0:0:
86,47,102649,6,0,L|113:46,7,18,2|0|0|0|0|0|0|0,0:0|0:0|0:0|0:0|0:0|0:0|0:0|0:0,0:0:0:0:
123,46,103111,6,0,L|142:26,7,18,2|0|0|0|0|0|0|0,0:0|0:0|0:0|0:0|0:0|0:0|0:0|0:0,0:0:0:0:
147,25,103572,5,2,0:0:0:0:
383,66,104495,6,0,B|351:66|319:34|287:34,1,90,14|0,0:0|0:0,0:0:0:0:
463,66,104956,2,0,B|463:98|495:130|495:162,1,90,10|0,0:0|0:0,0:0:0:0:
358,149,105418,1,8,0:0:0:0:
374,163,105533,1,0,0:0:0:0:
374,298,105764,2,2,B|314:328|314:328|254:298,1,135
74,298,106341,6,0,L|174:298,1,90,10|0,0:0|0:0,0:0:0:0:
74,197,106802,2,0,L|74:97,1,90,10|0,0:0|0:0,0:0:0:0:
164,197,107264,1,8,0:0:0:0:
186,197,107379,1,0,0:0:0:0:
186,53,107610,2,2,B|246:23|246:23|306:53,1,135
484,83,108187,6,0,B|452:83|420:51|388:51,1,90,6|0,0:0|0:0,0:0:0:0:
484,166,108648,2,0,B|452:166|420:198|388:198,1,90,10|0,0:0|0:0,0:0:0:0:
255,197,109110,1,8,0:0:0:0:
233,197,109225,1,0,0:0:0:0:
233,332,109456,2,2,B|173:362|173:362|113:332,1,135
315,332,110033,6,0,L|415:332,1,90,6|0,0:0|0:0,0:0:0:0:
484,256,110495,2,0,L|484:156,1,90,8|0,0:0|0:0,0:0:0:0:
315,166,110956,1,4,0:0:0:0:
299,150,111071,1,8,0:0:0:0:
366,43,111302,1,8,0:0:0:0:
372,64,111418,1,4,0:0:0:0:
484,122,111648,1,8,0:0:0:0:
484,144,111764,1,0,0:0:0:0:
484,166,111879,6,0,L|484:256,1,90,6|0,0:0|0:0,0:0:0:0:
315,256,112341,2,0,L|315:166,1,90,10|0,0:0|0:0,0:0:0:0:
180,166,112802,1,8,0:0:0:0:
157,166,112918,1,0,0:0:0:0:
157,311,113148,2,2,B|93:289|93:289|72:226,1,135
72,45,113725,6,0,L|72:139,1,90,6|0,0:0|0:0,0:0:0:0:
157,45,114187,2,0,L|251:45,1,90,10|0,0:0|0:0,0:0:0:0:
382,45,114648,1,8,0:0:0:0:
398,61,114764,1,0,0:0:0:0:
398,196,114995,2,2,B|377:259|377:259|313:281,1,135
492,281,115571,6,0,B|492:375,1,90,6|0,0:0|0:0,0:0:0:0:
312,371,116033,2,0,L|406:371,1,90,10|0,0:0|0:0,0:0:0:0:
221,371,116495,1,4,0:0:0:0:
198,371,116610,1,0,0:0:0:0:
198,236,116841,2,2,B|177:173|177:173|113:151,1,135
112,16,117418,5,4,0:0:0:0:
134,16,117533,1,0,0:0:0:0:
156,16,117648,1,8,0:0:0:0:
251,111,117879,1,12,0:0:0:0:
346,16,118110,1,8,0:0:0:0:
368,16,118225,1,0,0:0:0:0:
390,16,118340,5,4,0:0:0:0:
485,111,118571,1,8,0:0:0:0:
368,111,118802,1,8,0:0:0:0:
251,111,119033,1,8,0:0:0:0:
251,134,119148,1,0,0:0:0:0:
251,157,119264,6,0,B|251:189|283:221|283:253,1,90,6|0,0:0|0:0,0:0:0:0:
156,240,119725,2,0,B|133:262|133:307|110:330,1,90,10|0,0:0|0:0,0:0:0:0:
253,321,120187,1,8,0:0:0:0:
268,336,120302,1,0,0:0:0:0:
403,336,120533,2,2,B|466:315|466:315|488:251,1,135
488,115,121110,6,0,L|386:115,1,90,6|0,0:0|0:0,0:0:0:0:
308,14,121571,2,0,L|410:14,1,90,10|0,0:0|0:0,0:0:0:0:
308,115,122033,1,8,0:0:0:0:
285,115,122148,1,0,0:0:0:0:
150,115,122379,2,2,B|90:144|90:144|29:115,1,135
28,313,122956,6,0,B|43:299|43:254|66:232,1,90,4|0,0:0|0:0,0:0:0:0:
202,232,123418,2,0,B|217:245|217:290|240:312,1,90,10|0,0:0|0:0,0:0:0:0:
338,232,123879,1,8,0:0:0:0:
360,232,123995,1,0,0:0:0:0:
360,375,124225,2,2,B|420:346|420:346|481:375,1,135
481,195,124802,6,0,L|481:297,1,90,6|0,0:0|0:0,0:0:0:0:
481,104,125264,2,0,L|379:103,1,90,8|0,0:0|0:0,0:0:0:0:
265,103,125725,1,4,0:0:0:0:
249,87,125841,1,8,0:0:0:0:
265,221,126071,1,8,0:0:0:0:
249,237,126187,1,4,0:0:0:0:
137,162,126418,1,8,0:0:0:0:
114,162,126533,1,0,0:0:0:0:
91,162,126648,6,0,L|-6:162,1,90,6|0,0:0|0:0,0:0:0:0:
91,26,127110,2,0,L|181:26,1,90,10|0,0:0|0:0,0:0:0:0:
324,26,127571,1,8,0:0:0:0:
340,42,127687,1,0,0:0:0:0:
480,42,127918,2,2,B|509:102|509:102|480:163,1,135
300,163,128495,6,0,B|348:163|348:163|380:195,1,90,6|0,0:0|0:0,0:0:0:0:
377,337,128956,2,0,B|425:337|425:337|457:305,1,90,10|0,0:0|0:0,0:0:0:0:
300,307,129418,1,8,0:0:0:0:
277,307,129533,1,0,0:0:0:0:
133,307,129764,2,2,B|70:285|70:285|47:221,1,135
76,42,130341,6,0,B|76:90|76:90|44:122,1,90,6|0,0:0|0:0,0:0:0:0:
166,39,130802,2,0,B|166:87|166:87|198:119,1,90,10|0,0:0|0:0,0:0:0:0:
377,116,131264,1,4,0:0:0:0:
354,116,131379,1,0,0:0:0:0:
354,251,131610,2,2,B|414:279|414:279|475:250,1,135
273,251,132187,5,4,0:0:0:0:
250,251,132303,1,0,0:0:0:0:
227,251,132418,1,8,0:0:0:0:
227,381,132648,2,0,L|137:381,1,90,12|8,0:0|0:0,0:0:0:0:
137,200,133110,5,4,0:0:0:0:
137,177,133226,1,0,0:0:0:0:
137,154,133341,1,8,0:0:0:0:
7,154,133571,2,0,L|7:244,1,90,4|8,0:0|0:0,0:0:0:0:
7,63,134033,6,0,L|97:63,1,90,4|0,0:0|0:0,0:0:0:0:
241,63,134495,1,8,0:0:0:0:
384,63,134725,1,8,0:0:0:0:
400,79,134841,1,0,0:0:0:0:
400,223,135071,1,8,0:0:0:0:
384,207,135187,1,0,0:0:0:0:
239,207,135418,2,0,L|149:207,1,90,8|0,0:0|0:0,0:0:0:0:
14,207,135879,5,4,0:0:0:0:
14,342,136110,1,8,0:0:0:0:
36,342,136225,1,0,0:0:0:0:
58,342,136341,1,8,0:0:0:0:
201,342,136572,5,8,0:0:0:0:
201,320,136687,1,2,0:0:0:0:
201,298,136803,1,8,0:0:0:0:
216,282,136918,1,0,0:0:0:0:
237,281,137033,1,8,0:0:0:0:
381,281,137264,2,0,L|486:281,1,90,8|0,0:0|0:0,0:0:0:0:
237,281,137725,5,4,0:0:0:0:
237,137,137956,1,8,0:0:0:0:
237,115,138071,1,0,0:0:0:0:
237,93,138187,1,8,0:0:0:0:
92,93,138418,5,8,0:0:0:0:
70,93,138533,1,2,0:0:0:0:
54,108,138648,1,8,0:0:0:0:
32,108,138764,1,0,0:0:0:0:
16,123,138879,1,8,0:0:0:0:
16,267,139110,2,0,L|16:372,1,90,8|0,0:0|0:0,0:0:0:0:
16,123,139571,5,4,0:0:0:0:
110,267,139802,1,8,0:0:0:0:
110,289,139917,1,0,0:0:0:0:
110,312,140033,1,8,0:0:0:0:
254,312,140264,5,8,0:0:0:0:
276,312,140379,1,2,0:0:0:0:
292,297,140494,1,4,0:0:0:0:
292,275,140610,1,0,0:0:0:0:
307,259,140725,1,8,0:0:0:0:
329,259,140841,1,0,0:0:0:0:
345,244,140956,1,12,0:0:0:0:
345,99,141187,5,8,0:0:0:0:
345,77,141302,1,8,0:0:0:0:
345,54,141418,1,4,0:0:0:0:
488,54,141648,5,8,0:0:0:0:
488,77,141763,1,0,0:0:0:0:
488,100,141879,1,8,0:0:0:0:
488,271,142110,5,8,0:0:0:0:
488,294,142225,1,2,0:0:0:0:
488,317,142341,1,8,0:0:0:0:
472,333,142456,1,0,0:0:0:0:
450,333,142572,1,8,0:0:0:0:
303,333,142802,2,0,L|198:333,1,90,8|0,0:0|0:0,0:0:0:0:
303,224,143264,5,4,0:0:0:0:
158,224,143495,1,8,0:0:0:0:
135,224,143610,1,0,0:0:0:0:
112,224,143726,1,8,0:0:0:0:
112,80,143956,5,8,0:0:0:0:
135,80,144071,1,2,0:0:0:0:
158,80,144187,1,8,0:0:0:0:
174,64,144302,1,0,0:0:0:0:
174,42,144418,1,8,0:0:0:0:
318,42,144648,2,0,L|423:42,1,90,8|0,0:0|0:0,0:0:0:0:
318,178,145110,5,4,0:0:0:0:
318,201,145225,1,8,0:0:0:0:
318,224,145341,1,0,0:0:0:0:
461,224,145571,2,0,L|461:329,1,90,8|0,0:0|0:0,0:0:0:0:
318,314,146033,5,4,0:0:0:0:
295,314,146148,1,8,0:0:0:0:
272,314,146264,1,0,0:0:0:0:
92,312,146495,2,0,L|207:312,1,90,8|0,0:0|0:0,0:0:0:0:
182,167,146956,5,4,0:0:0:0:
159,167,147071,1,0,0:0:0:0:
136,167,147187,1,8,0:0:0:0:
136,22,147418,5,4,0:0:0:0:
136,44,147534,1,0,0:0:0:0:
136,67,147649,1,8,0:0:0:0:
262,67,147879,5,4,0:0:0:0:
306,67,147994,1,2,0:0:0:0:
329,106,148109,1,8,0:0:0:0:
368,82,148225,1,0,0:0:0:0:
406,106,148340,5,4,0:0:0:0:
451,106,148456,1,0,0:0:0:0:
474,143,148571,1,8,0:0:0:0:
512,165,148686,1,8,0:0:0:0:
512,208,148802,6,2,L|512:280,1,53.9999983520508,6|2,0:0|0:0,0:0:0:0:
435,262,149264,2,2,L|435:334,1,53.9999983520508
359,316,149725,2,2,L|359:388,1,53.9999983520508
282,370,150187,2,2,L|282:316,1,53.9999983520508
282,240,150648,5,2,0:0:0:0:
282,164,150879,1,2,0:0:0:0:
282,158,150995,1,0,0:0:0:0:
282,152,151110,1,2,0:0:0:0:
228,98,151341,5,2,0:0:0:0:
222,98,151457,1,0,0:0:0:0:
216,98,151572,1,2,0:0:0:0:
211,93,151687,1,0,0:0:0:0:
207,89,151802,1,2,0:0:0:0:
131,89,152033,2,2,L|77:89,1,53.9999983520508
76,222,152495,6,2,L|76:150,1,53.9999983520508
151,168,152956,1,0,0:0:0:0:
151,243,153187,1,2,0:0:0:0:
151,249,153303,1,2,0:0:0:0:
151,255,153418,1,2,0:0:0:0:
156,260,153533,1,0,0:0:0:0:
160,264,153648,1,2,0:0:0:0:
235,264,153879,2,2,L|307:264,1,53.9999983520508
289,339,154341,5,2,0:0:0:0:
364,339,154571,1,2,0:0:0:0:
370,339,154687,1,0,0:0:0:0:
376,339,154802,1,2,0:0:0:0:
376,263,155033,5,2,0:0:0:0:
451,263,155264,1,0,0:0:0:0:
457,263,155380,1,2,0:0:0:0:
463,263,155495,1,0,0:0:0:0:
463,187,155725,2,2,L|463:115,1,53.9999983520508
463,0,156187,6,0,L|463:72,1,53.9999983520508,4|2,0:0|0:0,0:0:0:0:
387,54,156648,1,2,0:0:0:0:
311,54,156879,1,2,0:0:0:0:
305,54,156995,1,0,0:0:0:0:
299,54,157110,1,0,0:0:0:0:
294,59,157225,1,2,0:0:0:0:
290,63,157340,1,0,0:0:0:0:
290,138,157571,2,0,L|290:209,1,53.9999983520508,2|2,0:0|0:0,0:0:0:0:
196,138,158033,5,4,0:0:0:0:
120,138,158264,1,2,0:0:0:0:
114,138,158380,1,0,0:0:0:0:
108,138,158495,1,2,0:0:0:0:
108,62,158725,5,2,0:0:0:0:
108,56,158841,1,2,0:0:0:0:
108,50,158956,1,2,0:0:0:0:
113,45,159071,1,0,0:0:0:0:
117,41,159186,1,2,0:0:0:0:
196,41,159418,2,2,L|267:41,1,53.9999983520508
383,41,159879,6,0,L|312:41,1,53.9999983520508,4|2,0:0|0:0,0:0:0:0:
329,117,160341,1,2,0:0:0:0:
329,192,160571,5,2,0:0:0:0:
335,192,160687,1,2,0:0:0:0:
341,192,160802,1,6,0:0:0:0:
416,192,161033,1,0,0:0:0:0:
492,192,161264,5,2,0:0:0:0:
492,267,161495,5,2,0:0:0:0:
492,273,161611,1,2,0:0:0:0:
492,279,161726,1,6,0:0:0:0:
492,285,161842,1,2,0:0:0:0:
492,291,161956,1,2,0:0:0:0:
492,366,162187,1,6,0:0:0:0:
416,366,162418,5,2,0:0:0:0:
410,366,162534,1,2,0:0:0:0:
404,366,162649,1,6,0:0:0:0:
398,366,162765,1,2,0:0:0:0:
392,366,162880,1,2,0:0:0:0:
316,366,163110,2,2,L|245:366,1,53.9999983520508,6|2,0:0|0:0,0:0:0:0:
252,257,163571,6,0,L|165:257,1,72,4|8,0:0|0:0,0:0:0:0:
180,155,164033,1,8,0:0:0:0:
108,82,164264,1,8,0:0:0:0:
36,155,164495,1,8,0:0:0:0:
36,173,164610,1,0,0:0:0:0:
36,191,164725,1,8,0:0:0:0:
36,292,164956,2,0,L|36:379,1,72,8|0,0:0|0:0,0:0:0:0:
137,364,165418,6,0,L|224:364,1,72,4|8,0:0|0:0,0:0:0:0:
309,364,165879,1,8,0:0:0:0:
309,263,166110,1,8,0:0:0:0:
309,245,166225,1,0,0:0:0:0:
309,227,166340,1,8,0:0:0:0:
321,214,166456,1,0,0:0:0:0:
334,201,166571,1,8,0:0:0:0:
434,201,166802,2,0,L|521:201,1,72,8|0,0:0|0:0,0:0:0:0:
506,28,167264,6,0,L|506:100,1,72,4|8,0:0|0:0,0:0:0:0:
405,100,167725,1,8,0:0:0:0:
304,100,167957,1,8,0:0:0:0:
286,100,168072,1,0,0:0:0:0:
268,100,168187,1,8,0:0:0:0:
255,88,168303,1,0,0:0:0:0:
242,75,168418,1,8,0:0:0:0:
141,75,168648,2,0,L|141:147,1,72,8|0,0:0|0:0,0:0:0:0:
15,75,169110,5,4,0:0:0:0:
15,175,169341,1,8,0:0:0:0:
15,193,169456,1,0,0:0:0:0:
15,211,169571,1,8,0:0:0:0:
15,311,169802,5,8,0:0:0:0:
33,311,169917,1,0,0:0:0:0:
51,311,170032,1,4,0:0:0:0:
64,299,170148,1,0,0:0:0:0:
77,286,170263,1,8,0:0:0:0:
178,286,170495,1,8,0:0:0:0:
278,286,170725,1,8,0:0:0:0:
278,185,170956,6,0,L|278:138,1,36,4|0,0:0|0:0,0:0:0:0:
278,127,171187,2,0,L|311:93,1,36,4|0,0:0|0:0,0:0:0:0:
322,81,171418,1,8,2:0:0:0:
350,81,171533,1,0,0:0:0:0:
378,81,171648,1,8,0:0:0:0:
399,61,171763,1,0,0:0:0:0:
427,61,171879,6,0,L|474:61,1,36,4|0,0:0|0:0,0:0:0:0:
491,61,172110,2,0,L|491:107,1,36,4|0,0:0|0:0,0:0:0:0:
492,125,172341,1,8,0:0:0:0:
492,153,172456,1,0,0:0:0:0:
472,174,172571,1,8,0:0:0:0:
472,202,172687,1,0,0:0:0:0:
472,231,172802,6,0,L|438:264,1,36,4|0,0:0|0:0,0:0:0:0:
446,286,173033,2,0,L|446:332,1,36,4|0,0:0|0:0,0:0:0:0:
446,350,173264,1,8,0:0:0:0:
417,350,173379,1,0,0:0:0:0:
397,370,173494,1,8,0:0:0:0:
368,370,173610,1,0,0:0:0:0:
339,370,173725,6,0,L|305:337,1,36,4|0,0:0|0:0,0:0:0:0:
284,344,173956,2,0,L|237:344,1,36,4|0,0:0|0:0,0:0:0:0:
219,344,174187,1,8,0:0:0:0:
198,324,174302,1,0,0:0:0:0:
198,295,174417,1,8,0:0:0:0:
178,274,174533,1,0,0:0:0:0:
149,274,174648,6,0,L|102:274,1,36,4|2,0:0|0:0,0:0:0:0:
84,274,174879,2,0,L|50:240,1,36,4|2,0:0|0:0,0:0:0:0:
38,227,175110,1,8,0:0:0:0:
38,198,175225,1,10,0:0:0:0:
38,169,175341,2,0,L|12:143,1,36,4|2,0:0|0:0,0:0:0:0:
12,114,175572,6,0,L|12:76,1,36,4|2,0:0|0:0,0:0:0:0:
12,49,175802,2,0,L|37:23,1,36,4|2,0:0|0:0,0:0:0:0:
65,23,176033,1,8,0:0:0:0:
93,23,176148,1,10,0:0:0:0:
121,23,176264,2,0,L|158:23,1,36,4|2,0:0|0:0,0:0:0:0:
185,23,176495,6,0,L|215:23,7,18,2|0|0|0|0|0|0|0,0:0|0:0|0:0|0:0|0:0|0:0|0:0|0:0,0:0:0:0:
221,23,176956,6,0,L|242:44,7,18,2|0|0|0|0|0|0|0,0:0|0:0|0:0|0:0|0:0|0:0|0:0|0:0,0:0:0:0:
247,49,177418,6,0,L|268:70,7,18,2|0|0|0|0|0|0|0,0:0|0:0|0:0|0:0|0:0|0:0|0:0|0:0,0:0:0:0:
260,76,177879,5,2,0:0:0:0:
260,223,178110,1,2,0:0:0:0:
260,223,180187,6,2,B|246:223|246:223|233:236|233:236|233:255|227:275|227:275|220:255|220:236|220:236|207:223|207:223|194:223,1,144,6|2,0:0|0:0,0:0:0:0:
0,223,180648,5,8,0:0:0:0:
0,268,180764,1,0,0:0:0:0:
31,299,180879,1,8,0:0:0:0:
31,344,180995,1,8,0:0:0:0:
62,375,181110,5,8,0:0:0:0:
105,375,181225,1,0,0:0:0:0:
137,343,181341,1,8,0:0:0:0:
180,343,181456,1,0,0:0:0:0:
212,375,181572,1,8,0:0:0:0:
255,375,181687,1,0,0:0:0:0:
287,343,181803,1,8,0:0:0:0:
286,299,181918,1,0,0:0:0:0:
317,267,182033,5,8,0:0:0:0:
317,223,182149,1,0,0:0:0:0:
349,189,182265,1,8,0:0:0:0:
395,189,182380,1,0,0:0:0:0:
425,159,182495,1,8,0:0:0:0:
425,113,182610,1,0,0:0:0:0:
395,83,182725,1,8,0:0:0:0:
349,83,182841,1,8,0:0:0:0:
349,38,182956,6,0,L|290:38,1,56.25,8|0,0:0|0:0,0:0:0:0:
247,38,183187,1,8,0:0:0:0:
202,38,183302,1,0,0:0:0:0:
156,38,183418,2,2,B|124:38|124:38|108:62|108:62|92:38|92:38|52:38,1,112.5,10|2,0:0|0:0,0:0:0:0:
69,263,183879,6,2,B|69:295|69:295|93:311|93:311|69:327|69:327|69:367,1,112.5,6|2,0:0|0:0,0:0:0:0:
69,161,184341,5,8,0:0:0:0:
114,161,184456,1,0,0:0:0:0:
145,192,184571,1,8,0:0:0:0:
190,192,184687,1,8,0:0:0:0:
221,223,184802,5,8,0:0:0:0:
221,266,184918,1,0,0:0:0:0:
251,296,185033,1,8,0:0:0:0:
251,339,185148,1,0,0:0:0:0:
220,369,185264,1,8,0:0:0:0:
175,369,185379,1,0,0:0:0:0:
145,339,185495,1,8,0:0:0:0:
100,339,185610,1,0,0:0:0:0:
70,369,185725,5,4,0:0:0:0:
70,323,185841,1,0,0:0:0:0:
40,289,185957,1,8,0:0:0:0:
39,244,186071,1,8,0:0:0:0:
70,208,186187,1,8,0:0:0:0:
69,161,186302,1,0,0:0:0:0:
101,129,186418,1,8,0:0:0:0:
145,129,186533,1,8,0:0:0:0:
145,84,186648,6,0,L|206:85,1,56.25,4|0,0:0|0:0,0:0:0:0:
246,84,186879,1,8,0:0:0:0:
246,129,186995,1,0,0:0:0:0:
291,129,187110,2,2,B|323:129|323:129|339:153|339:153|355:129|355:129|395:129,1,112.5,4|2,0:0|0:0,0:0:0:0:
377,350,187571,6,2,B|345:350|345:350|329:326|329:326|313:350|313:350|273:350,1,112.5,4|2,0:0|0:0,0:0:0:0:
377,129,188033,5,8,0:0:0:0:
422,129,188148,1,0,0:0:0:0:
453,161,188264,1,8,0:0:0:0:
453,206,188379,1,8,0:0:0:0:
484,238,188495,5,4,0:0:0:0:
439,238,188610,1,0,0:0:0:0:
407,270,188725,1,8,0:0:0:0:
407,316,188841,1,0,0:0:0:0:
377,350,188956,1,8,0:0:0:0:
333,350,189071,1,0,0:0:0:0:
302,316,189187,1,8,0:0:0:0:
302,270,189302,1,8,0:0:0:0:
256,270,189418,5,4,0:0:0:0:
256,225,189533,1,0,0:0:0:0:
225,193,189648,1,8,0:0:0:0:
180,192,189764,1,0,0:0:0:0:
149,160,189879,1,8,0:0:0:0:
149,114,189995,1,0,0:0:0:0:
118,82,190110,1,8,0:0:0:0:
73,81,190225,1,8,0:0:0:0:
40,112,190341,6,0,L|40:182,1,56.25,4|0,0:0|0:0,0:0:0:0:
40,213,190571,1,8,0:0:0:0:
85,213,190687,1,0,0:0:0:0:
85,258,190802,2,2,B|85:290|85:290|61:306|61:306|85:322|85:322|85:362,1,112.5,10|10,0:0|0:0,0:0:0:0:
130,345,191148,1,8,0:0:0:0:
175,345,191264,5,4,0:0:0:0:
355,345,191495,2,8,L|285:345,1,56.25,8|8,2:0|2:0,2:0:0:0:
299,300,191725,5,12,0:0:0:0:
299,254,191841,1,0,0:0:0:0:
254,254,191956,1,8,0:0:0:0:
254,209,192071,1,8,0:0:0:0:
208,209,192187,5,12,0:0:0:0:
175,176,192302,1,0,0:0:0:0:
175,129,192418,1,8,0:0:0:0:
142,96,192533,1,8,0:0:0:0:
97,96,192648,1,4,0:0:0:0:
97,50,192764,1,0,0:0:0:0:
64,17,192879,1,8,0:0:0:0:
18,17,192995,1,8,0:0:0:0:
3,59,193110,5,12,0:0:0:0:
18,100,193225,1,0,0:0:0:0:
3,142,193341,1,8,0:0:0:0:
18,184,193456,1,0,0:0:0:0:
63,184,193572,1,12,0:0:0:0:
63,228,193687,1,0,0:0:0:0:
108,228,193802,1,8,0:0:0:0:
108,273,193918,1,0,0:0:0:0:
152,273,194033,5,12,0:0:0:0:
183,304,194148,1,0,0:0:0:0:
228,304,194264,1,8,0:0:0:0:
259,335,194379,1,0,0:0:0:0:
304,335,194495,6,0,L|375:335,1,56.25,12|0,0:0|0:0,0:0:0:0:
433,335,194725,2,0,L|433:264,1,56.25,8|0,0:0|0:0,0:0:0:0:
432,199,194956,6,2,B|432:185|432:185|418:172|418:172|399:172|379:166|379:166|399:159|418:159|418:159|432:146|432:146|432:133,1,144,6|2,0:0|0:0,0:0:0:0:
293,133,195418,5,8,0:0:0:0:
229,133,195533,1,0,0:0:0:0:
188,81,195648,1,8,0:0:0:0:
188,17,195764,1,8,0:0:0:0:
125,17,195879,5,8,0:0:0:0:
83,69,195995,1,0,0:0:0:0:
83,131,196110,1,8,0:0:0:0:
41,177,196225,1,0,0:0:0:0:
41,239,196340,1,8,0:0:0:0:
83,282,196456,1,0,0:0:0:0:
145,282,196571,1,8,0:0:0:0:
187,239,196687,1,0,0:0:0:0:
249,239,196802,5,8,0:0:0:0:
248,299,196918,1,0,0:0:0:0:
292,342,197034,1,8,0:0:0:0:
352,342,197148,1,0,0:0:0:0:
395,299,197264,1,8,0:0:0:0:
395,236,197379,1,0,0:0:0:0:
439,191,197495,1,8,0:0:0:0:
501,191,197610,1,8,0:0:0:0:
501,128,197725,5,8,0:0:0:0:
457,83,197841,1,0,0:0:0:0:
394,83,197956,1,8,0:0:0:0:
348,40,198071,1,0,0:0:0:0:
284,40,198187,6,0,L|195:40,1,62.9999980773926,8|0,0:0|0:0,0:0:0:0:
159,40,198418,1,8,0:0:0:0:
159,100,198533,1,8,0:0:0:0:
159,163,198648,6,0,L|285:163,1,125.999996154785,4|0,0:0|0:0,0:0:0:0:
284,347,199110,5,8,0:0:0:0:
220,347,199225,1,0,0:0:0:0:
173,302,199341,1,8,0:0:0:0:
109,303,199456,1,8,0:0:0:0:
65,257,199571,5,8,0:0:0:0:
64,195,199687,1,0,0:0:0:0:
18,151,199802,1,8,0:0:0:0:
18,87,199918,1,0,0:0:0:0:
64,44,200033,1,8,0:0:0:0:
108,87,200148,1,0,0:0:0:0:
171,87,200264,1,8,0:0:0:0:
216,130,200379,1,0,0:0:0:0:
216,193,200495,5,4,0:0:0:0:
278,193,200610,1,0,0:0:0:0:
321,149,200725,1,8,0:0:0:0:
320,87,200841,1,0,0:0:0:0:
363,42,200956,1,8,0:0:0:0:
406,87,201071,1,0,0:0:0:0:
406,150,201187,1,8,0:0:0:0:
449,195,201302,1,8,0:0:0:0:
512,195,201418,6,0,L|512:258,1,62.9999980773926,4|0,0:0|0:0,0:0:0:0:
512,321,201648,1,8,0:0:0:0:
449,320,201764,1,8,0:0:0:0:
387,320,201879,6,0,L|324:320,1,62.9999980773926,4|0,0:0|0:0,0:0:0:0:
324,383,202109,1,8,0:0:0:0:
262,383,202225,1,8,0:0:0:0:
201,383,202341,6,0,L|55:383,1,125.999996154785,4|0,0:0|0:0,0:0:0:0:
75,194,202802,5,8,0:0:0:0:
32,146,202918,1,0,0:0:0:0:
32,83,203033,1,8,0:0:0:0:
75,39,203148,1,8,0:0:0:0:
138,39,203264,5,4,0:0:0:0:
138,101,203379,1,0,0:0:0:0:
181,145,203495,1,8,0:0:0:0:
224,101,203610,1,0,0:0:0:0:
224,39,203725,1,8,0:0:0:0:
287,39,203841,1,0,0:0:0:0:
330,82,203956,1,8,0:0:0:0:
330,144,204071,1,8,0:0:0:0:
375,188,204187,5,4,0:0:0:0:
376,249,204302,1,0,0:0:0:0:
335,294,204417,1,8,0:0:0:0:
291,249,204532,1,0,0:0:0:0:
228,249,204647,1,8,0:0:0:0:
183,294,204763,1,0,0:0:0:0:
183,357,204879,1,8,0:0:0:0:
119,357,204995,1,8,0:0:0:0:
56,357,205110,6,0,L|56:288,1,62.9999980773926,4|0,0:0|0:0,0:0:0:0:
56,230,205341,1,8,0:0:0:0:
100,185,205456,1,8,0:0:0:0:
100,122,205571,6,0,L|100:53,1,62.9999980773926,4|0,0:0|0:0,0:0:0:0:
163,59,205802,1,8,0:0:0:0:
226,59,205918,1,8,0:0:0:0:
226,121,206033,6,0,L|226:190,1,62.9999980773926,4|0,0:0|0:0,0:0:0:0:
271,228,206264,1,8,0:0:0:0:
271,291,206379,1,8,0:0:0:0:
334,291,206495,5,12,0:0:0:0:
396,291,206610,1,0,0:0:0:0:
441,247,206725,1,8,0:0:0:0:
442,184,206841,1,8,0:0:0:0:
398,140,206956,5,12,0:0:0:0:
398,77,207071,1,0,0:0:0:0:
353,32,207187,1,8,0:0:0:0:
290,32,207302,1,8,0:0:0:0:
290,95,207418,1,12,0:0:0:0:
245,139,207533,1,0,0:0:0:0:
181,139,207649,1,8,0:0:0:0:
137,95,207764,1,8,0:0:0:0:
137,32,207880,5,12,0:0:0:0:
74,32,207995,1,2,0:0:0:0:
30,76,208110,1,8,0:0:0:0:
30,139,208226,1,2,0:0:0:0:
74,183,208341,5,12,0:0:0:0:
30,228,208456,1,2,0:0:0:0:
74,271,208571,1,8,0:0:0:0:
136,271,208687,1,2,0:0:0:0:
136,333,208802,5,12,0:0:0:0:
198,333,208917,1,2,0:0:0:0:
242,289,209033,1,8,0:0:0:0:
287,333,209148,1,2,0:0:0:0:
330,289,209263,5,12,0:0:0:0:
392,289,209379,1,2,0:0:0:0:
439,247,209494,1,8,0:0:0:0:
256,192,209610,12,4,210648,0:0:0:0:
304,256,212494,5,4,0:0:0:0:
256,192,214340,5,4,0:0:0:0:
256,112,216186,5,4,0:0:0:0:
208,48,217109,5,4,0:0:0:0:
128,48,217571,1,4,0:0:0:0:
80,112,218032,1,4,0:0:0:0:
80,192,219878,5,4,0:0:0:0:
128,256,221724,5,4,0:0:0:0:
208,256,222648,1,4,0:0:0:0:
256,192,223571,5,4,0:0:0:0:
304,256,224032,1,4,0:0:0:0:
384,256,224494,1,4,0:0:0:0:
448,208,224955,1,4,0:0:0:0:
448,128,225417,5,4,0:0:0:0:
64,128,225878,1,4,0:0:0:0:
256,360,226340,1,4,0:0:0:0:
256,332,226455,1,8,0:0:0:0:
257,152,226686,2,10,B|295:152|295:152|295:59|295:59|246:59,1,168.75
256,248,227263,5,4,0:0:0:0:
104,360,227494,1,8,0:0:0:0:
166,168,227724,1,4,0:0:0:0:
256,248,227955,1,8,0:0:0:0:
346,168,228186,1,4,0:0:0:0:
374,168,228301,1,8,0:0:0:0:
374,360,228532,2,10,B|412:360|412:360|412:267|412:267|363:267,1,168.75
374,73,229109,5,4,0:0:0:0:
256,360,229571,1,4,0:0:0:0:
138,73,230032,1,4,0:0:0:0:
166,73,230148,1,8,0:0:0:0:
374,73,230378,2,10,B|374:35|374:35|467:35|467:35|467:84,1,168.75
469,267,230955,5,4,0:0:0:0:
469,295,231071,1,0,0:0:0:0:
469,323,231186,1,8,0:0:0:0:
306,246,231417,1,12,0:0:0:0:
256,73,231648,1,8,0:0:0:0:
206,246,231878,1,4,0:0:0:0:
206,275,231994,1,8,0:0:0:0:
27,275,232224,5,8,0:0:0:0:
27,304,232340,1,4,0:0:0:0:
27,124,232571,1,8,0:0:0:0:
27,95,232687,1,0,0:0:0:0:
27,66,232801,6,0,B|27:3|27:3|94:3,1,112.5,4|0,0:0|0:0,0:0:0:0:
256,3,233263,1,12,0:0:0:0:
256,183,233494,1,8,0:0:0:0:
435,183,233724,1,4,0:0:0:0:
463,183,233840,1,8,0:0:0:0:
463,360,234071,2,10,B|501:360|501:360|501:267|501:267|452:267,1,168.75
296,267,234648,6,0,B|233:267|233:267|233:334,1,112.5,4|0,0:0|0:0,0:0:0:0:
52,317,235109,1,12,0:0:0:0:
172,183,235340,1,8,0:0:0:0:
52,48,235571,1,4,0:0:0:0:
52,20,235687,1,8,0:0:0:0:
231,20,235917,2,10,B|231:58|231:58|324:58|324:58|324:9,1,168.75
507,20,236494,5,4,0:0:0:0:
507,64,236609,1,0,0:0:0:0:
475,95,236724,1,8,0:0:0:0:
431,94,236840,1,0,0:0:0:0:
399,124,236956,1,4,0:0:0:0:
398,168,237071,1,0,0:0:0:0:
428,200,237186,1,8,0:0:0:0:
426,244,237301,1,0,0:0:0:0:
394,274,237417,5,4,0:0:0:0:
351,273,237532,1,0,0:0:0:0:
320,241,237648,1,8,0:0:0:0:
276,240,237763,1,0,0:0:0:0:
245,272,237878,1,4,0:0:0:0:
200,271,237994,1,0,0:0:0:0:
170,239,238109,1,8,0:0:0:0:
170,194,238225,1,0,0:0:0:0:
141,163,238341,5,4,0:0:0:0:
97,162,238456,1,0,0:0:0:0:
68,131,238571,1,8,0:0:0:0:
69,87,238686,1,0,0:0:0:0:
100,58,238801,1,4,0:0:0:0:
134,87,238917,1,0,0:0:0:0:
169,58,239032,1,8,0:0:0:0:
203,87,239148,1,0,0:0:0:0:
238,58,239263,5,4,0:0:0:0:
283,58,239379,1,0,0:0:0:0:
318,29,239494,1,8,0:0:0:0:
362,29,239609,1,0,0:0:0:0:
393,60,239724,1,4,0:0:0:0:
393,104,239840,1,0,0:0:0:0:
362,135,239955,1,8,0:0:0:0:
318,135,240071,1,0,0:0:0:0:
287,166,240186,6,0,L|287:287,1,112.5,14|0,0:0|0:0,0:0:0:0:
468,278,240648,2,0,L|468:157,1,112.5,10|0,0:0|0:0,0:0:0:0:
468,368,241109,1,8,0:0:0:0:
439,368,241224,1,0,0:0:0:0:
410,368,241340,1,8,0:0:0:0:
230,368,241571,2,0,L|109:368,1,112.5,10|0,0:0|0:0,0:0:0:0:
117,166,242032,6,0,L|117:287,1,112.5,10|0,0:0|0:0,0:0:0:0:
29,165,242494,2,0,L|29:53,1,112.5,10|0,0:0|0:0,0:0:0:0:
184,53,242955,1,8,0:0:0:0:
213,53,243070,1,0,0:0:0:0:
242,53,243186,1,8,0:0:0:0:
397,53,243417,2,0,L|518:53,1,112.5,10|0,0:0|0:0,0:0:0:0:
284,155,243878,5,4,0:0:0:0:
464,155,244109,1,8,0:0:0:0:
464,184,244224,1,0,0:0:0:0:
464,213,244340,1,8,0:0:0:0:
284,155,244571,5,8,0:0:0:0:
117,155,244801,1,8,0:0:0:0:
88,155,244916,1,0,0:0:0:0:
59,155,245032,1,8,0:0:0:0:
59,313,245263,2,0,L|180:313,1,112.5,10|0,0:0|0:0,0:0:0:0:
385,313,245724,6,0,L|264:313,1,112.5,6|0,0:0|0:0,0:0:0:0:
487,313,246186,2,0,L|487:192,1,112.5,10|0,0:0|0:0,0:0:0:0:
487,42,246648,1,4,0:0:0:0:
458,42,246763,1,0,0:0:0:0:
429,42,246879,1,8,0:0:0:0:
343,173,247109,5,4,0:0:0:0:
256,42,247340,1,8,0:0:0:0:
227,42,247455,1,0,0:0:0:0:
198,42,247571,1,4,0:0:0:0:
285,173,247801,1,8,0:0:0:0:
314,173,247916,1,0,0:0:0:0:
343,173,248032,1,8,0:0:0:0:
151,173,248263,5,8,0:0:0:0:
151,331,248494,1,8,0:0:0:0:
122,331,248609,1,0,0:0:0:0:
93,331,248725,1,8,0:0:0:0:
272,331,248955,2,0,L|393:331,1,112.5,10|0,0:0|0:0,0:0:0:0:
151,331,249417,5,4,0:0:0:0:
151,173,249648,1,8,0:0:0:0:
122,173,249763,1,0,0:0:0:0:
93,173,249879,1,8,0:0:0:0:
93,16,250109,5,8,0:0:0:0:
251,16,250340,1,8,0:0:0:0:
280,16,250455,1,0,0:0:0:0:
309,16,250571,1,8,0:0:0:0:
466,16,250801,2,0,L|466:137,1,112.5,10|0,0:0|0:0,0:0:0:0:
466,287,251263,5,4,0:0:0:0:
437,287,251378,1,0,0:0:0:0:
408,287,251494,1,8,0:0:0:0:
408,175,251724,2,0,L|287:175,1,112.5,8|0,0:0|0:0,0:0:0:0:
182,175,252186,1,4,0:0:0:0:
153,175,252301,1,0,0:0:0:0:
124,175,252417,1,8,0:0:0:0:
124,287,252648,5,8,0:0:0:0:
236,287,252878,1,8,0:0:0:0:
236,316,252993,1,0,0:0:0:0:
236,345,253109,1,4,0:0:0:0:
349,345,253340,1,8,0:0:0:0:
462,345,253571,6,0,L|462:224,1,112.5,6|0,0:0|0:0,0:0:0:0:
288,192,254032,2,0,L|409:192,1,112.5,6|0,0:0|0:0,0:0:0:0:
462,39,254494,2,0,L|462:160,1,112.5,6|0,0:0|0:0,0:0:0:0:
288,192,254955,6,2,B|274:192|274:192|261:205|261:205|261:224|255:244|255:244|248:224|248:205|248:205|235:192|235:192|222:192,1,144,6|2,0:0|0:0,0:0:0:0:
10,192,255417,5,8,0:0:0:0:
10,141,255532,1,0,0:0:0:0:
46,104,255648,1,8,0:0:0:0:
46,52,255763,1,0,0:0:0:0:
96,52,255878,5,8,0:0:0:0:
132,15,255994,1,0,0:0:0:0:
168,52,256109,1,8,0:0:0:0:
168,102,256224,1,0,0:0:0:0:
218,102,256340,1,8,0:0:0:0:
253,137,256455,1,0,0:0:0:0:
252,188,256571,1,8,0:0:0:0:
290,223,256686,1,0,0:0:0:0:
340,223,256801,5,8,0:0:0:0:
375,260,256917,1,0,0:0:0:0:
375,310,257032,1,8,0:0:0:0:
412,346,257148,1,0,0:0:0:0:
462,346,257263,1,8,0:0:0:0:
499,310,257379,1,0,0:0:0:0:
499,260,257494,1,8,0:0:0:0:
464,223,257609,1,8,0:0:0:0:
464,172,257724,6,0,L|401:172,1,62.9999980773926,8|0,0:0|0:0,0:0:0:0:
401,121,257955,1,8,0:0:0:0:
350,121,258071,1,0,0:0:0:0:
299,121,258186,2,2,B|267:121|267:121|244:98|244:98|223:121|223:121|190:121,1,125.999996154785,10|0,0:0|0:0,0:0:0:0:
8,121,258648,6,2,B|8:89|8:89|31:66|31:66|8:45|8:45|8:12,1,125.999996154785,6|0,0:0|0:0,0:0:0:0:
8,252,259109,5,8,0:0:0:0:
8,302,259224,1,0,0:0:0:0:
43,337,259340,1,8,0:0:0:0:
93,337,259455,1,8,0:0:0:0:
93,286,259571,5,8,0:0:0:0:
143,286,259686,1,0,0:0:0:0:
178,251,259801,1,8,0:0:0:0:
178,201,259916,1,0,0:0:0:0:
213,166,260032,1,8,0:0:0:0:
263,166,260147,1,0,0:0:0:0:
298,201,260263,1,8,0:0:0:0:
298,251,260378,1,0,0:0:0:0:
348,251,260494,5,4,0:0:0:0:
348,301,260609,1,0,0:0:0:0:
383,336,260724,1,8,0:0:0:0:
433,336,260839,1,8,0:0:0:0:
468,301,260955,1,8,0:0:0:0:
468,250,261071,1,0,0:0:0:0:
433,215,261186,1,8,0:0:0:0:
433,164,261301,1,8,0:0:0:0:
483,164,261417,6,0,L|483:90,1,62.9999980773926,4|0,0:0|0:0,0:0:0:0:
483,50,261648,1,8,0:0:0:0:
433,50,261764,1,0,0:0:0:0:
383,50,261878,2,2,B|351:50|351:50|328:73|328:73|307:50|307:50|274:50,1,125.999996154785,4|0,0:0|0:0,0:0:0:0:
276,260,262340,6,2,B|244:260|244:260|221:283|221:283|200:260|200:260|167:260,1,125.999996154785,4|0,0:0|0:0,0:0:0:0:
8,260,262801,5,8,0:0:0:0:
8,209,262917,1,0,0:0:0:0:
44,172,263032,1,8,0:0:0:0:
44,121,263148,1,0,0:0:0:0:
94,121,263263,5,4,0:0:0:0:
129,85,263378,1,0,0:0:0:0:
129,35,263494,1,8,0:0:0:0:
179,35,263609,1,0,0:0:0:0:
214,71,263724,1,8,0:0:0:0:
214,121,263840,1,0,0:0:0:0:
249,157,263955,1,8,0:0:0:0:
299,157,264071,1,8,0:0:0:0:
299,106,264186,5,4,0:0:0:0:
333,69,264301,1,0,0:0:0:0:
383,69,264417,1,8,0:0:0:0:
417,106,264532,1,0,0:0:0:0:
417,157,264647,1,8,0:0:0:0:
452,192,264763,1,0,0:0:0:0:
450,242,264878,1,8,0:0:0:0:
399,242,264993,1,8,0:0:0:0:
397,292,265109,6,0,L|397:370,1,62.9999980773926,4|0,0:0|0:0,0:0:0:0:
348,355,265340,1,8,0:0:0:0:
298,355,265456,1,0,0:0:0:0:
298,305,265571,2,2,B|266:305|266:305|243:282|243:282|222:305|222:305|189:305,1,125.999996154785,10|0,0:0|0:0,0:0:0:0:
192,90,266032,6,0,L|268:90,1,62.9999980773926,4|0,0:0|0:0,0:0:0:0:
307,90,266263,1,8,2:0:0:0:
307,140,266378,1,0,0:0:0:0:
357,140,266494,1,12,0:0:0:0:
392,175,266609,1,0,0:0:0:0:
428,210,266724,1,8,0:0:0:0:
428,260,266839,1,8,0:0:0:0:
478,260,266955,5,12,0:0:0:0:
478,310,267071,1,0,0:0:0:0:
442,345,267186,1,8,0:0:0:0:
391,345,267301,1,8,0:0:0:0:
354,308,267417,1,4,0:0:0:0:
317,345,267532,1,0,0:0:0:0:
280,308,267648,1,8,0:0:0:0:
243,345,267763,1,8,0:0:0:0:
192,345,267878,5,12,0:0:0:0:
192,294,267994,1,0,0:0:0:0:
141,294,268109,1,8,0:0:0:0:
141,243,268225,1,0,0:0:0:0:
90,243,268340,1,12,0:0:0:0:
90,192,268455,1,0,0:0:0:0:
39,192,268570,1,8,0:0:0:0:
39,141,268686,1,0,0:0:0:0:
2,104,268801,5,12,0:0:0:0:
39,67,268917,1,0,0:0:0:0:
76,30,269032,1,8,0:0:0:0:
113,67,269148,1,0,0:0:0:0:
150,30,269263,2,0,L|222:30,1,62.9999980773926,12|0,0:0|0:0,0:0:0:0:
265,30,269494,2,0,L|265:102,1,62.9999980773926,8|0,0:0|0:0,0:0:0:0:
265,155,269724,6,2,B|278:155|278:155|291:168|291:168|291:187|297:207|297:207|304:187|304:168|304:168|317:155|317:155|330:155,1,144,6|2,0:0|0:0,0:0:0:0:
157,155,270186,5,8,0:0:0:0:
157,217,270301,1,0,0:0:0:0:
113,260,270417,1,8,0:0:0:0:
50,260,270532,1,8,0:0:0:0:
50,322,270648,5,8,0:0:0:0:
94,365,270764,1,0,0:0:0:0:
157,365,270879,1,8,0:0:0:0:
201,322,270994,1,0,0:0:0:0:
264,322,271109,1,8,0:0:0:0:
308,365,271224,1,0,0:0:0:0:
369,364,271340,1,8,0:0:0:0:
414,319,271455,1,0,0:0:0:0:
414,258,271570,5,8,0:0:0:0:
477,258,271686,1,0,0:0:0:0:
476,197,271801,1,8,0:0:0:0:
431,152,271916,1,0,0:0:0:0:
370,152,272031,1,8,0:0:0:0:
325,107,272148,1,0,0:0:0:0:
324,46,272263,1,8,0:0:0:0:
279,1,272378,1,8,0:0:0:0:
234,46,272494,5,8,0:0:0:0:
233,107,272609,1,0,0:0:0:0:
188,152,272724,1,8,0:0:0:0:
143,107,272840,1,0,0:0:0:0:
142,46,272955,6,0,L|71:46,1,62.9999980773926,8|0,0:0|0:0,0:0:0:0:
15,46,273186,1,8,0:0:0:0:
15,107,273301,1,8,0:0:0:0:
15,170,273417,6,0,L|15:316,1,125.999996154785,4|0,0:0|0:0,0:0:0:0:
173,296,273878,5,8,0:0:0:0:
236,296,273994,1,0,0:0:0:0:
280,251,274109,1,8,0:0:0:0:
280,188,274224,1,8,0:0:0:0:
236,143,274340,5,8,0:0:0:0:
236,79,274455,1,0,0:0:0:0:
281,35,274570,1,8,0:0:0:0:
344,35,274685,1,0,0:0:0:0:
389,79,274801,1,8,0:0:0:0:
451,79,274917,1,0,0:0:0:0:
496,124,275032,1,8,0:0:0:0:
497,187,275148,1,0,0:0:0:0:
434,187,275263,5,4,0:0:0:0:
435,249,275378,1,0,0:0:0:0:
389,294,275494,1,8,0:0:0:0:
326,295,275610,1,0,0:0:0:0:
280,340,275724,1,8,0:0:0:0:
217,339,275840,1,0,0:0:0:0:
171,294,275954,1,8,0:0:0:0:
171,230,276071,1,8,0:0:0:0:
108,230,276186,6,0,L|28:230,1,62.9999980773926,4|0,0:0|0:0,0:0:0:0:
45,166,276417,1,8,0:0:0:0:
45,103,276532,1,8,0:0:0:0:
108,103,276648,6,0,L|188:103,1,62.9999980773926,4|0,0:0|0:0,0:0:0:0:
233,103,276878,1,8,0:0:0:0:
233,39,276994,1,8,0:0:0:0:
295,39,277109,6,0,L|444:39,1,125.999996154785,4|0,0:0|0:0,0:0:0:0:
421,216,277571,5,8,0:0:0:0:
358,216,277686,1,0,0:0:0:0:
313,260,277801,1,8,0:0:0:0:
312,322,277917,1,8,0:0:0:0:
249,322,278032,5,4,0:0:0:0:
206,278,278148,1,0,0:0:0:0:
205,215,278264,1,8,0:0:0:0:
247,172,278379,1,0,0:0:0:0:
290,128,278494,5,8,0:0:0:0:
291,65,278610,1,0,0:0:0:0:
249,22,278725,1,8,0:0:0:0:
186,22,278840,1,0,0:0:0:0:
186,84,278955,1,4,0:0:0:0:
142,127,279071,1,8,0:0:0:0:
79,128,279187,1,8,0:0:0:0:
36,172,279301,1,0,0:0:0:0:
35,235,279417,5,8,0:0:0:0:
77,278,279532,1,0,0:0:0:0:
142,279,279648,1,8,0:0:0:0:
184,322,279763,1,8,0:0:0:0:
184,384,279878,6,0,L|265:384,1,62.9999980773926,4|0,0:0|0:0,0:0:0:0:
310,384,280109,1,8,0:0:0:0:
373,384,280224,1,8,0:0:0:0:
373,320,280340,6,0,L|373:239,1,62.9999980773926,4|0,0:0|0:0,0:0:0:0:
373,192,280571,1,8,0:0:0:0:
436,192,280686,1,8,0:0:0:0:
436,129,280801,6,0,L|436:56,1,62.9999980773926,4|0,0:0|0:0,0:0:0:0:
436,2,281032,1,8,0:0:0:0:
372,2,281148,1,8,0:0:0:0:
326,47,281263,5,12,0:0:0:0:
326,109,281378,1,0,0:0:0:0:
262,109,281494,1,8,0:0:0:0:
262,171,281609,1,8,0:0:0:0:
198,171,281725,5,12,0:0:0:0:
152,216,281840,1,0,0:0:0:0:
198,261,281955,1,8,0:0:0:0:
152,306,282071,1,8,0:0:0:0:
107,351,282186,1,12,0:0:0:0:
62,306,282301,1,0,0:0:0:0:
16,261,282417,1,8,0:0:0:0:
62,216,282532,1,8,0:0:0:0:
16,171,282648,5,12,0:0:0:0:
16,108,282763,1,2,0:0:0:0:
78,108,282878,1,8,0:0:0:0:
78,44,282994,1,2,0:0:0:0:
140,44,283109,1,12,0:0:0:0:
185,0,283224,1,2,0:0:0:0:
230,44,283340,1,8,0:0:0:0:
275,0,283455,1,2,0:0:0:0:
320,44,283571,5,12,0:0:0:0:
320,106,283686,1,2,0:0:0:0:
363,149,283801,1,8,0:0:0:0:
426,149,283917,1,2,0:0:0:0:
426,211,284032,1,12,0:0:0:0:
489,211,284148,1,2,0:0:0:0:
489,273,284263,1,8,0:0:0:0:
489,335,284378,1,2,0:0:0:0:
426,335,284494,5,4,0:0:0:0:
193,335,284724,5,8,0:0:0:0:
256,335,284840,1,2,0:0:0:0:
87,335,285071,5,2,0:0:0:0:
24,335,285187,1,8,0:0:0:0:
24,167,285417,5,8,0:0:0:0:
24,230,285533,1,2,0:0:0:0:
24,62,285763,5,2,0:0:0:0:
86,62,285879,1,8,0:0:0:0:
129,106,285994,1,2,0:0:0:0:
191,106,286109,1,8,0:0:0:0:
234,150,286224,1,2,0:0:0:0:
234,212,286339,1,4,0:0:0:0:
