osu file format v14

[General]
AudioFilename: audio.mp3
AudioLeadIn: 0
PreviewTime: 232109
Countdown: 1
SampleSet: None
StackLeniency: 0.9
Mode: 0
LetterboxInBreaks: 1
WidescreenStoryboard: 1

[Editor]
DistanceSpacing: 0.8
BeatDivisor: 4
GridSize: 8
TimelineZoom: 2.699999

[Metadata]
Title:Tewi! Eientewi (Vocal Ver~)
TitleUnicode:Tewi! Eientewi (Vocal Ver~)
Artist:sekken-ya
ArtistUnicode:sekken-ya
Creator:ThanaR
Version:Extra
Source:Touhou
Tags:Tewi
BeatmapID:1051351
BeatmapSetID:493672

[Difficulty]
HPDrainRate:5
CircleSize:4
OverallDifficulty:9
ApproachRate:9.5
SliderMultiplier:2.89999990463257
SliderTickRate:2

[Events]
//Background and Video events
0,0,"Tewi!.jpg",0,0
//Break Periods
2,24407,32019
2,50858,54542
2,87012,91367
2,155479,179226
2,225918,231584
//Storyboard Layer 0 (Background)
//Storyboard Layer 1 (Fail)
//Storyboard Layer 2 (Pass)
//Storyboard Layer 3 (Foreground)
//Storyboard Sound Samples

[TimingPoints]
207,545.458715596329,4,1,0,100,1,0
616,-200,4,1,0,100,0,0
4570,-200,4,2,0,100,0,0
8934,-200,4,1,0,100,0,0
13298,-200,4,3,0,100,0,0
17661,-200,4,2,0,100,0,0
22025,-200,4,3,0,100,0,0
32544,383.386581469649,4,1,0,100,1,0
47687,-66.6666666666667,4,1,0,100,0,0
48837,-100,4,1,0,100,0,0
57176,-200,4,3,0,100,0,1
68774,-100,4,1,0,100,0,0
69273,383.386581469649,4,1,0,100,1,0
84320,-66.6666666666667,4,1,0,100,0,0
93713,-200,4,3,0,100,0,1
105790,-200,4,2,0,100,0,0
129937,-100,4,1,0,100,0,0
130550,383.386581469649,4,1,0,100,1,0
145847,-66.6666666666667,4,2,0,100,0,0
146997,-100,4,2,0,100,0,0
167253,-200,4,3,0,100,0,0
192333,-133.333333333333,4,3,0,100,0,0
207179,-66.6666666666667,4,1,0,100,0,0
207371,-100,4,1,0,100,0,0
207795,383.386581469649,4,1,0,100,1,0
222939,-66.6666666666667,4,1,0,100,0,0
223962,-100,4,1,0,100,0,0
232108,-66.6666666666667,4,1,0,100,0,1
232493,-133.333333333333,4,1,0,100,0,1
268722,-100,4,1,0,100,0,0

[HitObjects]
64,96,207,6,0,P|160:192|192:192,1,144.999995231629
224,256,752,2,0,L|258:188|258:188,1,72.4999976158143
32,256,1297,2,0,P|32:288|64:320,1,72.4999976158143
264,168,1843,6,0,P|263:224|286:269,1,72.4999976158143
168,80,2388,2,0,P|117:125|118:157,1,72.4999976158143
208,216,2797,6,0,P|168:236|170:253,1,36.2499988079071
83,330,3207,2,0,P|175:332|185:328,1,72.4999976158143
312,320,4025,5,8,0:0:0:0:
384,216,4570,2,0,L|342:194,2,36.2499988079071
288,64,5116,2,0,P|224:32|192:32,1,72.4999976158143
248,264,5661,6,0,P|313:225|316:210,1,72.4999976158143
209,90,6207,2,0,P|115:115|108:114,1,72.4999976158143
122,314,6752,2,0,P|212:319|227:306,1,108.749996423721
304,128,7297,6,0,P|360:152|381:178,2,72.4999976158143
168,144,8388,5,8,0:0:0:0:
80,199,8934,2,0,P|78:272|93:286,1,72.4999976158143
272,160,9479,2,0,P|321:216|323:225,1,72.4999976158143
126,45,10025,6,0,P|80:85|84:108,1,72.4999976158143
152,312,10570,2,0,P|202:338|225:334,1,72.4999976158143
304,272,10979,5,0,0:0:0:0:
312,168,11116,2,0,P|263:147|225:157,1,72.4999976158143
160,184,11525,1,0,0:0:0:0:
84,228,11661,6,0,P|55:289|50:317,1,72.4999976158143
287,311,12070,2,0,L|318:279,1,36.2499988079071
246,52,12752,5,8,0:0:0:0:
82,145,13298,2,0,P|62:205|70:227,1,72.4999976158143
196,316,13843,2,0,P|243:349|269:350,1,72.4999976158143
449,228,14388,6,0,P|468:175|453:148,1,72.4999976158143
270,39,14934,2,0,P|192:44|182:52,1,72.4999976158143
133,191,15479,6,0,L|178:252,1,72.4999976158143
401,133,16025,2,0,P|456:183|456:201,2,72.4999976158143
67,66,17116,1,8,0:0:0:0:
355,350,17661,6,0,P|411:286|415:279,1,72.4999976158143
115,339,18207,2,0,P|77:309|64:288,1,72.4999976158143
391,144,18752,6,0,P|447:116|450:102,1,72.4999976158143
200,41,19298,2,0,P|129:75|128:88,1,72.4999976158143
118,137,19843,6,0,P|92:206|101:226,1,72.4999976158143
157,290,20388,2,0,P|235:321|240:320,2,72.4999976158143
416,91,21479,1,8,0:0:0:0:
115,63,22025,6,0,P|99:116|107:132,1,72.4999976158143
355,71,22570,2,0,P|395:130|391:143,1,72.4999976158143
100,284,23116,6,0,P|127:336|139:343,1,72.4999976158143
346,349,23661,2,0,P|391:316|402:296,1,72.4999976158143
256,192,24207,1,8,0:0:0:0:
160,64,32544,5,0,0:0:0:0:
352,352,32735,1,4,2:0:0:0:
352,352,32926,2,0,P|416:288|416:224,2,144.999995231629
256,192,33501,1,0,0:0:0:0:
385,52,33693,2,0,P|442:100|446:178,1,144.999995231629
144,136,34077,2,0,P|119:207|168:240,1,144.999995231629
346,98,34460,1,4,0:0:0:0:
320,308,34652,5,0,0:0:0:0:
247,109,34843,1,4,0:0:0:0:
89,308,35035,1,0,0:0:0:0:
342,179,35227,1,4,0:0:0:0:
230,251,35419,2,0,L|120:144,1,144.999995231629
371,346,35802,2,0,L|504:252,1,144.999995231629
87,213,36185,5,0,0:0:0:0:
183,68,36377,2,0,L|70:192,1,144.999995231629
420,204,36760,2,0,L|304:357,1,144.999995231629
85,241,37144,2,0,P|129:330|169:361,2,144.999995231629
374,45,37719,2,0,P|456:136|448:152,1,144.999995231629
432,224,38102,1,0,0:0:0:0:
367,319,38294,2,0,B|309:374|309:374|245:297,1,144.999995231629
140,52,38677,6,0,B|67:48|67:48|65:132,1,144.999995231629
96,240,39060,1,4,0:0:0:0:
96,160,39252,1,8,0:0:0:0:
94,319,39444,1,4,0:0:0:0:
32,208,39636,1,8,0:0:0:0:
235,265,39828,2,0,P|334:231|358:197,1,144.999995231629
96,64,40210,5,8,0:0:0:0:
96,288,40402,1,4,0:0:0:0:
352,288,40594,1,2,0:0:0:0:
352,64,40786,1,8,0:0:0:0:
256,192,40977,1,2,0:0:0:0:
480,32,41169,6,0,L|480:192,1,144.999995231629
32,224,41553,2,0,P|42:304|78:364,1,144.999995231629
96,352,41936,2,0,L|224:256,1,144.999995231629
416,64,42320,6,0,P|329:57|269:94,1,144.999995231629
400,311,42703,2,0,P|304:344|246:339,2,144.999995231629
160,128,43278,2,0,P|64:96|32:64,1,144.999995231629
224,256,43661,2,0,P|128:320|96:320,1,144.999995231629
152,144,44044,1,4,3:0:0:0:
200,176,44140,1,8,3:0:0:0:
232,224,44236,1,4,3:0:0:0:
264,272,44332,1,8,3:0:0:0:
312,304,44428,1,4,3:0:0:0:
368,280,44524,1,8,3:0:0:0:
416,256,44619,1,2,3:0:0:0:
504,176,44811,1,2,0:0:0:0:
128,96,45003,5,2,0:0:0:0:
128,320,45194,1,8,0:0:0:0:
384,96,45386,1,4,0:0:0:0:
384,320,45578,1,2,0:0:0:0:
128,192,45770,5,0,0:0:0:0:
384,192,45961,1,8,0:0:0:0:
192,192,46153,1,0,0:0:0:0:
320,192,46345,2,0,L|320:0,2,144.999995231629
214,264,46920,1,0,0:0:0:0:
203,46,47112,1,4,0:0:0:0:
272,96,47303,1,0,0:0:0:0:
184,24,47495,1,0,0:0:0:0:
192,32,47590,1,0,0:0:0:0:
192,32,47687,6,0,B|64:192|64:192|256:384|256:384|480:192|480:192|384:128,1,870.000004577637
135,125,48837,6,0,P|78:225|119:256,1,144.999995231629
255,362,49221,2,0,P|340:285|339:283,1,144.999995231629
160,192,49603,1,2,0:0:0:0:
416,192,49795,1,8,0:0:0:0:
224,256,49988,1,2,0:0:0:0:
352,256,50178,1,8,0:0:0:0:
288,320,50371,2,0,L|288:88,1,217.499992847443
256,192,55067,12,0,57080,0:0:0:0:
128,32,57176,5,0,0:0:0:0:
88,64,57272,1,4,3:0:0:0:
88,112,57368,1,0,0:0:0:0:
208,96,57559,5,0,0:0:0:0:
208,96,57655,1,4,3:0:0:0:
208,96,57751,1,0,0:0:0:0:
304,112,57943,5,0,0:0:0:0:
344,144,58038,1,4,3:0:0:0:
376,184,58134,1,0,0:0:0:0:
272,272,58326,5,0,0:0:0:0:
272,272,58422,1,4,3:0:0:0:
272,272,58518,1,0,0:0:0:0:
344,280,58709,5,0,0:0:0:0:
344,232,58805,1,4,0:0:0:0:
344,184,58901,1,0,0:0:0:0:
480,224,58997,6,0,L|440:208,1,36.2499988079071,4|8,0:0|0:0,0:0:0:0:
456,136,59189,2,0,L|416:112,1,36.2499988079071,4|8,0:0|0:0,0:0:0:0:
424,200,59381,2,0,L|384:176,1,36.2499988079071,4|8,0:0|0:0,0:0:0:0:
400,288,59572,2,0,L|360:320,1,36.2499988079071,4|8,0:0|0:0,0:0:0:0:
352,232,59764,2,0,L|312:200,1,36.2499988079071,4|8,0:0|0:0,0:0:0:0:
296,296,59956,2,0,L|264:272,1,36.2499988079071
104,296,60244,5,0,0:0:0:0:
144,264,60340,1,4,3:0:0:0:
184,232,60436,1,0,0:0:0:0:
176,128,60579,5,0,0:0:0:0:
176,128,60675,1,4,3:0:0:0:
176,128,60771,1,0,0:0:0:0:
200,80,60962,5,0,0:0:0:0:
248,96,61057,1,4,3:0:0:0:
280,120,61153,1,0,0:0:0:0:
360,216,61345,5,0,0:0:0:0:
360,216,61441,1,4,3:0:0:0:
360,216,61537,1,0,0:0:0:0:
424,264,61681,5,0,0:0:0:0:
392,280,61777,6,0,L|360:256,1,36.2499988079071,4|8,0:0|0:0,0:0:0:0:
424,224,61969,2,0,L|392:192,1,36.2499988079071,4|8,0:0|0:0,0:0:0:0:
344,208,62161,2,0,L|376:168,1,36.2499988079071,4|8,0:0|0:0,0:0:0:0:
416,152,62352,2,0,L|384:112,1,36.2499988079071,4|8,0:0|0:0,0:0:0:0:
328,144,62544,2,0,L|360:112,1,36.2499988079071,4|8,0:0|0:0,0:0:0:0:
400,80,62832,5,0,0:0:0:0:
352,56,62928,1,4,3:0:0:0:
304,56,63023,1,0,0:0:0:0:
216,168,63215,5,0,0:0:0:0:
216,168,63311,1,4,3:0:0:0:
216,168,63407,1,0,0:0:0:0:
280,296,63599,5,0,0:0:0:0:
312,256,63694,1,4,3:0:0:0:
344,216,63790,1,0,0:0:0:0:
384,96,63982,5,0,0:0:0:0:
384,96,64078,1,4,3:0:0:0:
384,96,64174,1,0,0:0:0:0:
288,120,64365,5,0,0:0:0:0:
264,168,64461,1,4,3:0:0:0:
240,208,64557,1,0,0:0:0:0:
400,216,64700,5,0,0:0:0:0:
400,216,64796,1,4,3:0:0:0:
400,216,64891,1,0,0:0:0:0:
480,288,65036,6,0,L|448:256,1,36.2499988079071,4|8,0:0|0:0,0:0:0:0:
472,360,65228,2,0,L|440:320,1,36.2499988079071,4|8,0:0|0:0,0:0:0:0:
400,296,65420,2,4,L|376:264,1,36.2499988079071,4|8,0:0|0:0,0:0:0:0:
384,336,65611,2,0,L|344:336,1,36.2499988079071,4|8,0:0|0:0,0:0:0:0:
288,336,65803,2,0,L|264:304,1,36.2499988079071,4|8,0:0|0:0,0:0:0:0:
80,280,66234,5,0,0:0:0:0:
56,240,66330,1,4,3:0:0:0:
48,192,66426,1,0,0:0:0:0:
192,168,66617,5,0,0:0:0:0:
192,168,66713,1,4,3:0:0:0:
192,168,66808,1,0,0:0:0:0:
232,248,67000,5,0,0:0:0:0:
192,280,67096,1,4,3:0:0:0:
152,248,67192,1,0,0:0:0:0:
152,120,67384,5,0,0:0:0:0:
152,120,67479,1,4,3:0:0:0:
152,120,67575,1,0,0:0:0:0:
208,160,67767,5,0,0:0:0:0:
208,192,67863,1,4,3:0:0:0:
192,224,67959,1,0,0:0:0:0:
128,240,68102,5,0,0:0:0:0:
128,240,68198,1,4,3:0:0:0:
128,240,68294,1,0,0:0:0:0:
80,208,68390,2,0,L|48:176,1,36.2499988079071,4|8,0:0|0:0,0:0:0:0:
104,144,68582,2,0,L|72:120,1,36.2499988079071,4|8,0:0|0:0,0:0:0:0:
160,104,68774,2,0,L|112:48,1,72.4999976158143,4|8,3:0|3:0,0:0:0:0:
216,88,68965,2,0,L|216:16,1,72.4999976158143,4|8,3:0|3:0,0:0:0:0:
352,192,69273,1,8,0:0:0:0:
240,136,69752,2,0,P|240:224|176:272,1,144.999995231629
96,64,70135,2,0,B|96:136|96:136|144:192,1,144.999995231629
432,352,70518,2,8,B|432:256|432:256|384:224,2,144.999995231629
312,352,71093,1,0,0:0:0:0:
208,304,71285,2,0,B|144:248|144:248|144:176,1,144.999995231629
408,80,71668,5,2,0:0:0:0:
408,312,71860,1,8,0:0:0:0:
336,168,72051,1,4,0:0:0:0:
336,320,72243,1,4,0:0:0:0:
224,320,72435,6,2,L|96:256|64:240,1,144.999995231629
400,192,72819,2,0,P|360:80|320:72,1,144.999995231629
128,184,73202,2,0,P|64:128|64:48,1,144.999995231629
464,280,73585,6,2,P|368:352|320:352,1,144.999995231629
56,352,73969,2,0,B|56:240|56:240|16:208,1,144.999995231629
176,176,74352,1,0,0:0:0:0:
96,64,74543,1,8,0:0:0:0:
96,64,74639,1,4,0:0:0:0:
96,64,74736,2,0,P|64:208|80:224,1,144.999995231629
384,352,75119,2,0,B|472:304|472:304|472:224,1,144.999995231629
192,80,75502,6,0,B|144:144|144:144|56:120,1,144.999995231629
168,224,75885,1,4,3:0:0:0:
168,216,75982,2,0,L|168:144,1,72.4999976158143
240,96,76269,1,4,3:0:0:0:
240,96,76365,2,0,L|304:56,1,72.4999976158143
304,208,76652,1,4,3:0:0:0:
304,208,76748,2,0,L|344:144,1,72.4999976158143
416,104,76988,6,0,B|416:200|416:200|360:240,1,144.999995231629
64,360,77372,2,0,B|64:280|64:280|24:208,1,144.999995231629
368,208,77803,2,0,P|384:312|344:336,1,144.999995231629
176,64,78186,2,0,P|112:136|128:184,1,144.999995231629
280,352,78569,2,0,B|424:328|424:328|480:184,1,289.999990463257
168,328,79144,1,8,0:0:0:0:
88,96,79336,5,8,0:0:0:0:
160,280,79528,1,4,0:0:0:0:
256,104,79720,1,8,0:0:0:0:
304,264,79911,1,8,0:0:0:0:
152,104,80103,2,0,P|104:184|96:264,1,144.999995231629
256,352,80486,5,2,0:0:0:0:
96,96,80678,1,4,0:0:0:0:
192,352,80870,1,2,0:0:0:0:
416,304,81061,1,4,3:0:0:0:
416,248,81157,5,8,3:0:0:0:
416,192,81253,1,4,3:0:0:0:
400,136,81349,1,8,3:0:0:0:
368,88,81445,1,4,3:0:0:0:
328,48,81540,1,8,3:0:0:0:
272,40,81636,1,4,3:0:0:0:
64,64,81828,5,2,0:0:0:0:
64,320,82020,1,0,0:0:0:0:
336,320,82212,1,4,0:0:0:0:
328,64,82403,1,0,0:0:0:0:
384,288,82595,1,8,0:0:0:0:
256,64,82787,5,0,0:0:0:0:
352,288,82978,1,2,0:0:0:0:
184,88,83170,1,0,0:0:0:0:
312,312,83362,1,8,0:0:0:0:
136,128,83553,1,0,0:0:0:0:
256,200,83745,5,2,0:0:0:0:
152,320,83937,1,0,0:0:0:0:
24,184,84128,1,8,0:0:0:0:
128,32,84320,2,0,B|128:352|128:352|480:352|480:352|480:32|480:32|416:32,1,978.750005149842
56,96,85471,5,0,0:0:0:0:
264,112,85662,1,0,0:0:0:0:
56,160,85854,1,0,0:0:0:0:
264,176,86046,1,0,0:0:0:0:
48,216,86237,1,0,0:0:0:0:
264,104,86429,2,0,B|264:344|264:344|264:344,2,217.500001144409
256,192,91892,12,0,93713,0:0:0:0:
64,64,93856,5,0,0:0:0:0:
64,112,93952,1,4,0:0:0:0:
64,160,94048,1,0,0:0:0:0:
152,256,94240,5,0,0:0:0:0:
152,256,94335,1,4,0:0:0:0:
152,256,94431,1,0,0:0:0:0:
280,200,94575,5,0,0:0:0:0:
248,152,94671,1,4,0:0:0:0:
216,104,94767,1,0,0:0:0:0:
144,176,94959,5,0,0:0:0:0:
144,176,95055,1,4,0:0:0:0:
144,176,95151,1,0,0:0:0:0:
64,240,95342,5,0,0:0:0:0:
96,208,95438,1,4,0:0:0:0:
144,176,95533,1,0,0:0:0:0:
64,64,95726,6,0,L|96:112,1,36.2499988079071,4|8,0:0|0:0,0:0:0:0:
80,192,95918,2,0,L|128:160,1,36.2499988079071,4|8,0:0|0:0,0:0:0:0:
144,64,96110,2,0,L|176:96,1,36.2499988079071,4|8,0:0|0:0,0:0:0:0:
176,192,96301,2,0,L|208:160,1,36.2499988079071,4|8,0:0|0:0,0:0:0:0:
224,64,96493,2,0,L|256:96,1,36.2499988079071,4|8,0:0|0:0,0:0:0:0:
384,136,96876,5,0,0:0:0:0:
384,184,96972,1,4,0:0:0:0:
384,232,97068,1,0,0:0:0:0:
256,232,97260,5,0,0:0:0:0:
256,232,97356,1,4,0:0:0:0:
256,232,97451,1,0,0:0:0:0:
288,224,97643,5,0,0:0:0:0:
320,192,97739,1,4,0:0:0:0:
288,144,97835,1,0,0:0:0:0:
320,240,98025,5,0,0:0:0:0:
320,240,98121,1,4,0:0:0:0:
320,240,98217,1,0,0:0:0:0:
464,192,98409,5,0,0:0:0:0:
416,192,98506,1,4,0:0:0:0:
416,144,98602,1,0,0:0:0:0:
464,288,98697,6,0,L|432:256,1,36.2499988079071,4|8,0:0|0:0,0:0:0:0:
400,192,98889,2,0,L|352:240,1,36.2499988079071,4|8,0:0|0:0,0:0:0:0:
384,352,99081,2,0,L|352:320,1,36.2499988079071,4|8,0:0|0:0,0:0:0:0:
304,224,99272,2,0,L|272:272,1,36.2499988079071,4|8,0:0|0:0,0:0:0:0:
256,352,99464,2,0,L|224:320,1,36.2499988079071,4|8,0:0|0:0,0:0:0:0:
160,352,99656,2,0,L|128:320,1,36.2499988079071,4|8,0:0|0:0,0:0:0:0:
80,112,99943,5,0,0:0:0:0:
80,112,100039,1,4,0:0:0:0:
80,112,100135,1,0,0:0:0:0:
160,152,100327,5,0,0:0:0:0:
200,160,100422,1,4,0:0:0:0:
240,168,100518,1,0,0:0:0:0:
112,152,100662,5,0,0:0:0:0:
112,152,100758,1,4,0:0:0:0:
112,152,100854,1,0,0:0:0:0:
144,232,101045,5,0,0:0:0:0:
168,280,101141,1,4,0:0:0:0:
192,328,101237,1,0,0:0:0:0:
264,344,101428,5,0,0:0:0:0:
264,344,101524,1,4,0:0:0:0:
264,344,101621,1,0,0:0:0:0:
320,272,101812,1,0,0:0:0:0:
368,240,101908,1,4,0:0:0:0:
400,200,102003,1,0,0:0:0:0:
432,160,102052,6,0,L|384:112,1,36.2499988079071,4|8,0:0|0:0,0:0:0:0:
400,48,102244,2,0,L|368:80,1,36.2499988079071,4|8,0:0|0:0,0:0:0:0:
320,160,102435,2,0,L|272:112,1,36.2499988079071,4|8,0:0|0:0,0:0:0:0:
288,32,102627,2,0,L|256:64,1,36.2499988079071,4|8,0:0|0:0,0:0:0:0:
224,144,102819,2,0,L|192:112,1,36.2499988079071,4|8,0:0|0:0,0:0:0:0:
80,208,103010,5,4,0:0:0:0:
80,208,103106,1,0,0:0:0:0:
192,320,103345,5,0,0:0:0:0:
240,288,103441,1,4,0:0:0:0:
288,256,103538,1,0,0:0:0:0:
288,144,103728,5,0,0:0:0:0:
288,144,103824,1,4,0:0:0:0:
288,144,103920,1,0,0:0:0:0:
200,208,104112,5,0,0:0:0:0:
200,160,104209,1,4,0:0:0:0:
200,112,104303,1,0,0:0:0:0:
296,88,104495,5,0,0:0:0:0:
296,88,104591,1,4,0:0:0:0:
296,88,104687,1,0,0:0:0:0:
392,80,104831,5,0,0:0:0:0:
392,72,104927,1,4,0:0:0:0:
392,72,105023,1,0,0:0:0:0:
384,80,105119,2,0,L|352:112,1,36.2499988079071,4|8,0:0|0:0,0:0:0:0:
304,160,105407,2,0,L|256:128,1,36.2499988079071,4|8,0:0|0:0,0:0:0:0:
240,80,105598,2,0,L|208:128,1,36.2499988079071,4|8,0:0|0:0,0:0:0:0:
88,200,105790,6,0,P|112:272|240:320,1,217.499992847443
416,216,106461,1,0,0:0:0:0:
416,216,106557,2,0,P|432:120|400:88,1,144.999995231629
368,80,107132,2,0,P|280:80|272:88,1,72.4999976158143
184,168,107516,2,0,P|144:232|152:256,1,72.4999976158143
112,328,107899,2,0,L|200:280,1,72.4999976158143
248,264,108282,6,0,P|336:216|336:168,1,144.999995231629
112,80,108857,2,0,P|80:144|80:176,2,72.4999976158143
264,112,109433,2,0,L|320:176,1,72.4999976158143
328,256,109720,1,0,0:0:0:0:
328,256,109816,6,0,P|256:280|232:280,1,72.4999976158143
160,160,110199,2,0,P|136:216|144:248,1,72.4999976158143
144,136,110487,1,0,0:0:0:0:
144,136,110583,2,0,P|224:144|240:176,2,108.749996423721
136,184,111349,2,0,P|176:248|208:256,1,108.749996423721
312,160,111733,2,0,L|328:112,1,36.2499988079071,2|2,1:0|0:0,0:0:0:0:
368,176,112021,6,0,P|392:224|352:272,1,108.749996423721
152,176,112500,1,0,0:0:0:0:
96,272,112692,2,0,P|160:312|192:320,1,108.749996423721
184,176,113075,2,0,P|240:136|272:136,1,72.4999976158143
368,152,113458,6,0,P|408:216|376:256,1,108.749996423721
336,304,113842,2,0,P|272:320|216:320,1,108.749996423721
168,312,114225,2,0,P|128:288|104:232,1,108.749996423721
208,96,114800,2,0,L|168:96,2,24.1666658719381,8|8|8,3:0|3:0|3:0,3:0:0:0:
256,96,114992,2,0,P|312:136|328:200,1,108.749996423721
264,176,115375,2,0,P|280:232|336:248,1,108.749996423721
320,192,115759,2,0,P|376:232|376:280,1,108.749996423721
256,288,116334,2,0,L|232:280,2,24.1666658719381,8|8|8,3:0|3:0|3:0,3:0:0:0:
304,280,116525,6,0,P|384:232|424:256,1,144.999995231629
424,136,117100,1,0,0:0:0:0:
424,136,117196,1,0,0:0:0:0:
424,136,117292,2,0,L|336:96,2,72.4999976158143
88,200,118059,6,0,P|160:208|240:320,1,217.499992847443
296,240,118826,2,0,P|256:160|280:112,1,144.999995231629
360,320,119401,2,0,P|320:344|272:328,1,72.4999976158143
232,264,119784,2,0,P|192:328|200:352,1,72.4999976158143
288,344,120167,2,0,L|376:296,1,72.4999976158143
376,336,120551,6,0,P|464:288|464:240,1,144.999995231629
288,216,121125,2,0,P|256:280|256:312,2,72.4999976158143
264,112,121605,1,4,0:0:0:0:
264,112,121701,2,0,L|353:211,2,108.749996423721
192,320,122467,2,0,P|136:296|128:272,2,72.4999976158143
120,232,123043,2,0,P|200:240|216:272,2,108.749996423721
64,176,123714,2,0,P|120:112|134:107,1,72.4999976158143
352,152,124001,2,0,L|328:128,2,24.1666658719381,8|8|8,3:0|3:0|3:0,3:0:0:0:
368,176,124289,6,0,P|328:224|352:272,1,108.749996423721
448,224,124768,1,0,0:0:0:0:
464,328,124960,2,0,P|384:352|344:352,1,108.749996423721
192,232,125535,2,0,L|224:232,2,18.1249994039536,8|8|8,3:0|3:0|3:0,3:0:0:0:
120,224,125726,6,0,P|104:280|128:328,2,108.749996423721
352,320,126397,2,0,P|368:296|400:224,1,108.749996423721
296,96,127068,2,0,L|328:96,2,18.1249994039536,8|8|8,3:0|3:0|3:0,3:0:0:0:
256,96,127260,2,0,P|272:152|328:200,1,108.749996423721
264,176,127643,2,0,P|280:232|248:272,1,108.749996423721
224,224,128027,2,0,P|280:264|280:312,1,108.749996423721
223,285,128410,2,0,P|246:356|285:359,1,108.749996423721
160,272,128793,6,0,P|240:224|280:248,1,144.999995231629
280,152,129368,1,0,0:0:0:0:
280,152,129464,1,0,0:0:0:0:
272,152,129560,2,0,L|200:104,2,72.4999976158143
256,200,130040,1,8,3:0:0:0:
216,184,130135,2,0,L|168:112,1,72.4999976158143,4|8,3:0|3:0,3:0:0:0:
128,104,130327,6,0,P|72:176|88:216,1,72.4999976158143,0|0,3:0|3:0,3:0:0:0:
75,149,130519,1,8,3:0:0:0:
384,144,130933,1,4,0:0:0:0:
384,144,131029,1,8,0:0:0:0:
384,144,131125,2,4,P|320:216|360:304,2,144.999995231629
424,272,131700,1,0,0:0:0:0:
288,360,131892,2,0,P|256:288|248:216,1,144.999995231629
136,120,132276,2,0,P|119:207|208:224,1,144.999995231629
346,98,132659,1,4,0:0:0:0:
448,208,132851,5,2,0:0:0:0:
344,336,133042,1,4,0:0:0:0:
256,200,133234,1,8,0:0:0:0:
360,104,133426,1,4,0:0:0:0:
360,232,133618,2,2,L|472:352,1,144.999995231629
312,344,134001,2,0,P|256:280|296:240,1,144.999995231629
424,160,134384,5,0,0:0:0:0:
464,40,134576,2,0,L|351:164,1,144.999995231629
384,344,134959,2,0,L|240:293,1,144.999995231629
80,168,135343,2,0,P|104:72|152:48,2,144.999995231629
424,296,135918,2,0,P|464:216|456:136,1,144.999995231629
376,112,136300,1,0,0:0:0:0:
304,56,136493,2,0,B|240:16|240:16|168:48,1,144.999995231629
336,264,136876,6,0,B|336:344|336:344|261:344,1,144.999995231629
264,200,137259,1,8,0:0:0:0:
99,188,137451,1,4,0:0:0:0:
96,336,137643,1,8,0:0:0:0:
232,336,137835,1,2,0:0:0:0:
344,304,138027,2,0,P|384:240|467:236,1,144.999995231629
256,48,138409,5,0,0:0:0:0:
112,192,138601,1,0,0:0:0:0:
256,312,138793,1,0,0:0:0:0:
424,184,138985,1,0,0:0:0:0:
256,192,139176,1,0,0:0:0:0:
88,80,139367,2,0,P|56:144|96:216,1,144.999995231629
360,216,139752,2,0,P|416:288|406:356,1,144.999995231629
96,352,140135,2,0,L|96:200,1,144.999995231629
400,311,140519,6,0,P|336:343|253:341,1,144.999995231629
344,80,140902,2,0,P|256:72|190:108,1,144.999995231629
264,312,141284,2,0,P|368:272|408:224,1,144.999995231629
80,184,141669,2,0,P|88:264|144:312,1,144.999995231629
320,56,142052,2,0,P|208:64|160:96,1,144.999995231629
152,144,142435,1,4,3:0:0:0:
160,200,142531,1,8,3:0:0:0:
168,256,142627,1,4,3:0:0:0:
208,304,142723,1,8,3:0:0:0:
264,328,142819,1,4,3:0:0:0:
320,344,142915,1,8,3:0:0:0:
376,352,143010,1,2,3:0:0:0:
480,320,143202,5,8,0:0:0:0:
216,320,143393,1,4,0:0:0:0:
488,104,143585,1,8,0:0:0:0:
216,104,143777,1,2,0:0:0:0:
136,272,143969,5,4,0:0:0:0:
344,144,144160,1,8,0:0:0:0:
112,216,144352,1,4,0:0:0:0:
328,104,144544,2,0,L|184:48,2,144.999995231629
368,336,145119,1,0,0:0:0:0:
144,240,145311,1,0,0:0:0:0:
208,64,145502,1,0,0:0:0:0:
384,144,145885,2,0,B|465:198|465:198|241:390|241:390|49:198|49:198|192:40,1,870.000004577637
384,120,147036,6,0,P|409:195|368:251,1,144.999995231629
136,176,147419,2,0,P|152:96|220:97,1,144.999995231629
128,224,147802,1,2,0:0:0:0:
232,64,147994,1,0,0:0:0:0:
384,160,148186,1,2,0:0:0:0:
288,320,148377,1,0,0:0:0:0:
112,224,148569,2,0,L|312:24,1,217.499992847443
256,192,149049,12,0,151062,0:0:0:0:
224,176,151252,5,0,0:0:0:0:
56,48,151540,1,0,0:0:0:0:
80,272,151923,1,0,0:0:0:0:
376,288,152307,2,0,P|408:184|376:120,1,144.999995231629
240,72,152690,1,0,0:0:0:0:
296,232,152882,1,0,0:0:0:0:
384,128,153073,1,0,0:0:0:0:
248,72,153456,5,0,0:0:0:0:
192,88,153553,1,0,0:0:0:0:
152,128,153649,1,0,0:0:0:0:
128,184,153745,1,0,0:0:0:0:
152,240,153841,1,0,0:0:0:0:
200,280,153936,1,0,0:0:0:0:
256,288,154032,1,0,0:0:0:0:
312,280,154128,1,0,0:0:0:0:
424,248,154319,5,0,0:0:0:0:
320,200,154512,1,0,0:0:0:0:
416,136,154704,1,0,0:0:0:0:
288,128,154896,2,0,P|112:200|136:288,1,289.999990463257
88,200,179751,6,0,P|112:272|272:344,1,253.74999165535
424,200,180629,2,0,P|432:128|424:112,1,72.4999976158143
368,80,181013,2,0,P|304:64|280:80,1,72.4999976158143
112,88,181396,2,0,P|64:152|64:160,1,72.4999976158143
192,192,181780,2,0,L|192:96,1,72.4999976158143
240,240,182163,6,0,P|328:192|328:144,1,144.999995231629
176,280,182738,2,0,P|144:344|144:376,2,72.4999976158143
248,280,183313,2,0,L|320:280,1,72.4999976158143
336,144,183696,6,0,P|264:152|240:168,1,72.4999976158143
168,280,184080,2,0,P|144:336|152:368,1,72.4999976158143
264,304,184367,1,0,0:0:0:0:
264,304,184463,2,0,P|344:312|360:344,2,108.749996423721
64,176,185230,2,0,P|176:328|208:336,1,217.499992847443
368,176,185997,6,0,P|392:224|376:264,1,72.4999976158143
296,320,186380,1,0,0:0:0:0:
160,304,186572,2,0,P|224:344|304:352,1,144.999995231629
256,240,187147,1,0,0:0:0:0:
128,128,187339,1,0,0:0:0:0:
296,128,187530,6,0,P|336:192|328:216,1,72.4999976158143
336,304,187914,2,0,P|272:320|232:320,1,72.4999976158143
168,312,188297,2,0,P|128:288|104:240,1,72.4999976158143
144,80,188680,1,0,0:0:0:0:
272,80,188872,2,0,P|328:120|344:192,1,144.999995231629
264,176,189447,2,0,P|280:232|320:248,1,72.4999976158143
320,192,189831,2,0,P|376:232|376:304,1,144.999995231629
248,368,190406,1,0,0:0:0:0:
304,280,190597,6,0,P|384:232|480:320,1,217.499992847443
424,136,191364,2,0,L|336:96,2,72.4999976158143
88,200,192339,6,0,P|112:272|256:344,1,217.500001144409
424,200,193089,2,0,P|432:128|416:96,1,108.750000572205
376,256,193473,2,0,P|320:272|264:248,1,108.750000572205
344,176,193856,2,0,P|280:256|280:264,1,108.750000572205
192,272,194240,2,0,L|192:152,1,108.750000572205
240,240,194623,6,0,P|328:192|320:80,1,217.500001144409
208,128,195198,2,0,P|168:208|168:240,2,108.750000572205
280,72,195773,2,0,L|392:72,1,108.750000572205
336,240,196157,6,0,P|272:272|224:264,1,108.750000572205
160,208,196540,2,0,P|128:280|136:312,1,108.750000572205
240,160,196924,2,0,P|320:168|336:200,2,108.749996423721
64,176,197690,2,0,P|216:184|352:64,1,326.250001716614
416,160,198457,2,0,P|424:224|384:272,1,108.750000572205
296,320,198841,1,0,0:0:0:0:
264,88,199032,2,0,P|328:128|392:136,1,108.750000572205
256,240,199416,1,0,0:0:0:0:
120,104,199607,1,0,0:0:0:0:
336,176,199799,6,0,P|384:240|368:264,1,108.750000572205
296,144,200182,2,0,P|232:168|192:160,1,108.750000572205
256,256,200566,2,0,P|240:200|184:168,3,108.750000572205
128,216,201237,2,0,L|96:168,1,54.3750002861023
192,192,201428,2,0,L|176:136,1,54.3750002861023
256,200,201620,2,0,L|288:136,1,54.3750002861023
392,176,201812,2,0,B|416:240|416:240|416:288,1,108.750000572205
312,296,202195,2,0,P|224:232|224:192,1,108.750000572205
352,128,202578,5,12,3:0:0:0:
392,184,202769,1,12,3:0:0:0:
368,248,202961,1,12,3:0:0:0:
328,304,203153,1,12,3:0:0:0:
272,336,203344,1,12,3:0:0:0:
208,328,203536,1,12,3:0:0:0:
152,288,203728,1,12,3:0:0:0:
112,240,203920,5,12,3:0:0:0:
80,184,204111,1,12,3:0:0:0:
80,120,204303,1,12,3:0:0:0:
112,64,204495,1,12,3:0:0:0:
176,56,204687,1,12,3:0:0:0:
232,88,204879,1,12,3:0:0:0:
280,128,205070,1,12,3:0:0:0:
336,168,205262,5,12,3:0:0:0:
384,216,205454,1,12,3:0:0:0:
416,264,205646,1,12,3:0:0:0:
336,288,205837,5,4,2:0:0:0:
296,296,205933,1,4,2:0:0:0:
256,296,206029,1,8,2:0:0:0:
216,288,206125,1,4,2:0:0:0:
176,272,206221,1,8,2:0:0:0:
152,240,206316,1,4,2:0:0:0:
144,200,206412,1,8,2:0:0:0:
152,240,206508,5,8,3:0:0:0:
176,272,206604,1,8,3:0:0:0:
216,288,206700,1,8,3:0:0:0:
256,296,206796,1,8,3:0:0:0:
296,296,206892,1,8,3:0:0:0:
336,288,206987,1,4,3:0:0:0:
376,272,207083,1,0,3:0:0:0:
472,208,207179,2,0,L|392:96,1,108.750000572205
456,72,207371,2,0,P|384:48|320:112,1,144.999995231629
112,152,207795,5,0,0:0:0:0:
288,56,207986,1,0,0:0:0:0:
368,248,208275,2,0,P|464:208|464:128,1,144.999995231629
248,152,208658,2,0,P|304:248|288:288,1,144.999995231629
96,144,209041,2,0,P|144:88|216:80,1,144.999995231629
448,152,209425,5,0,0:0:0:0:
280,256,209616,1,0,0:0:0:0:
160,120,209808,1,0,0:0:0:0:
360,88,210000,2,0,P|432:128|448:200,1,144.999995231629
272,184,210383,1,0,0:0:0:0:
216,112,210575,2,0,P|144:176|144:240,1,144.999995231629
72,280,210958,6,0,P|152:328|216:336,2,144.999995231629
224,88,211533,2,0,P|312:128|328:184,1,144.999995231629
216,304,211917,1,0,0:0:0:0:
304,80,212108,2,0,P|208:128|216:192,1,144.999995231629
408,232,212492,2,0,P|448:152|448:88,1,144.999995231629
352,249,212875,1,0,0:0:0:0:
184,136,213067,1,0,0:0:0:0:
80,248,213259,5,0,0:0:0:0:
240,64,213450,2,0,P|352:104|368:136,1,144.999995231629
280,320,213834,2,0,P|200:264|192:200,1,144.999995231629
440,208,214217,2,0,P|464:280|416:328,1,144.999995231629
256,256,214600,1,0,0:0:0:0:
104,144,214792,1,0,0:0:0:0:
272,48,214984,1,0,0:0:0:0:
440,112,215176,6,0,P|440:200|400:240,1,144.999995231629
296,80,215559,2,0,P|248:144|272:224,1,144.999995231629
216,56,215942,2,0,P|160:112|88:112,1,144.999995231629
256,160,216326,2,0,B|192:224|192:224|128:240,1,144.999995231629
376,256,216709,2,0,B|448:200|448:200|392:144,1,144.999995231629
360,336,217092,2,0,P|272:328|232:272,1,144.999995231629
304,88,217476,2,0,P|376:120|392:192,1,144.999995231629
464,264,217859,2,0,P|408:320|336:344,1,144.999995231629
464,168,218242,6,0,P|432:80|376:40,1,144.999995231629
184,112,218626,2,0,P|192:200|168:280,1,144.999995231629
392,112,219009,2,0,P|392:200|424:272,1,144.999995231629
336,224,219393,1,8,3:0:0:0:
304,176,219488,1,4,3:0:0:0:
272,128,219584,1,8,3:0:0:0:
232,88,219680,1,4,3:0:0:0:
184,56,219776,1,8,3:0:0:0:
128,48,219872,1,4,3:0:0:0:
72,40,219968,1,8,3:0:0:0:
124,250,220160,5,4,3:0:0:0:
197,60,220351,1,2,3:0:0:0:
387,133,220543,1,8,3:0:0:0:
255,315,220734,1,4,3:0:0:0:
132,191,220926,1,2,3:0:0:0:
256,68,221118,1,8,3:0:0:0:
379,192,221309,1,4,3:0:0:0:
272,72,221501,6,0,P|184:176|184:248,1,144.999995231629
424,160,221885,2,0,P|432:240|336:320,1,144.999995231629
256,192,222268,1,0,0:0:0:0:
144,80,222460,1,0,0:0:0:0:
128,272,222651,1,0,0:0:0:0:
72,336,222939,2,0,B|72:32|72:32|456:32|456:32|456:216,1,870.000004577637
184,240,223993,5,0,0:0:0:0:
280,80,224185,1,0,0:0:0:0:
208,264,224377,1,0,0:0:0:0:
272,112,224568,1,0,0:0:0:0:
200,288,224760,1,0,0:0:0:0:
152,152,224952,2,0,L|392:328,2,289.999990463257
128,32,232109,6,0,P|80:104|104:240,1,217.500001144409
336,96,232493,2,0,L|432:32,1,108.750000572205
92,191,232876,2,0,B|40:160|40:160|40:88,1,108.750000572205
337,333,233259,1,0,0:0:0:0:
160,112,233451,2,0,L|96:16,1,108.750000572205
256,304,233834,2,0,B|224:356|224:356|152:356,1,108.750000572205
397,110,234217,1,0,0:0:0:0:
