osu file format v14

[General]
AudioFilename: audio.mp3
AudioLeadIn: 0
PreviewTime: 49085
Countdown: 0
SampleSet: Soft
StackLeniency: 0.5
Mode: 0
LetterboxInBreaks: 0
WidescreenStoryboard: 1

[Editor]
Bookmarks: 18238,34602,63693,78238,92783,107329,120108,123693,151017
DistanceSpacing: 1
BeatDivisor: 4
GridSize: 32
TimelineZoom: 3.099999

[Metadata]
Title:p.h.
TitleUnicode:p.h.
Artist:sekai
ArtistUnicode:sekai
Creator:Petal
Version:Yugu's Insane
Source:
Tags:flower vocaloid cover full japanese jpop pop j-pop Number Compilation Album SEVENTHLINKS SEVENTH LINKS トキチアキ はるお 中村涼真 yugu wanpachi Cycopton namki matha Mononymous
BeatmapID:3155891
BeatmapSetID:1461554

[Difficulty]
HPDrainRate:5
CircleSize:4.5
OverallDifficulty:8
ApproachRate:9
SliderMultiplier:1.8
SliderTickRate:1

[Events]
//Background and Video events
0,0,"BG.jpg",0,0
//Break Periods
//Storyboard Layer 0 (Background)
//Storyboard Layer 1 (Fail)
//Storyboard Layer 2 (Pass)
//Storyboard Layer 3 (Foreground)
//Storyboard Layer 4 (Overlay)
//Storyboard Sound Samples

[TimingPoints]
108,454.545454545455,4,2,1,50,1,0
5562,-83.3333333333333,4,2,2,60,0,0
5902,-83.3333333333333,4,2,1,60,0,0
12835,-83.3333333333333,4,2,2,60,0,0
13175,-83.3333333333333,4,2,1,60,0,0
19501,-83.3333333333333,4,2,1,40,0,0
20108,-83.3333333333333,4,2,2,50,0,0
20335,-83.3333333333333,4,2,1,50,0,0
21926,-100,4,2,1,50,0,0
27380,-100,4,2,2,50,0,0
27835,-100,4,2,1,50,0,0
34653,-90.9090909090909,4,2,2,40,0,0
35107,-90.9090909090909,4,2,1,40,0,0
46017,-90.9090909090909,4,2,1,50,0,0
47835,-90.9090909090909,4,2,1,55,0,0
48289,-90.9090909090909,4,2,1,60,0,0
48517,-90.9090909090909,4,2,1,50,0,0
48744,-90.9090909090909,4,2,1,40,0,0
48971,-90.9090909090909,4,2,1,30,0,0
49198,-90.9090909090909,4,2,2,75,0,0
49426,-90.9090909090909,4,2,1,75,0,0
50108,-83.3333333333333,4,2,1,75,0,0
56471,-83.3333333333333,4,2,2,75,0,0
56698,-83.3333333333333,4,2,1,75,0,0
61926,-83.3333333333333,4,2,1,60,0,0
62835,-83.3333333333333,4,2,1,45,0,0
63744,-100,4,2,2,50,0,0
63971,-100,4,2,1,50,0,0
71017,-100,4,2,2,50,0,0
71244,-100,4,2,1,50,0,0
78289,-90.9090909090909,4,2,2,40,0,0
78743,-90.9090909090909,4,2,1,40,0,0
91358,-90.9090909090909,4,2,1,50,0,0
91926,-90.9090909090909,4,2,1,60,0,0
92153,-90.9090909090909,4,2,1,50,0,0
92380,-90.9090909090909,4,2,1,40,0,0
92608,-90.9090909090909,4,2,1,30,0,0
92835,-90.9090909090909,4,2,2,75,0,0
93062,-90.9090909090909,4,2,1,75,0,0
93744,-83.3333333333333,4,2,1,75,0,0
100108,-83.3333333333333,4,2,2,75,0,0
100335,-83.3333333333333,4,2,1,75,0,0
105562,-83.3333333333333,4,2,1,60,0,0
106471,-83.3333333333333,4,2,1,50,0,0
106926,-100,4,2,1,60,0,0
110108,-71.4285714285714,4,2,1,60,0,0
110714,-71.4285714285714,4,2,1,40,0,0
111017,-71.4285714285714,4,2,1,50,0,0
111698,-71.4285714285714,4,2,1,45,0,0
111926,-71.4285714285714,4,2,1,40,0,0
112608,-71.4285714285714,4,2,1,35,0,0
112835,-71.4285714285714,4,2,1,60,0,0
113744,-83.3333333333333,4,2,2,70,0,0
113858,-83.3333333333333,4,2,1,70,0,0
114198,-71.4285714285714,4,2,1,70,0,0
114653,-83.3333333333333,4,2,2,75,0,0
115107,-83.3333333333333,4,2,1,75,0,0
120108,-83.3333333333333,4,2,1,60,0,0
121926,-83.3333333333333,4,2,1,75,0,0
123743,-83.3333333333333,4,2,1,55,0,0
124198,-71.4285714285714,4,2,2,80,0,0
124653,-71.4285714285714,4,2,1,80,0,0
131017,-71.4285714285714,4,2,2,80,0,0
131244,-71.4285714285714,4,2,1,80,0,0
136926,-83.3333333333333,4,2,1,80,0,0
137380,-100,4,2,1,80,0,0
138289,-71.4285714285714,4,2,2,80,0,0
138517,-71.4285714285714,4,2,1,80,0,0
145562,-71.4285714285714,4,2,2,80,0,0
145789,-71.4285714285714,4,2,1,80,0,0
151017,-71.4285714285714,4,2,1,65,0,0
151244,-71.4285714285714,4,2,1,30,0,0
151471,-71.4285714285714,4,2,1,55,0,0
151698,-71.4285714285714,4,2,1,30,0,0
151926,-100,4,2,1,45,0,0
152266,-100,4,2,1,35,0,0
152380,-125,4,2,1,35,0,0
152550,-166.666666666667,4,2,1,30,0,0
152692,-166.666666666667,4,2,1,25,0,0

[Colours]
Combo1 : 98,193,187
Combo2 : 231,85,70
Combo3 : 255,224,50
Combo4 : 170,85,152

[HitObjects]
296,115,3744,6,0,P|310:88|334:70,2,60,2|2|2,3:2|2:0|2:0,2:0:0:0:
343,189,4198,2,0,P|372:187|400:199,2,60,2|2|2,3:2|2:0|2:0,2:0:0:0:
302,266,4653,5,10,2:0:0:0:
302,266,4804,6,0,P|318:290|321:320,1,60,10|10,2:0|2:0,2:0:0:0:
256,384,5108,5,10,2:0:0:0:
256,384,5562,6,0,P|201:335|103:298,1,162,6|2,3:2|2:0,2:0:0:0:
76,304,6017,1,10,2:0:0:0:
16,213,6244,1,2,2:3:0:0:
107,152,6471,2,0,P|105:135|101:117,4,36,2|0|0|2|0,3:2|2:0|2:0|2:3|2:0,2:0:0:0:
107,152,6926,1,10,2:0:0:0:
167,243,7153,1,2,2:3:0:0:
167,243,7267,1,2,2:0:0:0:
167,243,7380,6,0,P|242:216|323:216,1,162,2|2,3:2|2:0,2:0:0:0:
362,234,7835,1,10,2:0:0:0:
414,328,8062,1,2,2:3:0:0:
500,263,8289,2,0,P|502:236|506:209,2,54,2|2|2,3:2|2:0|2:3,2:0:0:0:
500,263,8630,2,0,P|441:256|406:142,1,162,2|2,2:0|2:3,2:0:0:0:
459,84,9198,6,0,P|382:62|302:46,1,162,2|2,3:2|2:0,2:0:0:0:
259,54,9653,1,10,2:0:0:0:
291,156,9880,1,2,2:3:0:0:
256,258,10108,1,2,3:2:0:0:
288,360,10335,1,2,2:3:0:0:
341,353,10448,1,2,2:0:0:0:
394,347,10562,1,10,2:0:0:0:
256,258,10789,1,2,2:3:0:0:
166,318,11017,6,0,L|67:305,2,72,2|2|2,3:2|2:0|2:0,2:0:0:0:
256,258,11471,2,0,L|355:245,2,72,10|2|2,2:0|2:0|2:0,2:0:0:0:
166,198,11926,2,0,L|67:185,2,72,2|2|2,3:2|2:0|2:0,2:0:0:0:
253,133,12380,2,0,P|262:81|247:29,1,108,10|10,2:0|2:0,2:0:0:0:
153,104,12835,6,0,B|67:98|110:43|15:31,1,162,6|2,3:2|2:0,2:0:0:0:
6,74,13289,1,10,2:0:0:0:
48,173,13517,1,2,2:3:0:0:
148,212,13744,2,0,P|146:229|142:247,4,36,2|0|0|2|0,3:2|2:0|2:0|2:3|2:0,2:0:0:0:
148,212,14198,1,10,2:0:0:0:
57,272,14426,1,2,2:3:0:0:
57,272,14539,1,2,2:0:0:0:
57,272,14653,6,0,P|88:343|165:353,1,162,2|0,3:2|2:0,2:0:0:0:
195,321,15108,1,10,2:0:0:0:
299,347,15335,1,2,2:3:0:0:
360,258,15562,2,0,P|387:251|413:247,2,54,2|2|2,3:2|2:0|2:3,2:0:0:0:
360,258,15903,2,0,P|409:318|487:316,1,162,2|2,2:0|2:3,2:0:0:0:
503,167,16471,6,0,B|472:155|472:155|380:182|380:182|349:169,1,162,2|2,3:2|2:0,2:0:0:0:
306,175,16926,1,10,2:0:0:0:
365,84,17153,1,2,2:3:0:0:
282,14,17380,1,2,3:2:0:0:
223,105,17608,1,2,2:3:0:0:
169,95,17721,1,2,2:0:0:0:
116,85,17835,1,10,2:0:0:0:
178,228,18062,1,2,2:3:0:0:
91,172,18289,6,0,P|75:223|86:275,1,108,6|0,3:2|2:0,2:0:0:0:
256,384,18744,2,0,L|256:256,1,108,6|0,3:2|2:0,2:0:0:0:
421,172,19198,2,0,P|437:223|426:275,1,108,6|0,3:2|2:0,2:0:0:0:
405,269,19501,5,8,2:0:0:0:
291,192,19653,6,0,B|256:192|256:192|220:192,2,72,8|8|8,2:0|2:0|2:0,2:0:0:0:
107,269,20108,5,6,3:2:0:0:
41,207,20335,1,2,2:0:0:0:
41,207,20448,1,2,2:0:0:0:
41,207,20562,1,10,2:0:0:0:
0,284,20789,1,2,2:0:0:0:
66,346,21017,1,2,3:2:0:0:
227,44,21926,6,0,P|236:64|244:85,1,45,2|2,3:2|2:0,2:0:0:0:
305,35,22153,1,2,2:0:0:0:
318,163,22380,2,0,P|327:183|335:204,1,45,10|2,2:0|2:0,2:0:0:0:
396,153,22608,1,2,2:0:0:0:
409,281,22835,2,0,P|418:301|426:322,1,45,2|2,3:2|2:0,2:0:0:0:
324,319,23062,2,0,P|314:339|306:360,1,45,2|2,2:0|2:0,2:0:0:0:
267,246,23289,1,10,2:0:0:0:
267,246,23744,6,0,L|197:233,1,45,2|2,3:2|2:0,2:0:0:0:
157,279,23971,2,0,L|87:266,1,45,2|2,2:0|2:0,2:0:0:0:
47,312,24198,2,0,L|-23:299,1,45,10|2,2:0|2:0,2:0:0:0:
145,300,24426,1,2,2:0:0:0:
112,270,24539,2,0,P|116:196|126:149,1,90,2|2,2:0|2:0,2:0:0:0:
130,136,24880,1,2,2:0:0:0:
130,136,24994,1,2,2:0:0:0:
130,136,25108,1,10,2:0:0:0:
199,79,25335,1,0,2:0:0:0:
52,91,25562,5,2,3:2:0:0:
52,91,25676,1,2,2:0:0:0:
52,91,25789,1,2,2:0:0:0:
121,34,26017,1,10,2:0:0:0:
199,79,26244,1,2,2:0:0:0:
199,79,26358,2,0,L|282:58,1,45,8|2,2:0|3:2,2:0:0:0:
160,175,26585,2,0,L|243:154,1,45,8|0,2:0|2:0,2:0:0:0:
78,283,26812,1,8,2:0:0:0:
121,271,26926,2,0,L|204:250,1,45,8|0,2:0|2:0,2:0:0:0:
82,367,27153,2,0,L|165:346,1,45,8|0,2:0|2:0,2:0:0:0:
228,384,27380,6,0,P|241:317|252:251,1,135,6|0,3:2|2:0,2:0:0:0:
323,273,27835,2,0,P|331:317|339:361,1,90,10|2,2:0|2:0,2:0:0:0:
417,335,28176,1,2,2:0:0:0:
417,335,28289,2,0,P|421:312|425:290,1,45,2|2,3:2|2:0,2:0:0:0:
502,293,28517,2,0,P|506:315|510:337,1,45,2|2,2:0|2:0,2:0:0:0:
512,213,28744,1,8,2:0:0:0:
512,213,29085,5,2,2:0:0:0:
512,213,29198,2,0,L|454:189,1,45,2|0,3:2|2:0,2:0:0:0:
424,130,29426,2,0,P|424:85|449:48,2,90,2|10|2,2:0|2:0|2:0,2:0:0:0:
468,121,29994,2,0,L|384:86,1,90,2|2,2:0|2:0,2:0:0:0:
332,31,30335,1,2,2:0:0:0:
332,31,30448,1,2,2:0:0:0:
332,31,30562,2,0,P|310:69|315:114,1,90,10|2,2:0|2:0,2:0:0:0:
245,250,31017,5,2,3:2:0:0:
245,250,31130,1,2,2:0:0:0:
245,250,31244,1,2,2:0:0:0:
245,250,31358,1,2,2:0:0:0:
245,250,31471,2,0,L|249:304,1,45,10|2,2:0|2:0,2:0:0:0:
157,266,31698,2,0,L|161:212,1,45,2|2,2:0|2:0,2:0:0:0:
69,250,31926,2,0,L|73:314,2,60,2|2|2,3:2|2:0|2:0,2:0:0:0:
5,186,32380,1,10,2:0:0:0:
69,250,32608,1,2,2:0:0:0:
124,119,32835,6,0,P|79:110|35:102,1,90,2|2,3:2|2:0,2:0:0:0:
195,31,33289,1,10,2:0:0:0:
195,31,33403,2,0,P|217:26|239:22,1,45,2|2,2:0|2:0,2:0:0:0:
284,108,33630,2,0,P|261:103|239:99,1,45,10|2,2:0|3:2,2:0:0:0:
195,185,33858,2,0,P|217:180|239:176,1,45,10|2,2:0|2:0,2:0:0:0:
328,271,34085,1,10,2:0:0:0:
284,262,34198,2,0,P|261:257|239:253,1,45,10|0,3:2|2:0,2:0:0:0:
256,384,34653,6,0,L|256:160,2,198,10|10|2,3:2|2:0|3:2,2:0:0:0:
256,384,36017,6,0,P|231:378|207:372,1,49.5,10|0,2:0|2:0,2:0:0:0:
181,302,36244,2,0,P|156:296|132:290,1,49.5,2|0,2:0|2:0,2:0:0:0:
62,268,36471,1,0,3:0:0:0:
256,384,36926,6,0,P|281:378|305:372,1,49.5,10|0,2:0|2:0,2:0:0:0:
331,302,37153,2,0,P|355:296|379:290,1,49.5,2|0,2:0|2:0,2:0:0:0:
450,268,37380,1,0,3:0:0:0:
256,384,37835,6,0,P|231:378|207:372,1,49.5,10|0,2:0|2:0,2:0:0:0:
181,302,38062,2,0,P|156:296|132:290,1,49.5,2|0,2:0|2:0,2:0:0:0:
62,268,38289,1,0,3:0:0:0:
256,384,38744,6,0,L|256:160,1,198,10|2,2:0|3:2,2:0:0:0:
256,384,39653,6,0,P|281:378|305:372,1,49.5,10|0,2:0|2:0,2:0:0:0:
331,302,39880,2,0,P|355:296|379:290,1,49.5,2|0,2:0|2:0,2:0:0:0:
450,268,40108,1,2,3:2:0:0:
256,384,40562,6,0,P|231:378|207:372,1,49.5,10|0,2:0|2:0,2:0:0:0:
181,302,40789,2,0,P|156:296|132:290,1,49.5,2|0,2:0|2:0,2:0:0:0:
62,268,41017,1,0,3:0:0:0:
62,268,41244,6,0,P|67:243|73:219,1,49.5,2|8,2:0|2:0,2:0:0:0:
96,149,41471,2,0,P|120:154|144:160,1,49.5,10|0,2:0|2:0,2:0:0:0:
215,183,41698,2,0,P|209:207|203:231,1,49.5,2|0,2:0|2:0,2:0:0:0:
181,302,41926,1,0,3:0:0:0:
256,384,42380,6,0,L|256:160,1,198,10|2,2:0|3:2,2:0:0:0:
256,384,43289,6,0,P|231:378|207:372,1,49.5,10|0,2:0|2:0,2:0:0:0:
181,302,43517,2,0,P|156:296|132:290,1,49.5,2|0,2:0|2:0,2:0:0:0:
62,268,43744,1,0,3:0:0:0:
256,384,44198,6,0,P|281:378|305:372,1,49.5,10|0,2:0|2:0,2:0:0:0:
331,302,44426,2,0,P|355:296|379:290,1,49.5,2|0,2:0|2:0,2:0:0:0:
450,268,44653,1,0,3:0:0:0:
256,384,45108,6,0,P|231:378|207:372,1,49.5,10|0,2:0|2:0,2:0:0:0:
181,302,45335,2,0,P|156:296|132:290,1,49.5,2|0,2:0|2:0,2:0:0:0:
62,268,45562,1,0,3:0:0:0:
181,302,45789,5,2,2:0:0:0:
151,182,46017,1,10,2:0:0:0:
62,268,46244,1,2,2:0:0:0:
181,302,46471,6,0,P|205:296|229:290,1,49.5,2|0,3:2|2:0,2:0:0:0:
278,234,46698,1,2,2:0:0:0:
326,224,46812,2,0,P|350:218|374:212,1,49.5,2|8,2:0|2:0,2:0:0:0:
431,260,47039,1,2,2:0:0:0:
415,306,47153,2,0,P|407:329|400:353,1,49.5,2|2,2:0|2:0,2:0:0:0:
331,379,47380,5,2,3:2:0:0:
278,234,47608,1,2,2:0:0:0:
431,260,47835,1,2,3:2:0:0:
431,260,47948,2,0,P|443:212|439:162,1,99,2|2,2:0|2:0,2:0:0:0:
440,88,48289,6,0,L|432:38,1,49.5,10|0,2:0|2:0,2:0:0:0:
296,78,48517,2,0,L|288:28,1,49.5,10|0,2:0|2:0,2:0:0:0:
152,68,48744,2,0,L|144:18,1,49.5,10|0,2:0|2:0,2:0:0:0:
8,58,48971,2,0,L|0:8,1,49.5,10|0,2:0|2:0,2:0:0:0:
62,124,49198,5,14,3:2:0:0:
206,134,49426,5,2,2:3:0:0:
350,144,49653,5,10,2:0:0:0:
494,154,49880,5,2,2:3:0:0:
440,88,50108,6,0,P|419:70|396:55,1,54,2|0,3:2|2:0,2:0:0:0:
296,78,50335,1,0,2:0:0:0:
296,78,50448,2,0,P|275:60|252:45,1,54,2|10,2:0|2:0,2:0:0:0:
152,68,50676,1,0,2:0:0:0:
152,68,50789,2,0,P|131:50|108:35,1,54,2|0,2:3|2:0,2:0:0:0:
8,190,51017,5,2,3:2:0:0:
152,200,51244,5,2,2:3:0:0:
296,209,51471,5,10,2:0:0:0:
440,219,51698,5,2,2:3:0:0:
494,154,51926,6,0,P|473:136|450:121,1,54,2|2,3:2|2:0,2:0:0:0:
350,144,52153,1,2,2:3:0:0:
350,144,52267,2,0,P|329:126|306:111,1,54,2|10,2:0|2:0,2:0:0:0:
206,134,52494,1,0,2:0:0:0:
206,134,52608,2,0,P|185:116|162:101,1,54,2|0,2:3|2:0,2:0:0:0:
62,255,52835,5,2,3:2:0:0:
206,265,53062,5,2,2:3:0:0:
350,275,53289,5,10,2:0:0:0:
494,285,53517,5,2,2:3:0:0:
439,219,53744,6,0,P|423:270|423:323,1,108,2|2,3:2|2:3,2:0:0:0:
485,373,54085,1,2,2:0:0:0:
485,373,54198,1,10,2:0:0:0:
512,186,54426,1,2,2:3:0:0:
354,353,54653,6,0,P|337:301|337:248,1,108,2|2,3:2|2:3,2:0:0:0:
367,172,54994,1,2,2:0:0:0:
367,172,55108,2,0,P|388:187|406:207,1,54,10|0,2:0|2:0,2:0:0:0:
275,363,55335,1,2,2:3:0:0:
249,317,55448,2,0,P|238:292|232:266,1,54,10|2,2:0|3:2,2:0:0:0:
169,213,55676,2,0,P|171:186|180:160,1,54,8|2,2:0|2:3,2:0:0:0:
254,127,55903,1,8,2:0:0:0:
280,81,56017,2,0,P|290:56|296:30,1,54,10|0,2:0|2:0,2:0:0:0:
219,5,56244,2,0,P|208:29|202:55,1,54,8|0,2:0|2:0,2:0:0:0:
9,126,56471,5,14,3:2:0:0:
153,136,56698,5,2,2:3:0:0:
297,145,56926,5,10,2:0:0:0:
441,155,57153,5,2,2:3:0:0:
484,87,57380,6,0,P|461:71|445:50,1,54,2|0,3:2|2:0,2:0:0:0:
340,77,57608,1,0,2:0:0:0:
340,77,57721,2,0,P|317:61|301:40,1,54,2|10,2:0|2:0,2:0:0:0:
196,68,57948,1,0,2:0:0:0:
196,68,58062,2,0,P|173:52|157:31,1,54,2|0,2:3|2:3,2:0:0:0:
52,195,58289,5,2,3:2:0:0:
52,195,58403,1,2,2:0:0:0:
52,195,58517,1,2,2:3:0:0:
196,205,58744,1,10,2:0:0:0:
196,205,58858,1,0,2:0:0:0:
196,205,58971,1,2,2:3:0:0:
340,214,59198,2,0,P|295:183|262:142,1,108,2|2,3:2|2:3,2:0:0:0:
484,224,59539,1,2,2:0:0:0:
484,224,59653,2,0,P|439:193|406:152,1,108,10|2,2:0|2:3,2:0:0:0:
441,292,60108,5,2,3:2:0:0:
297,282,60335,5,2,2:3:0:0:
153,273,60562,5,10,2:0:0:0:
9,263,60789,5,2,2:3:0:0:
51,195,61017,6,0,P|43:247|60:298,1,108,2|2,3:2|2:3,2:0:0:0:
116,357,61358,1,2,2:0:0:0:
116,357,61471,1,10,2:0:0:0:
225,233,61698,1,2,2:3:0:0:
252,379,61926,6,0,B|227:330|276:285|276:285|289:273|319:232|285:185|271:175|271:175|219:148|212:102|225:61|257:40|257:40|304:30,1,432,6|0,3:2|3:0,2:0:0:0:
293,32,63138,5,8,2:0:0:0:
380,46,63289,5,8,2:0:0:0:
380,46,63441,6,0,P|387:81|389:117,1,72,8|8,2:0|2:0,2:0:0:0:
467,60,63744,6,0,P|476:103|478:148,1,90,6|2,3:2|2:0,2:0:0:0:
419,217,64198,1,10,2:0:0:0:
419,217,64312,1,2,2:0:0:0:
419,217,64426,1,2,2:0:0:0:
469,291,64653,1,2,3:2:0:0:
379,297,64880,1,2,2:0:0:0:
429,371,65108,1,10,2:0:0:0:
429,371,65221,1,2,2:0:0:0:
429,371,65335,1,2,2:0:0:0:
379,297,65562,6,0,P|356:296|334:299,1,45,2|2,3:2|2:0,2:0:0:0:
263,311,65789,1,2,2:0:0:0:
177,241,66017,2,0,P|154:240|132:243,1,45,10|2,2:0|2:0,2:0:0:0:
60,255,66244,1,2,2:0:0:0:
22,357,66471,2,0,P|66:364|109:376,2,90,2|2|10,3:2|2:0|2:0,2:0:0:0:
247,331,67380,6,0,P|248:308|253:286,1,45,2|2,3:2|2:0,2:0:0:0:
222,221,67608,2,0,P|223:198|228:176,1,45,2|2,2:0|2:0,2:0:0:0:
197,110,67835,2,0,P|204:66|218:24,1,90,10|2,2:0|2:0,2:0:0:0:
302,58,68289,1,2,3:2:0:0:
372,2,68517,1,2,2:0:0:0:
372,2,68630,1,2,2:0:0:0:
372,2,68744,2,0,P|423:26|453:60,1,90,10|2,2:0|2:0,2:0:0:0:
459,92,69085,1,2,2:0:0:0:
454,136,69198,6,0,P|439:188|437:243,1,90,2|2,3:2|2:0,2:0:0:0:
439,268,69539,1,2,2:0:0:0:
439,268,69653,1,10,2:0:0:0:
450,357,69880,1,2,2:0:0:0:
450,357,69994,2,0,P|428:352|405:350,1,45,10|2,2:0|3:2,2:0:0:0:
330,287,70221,2,0,P|308:291|285:293,1,45,10|0,2:0|2:0,2:0:0:0:
209,357,70448,1,10,2:0:0:0:
164,349,70562,2,0,P|142:344|119:342,1,45,8|0,2:0|2:0,2:0:0:0:
48,279,70789,2,0,P|26:283|3:285,1,45,10|0,2:0|2:0,2:0:0:0:
109,212,71017,6,0,P|114:167|123:123,1,90,6|2,3:2|2:0,2:0:0:0:
204,82,71471,2,0,P|209:126|218:170,1,90,10|2,2:0|2:0,2:0:0:0:
313,210,71926,1,2,3:2:0:0:
313,210,72039,1,2,2:0:0:0:
313,210,72153,1,2,2:0:0:0:
313,210,72267,1,2,2:0:0:0:
313,210,72380,2,0,P|356:198|400:191,1,90,10|2,2:0|2:0,2:0:0:0:
494,278,72835,6,0,P|497:321|465:350,1,90,2|2,3:2|2:0,2:0:0:0:
420,349,73176,1,2,2:0:0:0:
420,349,73289,2,0,P|399:340|377:335,1,45,10|2,2:0|2:0,2:0:0:0:
310,368,73517,2,0,P|289:359|267:354,1,45,2|2,2:0|2:0,2:0:0:0:
229,289,73744,1,2,3:2:0:0:
229,289,73858,1,2,2:0:0:0:
229,289,73971,1,2,2:0:0:0:
229,289,74085,1,2,2:0:0:0:
229,289,74198,1,10,2:0:0:0:
339,150,74539,5,2,2:0:0:0:
339,150,74653,1,2,3:2:0:0:
279,82,74880,1,2,2:0:0:0:
191,100,75108,2,0,P|168:101|146:106,1,45,10|2,2:0|2:0,2:0:0:0:
89,153,75335,2,0,P|66:151|44:146,1,45,2|2,2:0|2:0,2:0:0:0:
159,180,75562,2,0,P|157:202|152:224,1,45,2|2,3:2|2:0,2:0:0:0:
78,80,75789,2,0,P|72:58|71:35,1,45,2|2,2:0|2:0,2:0:0:0:
89,153,76017,2,0,P|86:197|73:240,1,90,10|2,2:0|2:0,2:0:0:0:
21,339,76471,6,0,P|11:318|1:298,1,45,2|2,3:2|2:0,2:0:0:0:
95,365,76698,2,0,P|108:346|120:327,1,45,2|2,2:0|2:0,2:0:0:0:
197,305,76926,1,10,2:0:0:0:
197,305,77039,2,0,P|218:312|239:319,1,45,10|2,2:0|2:0,2:0:0:0:
295,230,77267,2,0,P|273:237|252:244,1,45,10|2,2:0|3:2,2:0:0:0:
197,155,77494,2,0,P|218:162|239:169,1,45,10|2,2:0|2:0,2:0:0:0:
337,63,77721,1,10,2:0:0:0:
295,80,77835,2,0,P|273:87|252:94,1,45,10|0,2:0|2:0,2:0:0:0:
256,384,78289,6,0,L|256:160,2,198,10|10|2,3:2|2:0|3:2,2:0:0:0:
256,384,79653,6,0,P|281:378|305:372,1,49.5,10|0,2:0|2:0,2:0:0:0:
331,302,79880,2,0,P|356:296|380:290,1,49.5,2|0,2:0|2:0,2:0:0:0:
450,268,80108,1,0,3:0:0:0:
256,384,80562,6,0,P|231:378|207:372,1,49.5,10|0,2:0|2:0,2:0:0:0:
181,302,80789,2,0,P|157:296|133:290,1,49.5,2|0,2:0|2:0,2:0:0:0:
62,268,81017,1,0,3:0:0:0:
256,384,81471,6,0,P|281:378|305:372,1,49.5,10|0,2:0|2:0,2:0:0:0:
331,302,81698,2,0,P|356:296|380:290,1,49.5,2|0,2:0|2:0,2:0:0:0:
450,268,81926,1,0,3:0:0:0:
256,384,82380,6,0,L|256:160,1,198,10|2,2:0|3:2,2:0:0:0:
256,384,83289,6,0,P|231:378|207:372,1,49.5,10|0,2:0|2:0,2:0:0:0:
181,302,83517,2,0,P|157:296|133:290,1,49.5,2|0,2:0|2:0,2:0:0:0:
62,268,83744,1,2,3:2:0:0:
256,384,84198,6,0,P|281:378|305:372,1,49.5,10|0,2:0|2:0,2:0:0:0:
331,302,84426,2,0,P|356:296|380:290,1,49.5,2|0,2:0|2:0,2:0:0:0:
450,268,84653,1,0,3:0:0:0:
450,268,84880,6,0,P|445:243|439:219,1,49.5,2|8,2:0|2:0,2:0:0:0:
416,149,85108,2,0,P|392:154|368:160,1,49.5,10|0,2:0|2:0,2:0:0:0:
297,183,85335,2,0,P|303:207|309:231,1,49.5,10|0,2:0|2:0,2:0:0:0:
331,302,85562,1,2,3:2:0:0:
256,384,86017,6,0,L|256:160,1,198,10|2,2:0|3:2,2:0:0:0:
256,384,86926,6,0,P|281:378|305:372,1,49.5,10|0,2:0|2:0,2:0:0:0:
331,302,87153,2,0,P|356:296|380:290,1,49.5,2|0,2:0|2:0,2:0:0:0:
450,268,87380,1,0,3:0:0:0:
256,384,87835,6,0,P|231:378|207:372,1,49.5,10|0,2:0|2:0,2:0:0:0:
181,302,88062,2,0,P|157:296|133:290,1,49.5,2|0,2:0|2:0,2:0:0:0:
62,268,88289,1,0,3:0:0:0:
256,384,88744,6,0,P|281:378|305:372,1,49.5,10|0,2:0|2:0,2:0:0:0:
331,302,88971,2,0,P|356:296|380:290,1,49.5,2|0,2:0|2:0,2:0:0:0:
450,268,89198,1,0,3:0:0:0:
450,268,89312,6,0,P|476:226|465:164,1,99,2|2,2:0|2:0,2:0:0:0:
439,141,89653,1,10,2:0:0:0:
360,81,89880,1,2,2:0:0:0:
360,81,89994,1,2,2:0:0:0:
359,80,90108,2,0,P|349:58|341:35,1,49.5,2|2,3:2|2:0,2:0:0:0:
284,119,90335,2,0,P|273:141|265:164,1,49.5,2|0,2:0|2:0,2:0:0:0:
234,53,90562,1,10,2:0:0:0:
186,178,90789,1,2,2:0:0:0:
186,178,90903,1,2,2:0:0:0:
185,178,91017,6,0,P|141:156|94:141,1,99,2|2,3:2|2:0,2:0:0:0:
24,173,91358,2,0,P|25:197|31:221,1,49.5,2|0,2:0|3:0,2:0:0:0:
94,271,91585,1,2,2:0:0:0:
94,271,91698,2,0,P|92:295|86:319,1,49.5,2|0,2:0|2:0,2:0:0:0:
0,357,91926,6,0,L|45:375,1,49.5,10|0,2:0|2:0,2:0:0:0:
148,351,92153,2,0,L|193:369,1,49.5,10|0,2:0|2:0,2:0:0:0:
296,345,92380,2,0,L|341:363,1,49.5,10|0,2:0|2:0,2:0:0:0:
444,339,92608,2,0,L|489:357,1,49.5,10|0,2:0|2:0,2:0:0:0:
482,265,92835,5,14,3:2:0:0:
334,271,93062,5,2,2:3:0:0:
186,277,93289,5,10,2:0:0:0:
38,283,93517,5,2,2:3:0:0:
0,356,93744,6,0,P|26:361|52:368,1,54,2|0,3:2|2:0,2:0:0:0:
148,351,93971,1,0,2:0:0:0:
148,351,94085,2,0,P|174:355|200:362,1,54,2|10,2:0|2:0,2:0:0:0:
296,345,94312,1,0,2:0:0:0:
296,345,94426,2,0,P|322:349|348:356,1,54,2|0,2:3|2:0,2:0:0:0:
444,191,94653,5,2,3:2:0:0:
296,197,94880,5,2,2:3:0:0:
148,203,95108,5,10,2:0:0:0:
0,209,95335,5,2,2:3:0:0:
37,283,95562,6,0,P|56:263|72:241,1,54,2|0,3:2|2:0,2:0:0:0:
186,277,95789,1,2,2:3:0:0:
186,277,95903,2,0,P|204:257|220:235,1,54,2|8,2:0|2:0,2:0:0:0:
334,271,96130,1,2,2:0:0:0:
334,271,96244,2,0,P|352:251|368:229,1,54,2|0,2:3|2:0,2:0:0:0:
481,117,96471,5,2,3:2:0:0:
333,123,96698,5,2,2:3:0:0:
185,129,96926,5,10,2:0:0:0:
37,135,97153,5,2,2:3:0:0:
0,209,97380,6,0,P|52:217|93:252,1,108,2|2,3:2|2:3,2:0:0:0:
124,327,97721,1,2,2:0:0:0:
124,327,97835,1,10,2:0:0:0:
0,384,98062,1,2,2:3:0:0:
190,378,98289,6,0,P|205:326|190:275,1,108,2|2,3:2|2:3,2:0:0:0:
221,200,98630,1,2,2:0:0:0:
221,200,98744,2,0,P|248:193|274:188,1,54,8|0,2:0|2:0,2:0:0:0:
104,98,98971,1,2,2:3:0:0:
52,83,99085,2,0,P|25:76|0:71,1,54,10|2,2:0|3:2,2:0:0:0:
61,170,99312,2,0,P|87:176|113:181,1,54,8|2,2:0|3:0,2:0:0:0:
188,116,99539,1,8,2:0:0:0:
203,64,99653,2,0,P|209:37|214:11,1,54,10|0,2:0|2:0,2:0:0:0:
129,0,99880,2,0,P|122:26|117:52,1,54,8|0,2:0|2:0,2:0:0:0:
61,170,100108,5,14,3:2:0:0:
209,164,100335,5,2,2:3:0:0:
357,158,100562,5,10,2:0:0:0:
505,152,100789,5,2,2:3:0:0:
453,218,101017,6,0,P|440:193|432:168,1,54,2|0,3:2|2:0,2:0:0:0:
305,224,101244,1,2,2:3:0:0:
305,224,101358,2,0,P|292:199|284:174,1,54,2|10,2:0|2:0,2:0:0:0:
157,230,101585,1,0,2:0:0:0:
157,230,101698,2,0,P|144:205|136:180,1,54,2|0,2:3|2:0,2:0:0:0:
9,104,101926,5,2,3:2:0:0:
9,104,102039,1,2,2:0:0:0:
9,104,102153,1,2,2:3:0:0:
157,98,102380,1,10,2:0:0:0:
157,98,102494,1,2,2:0:0:0:
157,98,102608,1,2,2:3:0:0:
305,92,102835,2,0,B|316:39|348:58|360:0,1,108,2|0,3:2|2:0,2:0:0:0:
453,86,103176,1,2,2:0:0:0:
453,86,103289,2,0,B|464:33|496:52|508:-6,1,108,10|2,2:0|2:3,2:0:0:0:
505,152,103744,5,2,3:2:0:0:
357,158,103971,5,2,2:3:0:0:
209,164,104198,5,10,2:0:0:0:
61,170,104426,5,2,2:3:0:0:
8,104,104653,6,0,P|58:85|90:42,1,108,2|2,3:2|2:3,2:0:0:0:
21,0,104994,1,2,2:0:0:0:
21,0,105108,1,10,2:0:0:0:
168,43,105335,1,2,2:3:0:0:
212,242,105562,5,6,3:2:0:0:
212,242,106471,5,2,3:2:0:0:
267,184,106623,5,2,3:2:0:0:
336,221,106774,5,2,3:2:0:0:
384,116,106926,6,0,L|388:86,1,30,10|0,2:0|2:0,2:0:0:0:
439,174,107077,6,0,L|434:203,1,30,8|0,2:0|2:0,2:0:0:0:
508,137,107229,6,0,L|512:107,1,30,8|0,2:0|2:0,2:0:0:0:
512,20,107380,5,2,3:2:0:0:
512,20,108062,1,2,3:2:0:0:
384,116,108289,1,2,3:2:0:0:
316,71,108630,1,2,3:0:0:0:
390,38,108971,1,2,3:2:0:0:
194,17,109198,1,2,3:2:0:0:
194,17,109880,1,2,3:2:0:0:
252,192,110108,6,2,P|256:163|259:192,2,84,2|0|0,3:2|3:0|3:0,2:1:0:0:
260,268,110562,5,10,2:0:0:0:
252,288,110714,5,2,2:0:0:0:
260,308,110865,5,2,2:0:0:0:
252,384,111017,5,2,3:2:0:0:
252,384,111698,1,0,3:0:0:0:
116,277,111926,1,2,3:0:0:0:
48,322,112267,1,0,3:0:0:0:
122,355,112608,1,0,3:0:0:0:
0,241,112835,1,2,3:2:0:0:
0,241,113289,1,10,2:0:0:0:
189,191,113517,1,2,3:2:0:0:
31,21,113744,6,0,L|43:91,2,72,4|8|8,3:2|2:0|2:0,2:0:0:0:
152,106,114198,6,0,L|166:23,2,84,8|8|8,2:0|2:0|2:0,2:0:0:0:
266,57,114653,6,0,B|382:79|323:149|440:169,1,216,6|8,3:2|2:0,2:0:0:0:
504,82,115335,1,2,2:3:0:0:
504,82,115448,1,2,2:0:0:0:
504,81,115562,2,0,P|503:64|497:47,6,36,2|0|0|2|0|0|8,3:2|2:0|2:0|2:3|2:0|2:0|2:0,2:0:0:0:
440,169,116244,5,2,2:3:0:0:
440,169,116358,1,2,2:0:0:0:
440,169,116471,2,0,P|440:186|446:203,6,36,2|0|0|2|0|0|8,3:2|2:0|2:0|2:3|2:0|2:0|2:0,2:0:0:0:
512,282,117153,5,2,2:3:0:0:
512,282,117267,1,2,2:0:0:0:
512,282,117380,2,0,P|511:299|505:316,9,36,2|0|0|2|0|0|10|0|0|2,3:2|2:0|2:0|2:3|2:0|2:0|2:0|2:0|2:0|2:3,2:0:0:0:
427,354,118289,6,0,P|321:340|223:383,1,216,2|10,3:2|2:0,2:0:0:0:
164,292,118971,1,2,2:3:0:0:
70,345,119198,2,0,P|52:293|30:244,1,108,2|2,3:2|2:3,2:0:0:0:
101,163,119653,2,0,P|153:173|207:178,1,108,10|2,2:0|2:3,2:0:0:0:
355,88,120108,6,0,P|348:26|312:77,1,162,10|0,2:0|2:0,2:0:0:0:
387,194,120562,2,0,P|449:187|398:151,1,162,10|0,2:0|2:0,2:0:0:0:
281,226,121017,2,0,P|288:288|324:237,1,162,10|0,2:0|2:0,2:0:0:0:
249,120,121471,2,0,P|187:127|238:163,1,162,10|0,2:0|2:0,2:0:0:0:
317,157,121926,6,0,P|327:131|325:105,1,54,10|0,2:0|2:0,2:0:0:0:
253,31,122153,2,0,P|227:21|201:23,1,54,10|0,2:0|2:0,2:0:0:0:
126,95,122380,2,0,P|116:120|118:146,1,54,10|0,2:0|2:0,2:0:0:0:
190,222,122608,2,0,P|215:231|241:229,1,54,10|0,2:0|2:0,2:0:0:0:
316,298,122835,5,10,2:0:0:0:
369,305,122948,1,2,3:2:0:0:
414,335,123062,1,10,2:0:0:0:
467,342,123176,1,2,3:2:0:0:
512,372,123289,2,0,L|545:384,8,27,10|2|2|2|10|2|2|2|2,3:2|3:2|3:2|3:2|3:2|3:2|3:2|3:2|3:2,2:0:0:0:
512,372,124198,6,0,B|404:335|468:298|365:260,1,189,14|0,3:2|2:0,2:0:0:0:
315,191,124653,2,0,P|284:196|259:216,1,63,2|2,3:2|2:0,2:0:0:0:
194,298,124880,1,0,2:0:0:0:
194,298,124994,2,0,P|163:292|138:272,1,63,2|10,2:0|2:0,2:0:0:0:
73,191,125221,1,0,2:0:0:0:
73,191,125335,2,0,P|42:196|17:216,1,63,2|0,2:3|2:0,2:0:0:0:
78,351,125562,5,2,3:2:0:0:
352,303,125789,5,2,2:3:0:0:
316,136,126017,5,10,2:0:0:0:
42,88,126244,5,2,2:3:0:0:
136,235,126471,6,0,P|145:204|150:173,1,63,2|2,3:2|2:0,2:0:0:0:
215,42,126698,1,0,2:0:0:0:
215,42,126812,2,0,P|224:72|229:103,1,63,2|10,2:0|2:0,2:0:0:0:
294,235,127039,1,0,2:0:0:0:
294,235,127153,2,0,P|303:204|308:173,1,63,2|0,2:3|2:0,2:0:0:0:
395,56,127380,5,2,3:2:0:0:
426,295,127608,5,2,2:3:0:0:
198,342,127835,5,10,2:0:0:0:
229,103,128062,5,2,2:3:0:0:
346,272,128289,2,0,P|283:276|221:264,1,126,2|2,3:2|2:3,2:0:0:0:
159,220,128630,1,2,2:0:0:0:
159,220,128744,1,10,2:0:0:0:
65,368,128971,1,2,2:3:0:0:
159,220,129198,6,0,P|96:215|34:227,1,126,2|2,3:2|2:3,2:0:0:0:
82,292,129539,1,2,2:0:0:0:
82,292,129653,2,0,P|113:294|143:303,1,63,10|0,2:0|2:0,2:0:0:0:
291,375,129880,1,2,2:3:0:0:
341,337,129994,2,0,P|369:323|399:315,1,63,10|2,2:0|3:2,2:0:0:0:
488,200,130221,2,0,P|485:231|476:261,1,63,10|2,2:0|2:3,2:0:0:0:
341,337,130448,1,10,2:0:0:0:
311,281,130562,2,0,P|302:250|299:219,1,63,10|0,2:0|2:0,2:0:0:0:
364,55,130789,2,0,P|361:86|352:116,1,63,10|0,2:0|2:0,2:0:0:0:
223,255,131017,5,14,3:2:0:0:
0,196,131244,5,2,2:3:0:0:
125,59,131471,5,10,2:0:0:0:
348,0,131698,5,2,2:3:0:0:
258,183,131926,6,0,P|252:152|250:120,1,63,2|2,3:2|2:0,2:0:0:0:
137,201,132153,1,2,2:3:0:0:
137,201,132267,2,0,P|131:170|129:138,1,63,2|10,2:0|2:0,2:0:0:0:
16,219,132494,1,0,2:0:0:0:
16,219,132608,2,0,P|10:188|8:156,1,63,2|0,2:3|2:0,2:0:0:0:
69,3,132835,5,2,3:2:0:0:
131,10,132948,1,2,2:0:0:0:
191,27,133062,1,2,2:3:0:0:
258,183,133289,5,10,2:0:0:0:
320,176,133403,1,0,2:0:0:0:
380,159,133517,1,2,2:3:0:0:
485,39,133744,6,0,P|424:22|361:16,1,126,2|2,3:2|2:3,2:0:0:0:
215,115,134085,1,2,2:0:0:0:
215,115,134198,2,0,P|154:98|91:92,1,126,10|2,2:0|2:3,2:0:0:0:
19,346,134653,5,2,3:2:0:0:
252,324,134880,5,2,2:3:0:0:
310,100,135108,5,10,2:0:0:0:
77,78,135335,5,2,2:3:0:0:
0,271,135562,6,0,P|58:251|89:198,1,126,2|2,3:2|2:3,2:0:0:0:
35,144,135903,1,2,2:0:0:0:
35,144,136017,1,10,2:0:0:0:
19,346,136244,1,2,2:3:0:0:
35,144,136471,6,0,B|153:169|83:223|186:243,1,189,14|0,3:2|2:0,2:0:0:0:
186,167,136926,6,0,B|286:145|226:99|315:82,1,162,14|0,3:2|2:0,2:0:0:0:
318,154,137380,6,0,B|401:171|351:209|425:224,1,135,14|0,2:0|2:0,2:0:0:0:
426,224,137835,1,14,2:0:0:0:
505,168,138062,1,10,2:0:0:0:
505,168,138176,1,2,2:0:0:0:
505,168,138289,6,0,P|509:136|504:105,1,63,14|0,3:2|2:0,2:0:0:0:
407,40,138517,1,2,2:3:0:0:
346,23,138630,1,2,2:0:0:0:
294,58,138744,2,0,P|263:66|232:62,2,63,10|2|0,2:0|2:0|2:0,2:0:0:0:
294,58,139198,1,2,3:2:0:0:
160,132,139426,2,0,P|152:69|167:8,1,126,2|8,2:3|2:0,2:0:0:0:
251,156,139880,1,2,2:3:0:0:
251,156,139994,1,2,2:0:0:0:
251,156,140108,6,0,P|265:217|258:279,1,126,2|2,3:2|2:3,2:0:0:0:
177,318,140448,2,0,P|203:335|221:360,1,63,2|8,2:0|2:0,2:0:0:0:
345,282,140676,2,0,P|330:309|327:341,1,63,2|2,2:0|2:3,2:0:0:0:
258,279,140903,1,0,2:0:0:0:
258,279,141017,2,0,P|247:249|244:218,1,63,2|0,3:2|2:0,2:0:0:0:
330,123,141244,2,0,P|392:115|455:111,1,126,2|10,2:3|2:0,2:0:0:0:
244,218,141698,1,2,2:3:0:0:
244,218,141812,1,2,2:0:0:0:
244,218,141926,6,0,P|181:214|118:206,2,126,2|2|8,3:2|2:3|2:0,2:0:0:0:
327,341,142608,1,2,2:3:0:0:
327,341,142721,1,0,2:0:0:0:
327,341,142835,2,0,P|389:337|452:329,2,126,2|2|8,3:2|2:3|2:0,2:0:0:0:
157,297,143517,1,2,2:3:0:0:
233,348,143744,6,0,P|233:285|210:227,1,126,2|2,3:2|2:3,2:0:0:0:
306,147,144198,2,0,P|305:84|328:26,1,126,10|2,2:0|2:3,2:0:0:0:
401,0,144539,2,0,P|417:26|429:55,1,63,8|2,2:0|3:2,2:0:0:0:
459,171,144767,2,0,P|444:198|425:223,1,63,8|2,2:0|3:0,2:0:0:0:
339,306,144994,1,8,2:0:0:0:
277,319,145108,2,0,P|245:320|214:316,1,63,10|0,2:0|2:0,2:0:0:0:
100,282,145335,2,0,P|83:255|71:226,1,63,10|0,2:0|2:0,2:0:0:0:
43,110,145562,6,0,P|57:81|76:56,1,63,14|0,3:2|2:0,2:0:0:0:
200,140,145789,1,2,2:3:0:0:
262,128,145903,1,2,2:0:0:0:
308,169,146017,2,0,P|322:197|341:222,2,63,10|2|2,2:0|2:0|2:3,2:0:0:0:
308,169,146471,1,2,3:2:0:0:
420,37,146698,2,0,P|414:99|389:156,1,126,2|8,2:3|2:0,2:0:0:0:
266,250,147153,1,2,2:3:0:0:
266,250,147267,1,0,2:0:0:0:
266,250,147380,6,0,P|271:312|296:369,1,126,2|2,3:2|2:3,2:0:0:0:
372,363,147721,2,0,P|375:331|386:302,1,63,2|10,2:0|2:0,2:0:0:0:
191,218,147948,2,0,P|209:192|234:173,1,63,2|2,2:0|2:3,2:0:0:0:
342,204,148176,1,0,2:0:0:0:
342,204,148289,2,0,P|370:191|401:186,1,63,2|0,3:2|2:0,2:0:0:0:
482,253,148517,2,0,P|433:215|428:154,1,126,2|8,2:3|2:0,2:0:0:0:
467,104,148858,1,2,2:0:0:0:
462,40,148971,1,2,2:0:0:0:
402,19,149085,1,2,2:0:0:0:
350,55,149198,6,0,P|275:51|201:44,2,126,2|2|8,3:2|2:3|2:0,2:0:0:0:
233,200,149880,1,2,2:3:0:0:
233,200,149994,1,2,2:0:0:0:
233,200,150108,2,0,P|158:196|84:189,2,126,2|2|10,3:2|2:3|2:0,2:0:0:0:
256,368,150789,1,2,2:3:0:0:
337,185,151017,6,0,P|355:244|345:306,1,126,2|0,3:2|2:0,2:0:0:0:
175,185,151471,2,0,P|156:244|166:306,1,126,2|0,2:0|2:0,2:0:0:0:
256,0,151926,6,0,B|239:32|256:64|256:64|271:97|256:129,1,135,2|0,2:0|2:0,2:0:0:0:
256,208,152380,6,0,L|256:223,16,9,2|0|0|0|0|0|0|0|0|0|0|0|0|0|0|0|0,2:0|2:0|2:0|2:0|2:0|2:0|2:0|2:0|2:0|2:0|2:0|2:0|2:0|2:0|2:0|2:0|2:0,2:0:0:0:
