osu file format v14

[General]
AudioFilename: audio.mp3
AudioLeadIn: 0
PreviewTime: 49085
Countdown: 0
SampleSet: Soft
StackLeniency: 0.5
Mode: 0
LetterboxInBreaks: 0
WidescreenStoryboard: 1

[Editor]
Bookmarks: 5563,20108,34602,63693,78238,92783,107329,120108,123693,138290,151017
DistanceSpacing: 1.3
BeatDivisor: 6
GridSize: 32
TimelineZoom: 1.8

[Metadata]
Title:p.h.
TitleUnicode:p.h.
Artist:sekai
ArtistUnicode:sekai
Creator:Petal
Version:Wanpachi's Hard
Source:
Tags:flower vocaloid cover full japanese jpop pop j-pop Number Compilation Album SEVENTHLINKS SEVENTH LINKS トキチアキ はるお 中村涼真 yugu wanpachi Cycopton namki matha Mononymous
BeatmapID:3035338
BeatmapSetID:1461554

[Difficulty]
HPDrainRate:4.5
CircleSize:3.6
OverallDifficulty:5.5
ApproachRate:7.7
SliderMultiplier:1.4
SliderTickRate:1

[Events]
//Background and Video events
0,0,"BG.jpg",0,0
//Break Periods
2,107580,113858
//Storyboard Layer 0 (Background)
//Storyboard Layer 1 (Fail)
//Storyboard Layer 2 (Pass)
//Storyboard Layer 3 (Foreground)
//Storyboard Layer 4 (Overlay)
//Storyboard Sound Samples

[TimingPoints]
108,454.545454545455,4,2,1,50,1,0
3744,-90.9090909090909,4,2,1,50,0,0
5562,-90.9090909090909,4,2,2,60,0,0
5789,-90.9090909090909,4,2,1,60,0,0
12835,-90.9090909090909,4,2,2,60,0,0
13062,-90.9090909090909,4,2,1,60,0,0
20108,-100,4,2,2,50,0,0
20335,-100,4,2,1,50,0,0
27380,-100,4,2,2,50,0,0
27607,-100,4,2,1,50,0,0
34652,-100,4,2,2,40,0,0
35108,-100,4,2,1,40,0,0
46017,-100,4,2,1,50,0,0
47835,-100,4,2,1,55,0,0
48289,-100,4,2,1,60,0,0
48517,-100,4,2,1,50,0,0
48744,-100,4,2,1,40,0,0
48971,-100,4,2,1,30,0,0
49198,-100,4,2,2,75,0,1
49426,-100,4,2,1,75,0,1
50108,-83.3333333333333,4,2,1,75,0,1
56471,-83.3333333333333,4,2,2,75,0,1
56698,-83.3333333333333,4,2,1,75,0,1
61926,-100,4,2,1,60,0,0
62835,-100,4,2,1,45,0,0
63744,-100,4,2,2,50,0,0
63971,-100,4,2,1,50,0,0
71017,-100,4,2,2,50,0,0
71244,-100,4,2,1,50,0,0
78289,-100,4,2,2,40,0,0
78744,-100,4,2,1,40,0,0
91358,-100,4,2,1,50,0,0
91926,-100,4,2,1,60,0,0
92153,-100,4,2,1,50,0,0
92380,-100,4,2,1,40,0,0
92607,-100,4,2,1,30,0,0
92835,-100,4,2,2,75,0,1
93062,-100,4,2,1,75,0,1
93744,-83.3333333333333,4,2,1,75,0,1
100108,-83.3333333333333,4,2,2,75,0,1
100335,-83.3333333333333,4,2,1,75,0,1
105562,-100,4,2,1,60,0,0
106471,-100,4,2,1,50,0,0
106926,-100,4,2,1,60,0,0
114653,-90.9090909090909,4,2,2,75,0,1
114767,-90.9090909090909,4,2,2,75,0,0
115107,-90.9090909090909,4,2,1,75,0,0
120108,-90.9090909090909,4,2,1,60,0,0
121926,-90.9090909090909,4,2,1,75,0,0
123743,-90.9090909090909,4,2,1,55,0,0
124198,-90.9090909090909,4,2,2,80,0,1
124426,-90.9090909090909,4,2,1,80,0,1
124653,-83.3333333333333,4,2,1,80,0,1
131017,-83.3333333333333,4,2,2,80,0,1
131244,-83.3333333333333,4,2,1,80,0,1
137835,-83.3333333333333,4,2,1,80,0,0
138289,-83.3333333333333,4,2,2,80,0,0
138516,-83.3333333333333,4,2,1,80,0,0
139028,-83.3333333333333,4,2,1,80,0,1
145562,-83.3333333333333,4,2,2,80,0,1
145789,-83.3333333333333,4,2,1,80,0,1
151017,-100,4,2,1,65,0,0
151471,-100,4,2,1,55,0,0
151926,-100,4,2,1,45,0,0
152077,-100,4,2,1,40,0,0
152229,-100,4,2,1,35,0,0
152532,-100,4,2,1,30,0,0
152683,-100,4,2,1,25,0,0

[Colours]
Combo1 : 98,193,187
Combo2 : 231,85,70
Combo3 : 255,224,50
Combo4 : 170,85,152

[HitObjects]
143,54,3744,6,0,B|123:49|114:47|77:60,2,51.3333333333333,2|2|2,3:2|2:0|2:0,2:0:0:0:
191,99,4198,2,0,B|179:134|179:136|171:175,2,51.3333333333333,2|2|2,3:2|2:0|2:0,2:0:0:0:
253,74,4653,5,10,2:0:0:0:
318,62,4804,5,10,2:0:0:0:
383,50,4956,5,10,2:0:0:0:
435,90,5108,5,10,2:0:0:0:
488,283,5562,6,0,B|459:257|454:258|411:279,1,77,6|2,3:2|2:3,2:0:0:0:
393,317,5903,1,2,2:0:0:0:
363,357,6017,2,0,B|322:336|318:333|311:304,1,77,10|2,2:0|2:3,2:0:0:0:
214,278,6471,2,0,B|159:265|136:305|136:315|149:317|146:290|112:269|75:290|78:241|73:229,1,154,2|10,3:2|2:0,2:0:0:0:
158,191,7153,1,2,2:3:0:0:
137,93,7380,6,0,B|145:71|146:63|130:40|191:1,1,77,2|2,3:2|2:3,2:0:0:0:
213,27,7721,1,2,2:0:0:0:
254,54,7835,2,0,B|271:70|323:71|337:47,1,77,10|2,2:0|2:3,2:0:0:0:
417,13,8289,2,0,B|442:43|453:44|446:62|469:146,1,115.5,2|2,3:2|2:0,2:0:0:0:
415,138,8744,1,10,2:0:0:0:
479,214,8971,1,2,2:3:0:0:
510,308,9198,6,0,B|499:324|476:342|437:324|419:338,1,77,2|2,3:2|2:3,2:0:0:0:
395,310,9539,1,2,2:0:0:0:
348,291,9653,2,0,B|313:308|295:328|295:355,1,77,10|2,2:0|2:3,2:0:0:0:
197,359,10108,1,2,3:2:0:0:
98,373,10335,2,0,B|100:364|98:358|74:329,1,38.5,2|2,2:3|2:0,2:0:0:0:
32,332,10562,1,10,2:0:0:0:
42,232,10789,1,2,2:3:0:0:
130,186,11017,6,0,B|144:183|148:183|186:219,2,51.3333333333333,2|2|2,3:2|2:0|2:0,2:0:0:0:
101,125,11471,2,0,B|64:122|57:123|44:131,2,51.3333333333333,10|2|2,2:0|2:0|2:0,2:0:0:0:
138,69,11926,5,2,3:2:0:0:
173,33,12039,2,0,P|196:36|229:55,1,38.5000011749268,10|0,0:0|0:0,0:0:0:0:
295,96,12380,2,0,B|339:75|345:73|351:30,1,77,10|10,2:0|2:0,2:0:0:0:
457,29,12835,6,0,B|449:79|451:93|466:124,1,77,6|2,3:2|2:3,2:0:0:0:
495,138,13176,1,2,2:0:0:0:
482,186,13289,2,0,B|473:192|469:196|407:196,1,77,10|2,2:0|2:3,2:0:0:0:
321,248,13744,2,0,B|295:198|306:178|312:184|305:156|227:133|234:140,1,154,2|10,3:2|2:0,2:0:0:0:
191,49,14426,1,2,2:3:0:0:
95,18,14653,6,0,B|80:44|48:67|35:104|35:109,1,77,2|2,3:2|2:3,2:0:0:0:
29,125,14994,1,0,2:0:0:0:
70,152,15108,2,0,B|92:169|91:177|100:237,1,77,10|2,2:0|2:3,2:0:0:0:
42,304,15562,2,0,B|101:302|132:308|141:299|164:346,1,115.5,2|2,3:2|2:0,2:0:0:0:
190,356,16017,1,10,2:0:0:0:
285,325,16244,1,2,2:3:0:0:
318,230,16471,6,0,B|363:230|379:239|413:246,1,77,2|2,3:2|2:3,2:0:0:0:
443,245,16812,1,2,2:0:0:0:
484,217,16926,2,0,B|498:193|498:166|489:139,1,77,10|2,2:0|2:3,2:0:0:0:
443,53,17380,1,2,3:2:0:0:
346,26,17608,2,0,B|349:24|337:34|350:44|325:60,1,38.5,2|2,2:3|2:0,2:0:0:0:
278,66,17835,1,10,2:0:0:0:
183,31,18062,1,2,2:3:0:0:
83,24,18289,5,6,3:2:0:0:
196,189,18744,1,6,3:2:0:0:
110,8,19198,1,6,3:2:0:0:
38,120,19501,5,8,2:0:0:0:
25,185,19653,6,0,B|41:196|45:205|48:228,1,51.3333333333333,8|8,2:0|2:0,2:0:0:0:
79,287,19956,5,8,2:0:0:0:
139,288,20108,6,0,B|175:269|172:260|198:213|191:214,1,70,6|2,3:2|2:0,2:0:0:0:
233,234,20448,1,2,2:0:0:0:
233,234,20562,2,0,B|249:258|259:276|257:293|263:307,2,70,10|2|2,2:0|2:0|3:2,2:0:0:0:
136,79,21471,1,8,2:0:0:0:
311,21,21926,5,2,3:2:0:0:
311,21,22039,1,2,2:0:0:0:
339,60,22153,2,0,B|389:58|401:55|422:29,1,70,2|10,2:0|2:0,2:0:0:0:
449,22,22494,2,0,B|472:22|475:33|485:33|486:33,1,35,2|2,2:0|2:0,2:0:0:0:
507,126,22835,1,2,3:2:0:0:
507,126,22948,2,0,B|473:166|469:183|473:206,1,70,2|2,2:0|2:0,2:0:0:0:
491,230,23289,1,10,2:0:0:0:
337,327,23744,6,0,B|344:339|348:350|343:357|351:370,2,35,2|2|2,3:2|2:0|2:0,2:0:0:0:
296,306,24085,1,2,2:0:0:0:
296,306,24198,2,0,B|258:299|252:313|226:313,1,70,10|2,2:0|2:0,2:0:0:0:
189,339,24539,2,0,B|135:333|133:318|170:322|112:315,1,70,2|2,2:0|2:0,2:0:0:0:
82,329,24880,1,2,2:0:0:0:
24,258,25108,2,0,B|29:242|33:225|28:197,1,35,10|2,2:0|2:0,2:0:0:0:
125,125,25562,5,2,3:2:0:0:
125,125,25676,1,2,2:0:0:0:
95,90,25789,2,0,B|104:59|112:52|153:15,1,70,2|10,2:0|2:0,2:0:0:0:
221,10,26244,1,2,2:0:0:0:
262,90,26471,2,0,B|318:94|314:102|321:81|335:91|377:66,1,105,2|8,3:2|2:0,2:0:0:0:
368,28,26926,1,8,2:0:0:0:
457,12,27153,1,8,2:0:0:0:
495,94,27380,6,0,B|485:130|485:139|491:146|476:177,1,70,6|2,3:2|2:0,2:0:0:0:
442,181,27721,1,0,2:0:0:0:
442,181,27835,2,0,B|426:168|405:177|390:161|394:139|392:137,1,70,10|2,2:0|2:0,2:0:0:0:
367,108,28176,1,2,2:0:0:0:
367,108,28289,1,2,3:2:0:0:
295,52,28517,2,0,B|267:44|265:47|250:50,1,35,2|2,2:0|2:0,2:0:0:0:
215,56,28744,1,8,2:0:0:0:
90,14,29085,5,2,2:0:0:0:
90,14,29198,2,0,B|77:53|74:63|82:78|85:83,1,70,2|2,3:2|2:0,2:0:0:0:
119,167,29653,2,0,B|112:193|122:210|101:221|101:246,1,70,10|2,2:0|2:0,2:0:0:0:
75,271,29994,2,0,B|68:276|67:288|138:314,1,70,2|2,2:0|2:0,2:0:0:0:
160,335,30335,1,2,2:0:0:0:
239,380,30562,2,0,B|276:371|279:372|301:330,1,70,10|2,2:0|2:0,2:0:0:0:
364,285,31017,6,0,B|400:285|408:288|435:297|452:292,1,70,2|2,3:2|2:0,2:0:0:0:
466,261,31358,1,2,2:0:0:0:
466,261,31471,2,0,B|502:253|502:260|512:262,2,35,10|2|2,2:0|2:0|2:0,2:0:0:0:
427,178,31926,2,0,B|393:193|386:191|367:167,2,46.6666666666667,2|2|2,3:2|2:0|2:0,2:0:0:0:
479,147,32380,2,0,B|469:111|471:107|490:75,1,70,10|2,2:0|2:0,2:0:0:0:
415,24,32835,6,0,B|367:13|358:19|318:17,1,70,2|2,3:2|2:0,2:0:0:0:
315,52,33176,1,2,2:0:0:0:
315,52,33289,2,0,B|315:66|317:79|323:92,2,35,10|2|2,2:0|2:0|2:0,2:0:0:0:
238,101,33744,2,0,B|209:108|191:118|161:118,1,70,2|2,3:2|2:0,2:0:0:0:
82,94,34198,2,0,B|23:77|43:173|46:208,1,140,10|10,3:2|3:2,2:0:0:0:
185,320,35108,6,0,B|196:282|201:277|229:260,1,70,10|0,2:0|2:0,2:0:0:0:
187,179,35562,2,0,B|175:167|132:173|108:156,1,70,2|0,3:2|2:0,2:0:0:0:
79,80,36017,1,10,2:0:0:0:
166,53,36244,2,0,B|216:32|216:59|256:36,1,70,2|0,2:0|3:0,2:0:0:0:
63,105,36926,5,10,2:0:0:0:
150,78,37153,2,0,B|200:57|200:84|240:61,1,70,2|0,2:0|3:0,2:0:0:0:
48,132,37835,5,10,2:0:0:0:
135,105,38062,2,0,B|185:84|185:111|225:88,1,70,2|0,2:0|3:0,2:0:0:0:
372,28,38744,6,0,B|409:39|424:57|421:81,1,70,10|0,2:0|2:0,2:0:0:0:
473,146,39198,2,0,B|491:166|491:184|475:199|457:222,1,70,2|0,3:2|2:0,2:0:0:0:
377,211,39653,1,10,2:0:0:0:
383,301,39880,2,0,B|380:334|376:350|388:377,1,70,2|2,2:0|3:2,2:0:0:0:
355,190,40562,5,10,2:0:0:0:
361,280,40789,2,0,B|358:313|354:329|366:356,1,70,2|0,2:0|3:0,2:0:0:0:
276,321,41244,5,2,2:0:0:0:
186,304,41471,1,10,2:0:0:0:
96,288,41698,2,0,B|102:333|91:330|41:353,1,70,2|0,2:0|3:0,2:0:0:0:
191,209,42380,6,0,B|218:204|231:210|245:227|266:236,1,70,10|0,2:0|2:0,2:0:0:0:
292,313,42835,2,0,B|341:328|348:327|375:286,1,70,2|0,3:2|2:0,2:0:0:0:
419,243,43289,1,10,2:0:0:0:
431,153,43517,2,0,B|433:109|433:105|431:95|430:68,1,70,2|0,2:0|3:0,2:0:0:0:
439,265,44198,5,10,2:0:0:0:
451,175,44426,2,0,B|453:131|453:127|451:117|450:90,1,70,2|0,2:0|3:0,2:0:0:0:
463,286,45108,5,10,2:0:0:0:
475,196,45335,2,0,B|477:152|477:148|475:138|474:111,1,70,2|0,2:0|3:0,2:0:0:0:
419,53,45789,5,2,2:0:0:0:
335,88,46017,2,0,B|336:104|325:122|300:127,1,35,10|2,2:0|2:0,2:0:0:0:
275,129,46244,2,0,B|253:93|237:71|220:63,1,70,2|2,2:0|3:2,2:0:0:0:
148,42,46698,1,2,2:0:0:0:
148,42,46812,2,0,B|106:66|106:76|58:88,1,70,2|2,2:0|2:0,2:0:0:0:
83,123,47153,1,2,2:0:0:0:
37,201,47380,5,2,3:2:0:0:
43,291,47608,1,2,2:0:0:0:
132,306,47835,1,2,3:2:0:0:
132,306,47948,1,2,2:0:0:0:
220,321,48176,1,2,2:0:0:0:
220,321,48289,1,10,2:0:0:0:
302,282,48517,6,0,B|315:291|312:297|306:309|306:321|319:326|341:326|349:352|349:361,2,70,10|10|10,2:0|2:0|2:0,2:0:0:0:
255,182,49198,5,14,3:2:0:0:
166,117,49426,1,2,2:3:0:0:
237,200,49653,5,10,2:0:0:0:
203,96,49880,1,2,2:3:0:0:
291,32,50108,6,0,B|339:36|335:45|343:48|351:48|373:53,1,84,2|0,3:2|2:0,2:0:0:0:
386,105,50448,2,0,B|432:79|447:79|476:138,1,84,2|0,2:0|2:0,2:0:0:0:
485,156,50789,1,2,2:3:0:0:
424,247,51017,5,2,3:2:0:0:
509,315,51244,1,2,2:3:0:0:
445,226,51471,5,10,2:0:0:0:
474,330,51698,1,2,2:3:0:0:
370,365,51926,6,0,B|353:349|340:342|331:348|294:371|271:365,1,84,2|2,3:2|2:3,2:0:0:0:
259,320,52267,2,0,B|212:301|205:306|193:315|167:353,1,84,2|0,2:0|2:0,2:0:0:0:
139,360,52608,1,2,2:3:0:0:
61,283,52835,5,2,3:2:0:0:
88,177,53062,1,2,2:3:0:0:
88,286,53289,5,10,2:0:0:0:
55,181,53517,1,2,2:3:0:0:
141,113,53744,6,0,B|183:103|189:97|190:64|195:38,1,84,2|0,3:2|2:0,2:0:0:0:
236,25,54085,2,0,B|298:35|290:43|325:48,1,84,2|0,2:0|2:0,2:0:0:0:
362,16,54426,1,2,2:3:0:0:
453,75,54653,6,0,B|444:101|445:113|457:122|469:158,1,84,2|2,3:2|2:3,2:0:0:0:
505,194,54994,2,0,B|481:231|481:241|501:284,1,84,2|0,2:0|2:0,2:0:0:0:
471,320,55335,1,2,2:3:0:0:
366,286,55562,1,2,3:2:0:0:
312,279,55676,1,8,2:0:0:0:
266,309,55789,2,0,B|244:311|227:318|204:322,1,42,2|8,2:3|2:0,2:0:0:0:
183,281,56017,2,0,B|190:234|197:231|222:203|219:190,1,84,10|8,2:0|2:0,2:0:0:0:
285,120,56471,5,14,3:2:0:0:
302,12,56698,1,2,2:3:0:0:
310,120,56926,5,10,2:0:0:0:
266,19,57153,1,2,2:3:0:0:
164,59,57380,2,0,B|146:62|128:48|97:42|67:74,1,84,2|0,3:2|2:0,2:0:0:0:
39,94,57721,2,0,B|65:124|66:143|37:183,1,84,2|0,2:0|2:0,2:0:0:0:
22,219,58062,1,2,2:3:0:0:
98,296,58289,5,2,3:2:0:0:
151,283,58403,1,2,2:0:0:0:
204,271,58517,1,2,2:3:0:0:
94,262,58744,5,10,2:0:0:0:
194,304,58971,1,2,2:3:0:0:
280,370,59198,6,0,B|329:344|341:340|392:362,1,84,2|2,3:2|2:3,2:0:0:0:
410,368,59539,2,0,B|435:336|452:328|447:306|464:273,1,84,2|0,2:0|2:0,2:0:0:0:
466,244,59880,1,2,2:3:0:0:
388,166,60108,5,2,3:2:0:0:
283,197,60335,1,2,2:3:0:0:
392,198,60562,5,10,2:0:0:0:
290,157,60789,1,2,2:3:0:0:
299,48,61017,6,0,B|261:20|252:32|228:46|197:64,1,84,2|2,3:2|2:3,2:0:0:0:
188,91,61358,2,0,B|145:93|151:126|113:116|81:99,1,84,2|0,2:0|2:0,2:0:0:0:
55,99,61698,1,2,2:3:0:0:
21,183,61926,6,0,B|176:152|53:242|-90:331|70:270|181:226|86:298|26:353|102:333|107:338|100:363|118:372,1,280,6|0,3:2|3:0,2:0:0:0:
210,296,63138,5,8,2:0:0:0:
252,252,63289,6,0,B|271:221|277:210|254:188|274:172,1,46.6666666666667,8|8,2:0|2:0,2:0:0:0:
240,154,63592,5,8,2:0:0:0:
273,102,63744,6,0,B|318:92|333:97|344:91|368:81,1,70,6|2,3:2|2:0,2:0:0:0:
417,40,64198,2,0,B|456:48|459:57|458:92,1,70,10|2,2:0|2:0,2:0:0:0:
441,127,64539,1,0,2:0:0:0:
441,127,64653,2,0,B|467:159|486:159|489:149|499:168|506:175,2,70,2|2|10,3:2|2:0|2:0,2:0:0:0:
392,203,65335,1,2,2:0:0:0:
330,270,65562,5,0,3:0:0:0:
330,270,65676,1,2,2:0:0:0:
285,258,65789,2,0,B|264:259|248:271|224:304,1,70,2|10,2:0|2:0,2:0:0:0:
212,338,66130,2,0,B|187:349|166:346|152:356,1,35,2|2,2:0|2:0,2:0:0:0:
96,306,66471,2,0,B|97:321|86:333|48:354,2,70,2|2|10,3:2|2:0|2:0,2:0:0:0:
66,126,67380,6,0,B|45:129|34:123|32:131|19:133,2,35,2|2|2,3:2|2:0|2:0,2:0:0:0:
99,94,67721,1,2,2:0:0:0:
99,94,67835,2,0,B|145:71|146:71|170:81,1,70,10|2,2:0|2:0,2:0:0:0:
253,99,68289,2,0,B|251:114|250:129|244:132|247:146,2,35,2|2|2,3:2|2:0|2:0,2:0:0:0:
296,80,68630,1,2,2:0:0:0:
296,80,68744,2,0,B|351:72|372:84|372:116,1,70,10|2,2:0|2:0,2:0:0:0:
440,137,69198,6,0,B|419:157|414:168|421:221,1,70,2|2,3:2|2:0,2:0:0:0:
438,241,69539,2,0,B|382:243|418:254|357:255,1,70,2|2,2:0|2:0,2:0:0:0:
345,292,69880,1,2,2:0:0:0:
268,339,70108,1,2,3:2:0:0:
268,339,70221,2,0,B|230:329|229:361|208:348|190:363|192:384,1,70,10|10,2:0|2:0,2:0:0:0:
159,347,70562,2,0,B|150:296|157:274|163:259|167:250,1,70,8|10,2:0|2:0,2:0:0:0:
224,216,71017,6,0,B|264:198|267:193|278:156,1,70,6|2,3:2|2:0,2:0:0:0:
285,129,71358,1,2,2:0:0:0:
285,129,71471,2,0,B|267:90|267:107|285:37,1,70,10|2,2:0|2:0,2:0:0:0:
191,34,71926,2,0,B|187:12|193:8|198:-5|198:-8,2,35,2|2|2,3:2|2:0|2:0,2:0:0:0:
155,60,72267,1,2,2:0:0:0:
155,60,72380,2,0,B|79:70|76:82|75:90,1,70,10|2,2:0|2:0,2:0:0:0:
28,145,72835,6,0,B|31:198|37:200|86:217,1,70,2|2,3:2|2:0,2:0:0:0:
81,248,73176,1,2,2:0:0:0:
81,248,73289,2,0,B|76:275|71:283|58:290,2,35,10|2|2,2:0|2:0|2:0,2:0:0:0:
170,234,73744,2,0,B|171:236|176:228|181:201,2,35,2|2|2,3:2|2:0|2:0,2:0:0:0:
199,268,74085,1,2,2:0:0:0:
199,268,74198,2,0,B|187:308|193:316|191:320|213:328|214:338|231:337,1,70,10|0,2:0|2:0,2:0:0:0:
297,358,74653,6,0,B|330:336|322:324|373:328,1,70,2|2,3:2|2:0,2:0:0:0:
420,261,75108,1,10,2:0:0:0:
420,261,75221,2,0,B|441:259|443:269|449:269|456:269|460:269,2,35,2|2|2,2:0|2:0|2:0,2:0:0:0:
392,224,75562,2,0,B|390:189|401:179|404:174|428:148,1,70,2|2,3:2|2:0,2:0:0:0:
419,115,75903,1,2,2:0:0:0:
419,115,76017,2,0,B|401:75|405:58|386:50|375:47,1,70,10|2,2:0|2:0,2:0:0:0:
304,18,76471,5,2,3:2:0:0:
304,18,76585,1,2,2:0:0:0:
262,36,76698,2,0,B|254:33|240:41|232:29|218:32,1,35,2|2,2:0|2:0,2:0:0:0:
187,54,76926,2,0,B|179:57|165:49|157:61|143:58,2,35,10|10|2,2:0|2:0|2:0,2:0:0:0:
246,122,77380,1,2,3:2:0:0:
246,122,77494,2,0,B|265:155|270:148|259:155|252:171|242:211,1,70,10|10,2:0|2:0,2:0:0:0:
260,228,77835,2,0,B|299:263|338:223|363:225|372:247|392:287,1,140,10|10,2:0|3:2,2:0:0:0:
234,374,78744,6,0,B|203:361|188:373|185:373|158:364,1,70,10|0,2:0|2:0,2:0:0:0:
119,288,79198,2,0,B|85:313|79:309|44:288,1,70,2|0,3:2|2:0,2:0:0:0:
34,206,79653,1,10,2:0:0:0:
85,131,79880,2,0,B|88:88|84:80|84:61|84:59,1,70,2|0,2:0|3:0,2:0:0:0:
48,239,80562,5,10,2:0:0:0:
99,164,80789,2,0,B|102:121|98:113|98:94|98:92,1,70,2|0,2:0|3:0,2:0:0:0:
63,273,81471,5,10,2:0:0:0:
114,198,81698,2,0,B|117:155|113:147|113:128|113:126,1,70,2|0,2:0|3:0,2:0:0:0:
260,21,82380,6,0,B|300:45|293:50|302:37|348:48,1,70,10|0,2:0|2:0,2:0:0:0:
413,32,82835,2,0,B|433:69|444:65|439:95|438:114,1,70,2|0,3:2|2:0,2:0:0:0:
380,165,83289,1,10,2:0:0:0:
379,255,83517,2,0,B|385:302|380:306|381:316|383:347,1,70,2|2,2:0|3:2,2:0:0:0:
362,143,84198,5,10,2:0:0:0:
361,233,84426,2,0,B|367:280|362:284|363:294|365:325,1,70,2|0,2:0|3:0,2:0:0:0:
276,276,84880,5,2,2:0:0:0:
255,187,85108,1,10,2:0:0:0:
234,98,85335,2,0,B|248:58|256:45|279:33,1,70,10|2,2:0|3:2,2:0:0:0:
86,43,86017,6,0,B|70:71|59:70|31:102|43:115,1,70,10|0,2:0|2:0,2:0:0:0:
79,181,86471,2,0,B|122:176|129:182|140:232,1,70,2|0,3:2|2:0,2:0:0:0:
186,282,86926,1,10,2:0:0:0:
273,257,87153,2,0,B|309:259|304:264|358:266,1,70,2|0,2:0|3:0,2:0:0:0:
164,302,87835,5,10,2:0:0:0:
251,277,88062,2,0,B|287:279|282:284|336:286,1,70,2|0,2:0|3:0,2:0:0:0:
143,327,88744,5,10,2:0:0:0:
230,302,88971,2,0,B|266:304|261:309|315:311,1,70,2|0,2:0|3:0,2:0:0:0:
336,336,89312,6,0,B|377:316|375:312|386:311|427:325,1,70,2|2,2:0|2:0,2:0:0:0:
446,313,89653,2,0,B|464:281|464:262|469:248|476:238,1,70,10|2,2:0|2:0,2:0:0:0:
443,160,90108,1,2,3:2:0:0:
443,160,90221,1,2,2:0:0:0:
406,133,90335,1,2,2:0:0:0:
343,66,90562,2,0,B|307:39|305:37|306:29|294:7,1,70,10|2,2:0|2:0,2:0:0:0:
229,74,91017,5,2,3:2:0:0:
148,31,91244,1,2,2:0:0:0:
148,31,91358,1,2,2:0:0:0:
113,115,91585,1,2,2:0:0:0:
78,199,91812,1,2,2:0:0:0:
78,199,91926,1,10,2:0:0:0:
106,285,92153,6,0,B|142:266|153:259|149:251|151:249|153:245|158:238,2,70,10|10|10,2:0|2:0|2:0,2:0:0:0:
34,367,92835,5,14,3:2:0:0:
25,257,93062,1,2,2:3:0:0:
60,360,93289,5,10,2:0:0:0:
3,266,93517,1,2,2:3:0:0:
85,194,93744,6,0,B|88:155|103:133|99:131|95:81,1,84,2|0,3:2|2:0,2:0:0:0:
136,73,94085,2,0,B|174:48|176:38|228:72,1,84,2|0,2:0|2:0,2:0:0:0:
242,106,94426,1,2,2:3:0:0:
344,68,94653,5,2,3:2:0:0:
449,93,94880,1,2,2:3:0:0:
339,94,95108,5,10,2:0:0:0:
443,64,95335,1,2,2:3:0:0:
501,156,95562,6,0,B|482:194|475:180|491:187|501:215|493:251,1,84,2|2,3:2|2:3,2:0:0:0:
466,280,95903,2,0,B|421:271|430:267|400:323,1,84,2|2,2:0|2:0,2:0:0:0:
351,329,96244,1,2,2:3:0:0:
251,284,96471,5,2,3:2:0:0:
211,182,96698,1,2,2:3:0:0:
269,274,96926,5,10,2:0:0:0:
189,198,97153,1,2,2:3:0:0:
115,278,97380,6,0,B|77:293|50:269|32:240,1,84,2|2,3:2|2:3,2:0:0:0:
6,211,97721,2,0,B|31:160|21:151|24:99,1,84,2|0,2:0|2:0,2:0:0:0:
17,75,98062,1,2,2:3:0:0:
118,35,98289,6,0,B|170:47|156:57|172:62|214:57,1,84,2|2,3:2|2:3,2:0:0:0:
249,74,98630,2,0,B|296:37|302:31|318:22|335:22,1,84,2|0,2:0|2:0,2:0:0:0:
371,26,98971,1,2,2:3:0:0:
459,89,99198,1,2,3:2:0:0:
464,143,99312,1,8,2:0:0:0:
428,183,99426,2,0,B|413:177|394:180|387:187,1,42,2|8,3:0|2:0,2:0:0:0:
332,185,99653,2,0,B|326:229|307:226|305:239|294:259,1,84,10|8,2:0|2:0,2:0:0:0:
356,349,100108,5,14,3:2:0:0:
464,353,100335,1,2,2:3:0:0:
356,372,100562,5,10,2:0:0:0:
456,328,100789,1,2,2:3:0:0:
423,223,101017,6,0,B|441:176|431:165|464:122,1,84,2|2,3:2|2:3,2:0:0:0:
468,92,101358,2,0,B|441:47|450:32|378:37,1,84,2|0,2:0|2:0,2:0:0:0:
362,59,101698,1,2,2:3:0:0:
258,24,101926,5,2,3:2:0:0:
241,76,102039,1,2,2:0:0:0:
223,127,102153,1,2,2:3:0:0:
289,40,102380,5,10,2:0:0:0:
239,63,102494,1,2,2:0:0:0:
190,86,102608,1,2,2:3:0:0:
88,45,102835,6,0,B|55:60|46:58|36:119,1,84,2|0,3:2|2:0,2:0:0:0:
23,158,103176,2,0,B|61:176|67:194|38:247,1,84,2|0,2:0|2:0,2:0:0:0:
22,273,103517,1,2,2:3:0:0:
113,333,103744,5,2,3:2:0:0:
217,301,103971,1,2,2:3:0:0:
107,302,104198,5,10,2:0:0:0:
212,328,104426,1,2,2:3:0:0:
286,247,104653,6,0,B|329:251|340:253|357:301,1,84,2|2,3:2|2:3,2:0:0:0:
385,330,104994,2,0,B|438:303|457:295|474:266,1,84,2|0,2:0|2:0,2:0:0:0:
481,239,105335,1,2,2:3:0:0:
403,190,105562,6,0,B|382:184|375:172|379:166|474:138|570:119|476:109|322:134|242:144|315:128|408:99|383:51|379:24,1,280,6|2,3:2|3:2,2:0:0:0:
337,14,106623,6,0,B|300:7|292:8|262:23,1,46.6666666666667,2|2,3:2|3:2,2:0:0:0:
238,41,106926,5,10,2:0:0:0:
206,92,107077,5,8,2:0:0:0:
232,146,107229,5,8,2:0:0:0:
242,205,107380,5,2,3:2:0:0:
262,309,114653,6,0,B|268:319|234:314|212:305|198:275|190:288|175:232|113:252,1,154,6|8,3:2|2:0,2:0:0:0:
38,211,115335,1,2,2:3:0:0:
63,167,115448,1,2,2:0:0:0:
27,131,115562,2,0,B|31:110|26:93|53:45|110:76|103:87|149:66,1,154,2|8,3:2|2:0,2:0:0:0:
234,23,116244,1,2,2:3:0:0:
283,17,116358,1,2,2:0:0:0:
322,48,116471,6,0,B|358:67|379:63|382:36|436:15|418:77|417:101|457:119|462:121,1,154,2|8,3:2|2:0,2:0:0:0:
488,194,117153,1,2,2:3:0:0:
499,242,117267,1,2,2:0:0:0:
456,267,117380,2,0,B|394:250|383:217|393:196|333:181|299:204,1,154,2|10,3:2|2:0,2:0:0:0:
165,313,118289,6,0,B|160:284|170:259|177:241|164:213|119:222|94:191,1,154,2|10,3:2|2:0,2:0:0:0:
27,123,118971,1,2,2:3:0:0:
5,25,119198,2,0,B|57:24|69:18|95:43,1,77,2|2,3:2|2:3,2:0:0:0:
168,79,119653,2,0,B|215:80|220:62|254:44|259:46,1,77,10|2,2:0|2:3,2:0:0:0:
336,31,120108,5,10,2:0:0:0:
409,217,120562,1,10,2:0:0:0:
387,25,121017,1,10,2:0:0:0:
357,222,121471,1,10,2:0:0:0:
419,105,121926,5,10,2:0:0:0:
326,142,122153,1,10,2:0:0:0:
421,131,122380,1,10,2:0:0:0:
323,116,122608,1,10,2:0:0:0:
278,206,122835,5,10,2:0:0:0:
302,249,122948,1,2,3:2:0:0:
278,293,123062,2,0,B|253:293|242:299|229:297,1,38.5,10|2,2:0|3:2,2:0:0:0:
197,323,123289,6,0,P|190:331|155:328,4,38.5000011749268,10|2|10|2|2,3:2|3:2|3:2|3:2|3:2,2:0:0:0:
39,171,124198,5,14,3:2:0:0:
74,68,124426,1,2,2:3:0:0:
178,35,124653,6,0,B|196:44|192:53|241:70|275:63,1,84,2|0,3:2|2:0,2:0:0:0:
293,102,124994,2,0,B|327:77|336:77|341:70|380:81,1,84,2|0,2:0|2:0,2:0:0:0:
422,89,125335,1,2,2:3:0:0:
473,185,125562,5,2,3:2:0:0:
422,281,125789,1,2,2:3:0:0:
445,174,126017,5,10,2:0:0:0:
467,281,126244,1,2,2:3:0:0:
383,351,126471,6,0,B|343:370|337:368|287:341,1,84,2|0,3:2|2:0,2:0:0:0:
259,317,126812,2,0,B|238:309|230:303|237:297|217:294|182:311,1,84,2|0,2:0|2:0,2:0:0:0:
134,339,127153,1,2,2:3:0:0:
44,276,127380,5,2,3:2:0:0:
94,179,127608,1,2,2:3:0:0:
75,286,127835,5,10,2:0:0:0:
58,177,128062,1,2,2:3:0:0:
137,102,128289,6,0,B|191:104|183:119|199:125|214:117|209:102|237:112,1,84,2|2,3:2|2:3,2:0:0:0:
256,72,128630,2,0,B|279:67|297:75|294:51|305:71|297:72|306:81|344:78,1,84,2|0,2:0|2:0,2:0:0:0:
383,50,128971,1,2,2:3:0:0:
467,118,129198,6,0,B|474:155|473:166|464:180|452:205,1,84,2|2,3:2|2:3,2:0:0:0:
410,230,129539,2,0,B|414:260|414:280|425:306|431:328,1,84,2|0,2:0|2:0,2:0:0:0:
388,351,129880,1,2,2:3:0:0:
286,311,130108,1,2,3:2:0:0:
232,323,130221,1,10,2:0:0:0:
201,278,130335,2,0,B|173:261|175:271|162:277|137:270,1,42,2|10,2:3|2:0,2:0:0:0:
112,247,130562,2,0,B|105:229|111:218|108:207|99:212|105:218|112:216|117:198|106:156,1,84,10|10,2:0|2:0,2:0:0:0:
187,90,131017,5,14,3:2:0:0:
292,118,131244,1,2,2:3:0:0:
182,118,131471,5,10,2:0:0:0:
288,94,131698,1,2,2:3:0:0:
338,190,131926,6,0,B|346:215|326:242|322:234|307:269|311:285,1,84,2|2,3:2|2:3,2:0:0:0:
317,322,132267,2,0,B|362:332|365:341|379:342|420:333,1,84,2|0,2:0|2:0,2:0:0:0:
444,306,132608,1,2,2:3:0:0:
486,205,132835,5,2,3:2:0:0:
462,155,132948,1,2,2:0:0:0:
437,105,133062,1,2,2:3:0:0:
451,213,133289,5,10,2:0:0:0:
484,109,133517,1,2,2:3:0:0:
399,39,133744,2,0,B|372:36|359:27|365:22|328:17|302:29,1,84,2|0,3:2|2:0,2:0:0:0:
265,40,134085,2,0,B|240:60|226:74|216:84|189:66,1,84,2|0,2:0|2:0,2:0:0:0:
154,31,134426,1,2,2:3:0:0:
62,91,134653,5,2,3:2:0:0:
92,195,134880,1,2,2:3:0:0:
93,85,135108,5,10,2:0:0:0:
61,189,135335,1,2,2:3:0:0:
85,295,135562,6,0,B|129:300|129:317|150:321|164:320,1,84,2|2,3:2|2:3,2:0:0:0:
218,313,135903,2,0,B|258:294|242:267|323:274|288:258|297:241,1,84,2|0,2:0|2:0,2:0:0:0:
342,262,136244,1,2,2:3:0:0:
441,307,136471,6,0,B|453:294|460:276|456:263|420:250|406:235|402:216|424:196|447:194|453:175|447:152,2,168,14|14|14,3:2|3:2|2:0,2:0:0:0:
342,353,137608,1,10,2:0:0:0:
236,326,137835,1,14,2:0:0:0:
126,320,138062,1,10,2:0:0:0:
99,214,138289,6,0,B|148:202|156:204|207:218,1,84,14|2,3:2|2:3,2:0:0:0:
230,237,138630,1,2,2:0:0:0:
276,266,138744,2,0,B|270:292|269:319|269:323,1,42,10|2,2:0|2:0,2:0:0:0:
379,286,139085,1,2,2:0:0:0:
379,286,139198,1,2,3:2:0:0:
359,178,139426,2,0,B|343:139|342:128|338:116|364:88,1,84,2|8,2:3|2:0,2:0:0:0:
269,33,139880,1,2,2:3:0:0:
201,118,140108,6,0,B|194:125|189:115|161:88|104:106,1,84,2|2,3:2|2:3,2:0:0:0:
79,136,140448,1,2,2:0:0:0:
85,244,140676,1,2,2:0:0:0:
27,337,140903,1,2,2:0:0:0:
27,337,141017,1,2,3:2:0:0:
131,370,141244,2,0,B|176:348|187:357|197:357|217:355|237:364,1,84,2|10,2:3|2:0,2:0:0:0:
291,282,141698,1,2,2:3:0:0:
395,249,141926,5,2,3:2:0:0:
332,159,142153,2,0,B|301:146|287:157|258:124|260:115,1,84,2|8,2:3|2:0,2:0:0:0:
203,27,142608,1,2,2:3:0:0:
113,89,142835,1,2,3:2:0:0:
9,124,143062,2,0,B|25:175|25:199|22:216|22:230,1,84,2|8,2:3|2:0,2:0:0:0:
37,314,143517,1,2,2:3:0:0:
139,276,143744,6,0,B|183:282|194:276|211:280|221:275|194:259|238:288|252:314|222:338,1,126,2|0,3:2|2:0,2:0:0:0:
275,356,144198,2,0,B|314:335|332:342|321:355|331:363|357:367|396:364|399:362,1,126,10|8,2:0|2:0,2:0:0:0:
438,329,144653,2,0,B|441:306|448:301|440:302|453:277|462:266,1,42,2|8,3:2|2:0,2:0:0:0:
418,242,144880,1,2,3:0:0:0:
353,154,145108,2,0,B|293:151|315:135|276:164|238:158,1,84,10|10,2:0|2:0,2:0:0:0:
181,219,145562,6,0,B|139:206|128:206|109:207|88:197|76:176,1,84,14|2,3:2|3:0,2:0:0:0:
66,154,145903,1,2,2:0:0:0:
53,101,146017,2,0,B|40:88|32:99|22:99|10:90,2,42,10|2|2,2:0|2:0|2:3,2:0:0:0:
139,34,146471,1,2,3:2:0:0:
236,82,146698,2,0,B|279:75|290:90|310:92|346:79,1,84,2|8,2:3|2:0,2:0:0:0:
425,114,147153,1,2,2:3:0:0:
505,187,147380,6,0,B|488:244|494:269|480:281|474:293,1,84,2|2,3:2|2:3,2:0:0:0:
442,301,147721,1,2,2:0:0:0:
338,265,147948,1,2,2:0:0:0:
338,265,148062,1,2,2:3:0:0:
257,191,148289,1,2,3:2:0:0:
149,210,148517,2,0,B|105:209|90:215|88:187|88:178|66:140,1,84,2|8,2:3|2:0,2:0:0:0:
40,74,148971,1,2,2:3:0:0:
93,65,149085,1,2,2:0:0:0:
142,37,149198,5,2,3:2:0:0:
249,55,149426,2,0,B|305:57|282:71|316:78|336:79,1,84,2|8,2:3|2:0,2:0:0:0:
436,57,149880,1,2,2:3:0:0:
466,102,149994,1,2,2:0:0:0:
463,156,150108,1,2,3:2:0:0:
410,251,150335,2,0,B|419:274|413:291|426:301|402:336|399:343,1,84,2|10,2:3|2:0,2:0:0:0:
302,371,150789,1,2,2:3:0:0:
248,297,151017,6,0,B|244:293|236:282|237:280|243:274|247:272|252:269|258:264|259:263|254:257|254:258|242:255|242:254|226:240|226:239|229:220|246:226|254:227|278:220|297:213|301:209|299:195|297:180,2,140,2|2|2,3:2|2:0|2:0,2:0:0:0:
199,332,152077,6,0,P|175:340|136:343,1,46.6666666666667,2|2,0:0|0:0,0:0:0:0:
99,315,152380,2,0,P|76:309|36:314,2,46.6666666666667,2|2|2,0:0|0:0|0:0,0:0:0:0:
