osu file format v14

[General]
AudioFilename: audio.mp3
AudioLeadIn: 0
PreviewTime: 49085
Countdown: 0
SampleSet: Soft
StackLeniency: 0.7
Mode: 0
LetterboxInBreaks: 0
WidescreenStoryboard: 1

[Editor]
Bookmarks: 18238,34602,63693,78238,92783,107329,120108,123693,151017
DistanceSpacing: 1.3
BeatDivisor: 8
GridSize: 32
TimelineZoom: 1.4

[Metadata]
Title:p.h.
TitleUnicode:p.h.
Artist:sekai
ArtistUnicode:sekai
Creator:Petal
Version:Normal
Source:
Tags:flower vocaloid cover full japanese jpop pop j-pop Number Compilation Album SEVENTHLINKS SEVENTH LINKS トキチアキ はるお 中村涼真 yugu wanpachi Cycopton namki matha Mononymous
BeatmapID:3004054
BeatmapSetID:1461554

[Difficulty]
HPDrainRate:4
CircleSize:3.5
OverallDifficulty:4
ApproachRate:5.5
SliderMultiplier:0.999999999999999
SliderTickRate:1

[Events]
//Background and Video events
0,0,"BG.jpg",0,0
//Break Periods
2,107381,113528
//Storyboard Layer 0 (Background)
//Storyboard Layer 1 (Fail)
//Storyboard Layer 2 (Pass)
//Storyboard Layer 3 (Foreground)
//Storyboard Layer 4 (Overlay)
//Storyboard Sound Samples

[TimingPoints]
108,454.545454545455,4,2,1,50,1,0
5562,-76.9230769230769,4,2,2,60,0,0
5902,-76.9230769230769,4,2,1,60,0,0
12835,-76.9230769230769,4,2,2,60,0,0
13175,-76.9230769230769,4,2,1,60,0,0
20108,-90.9090909090909,4,2,2,50,0,0
20562,-90.9090909090909,4,2,1,50,0,0
27380,-90.9090909090909,4,2,2,50,0,0
27834,-90.9090909090909,4,2,1,50,0,0
34653,-90.9090909090909,4,2,2,40,0,0
35108,-90.9090909090909,4,2,1,40,0,0
46017,-90.9090909090909,4,2,1,50,0,0
48062,-90.9090909090909,4,2,1,55,0,0
48289,-90.9090909090909,4,2,1,60,0,0
49198,-76.9230769230769,4,2,2,75,0,1
49425,-76.9230769230769,4,2,1,75,0,1
56471,-76.9230769230769,4,2,2,75,0,1
56698,-76.9230769230769,4,2,1,75,0,1
61926,-76.9230769230769,4,2,1,60,0,0
63744,-90.9090909090909,4,2,2,50,0,0
64198,-90.9090909090909,4,2,1,50,0,0
71017,-90.9090909090909,4,2,2,50,0,0
71471,-90.9090909090909,4,2,1,50,0,0
78289,-90.9090909090909,4,2,2,40,0,0
78744,-90.9090909090909,4,2,1,40,0,0
91471,-90.9090909090909,4,2,1,50,0,0
91926,-90.9090909090909,4,2,1,60,0,0
92153,-90.9090909090909,4,2,1,50,0,0
92380,-90.9090909090909,4,2,1,40,0,0
92608,-90.9090909090909,4,2,1,30,0,0
92835,-76.9230769230769,4,2,2,75,0,1
93062,-76.9230769230769,4,2,1,75,0,1
100108,-76.9230769230769,4,2,2,75,0,1
100335,-76.9230769230769,4,2,1,75,0,1
105562,-76.9230769230769,4,2,1,60,0,0
114653,-76.9230769230769,4,2,1,75,0,0
120108,-76.9230769230769,4,2,1,60,0,0
121926,-76.9230769230769,4,2,1,75,0,0
123744,-76.9230769230769,4,2,1,55,0,0
124198,-76.9230769230769,4,2,2,80,0,1
124426,-76.9230769230769,4,2,1,80,0,1
131017,-76.9230769230769,4,2,2,80,0,1
131244,-76.9230769230769,4,2,1,80,0,1
136471,-76.9230769230769,4,2,1,80,0,0
138289,-76.9230769230769,4,2,2,80,0,1
138743,-76.9230769230769,4,2,1,80,0,1
145562,-76.9230769230769,4,2,2,80,0,1
146016,-76.9230769230769,4,2,1,80,0,1
151017,-76.9230769230769,4,2,1,65,0,0
152778,-76.9230769230769,4,2,1,25,0,0

[Colours]
Combo1 : 98,193,187
Combo2 : 231,85,70
Combo3 : 255,224,50
Combo4 : 170,85,152

[HitObjects]
48,32,3744,6,0,L|5:20,2,33.3333333333333,2|2|2,3:2|2:0|2:0,2:0:0:0:
83,55,4198,2,0,L|126:43,2,33.3333333333333,2|2|2,3:2|2:0|2:0,2:0:0:0:
56,89,4653,6,0,L|74:191,1,99.9999999999999,10|10,2:0|2:0,2:0:0:0:
130,344,5562,6,0,L|17:363,2,97.4999999999999,6|2|2,3:2|2:0|2:3,2:0:0:0:
184,279,6471,2,0,P|240:281|286:343,1,130,2|10,3:2|2:0,2:0:0:0:
352,384,7153,1,2,2:3:0:0:
418,333,7380,2,0,L|521:359,2,97.4999999999999,2|2|2,3:2|2:0|2:3,2:0:0:0:
362,269,8289,2,0,P|346:217|405:155,1,130,2|10,3:2|2:0,2:0:0:0:
469,138,8971,1,2,2:3:0:0:
408,79,9198,6,0,L|290:91,2,97.4999999999999,2|2|2,3:2|2:0|2:3,2:0:0:0:
469,138,10108,1,2,3:2:0:0:
444,218,10335,1,2,2:3:0:0:
489,289,10562,1,10,2:0:0:0:
445,361,10789,1,2,2:3:0:0:
373,316,11017,6,0,L|362:257,2,48.75,2|2|2,3:2|2:0|2:0,2:0:0:0:
335,336,11471,2,0,L|343:383,2,48.75,10|2|10,2:0|2:0|2:0,2:0:0:0:
295,321,11926,1,2,3:2:0:0:
220,361,12153,1,2,2:3:0:0:
143,324,12380,2,0,P|133:285|147:257,1,65,10|10,2:0|2:0,2:0:0:0:
181,189,12835,6,0,L|157:87,2,97.4999999999999,6|2|2,3:2|2:0|2:3,2:0:0:0:
250,239,13744,2,0,P|299:243|361:191,1,130,2|10,3:2|2:0,2:0:0:0:
345,111,14426,1,2,2:3:0:0:
433,98,14653,2,0,L|450:-19,2,97.4999999999999,2|2|2,3:2|2:0|2:3,2:0:0:0:
499,150,15562,2,0,L|482:234,1,65,2|2,3:2|2:3,2:0:0:0:
415,259,16017,1,10,2:0:0:0:
359,194,16244,1,2,2:3:0:0:
308,261,16471,6,0,L|210:279,2,97.4999999999999,2|2|2,3:2|2:0|2:3,2:0:0:0:
359,194,17380,1,2,3:2:0:0:
415,259,17608,1,0,2:0:0:0:
378,335,17835,2,0,L|304:348,1,65,10|2,2:0|2:3,2:0:0:0:
234,375,18289,6,0,L|95:350,2,130,6|6|6,3:2|3:2|3:2,2:0:0:0:
495,181,20108,6,0,L|472:49,1,110,6|10,3:2|2:0,2:0:0:0:
413,27,20789,1,2,2:0:0:0:
355,78,21017,2,0,P|295:91|245:55,1,110,2|8,3:2|2:0,2:0:0:0:
110,15,21926,6,0,L|122:81,1,55,2|2,3:2|2:0,2:0:0:0:
105,145,22380,2,0,P|76:159|44:146,1,55,10|2,2:0|2:0,2:0:0:0:
16,221,22835,2,0,L|36:347,1,110,2|10,3:2|2:0,2:0:0:0:
179,379,23744,6,0,L|248:366,1,55,2|2,3:2|2:0,2:0:0:0:
285,312,24198,1,10,2:0:0:0:
341,364,24426,1,2,2:0:0:0:
396,310,24653,2,0,P|407:248|446:208,1,110,2|10,3:2|2:0,2:0:0:0:
311,124,25562,6,0,P|303:70|269:27,1,110,2|10,3:2|2:0,2:0:0:0:
196,5,26244,1,2,2:0:0:0:
155,70,26471,2,0,L|41:57,1,110,2|8,3:2|2:0,2:0:0:0:
3,122,27153,1,8,2:0:0:0:
58,175,27380,6,0,B|86:218|86:218|58:283,1,110,6|10,3:2|2:0,2:0:0:0:
25,339,28062,1,2,2:0:0:0:
98,360,28289,2,0,L|159:373,1,55,2|2,3:2|2:0,2:0:0:0:
215,327,28744,1,8,2:0:0:0:
361,373,29198,6,0,L|374:308,1,55,2|2,3:2|2:0,2:0:0:0:
341,247,29653,1,10,2:0:0:0:
403,202,29880,1,2,2:0:0:0:
345,150,30108,2,0,P|286:144|248:191,1,110,0|10,3:0|2:0,2:0:0:0:
207,240,30789,1,2,2:0:0:0:
135,267,31017,6,0,L|8:236,1,110,2|10,3:2|2:0,2:0:0:0:
2,88,31926,2,0,L|14:32,2,55,2|2|10,3:2|2:0|2:0,2:0:0:0:
56,142,32608,1,2,2:0:0:0:
124,107,32835,2,0,P|187:103|220:154,1,110,2|10,3:2|2:0,2:0:0:0:
270,189,33517,1,2,2:0:0:0:
327,137,33744,2,0,P|345:79|382:34,1,110,2|10,3:2|3:2,2:0:0:0:
507,118,34653,5,10,3:2:0:0:
378,202,35108,2,0,P|410:245|425:298,1,110,10|2,2:0|3:2,2:0:0:0:
294,380,36017,5,10,2:0:0:0:
224,346,36244,2,0,L|167:360,1,55,2|0,2:0|3:0,2:0:0:0:
33,288,36926,5,10,2:0:0:0:
103,253,37153,2,0,L|160:267,1,55,2|0,2:0|3:0,2:0:0:0:
279,174,37835,5,10,2:0:0:0:
209,139,38062,2,0,L|152:153,1,55,2|0,2:0|3:0,2:0:0:0:
34,57,38744,5,10,2:0:0:0:
178,5,39198,1,2,3:2:0:0:
322,58,39653,5,10,2:0:0:0:
268,120,39880,2,0,L|280:181,1,55,2|2,2:0|3:2,2:0:0:0:
432,182,40562,5,10,2:0:0:0:
486,244,40789,2,0,L|474:305,1,55,2|0,2:0|3:0,2:0:0:0:
419,350,41244,2,0,L|348:358,2,55,2|10|2,2:0|2:0|2:0,2:0:0:0:
488,382,41926,5,0,3:0:0:0:
390,262,42380,2,0,P|334:263|293:308,1,110,10|2,2:0|3:2,2:0:0:0:
162,373,43289,5,10,2:0:0:0:
105,321,43517,2,0,L|95:255,1,55,2|0,2:0|3:0,2:0:0:0:
246,230,44198,5,10,2:0:0:0:
303,178,44426,2,0,L|313:112,1,55,2|0,2:0|3:0,2:0:0:0:
204,12,45108,5,10,2:0:0:0:
161,76,45335,2,0,L|98:89,1,55,2|0,2:0|3:0,2:0:0:0:
6,203,46017,6,0,P|58:205|101:250,1,110,10|2,2:0|3:2,2:0:0:0:
238,179,46926,2,0,L|226:112,1,55,8|2,2:0|2:0,2:0:0:0:
177,66,47380,1,2,3:2:0:0:
226,7,47608,2,0,P|264:0|328:36,1,110,2|2,2:0|2:0,2:0:0:0:
358,101,48289,1,10,2:0:0:0:
460,197,49198,6,0,L|446:271,1,65,14|2,3:2|2:3,2:0:0:0:
396,328,49653,2,0,P|349:323|325:287,1,65,10|2,2:0|2:3,2:0:0:0:
278,251,50108,2,0,L|145:275,1,130,2|10,3:2|2:0,2:0:0:0:
87,330,50789,1,2,2:3:0:0:
30,267,51017,6,0,P|19:229|39:194,1,65,2|2,3:2|2:3,2:0:0:0:
94,153,51471,2,0,P|105:115|85:80,1,65,10|2,2:0|2:3,2:0:0:0:
67,13,51926,2,0,P|95:45|190:38,1,130,2|10,3:2|2:0,2:0:0:0:
251,88,52608,1,2,2:3:0:0:
331,63,52835,6,0,L|323:-11,2,65,2|2|10,3:2|2:3|2:0,2:0:0:0:
310,145,53517,1,2,2:3:0:0:
384,185,53744,2,0,P|312:188|267:234,1,130,2|10,3:2|2:0,2:0:0:0:
212,286,54426,1,2,2:3:0:0:
270,347,54653,6,0,L|415:324,1,130,2|10,3:2|2:0,2:0:0:0:
469,371,55335,1,2,2:3:0:0:
507,295,55562,2,0,P|514:246|465:182,1,130,2|10,3:2|2:0,2:0:0:0:
388,210,56244,1,8,2:0:0:0:
339,141,56471,6,0,L|356:66,1,65,14|2,3:2|2:3,2:0:0:0:
292,19,56926,2,0,P|253:18|223:44,1,65,10|2,2:0|2:3,2:0:0:0:
162,80,57380,2,0,P|108:93|50:56,2,97.4999999999999,2|2|2,3:2|2:0|2:3,2:0:0:0:
237,119,58289,5,2,3:2:0:0:
172,173,58517,1,2,2:3:0:0:
233,231,58744,2,0,L|243:311,1,65,10|2,2:0|2:3,2:0:0:0:
177,350,59198,2,0,P|126:348|83:284,1,130,2|10,3:2|2:0,2:0:0:0:
18,233,59880,1,2,2:3:0:0:
79,175,60108,6,0,L|150:187,1,65,2|2,3:2|2:3,2:0:0:0:
207,240,60562,2,0,L|271:229,1,65,10|2,2:0|2:3,2:0:0:0:
316,157,61017,2,0,P|326:101|392:41,1,130,2|10,3:2|2:0,2:0:0:0:
439,103,61698,1,2,2:3:0:0:
511,59,61926,5,6,3:2:0:0:
124,6,63744,6,0,P|107:58|84:132,1,110,6|10,3:2|2:0,2:0:0:0:
22,146,64426,1,2,2:0:0:0:
62,211,64653,2,0,P|113:234|168:200,1,110,2|10,3:2|2:0,2:0:0:0:
201,148,65335,1,2,2:0:0:0:
258,199,65562,6,0,L|252:261,1,55,0|2,3:0|2:0,2:0:0:0:
192,301,66017,2,0,L|186:355,1,55,10|2,2:0|2:0,2:0:0:0:
260,378,66471,2,0,P|310:381|362:336,1,110,2|10,3:2|2:0,2:0:0:0:
483,259,67380,6,0,L|474:196,1,55,2|2,3:2|2:0,2:0:0:0:
488,128,67835,1,10,2:0:0:0:
414,105,68062,1,2,2:0:0:0:
423,28,68289,2,0,P|392:61|311:56,1,110,2|10,3:2|2:0,2:0:0:0:
264,24,68971,1,2,2:0:0:0:
216,84,69198,5,2,3:2:0:0:
146,50,69426,1,0,2:0:0:0:
97,109,69653,2,0,L|108:163,1,55,10|2,2:0|2:0,2:0:0:0:
154,224,70108,2,0,P|137:270|116:342,1,110,2|10,3:2|2:0,2:0:0:0:
180,376,70789,1,10,2:0:0:0:
246,337,71017,6,0,B|313:343|282:370|357:369,1,110,6|10,3:2|2:0,2:0:0:0:
415,330,71698,1,2,2:0:0:0:
362,273,71926,2,0,P|352:224|334:159,1,110,2|10,3:2|2:0,2:0:0:0:
290,103,72608,1,2,2:0:0:0:
351,56,72835,6,0,P|403:56|439:122,1,110,2|10,3:2|2:0,2:0:0:0:
499,144,73517,1,2,2:0:0:0:
444,199,73744,2,0,L|382:190,1,55,2|2,3:2|2:0,2:0:0:0:
325,233,74198,1,10,2:0:0:0:
240,361,74653,6,0,P|248:319|266:299,1,55,2|2,3:2|2:0,2:0:0:0:
218,241,75108,2,0,P|216:213|203:189,1,55,10|2,2:0|2:0,2:0:0:0:
253,131,75562,2,0,P|275:102|297:17,1,110,2|10,3:2|2:0,2:0:0:0:
225,2,76244,1,2,2:0:0:0:
175,60,76471,6,0,P|134:77|105:74,1,55,2|2,3:2|2:0,2:0:0:0:
51,51,76926,2,0,P|11:60|-8:82,1,55,10|2,2:0|2:0,2:0:0:0:
39,135,77380,2,0,P|52:186|65:259,1,110,2|10,3:2|2:0,2:0:0:0:
169,353,78289,5,10,3:2:0:0:
284,251,78744,2,0,P|293:220|347:152,1,110,10|2,2:0|3:2,2:0:0:0:
277,17,79653,5,10,2:0:0:0:
213,60,79880,2,0,L|150:49,1,55,2|0,2:0|3:0,2:0:0:0:
21,119,80562,5,10,2:0:0:0:
85,162,80789,2,0,L|148:151,1,55,2|0,2:0|3:0,2:0:0:0:
276,222,81471,5,10,2:0:0:0:
212,265,81698,2,0,L|149:254,1,55,2|0,2:0|3:0,2:0:0:0:
248,380,82380,5,10,2:0:0:0:
397,344,82835,1,2,3:2:0:0:
464,205,83289,5,10,2:0:0:0:
395,170,83517,2,0,P|362:171|338:197,1,55,2|2,2:0|3:2,2:0:0:0:
276,321,84198,5,10,2:0:0:0:
207,356,84426,2,0,P|174:355|150:329,1,55,2|0,2:0|3:0,2:0:0:0:
92,300,84880,1,2,2:0:0:0:
128,232,85108,2,0,L|144:167,1,55,10|10,2:0|2:0,2:0:0:0:
109,107,85562,5,2,3:2:0:0:
226,7,86017,2,0,P|268:31|344:32,1,110,10|2,2:0|3:2,2:0:0:0:
466,104,86926,5,10,2:0:0:0:
395,135,87153,2,0,P|408:171|412:202,1,55,2|0,2:0|3:0,2:0:0:0:
257,203,87835,5,10,2:0:0:0:
328,234,88062,2,0,P|315:270|311:301,1,55,2|0,2:0|3:0,2:0:0:0:
465,301,88744,5,10,2:0:0:0:
394,332,88971,2,0,P|407:368|411:399,1,55,2|0,2:0|3:0,2:0:0:0:
258,354,89653,6,0,P|173:329|131:328,1,110,10|2,2:0|3:2,2:0:0:0:
95,276,90335,1,2,2:0:0:0:
18,284,90562,2,0,L|5:224,1,55,10|2,2:0|2:0,2:0:0:0:
43,162,91017,5,2,3:2:0:0:
192,200,91471,1,0,3:0:0:0:
274,70,91926,2,0,L|262:6,2,55,10|10|10,2:0|2:0|2:0,2:0:0:0:
342,105,92608,1,10,2:0:0:0:
302,179,92835,6,0,L|233:168,1,65,14|2,3:2|2:3,2:0:0:0:
168,217,93289,2,0,L|103:206,1,65,10|2,2:0|2:3,2:0:0:0:
26,171,93744,2,0,P|56:205|48:289,1,130,2|10,3:2|2:0,2:0:0:0:
0,353,94426,1,2,2:3:0:0:
80,380,94653,6,0,L|163:360,1,65,2|2,3:2|2:3,2:0:0:0:
202,305,95108,1,10,2:0:0:0:
269,355,95335,1,2,2:3:0:0:
328,295,95562,2,0,P|340:229|387:163,1,130,2|8,3:2|2:0,2:0:0:0:
435,119,96244,1,2,2:3:0:0:
361,77,96471,6,0,L|341:7,2,65,2|2|10,3:2|2:3|2:0,2:0:0:0:
435,119,97153,1,2,2:3:0:0:
373,176,97380,2,0,B|296:165|324:218|242:206,1,130,2|10,3:2|2:0,2:0:0:0:
185,154,98062,1,2,2:3:0:0:
148,229,98289,6,0,P|168:273|184:343,2,97.4999999999999,2|2|2,3:2|2:0|2:3,2:0:0:0:
76,183,99198,2,0,P|61:128|78:107,1,65,2|2,3:2|3:0,2:0:0:0:
98,47,99653,2,0,L|184:61,1,65,10|8,2:0|2:0,2:0:0:0:
236,18,100108,6,0,P|281:27|294:66,1,65,14|2,3:2|2:3,2:0:0:0:
297,125,100562,1,10,2:0:0:0:
228,174,100789,1,2,2:3:0:0:
280,240,101017,2,0,P|300:292|306:348,2,97.4999999999999,2|2|2,3:2|2:0|2:3,2:0:0:0:
228,174,101926,6,0,P|193:191|155:188,1,65,2|2,3:2|2:3,2:0:0:0:
91,154,102380,2,0,L|77:86,1,65,10|2,2:0|2:3,2:0:0:0:
6,135,102835,2,0,L|32:268,1,130,2|10,3:2|2:0,2:0:0:0:
19,346,103517,1,2,2:3:0:0:
102,330,103744,6,0,P|154:339|188:355,1,65,2|2,3:2|2:3,2:0:0:0:
239,383,104198,1,10,2:0:0:0:
283,311,104426,1,2,2:3:0:0:
355,354,104653,2,0,P|416:348|448:290,1,130,2|10,3:2|2:0,2:0:0:0:
390,230,105335,1,2,2:3:0:0:
444,165,105562,5,6,3:2:0:0:
4,20,114653,6,0,P|63:24|147:58,1,130,6|8,3:2|2:0,2:0:0:0:
159,126,115335,1,2,2:3:0:0:
240,156,115562,2,0,P|299:152|383:118,1,130,2|8,3:2|2:0,2:0:0:0:
421,62,116244,1,2,2:3:0:0:
491,107,116471,6,0,P|509:146|488:241,1,130,2|8,3:2|2:0,2:0:0:0:
449,300,117153,1,2,2:3:0:0:
378,257,117380,2,0,L|246:278,1,130,2|10,3:2|2:0,2:0:0:0:
111,374,118289,6,0,P|136:307|113:235,1,130,2|10,3:2|2:0,2:0:0:0:
49,209,118971,1,2,2:3:0:0:
110,151,119198,2,0,L|187:165,1,65,2|2,3:2|2:3,2:0:0:0:
248,122,119653,2,0,L|325:133,1,65,10|2,2:0|2:3,2:0:0:0:
370,193,120108,5,10,0:0:0:0:
473,59,120562,1,10,0:0:0:0:
498,226,121017,1,10,0:0:0:0:
402,365,121471,1,10,0:0:0:0:
262,268,121926,6,0,P|234:253|218:219,1,65,10|10,2:0|2:0,2:0:0:0:
160,163,122380,2,0,P|158:131|180:100,1,65,10|10,2:0|2:0,2:0:0:0:
240,50,122835,5,10,2:0:0:0:
325,39,123062,1,10,2:0:0:0:
389,93,123289,1,10,3:2:0:0:
375,176,123517,1,10,3:2:0:0:
406,254,123744,5,2,3:2:0:0:
298,380,124198,5,14,3:2:0:0:
277,298,124426,1,2,2:3:0:0:
195,320,124653,2,0,P|153:323|126:351,1,65,2|2,3:2|2:3,2:0:0:0:
52,354,125108,2,0,L|32:265,1,65,10|2,2:0|2:3,2:0:0:0:
21,207,125562,6,0,P|50:160|47:124,1,65,2|2,3:2|2:3,2:0:0:0:
18,70,126017,1,10,2:0:0:0:
70,3,126244,1,2,2:3:0:0:
135,56,126471,2,0,L|216:77,1,65,2|2,3:2|2:3,2:0:0:0:
268,118,126926,2,0,L|346:102,1,65,10|2,2:0|2:3,2:0:0:0:
404,148,127380,6,0,P|416:190|394:233,1,65,2|2,3:2|2:3,2:0:0:0:
341,257,127835,1,10,2:0:0:0:
273,206,128062,1,2,2:3:0:0:
196,241,128289,2,0,P|179:281|191:317,1,65,2|2,3:2|2:3,2:0:0:0:
220,376,128744,1,10,2:0:0:0:
292,332,128971,1,2,2:3:0:0:
365,373,129198,6,0,P|381:317|436:250,1,130,2|10,3:2|2:0,2:0:0:0:
385,184,129880,1,2,2:3:0:0:
460,146,130108,2,0,P|444:90|389:23,1,130,2|10,3:2|2:0,2:0:0:0:
324,69,130789,1,10,2:0:0:0:
249,29,131017,6,0,L|173:45,1,65,14|2,3:2|2:3,2:0:0:0:
117,93,131471,1,10,2:0:0:0:
45,47,131698,1,2,2:3:0:0:
12,124,131926,2,0,P|35:165|35:208,1,65,2|2,3:2|2:3,2:0:0:0:
75,257,132380,2,0,P|114:259|144:237,1,65,10|2,2:0|2:3,2:0:0:0:
191,183,132835,5,2,3:2:0:0:
263,227,133062,1,2,2:3:0:0:
331,175,133289,2,0,L|411:188,1,65,10|2,2:0|2:3,2:0:0:0:
462,237,133744,2,0,P|461:280|431:306,1,65,2|2,3:2|2:3,2:0:0:0:
364,284,134198,1,10,2:0:0:0:
303,342,134426,1,2,2:3:0:0:
229,299,134653,6,0,P|218:251|195:221,1,65,2|2,3:2|2:3,2:0:0:0:
155,173,135108,1,10,2:0:0:0:
198,97,135335,1,2,2:3:0:0:
133,42,135562,2,0,P|72:28|17:86,1,130,2|10,3:2|2:0,2:0:0:0:
61,143,136244,1,2,2:3:0:0:
20,216,136471,5,14,3:2:0:0:
89,369,136926,1,14,3:2:0:0:
182,227,137380,1,14,2:0:0:0:
250,381,137835,1,14,2:0:0:0:
345,241,138289,6,0,P|368:184|415:125,1,130,14|10,3:2|2:0,2:0:0:0:
488,98,138971,1,2,2:3:0:0:
447,24,139198,2,0,L|364:46,1,65,2|2,3:2|2:3,2:0:0:0:
306,74,139653,2,0,L|229:58,1,65,8|2,2:0|2:3,2:0:0:0:
158,47,140108,6,0,P|144:94|163:119,1,65,2|2,3:2|2:3,2:0:0:0:
204,170,140562,2,0,P|190:219|178:256,1,65,8|2,2:0|2:3,2:0:0:0:
194,316,141017,1,2,3:2:0:0:
127,368,141244,1,2,2:3:0:0:
54,325,141471,2,0,L|40:247,1,65,10|2,2:0|2:3,2:0:0:0:
6,184,141926,5,2,3:2:0:0:
76,136,142153,2,0,P|111:148|161:157,1,65,2|8,2:3|2:0,2:0:0:0:
198,94,142608,1,2,2:3:0:0:
279,117,142835,2,0,P|295:156|281:196,1,65,2|2,3:2|2:3,2:0:0:0:
244,243,143289,2,0,L|260:322,1,65,8|2,2:0|2:3,2:0:0:0:
320,363,143744,6,0,P|383:366|431:325,1,130,2|10,3:2|2:0,2:0:0:0:
405,244,144426,1,2,2:3:0:0:
477,199,144653,2,0,P|491:152|507:124,1,65,2|2,3:2|2:3,2:0:0:0:
471,57,145108,1,10,2:0:0:0:
399,102,145335,1,10,2:0:0:0:
337,43,145562,6,0,L|201:69,1,130,14|10,3:2|2:0,2:0:0:0:
149,126,146244,1,2,2:3:0:0:
83,73,146471,2,0,P|45:107|46:144,1,65,2|2,3:2|2:3,2:0:0:0:
8,194,146926,2,0,L|29:269,1,65,8|2,2:0|2:3,2:0:0:0:
106,284,147380,5,2,3:2:0:0:
172,232,147608,1,2,2:3:0:0:
242,278,147835,2,0,L|228:351,1,65,10|2,2:0|2:3,2:0:0:0:
313,356,148289,2,0,L|327:275,1,65,2|2,3:2|2:3,2:0:0:0:
299,210,148744,1,8,2:0:0:0:
376,177,148971,1,2,2:3:0:0:
326,108,149198,6,0,L|240:124,1,65,2|2,3:2|2:3,2:0:0:0:
187,80,149653,2,0,P|179:52|211:12,1,65,8|2,2:0|2:3,2:0:0:0:
278,14,150108,1,2,3:2:0:0:
360,31,150335,1,2,2:3:0:0:
441,54,150562,2,0,L|454:139,1,65,10|2,2:0|2:3,2:0:0:0:
464,201,151017,5,2,3:2:0:0:
256,192,151130,12,0,152778,2:0:0:0:
