osu file format v14

[General]
AudioFilename: audio.mp3
AudioLeadIn: 0
PreviewTime: 49085
Countdown: 0
SampleSet: Soft
StackLeniency: 0.3
Mode: 0
LetterboxInBreaks: 0
WidescreenStoryboard: 1

[Editor]
Bookmarks: 18238,34602,63693,78238,92783,107329,114654,120108,123693,138290,151017
DistanceSpacing: 1.1
BeatDivisor: 6
GridSize: 32
TimelineZoom: 3.199999

[Metadata]
Title:p.h.
TitleUnicode:p.h.
Artist:sekai
ArtistUnicode:sekai
Creator:Petal
Version:Namki's Extreme
Source:
Tags:flower vocaloid cover full japanese jpop pop j-pop Number Compilation Album SEVENTHLINKS SEVENTH LINKS トキチアキ はるお 中村涼真 yugu wanpachi Cycopton namki matha Mononymous
BeatmapID:3155890
BeatmapSetID:1461554

[Difficulty]
HPDrainRate:6
CircleSize:4.5
OverallDifficulty:8
ApproachRate:9
SliderMultiplier:1.8
SliderTickRate:1

[Events]
//Background and Video events
0,0,"BG.jpg",0,0
//Break Periods
//Storyboard Layer 0 (Background)
//Storyboard Layer 1 (Fail)
//Storyboard Layer 2 (Pass)
//Storyboard Layer 3 (Foreground)
//Storyboard Layer 4 (Overlay)
//Storyboard Sound Samples

[TimingPoints]
108,454.545454545455,4,2,1,50,1,0
5562,-79.3650793650794,4,2,2,60,0,0
5789,-79.3650793650794,4,2,1,60,0,0
12835,-79.3650793650794,4,2,2,60,0,0
13062,-79.3650793650794,4,2,1,60,0,0
18289,-100,4,2,1,60,0,0
19483,-100,4,2,1,40,0,0
20108,-100,4,2,2,50,0,0
20335,-100,4,2,1,50,0,0
27380,-100,4,2,2,50,0,0
27607,-100,4,2,1,50,0,0
34653,-142.857142857143,4,2,2,40,0,0
35107,-142.857142857143,4,2,1,40,0,0
46017,-142.857142857143,4,2,1,50,0,0
47835,-142.857142857143,4,2,1,55,0,0
48289,-142.857142857143,4,2,1,60,0,0
48517,-90.9090909090909,4,2,1,50,0,0
48744,-90.9090909090909,4,2,1,40,0,0
48971,-90.9090909090909,4,2,1,30,0,0
49198,-71.4285714285714,4,2,2,75,0,0
49254,-71.4285714285714,4,2,2,5,0,0
49426,-71.4285714285714,4,2,1,75,0,0
49482,-71.4285714285714,4,2,1,5,0,0
49653,-71.4285714285714,4,2,1,75,0,0
49709,-71.4285714285714,4,2,1,5,0,0
49880,-71.4285714285714,4,2,1,75,0,0
49936,-71.4285714285714,4,2,1,5,0,0
50108,-71.4285714285714,4,2,1,75,0,0
51073,-71.4285714285714,4,2,1,5,0,0
51244,-71.4285714285714,4,2,1,75,0,0
51300,-71.4285714285714,4,2,1,5,0,0
51471,-71.4285714285714,4,2,1,75,0,0
51527,-71.4285714285714,4,2,1,5,0,0
51698,-71.4285714285714,4,2,1,75,0,0
51754,-71.4285714285714,4,2,1,5,0,0
51812,-71.4285714285714,4,2,1,75,0,0
52891,-71.4285714285714,4,2,1,5,0,0
53062,-71.4285714285714,4,2,1,75,0,0
53118,-71.4285714285714,4,2,1,5,0,0
53289,-71.4285714285714,4,2,1,75,0,0
53345,-71.4285714285714,4,2,1,5,0,0
53517,-71.4285714285714,4,2,1,75,0,0
53573,-71.4285714285714,4,2,1,5,0,0
53630,-71.4285714285714,4,2,1,75,0,0
56471,-71.4285714285714,4,2,2,75,0,0
56698,-71.4285714285714,4,2,1,75,0,0
61926,-71.4285714285714,4,2,1,60,0,0
63119,-71.4285714285714,4,2,1,45,0,0
63744,-100,4,2,2,50,0,0
63971,-100,4,2,1,50,0,0
71017,-100,4,2,2,50,0,0
71357,-100,4,2,1,50,0,0
78289,-142.857142857143,4,2,2,40,0,0
78744,-142.857142857143,4,2,1,40,0,0
91244,-111.111111111111,4,2,1,40,0,0
91357,-111.111111111111,4,2,1,50,0,0
91471,-90.909090909091,4,2,1,50,0,0
91926,-90.909090909091,4,2,1,60,0,0
92153,-66.6666666666667,4,2,1,50,0,0
92380,-66.6666666666667,4,2,1,40,0,0
92608,-66.6666666666667,4,2,1,30,0,0
92835,-71.4285714285714,4,2,2,75,0,0
92891,-71.4285714285714,4,2,2,5,0,0
93062,-71.4285714285714,4,2,1,75,0,0
93118,-71.4285714285714,4,2,1,5,0,0
93289,-71.4285714285714,4,2,1,75,0,0
93345,-71.4285714285714,4,2,1,5,0,0
93517,-71.4285714285714,4,2,1,75,0,0
93573,-71.4285714285714,4,2,1,5,0,0
93744,-71.4285714285714,4,2,1,75,0,0
94709,-71.4285714285714,4,2,1,5,0,0
94880,-71.4285714285714,4,2,1,75,0,0
94936,-71.4285714285714,4,2,1,5,0,0
95108,-71.4285714285714,4,2,1,75,0,0
95164,-71.4285714285714,4,2,1,5,0,0
95335,-71.4285714285714,4,2,1,75,0,0
95391,-71.4285714285714,4,2,1,5,0,0
95448,-71.4285714285714,4,2,1,75,0,0
100108,-71.4285714285714,4,2,2,75,0,0
100335,-71.4285714285714,4,2,1,75,0,0
105562,-71.4285714285714,4,2,1,60,0,0
105732,-71.4285714285714,4,2,1,45,0,0
106471,-71.4285714285714,4,2,1,50,0,0
106926,-71.4285714285714,4,2,1,60,0,0
107608,-125,4,2,1,60,0,0
108289,-90.9090909090909,4,2,1,60,0,0
108744,-125,4,2,1,60,0,0
110259,-71.4285714285714,4,2,1,60,0,0
111017,-71.4285714285714,4,2,1,50,0,0
111471,-71.4285714285714,4,2,1,45,0,0
111926,-55.5555555555556,4,2,1,40,0,0
112380,-71.4285714285714,4,2,1,35,0,0
112835,-71.4285714285714,4,2,1,60,0,0
113744,-71.4285714285714,4,2,2,70,0,0
113895,-71.4285714285714,4,2,1,70,0,0
114653,-71.4285714285714,4,2,2,75,0,0
115108,-71.4285714285714,4,2,1,75,0,0
120108,-47.6190476190476,4,2,1,60,0,0
121926,-71.4285714285714,4,2,1,75,0,0
123289,-41.6666666666667,4,2,1,75,0,0
123744,-100,4,2,1,55,0,0
124198,-66.6666666666667,4,2,2,80,0,0
124426,-66.6666666666667,4,2,1,80,0,0
131017,-66.6666666666667,4,2,2,80,0,0
131244,-66.6666666666667,4,2,1,80,0,0
137380,-50,4,2,1,80,0,0
138289,-50,4,2,2,80,0,0
138403,-66.6666666666667,4,2,2,80,0,0
138630,-66.6666666666667,4,2,1,80,0,0
145562,-66.6666666666667,4,2,2,80,0,0
145789,-66.6666666666667,4,2,1,80,0,0
151017,-66.6666666666667,4,2,1,65,0,0
152778,-66.6666666666667,4,2,1,25,0,0

[Colours]
Combo1 : 98,193,187
Combo2 : 231,85,70
Combo3 : 255,224,50
Combo4 : 170,85,152

[HitObjects]
118,304,3744,5,2,3:2:0:0:
109,232,3895,1,2,2:0:0:0:
104,159,4047,1,2,2:0:0:0:
188,61,4198,5,2,3:2:0:0:
185,104,4350,1,2,2:0:0:0:
179,148,4501,1,2,2:0:0:0:
258,138,4653,5,10,2:0:0:0:
179,148,4804,1,10,2:0:0:0:
104,159,4956,1,10,2:0:0:0:
31,170,5108,1,10,2:0:0:0:
31,170,5562,6,0,P|95:180|119:249,1,113.4,6|2,3:2|2:3,2:0:0:0:
17,245,5903,1,2,2:0:0:0:
31,170,6017,2,0,L|40:89,1,56.7,10|0,2:0|2:0,2:0:0:0:
128,105,6244,2,0,L|119:24,1,56.7,2|0,2:3|2:0,2:0:0:0:
244,85,6471,5,2,3:2:0:0:
255,84,6585,1,2,2:0:0:0:
266,83,6698,1,2,2:3:0:0:
277,82,6812,1,2,2:0:0:0:
287,84,6926,2,0,B|320:95|320:95|336:181,1,113.4,10|2,2:0|2:3,2:0:0:0:
336,183,7267,1,2,2:0:0:0:
338,194,7380,6,0,B|369:219|369:219|468:217,1,113.4,2|2,3:2|2:3,2:0:0:0:
287,84,7721,2,0,B|249:98|249:98|202:185,1,113.4,2|0,2:0|2:0,2:0:0:0:
400,106,8062,2,0,B|406:66|406:66|354:-18,1,113.4,2|2,2:3|3:2,2:0:0:0:
368,3,8403,6,0,L|310:11,1,56.7,2|2,2:0|2:3,2:0:0:0:
203,24,8630,1,2,2:0:0:0:
169,93,8744,1,10,2:0:0:0:
190,101,8858,1,2,2:0:0:0:
212,102,8971,1,2,2:3:0:0:
234,98,9085,1,2,2:0:0:0:
203,24,9198,6,0,L|71:9,1,113.4,2|2,3:2|2:3,2:0:0:0:
64,146,9539,1,2,2:0:0:0:
0,103,9653,2,0,P|19:80|58:71,1,56.7,10|0,2:0|2:0,2:0:0:0:
90,11,9880,2,0,P|119:15|146:45,1,56.7,2|0,2:3|2:0,2:0:0:0:
64,146,10108,1,2,3:2:0:0:
259,88,10335,5,2,2:3:0:0:
338,80,10448,1,2,2:0:0:0:
417,74,10562,2,0,P|449:139|422:206,1,113.4,10|2,2:0|2:3,2:0:0:0:
321,292,11017,5,2,3:2:0:0:
294,212,11187,1,2,2:0:0:0:
268,133,11358,1,2,2:0:0:0:
294,212,11471,5,10,2:0:0:0:
275,267,11642,1,2,2:0:0:0:
256,323,11812,1,10,2:0:0:0:
272,273,11926,5,2,3:2:0:0:
259,234,12039,1,10,2:0:0:0:
246,196,12267,5,10,2:0:0:0:
237,200,12380,2,0,L|162:188,1,56.7,10|0,2:0|2:0,2:0:0:0:
105,180,12608,2,0,L|30:168,1,56.7,10|0,2:0|2:0,2:0:0:0:
49,171,12835,6,0,B|79:145|79:145|106:45,1,113.4,6|2,3:2|2:3,2:0:0:0:
108,272,13176,2,0,B|70:259|70:259|-29:285,1,113.4,2|0,2:0|2:0,2:0:0:0:
174,160,13517,2,0,B|181:198|181:198|254:272,1,113.4,2|2,2:3|3:2,2:0:0:0:
305,254,13858,1,2,2:0:0:0:
316,253,13971,1,2,2:3:0:0:
327,253,14085,1,2,2:0:0:0:
404,251,14198,2,0,L|533:267,1,113.4,10|2,2:0|2:3,2:0:0:0:
440,81,14539,5,2,2:0:0:0:
382,135,14653,2,0,P|368:157|379:236,2,56.7,2|0|2,3:2|2:0|2:3,2:0:0:0:
258,178,14994,2,0,P|284:212|283:297,1,113.4,2|0,2:0|2:0,2:0:0:0:
296,96,15335,2,0,L|231:91,1,56.7,2|0,2:3|2:0,2:0:0:0:
192,226,15562,5,2,3:2:0:0:
135,230,15676,1,2,2:0:0:0:
78,234,15789,1,2,2:3:0:0:
21,237,15903,1,2,2:0:0:0:
21,237,16017,6,0,L|39:162,1,56.7,10|2,2:0|2:0,2:0:0:0:
52,317,16244,2,0,P|74:341|143:344,1,56.7,2|2,2:3|2:0,2:0:0:0:
95,350,16471,6,0,L|253:332,1,113.4,2|2,3:2|2:3,2:0:0:0:
338,305,16812,2,0,L|225:318,1,113.4,2|0,2:0|2:0,2:0:0:0:
138,246,17153,2,0,P|136:207|158:168,1,56.7,2|0,2:3|2:0,2:0:0:0:
268,70,17380,5,2,3:2:0:0:
256,155,17608,1,2,2:3:0:0:
245,149,17721,1,2,2:0:0:0:
234,143,17835,1,10,2:0:0:0:
241,236,18062,1,2,2:3:0:0:
241,236,18289,6,0,L|82:209,1,135,6|0,3:2|2:0,2:0:0:0:
255,319,18744,6,0,B|294:312|294:312|357:194,1,135,6|0,3:2|2:0,2:0:0:0:
339,229,19198,6,0,L|403:217,1,45,6|0,3:2|2:0,2:0:0:0:
353,145,19483,5,8,2:0:0:0:
395,65,19653,1,8,2:0:0:0:
340,129,19823,5,8,2:0:0:0:
416,80,19994,1,8,2:0:0:0:
296,61,20108,6,0,L|174:77,1,90,6|2,3:2|2:0,2:0:0:0:
114,83,20448,1,2,2:0:0:0:
194,75,20562,2,0,B|220:103|220:103|227:165,1,90,10|2,2:0|2:0,2:0:0:0:
86,231,21017,6,0,B|97:194|97:194|147:157,1,90,2|0,3:2|2:0,2:0:0:0:
242,156,21358,1,0,2:0:0:0:
260,156,21471,2,0,B|261:194|261:194|300:242,1,90,8|0,2:0|2:0,2:0:0:0:
297,236,21812,1,0,2:0:0:0:
300,238,21926,6,0,L|303:317,1,45,2|2,3:2|2:0,2:0:0:0:
384,341,22153,2,0,L|385:296,1,45,2|0,2:0|2:0,2:0:0:0:
218,262,22380,2,0,L|148:273,1,45,10|2,2:0|2:0,2:0:0:0:
281,139,22608,2,0,L|325:145,1,45,2|0,2:0|2:0,2:0:0:0:
175,169,22835,5,2,3:2:0:0:
105,196,22948,2,0,B|75:161|75:161|72:102,1,90,2|2,2:0|2:0,2:0:0:0:
32,239,23289,2,0,L|15:343,1,90,10|0,2:0|2:0,2:0:0:0:
226,247,23744,5,2,3:2:0:0:
274,241,23858,1,2,2:0:0:0:
323,235,23971,1,2,2:0:0:0:
371,229,24085,1,2,2:0:0:0:
420,224,24198,2,0,L|429:167,1,45,10|2,2:0|2:0,2:0:0:0:
373,91,24426,1,2,2:0:0:0:
296,82,24539,2,0,L|303:126,1,45,2|0,2:0|3:0,2:0:0:0:
303,253,24767,5,2,2:0:0:0:
255,247,24880,1,2,2:0:0:0:
206,241,24994,1,2,2:0:0:0:
158,235,25108,2,0,P|147:216|135:181,1,45,10|2,2:0|2:0,2:0:0:0:
199,320,25335,2,0,L|260:327,1,45,0|0,2:0|2:0,2:0:0:0:
429,268,25562,5,2,3:2:0:0:
399,196,25676,2,0,P|349:192|321:222,1,90,2|0,2:0|2:0,2:0:0:0:
429,268,26017,1,10,2:0:0:0:
206,241,26244,5,2,2:0:0:0:
158,235,26358,1,8,2:0:0:0:
108,229,26471,1,2,3:2:0:0:
137,153,26585,2,0,L|196:162,1,45,8|0,2:0|2:0,2:0:0:0:
73,59,26812,1,8,2:0:0:0:
44,126,26926,2,0,L|-15:135,1,45,8|0,2:0|2:0,2:0:0:0:
92,218,27153,1,8,2:0:0:0:
317,209,27380,6,0,L|300:324,1,90,6|2,3:2|2:0,2:0:0:0:
402,193,27835,1,10,2:0:0:0:
239,231,28062,1,2,2:0:0:0:
239,231,28176,1,2,2:0:0:0:
239,231,28289,1,2,3:2:0:0:
328,106,28517,1,2,2:0:0:0:
331,92,28630,2,0,B|382:95|382:95|403:113|403:113|484:120,1,135,2|0,2:0|2:0,2:0:0:0:
191,144,29085,5,2,2:0:0:0:
185,68,29198,2,0,L|132:74,1,45,2|0,3:2|2:0,2:0:0:0:
65,80,29426,2,0,L|12:86,1,45,2|0,2:0|2:0,2:0:0:0:
191,144,29653,1,10,2:0:0:0:
61,274,29880,5,2,2:0:0:0:
108,338,29994,2,0,L|185:354,1,45,2|0,2:0|3:0,2:0:0:0:
61,274,30221,5,2,2:0:0:0:
55,261,30335,1,2,2:0:0:0:
152,347,30562,2,0,P|184:321|262:318,1,90,10|2,2:0|2:0,2:0:0:0:
442,263,31017,6,0,P|410:237|332:234,1,90,2|2,3:2|2:0,2:0:0:0:
286,234,31358,1,2,2:0:0:0:
363,227,31471,5,10,2:0:0:0:
358,196,31585,1,2,2:0:0:0:
350,165,31698,2,0,P|370:147|390:143,1,45,2|2,2:0|2:0,2:0:0:0:
286,234,31926,5,2,3:2:0:0:
202,224,32077,1,2,2:0:0:0:
118,214,32229,1,2,2:0:0:0:
35,198,32380,2,0,P|14:125|27:85,1,90,10|2,2:0|2:0,2:0:0:0:
246,118,32835,6,0,L|368:130,1,90,2|2,3:2|2:0,2:0:0:0:
412,134,33176,1,2,2:0:0:0:
278,239,33289,5,10,2:0:0:0:
304,235,33403,1,2,2:0:0:0:
381,220,33517,5,2,2:0:0:0:
407,215,33630,2,0,P|425:161|402:124,1,90,10|10,2:0|2:0,2:0:0:0:
304,235,34085,1,10,2:0:0:0:
228,219,34198,2,0,L|132:205,1,90,10|0,3:2|2:0,2:0:0:0:
138,206,34653,6,0,P|197:146|219:90,2,126,10|10|2,3:2|2:0|3:2,2:0:0:0:
298,179,35789,1,0,2:0:0:0:
285,182,35903,1,0,2:0:0:0:
272,184,36017,2,0,P|294:264|332:311,1,126,10|0,2:0|3:0,2:0:0:0:
190,314,36698,1,0,2:0:0:0:
190,314,36926,2,0,P|109:293|50:302,1,126,10|0,2:0|3:0,2:0:0:0:
67,297,37608,1,0,2:0:0:0:
168,126,37835,6,0,P|170:188|151:248,1,126,10|0,2:0|3:0,2:0:0:0:
168,126,38517,1,0,2:0:0:0:
151,248,38744,6,0,B|174:272|174:272|286:289,1,126,10|2,2:0|3:2,2:0:0:0:
320,220,39426,1,0,2:0:0:0:
345,339,39653,2,0,B|354:307|354:307|313:201,1,126,10|2,2:0|3:2,2:0:0:0:
223,144,40335,5,2,2:0:0:0:
303,82,40562,1,10,2:0:0:0:
319,221,40789,1,2,2:0:0:0:
223,144,41017,6,0,L|138:133,1,62.9999999999999,0|2,3:0|2:0,2:0:0:0:
85,122,41358,1,8,2:0:0:0:
69,120,41471,1,10,2:0:0:0:
207,58,41698,1,2,2:0:0:0:
138,210,41926,6,0,P|87:267|57:329,2,126,0|10|2,3:0|2:0|3:2,2:0:0:0:
163,301,43062,1,0,2:0:0:0:
164,313,43176,1,0,2:0:0:0:
166,325,43289,2,0,P|240:340|309:335,1,126,10|0,2:0|3:0,2:0:0:0:
241,243,43971,1,0,2:0:0:0:
241,243,44198,2,0,P|216:171|178:114,1,126,10|0,2:0|3:0,2:0:0:0:
190,128,44880,1,0,2:0:0:0:
382,118,45108,6,0,P|327:150|267:168,1,126,10|0,2:0|3:0,2:0:0:0:
300,237,45789,5,2,2:0:0:0:
209,130,46017,1,10,2:0:0:0:
190,128,46130,1,2,2:0:0:0:
171,126,46244,1,2,2:0:0:0:
196,282,46471,5,2,3:2:0:0:
131,218,46698,1,2,2:0:0:0:
99,222,46812,1,2,2:0:0:0:
91,104,47039,1,2,2:0:0:0:
59,99,47153,1,2,2:0:0:0:
28,94,47267,1,2,2:0:0:0:
28,94,47380,6,0,P|9:129|14:172,1,62.9999999999999,2|2,3:2|2:0,2:0:0:0:
135,253,47835,1,2,3:2:0:0:
143,266,47948,2,0,P|159:239|162:208,1,62.9999999999999,2|2,2:0|2:0,2:0:0:0:
111,134,48289,5,10,2:0:0:0:
189,129,48403,1,2,2:0:0:0:
272,123,48517,2,0,L|353:141,1,49.5,10|0,2:0|2:0,2:0:0:0:
400,154,48744,2,0,P|417:229|392:262,1,99,10|10,2:0|2:0,2:0:0:0:
232,308,49198,6,0,L|226:267,1,31.5,14|0,3:2|2:0,2:0:0:0:
102,294,49426,2,0,L|96:253,1,31.5,2|0,2:3|2:0,2:0:0:0:
246,322,49653,6,0,L|240:281,1,31.5,10|0,2:0|2:0,2:0:0:0:
375,338,49880,2,0,L|369:297,1,31.5,2|0,2:3|2:0,2:0:0:0:
232,308,50108,6,0,L|211:165,1,126,2|0,3:2|2:0,2:0:0:0:
204,106,50448,1,2,2:0:0:0:
282,144,50562,2,0,P|293:172|288:215,1,63,10|0,2:0|2:0,2:0:0:0:
150,222,50789,2,0,P|139:194|144:151,1,63,2|0,2:3|2:0,2:0:0:0:
204,106,51017,6,0,L|238:89,1,31.5,2|0,3:2|2:0,2:0:0:0:
5,125,51244,2,0,L|39:108,1,31.5,2|0,2:3|2:0,2:0:0:0:
219,110,51471,6,0,L|253:93,1,31.5,10|0,2:0|2:0,2:0:0:0:
418,91,51698,2,0,L|452:74,1,31.5,2|0,2:3|2:0,2:0:0:0:
451,64,51812,5,0,2:0:0:0:
459,51,51926,2,0,B|475:86|475:86|468:187,1,126,2|2,3:2|2:3,2:0:0:0:
413,233,52267,1,2,2:0:0:0:
442,312,52380,2,0,P|468:290|505:290,1,63,10|0,2:0|2:0,2:0:0:0:
331,228,52608,2,0,L|256:212,1,63,2|0,2:3|2:0,2:0:0:0:
71,204,52835,6,0,L|35:240,1,31.5,2|0,3:2|2:0,2:0:0:0:
197,292,53062,2,0,L|246:304,1,31.5,2|0,2:3|2:0,2:0:0:0:
143,126,53289,6,0,L|107:162,1,31.5,10|0,2:0|2:0,2:0:0:0:
269,214,53517,2,0,L|318:226,1,31.5,2|0,2:3|2:0,2:0:0:0:
325,285,53630,1,0,2:0:0:0:
386,247,53744,2,0,P|413:195|392:122,1,126,2|0,3:2|2:0,2:0:0:0:
447,66,54085,1,2,2:0:0:0:
387,122,54198,1,10,2:0:0:0:
206,84,54426,5,2,2:3:0:0:
261,95,54539,1,2,2:0:0:0:
206,71,54653,2,0,L|55:86,1,126,2|2,3:2|2:3,2:0:0:0:
268,321,54994,1,0,2:0:0:0:
336,325,55108,2,0,L|487:340,1,126,10|2,2:0|2:3,2:0:0:0:
424,294,55448,1,10,2:0:0:0:
407,239,55562,1,2,3:2:0:0:
414,183,55676,1,8,2:0:0:0:
424,189,55789,1,2,2:3:0:0:
335,219,55903,5,8,2:0:0:0:
262,189,56017,2,0,P|236:174|181:173,1,63,10|0,2:0|2:0,2:0:0:0:
207,249,56244,2,0,P|181:264|152:311,1,63,8|0,2:0|2:0,2:0:0:0:
335,219,56471,6,0,L|350:76,1,126,14|2,3:2|2:3,2:0:0:0:
449,70,56812,1,0,2:0:0:0:
425,147,56926,2,0,L|493:139,1,63,10|0,2:0|2:0,2:0:0:0:
356,17,57153,2,0,L|288:9,1,63,2|0,2:3|2:0,2:0:0:0:
117,149,57380,6,0,P|213:145|243:88,1,126,2|0,3:2|2:0,2:0:0:0:
233,55,57721,1,2,2:0:0:0:
239,135,57835,2,0,P|265:157|305:167,1,63,10|0,2:0|2:0,2:0:0:0:
309,257,58062,2,0,P|341:245|369:215,1,63,2|0,2:3|2:3,2:0:0:0:
196,345,58289,5,2,3:2:0:0:
127,331,58403,1,2,2:0:0:0:
59,318,58517,1,2,2:3:0:0:
205,254,58744,5,10,2:0:0:0:
253,244,58858,1,0,2:0:0:0:
300,235,58971,2,0,P|314:201|313:184,3,31.5,2|0|0|0,2:3|2:0|2:0|2:0,2:0:0:0:
349,137,59198,6,0,P|370:223|400:286,1,126,2|2,3:2|2:3,2:0:0:0:
399,247,59539,1,2,2:0:0:0:
417,243,59653,2,0,P|396:329|366:392,1,126,10|2,2:0|2:3,2:0:0:0:
224,173,60108,6,0,L|129:182,1,63,2|0,3:2|2:0,2:0:0:0:
365,126,60335,2,0,L|270:135,1,63,2|0,2:3|2:0,2:0:0:0:
216,189,60562,6,0,L|121:198,1,63,10|0,2:0|2:0,2:0:0:0:
75,236,60789,2,0,L|-20:245,1,63,2|0,2:3|2:0,2:0:0:0:
153,194,61017,6,0,B|191:215|191:215|293:228,1,126,2|2,3:2|2:3,2:0:0:0:
349,231,61358,1,2,2:0:0:0:
270,237,61471,2,0,B|240:248|240:248|210:271,1,63,10|0,2:0|2:0,2:0:0:0:
168,329,61698,1,2,2:3:0:0:
165,341,61812,1,2,2:0:0:0:
88,247,61926,5,6,3:2:0:0:
512,172,62835,6,0,P|465:186|465:118,1,125.999996154785,0|0,3:0|0:0,0:0:0:0:
449,115,63119,5,8,2:0:0:0:
353,73,63289,1,8,2:0:0:0:
421,46,63460,1,8,2:0:0:0:
380,144,63630,1,8,2:0:0:0:
328,265,63744,6,0,L|343:369,1,90,6|2,3:2|2:0,2:0:0:0:
245,262,64198,1,10,2:0:0:0:
400,220,64426,1,2,2:0:0:0:
400,220,64539,1,2,2:0:0:0:
400,220,64653,2,0,P|454:192|486:225,1,90,2|2,3:2|2:0,2:0:0:0:
447,273,64994,1,2,2:0:0:0:
319,206,65108,2,0,P|320:177|333:152,2,45,10|2|2,2:0|2:0|2:0,2:0:0:0:
250,316,65562,5,2,3:2:0:0:
233,295,65676,1,2,2:0:0:0:
226,268,65789,1,2,2:0:0:0:
193,359,66017,5,10,2:0:0:0:
148,327,66130,1,2,2:0:0:0:
118,281,66244,1,2,2:0:0:0:
226,268,66471,6,0,P|252:199|287:197,1,90,2|2,3:2|2:0,2:0:0:0:
298,295,66926,2,0,P|331:267|331:223,1,90,10|0,2:0|2:0,2:0:0:0:
342,230,67267,1,0,2:0:0:0:
408,289,67380,6,0,L|460:274,1,45,2|2,3:2|2:0,2:0:0:0:
512,190,67608,2,0,L|468:202,1,45,2|2,2:0|2:0,2:0:0:0:
330,107,67835,1,10,2:0:0:0:
465,123,68062,1,2,2:0:0:0:
330,107,68289,6,0,L|275:121,1,45,2|2,3:2|2:0,2:0:0:0:
93,167,68517,2,0,L|136:155,1,45,2|2,2:0|2:0,2:0:0:0:
206,247,68744,1,10,2:0:0:0:
215,81,68971,1,2,2:0:0:0:
215,81,69085,1,2,2:0:0:0:
215,81,69198,2,0,L|208:198,1,90,2|2,3:2|2:0,2:0:0:0:
277,235,69539,5,2,2:0:0:0:
206,247,69653,2,0,L|150:255,2,45,10|2|2,2:0|2:0|2:0,2:0:0:0:
357,223,69994,5,10,2:0:0:0:
328,299,70108,2,0,P|369:329|412:300,1,90,2|2,3:2|2:3,2:0:0:0:
439,225,70448,5,10,2:0:0:0:
410,149,70562,2,0,P|451:119|494:148,1,90,8|10,2:0|2:0,2:0:0:0:
401,315,71017,6,0,L|239:301,1,135,6|2,3:2|2:0,2:0:0:0:
193,293,71471,1,10,2:0:0:0:
188,305,71585,1,2,2:0:0:0:
184,317,71698,1,2,2:0:0:0:
91,219,71926,5,2,3:2:0:0:
91,219,72039,1,2,2:0:0:0:
91,219,72153,2,0,L|75:167,1,45,2|2,2:0|2:0,2:0:0:0:
61,98,72380,2,0,P|105:73|157:94,1,90,10|2,2:0|2:0,2:0:0:0:
215,198,72835,6,0,P|259:223|311:202,1,90,2|2,3:2|2:0,2:0:0:0:
353,171,73176,1,2,2:0:0:0:
398,114,73289,2,0,L|407:61,1,45,10|2,2:0|2:0,2:0:0:0:
484,45,73517,2,0,L|476:89,1,45,2|2,2:0|2:0,2:0:0:0:
370,292,73744,5,2,3:2:0:0:
362,252,73858,1,2,2:0:0:0:
390,222,73971,1,2,2:0:0:0:
424,242,74085,1,2,2:0:0:0:
432,288,74198,2,0,P|478:313|523:278,1,90,10|0,2:0|2:0,2:0:0:0:
507,288,74539,1,2,2:0:0:0:
375,355,74653,6,0,L|257:341,1,90,2|2,3:2|2:0,2:0:0:0:
131,248,75108,5,10,2:0:0:0:
131,248,75221,1,2,2:0:0:0:
131,248,75335,2,0,P|155:238|184:242,1,45,2|2,2:0|2:0,2:0:0:0:
279,356,75562,5,2,3:2:0:0:
230,350,75676,1,2,2:0:0:0:
180,345,75789,1,2,2:0:0:0:
130,340,75903,1,2,2:0:0:0:
80,337,76017,2,0,P|59:290|12:271,1,90,10|2,2:0|2:0,2:0:0:0:
157,113,76471,5,2,3:2:0:0:
228,104,76585,1,2,2:0:0:0:
299,95,76698,1,2,2:0:0:0:
370,86,76812,1,2,2:0:0:0:
362,115,76926,5,10,2:0:0:0:
460,102,77039,1,10,2:0:0:0:
334,194,77267,6,0,L|396:186,1,45,10|2,2:0|3:2,2:0:0:0:
478,179,77494,1,10,2:0:0:0:
383,279,77721,5,10,2:0:0:0:
472,268,77835,1,10,2:0:0:0:
127,341,78289,6,0,P|106:301|124:271,1,62.9999999999999,10|0,3:2|2:0,2:0:0:0:
159,214,78744,5,10,2:0:0:0:
189,285,78971,1,0,2:0:0:0:
232,188,79198,1,2,3:2:0:0:
262,259,79426,1,0,2:0:0:0:
159,214,79653,6,0,P|135:194|90:206,1,62.9999999999999,10|2,2:0|2:0,2:0:0:0:
104,195,80108,1,0,3:0:0:0:
264,141,80335,5,0,2:0:0:0:
279,136,80448,1,0,2:0:0:0:
294,132,80562,2,0,P|341:170|419:200,1,126,10|0,2:0|3:0,2:0:0:0:
506,252,81244,1,0,2:0:0:0:
507,236,81358,1,0,2:0:0:0:
512,221,81471,2,0,P|455:242|417:276,1,94.4999999999999,10|0,2:0|2:0,2:0:0:0:
411,272,81926,6,0,P|430:331|415:349,1,62.9999999999999,0|0,3:0|2:0,2:0:0:0:
321,374,82380,5,10,2:0:0:0:
333,293,82608,1,0,2:0:0:0:
242,359,82835,1,2,3:2:0:0:
254,278,83062,1,0,2:0:0:0:
321,374,83289,6,0,P|363:365|392:380,1,62.9999999999999,10|2,2:0|2:0,2:0:0:0:
461,252,83744,5,2,3:2:0:0:
328,279,83971,1,2,2:0:0:0:
461,252,84198,2,0,B|442:231|442:231|376:206|376:206|323:209,1,126,10|0,2:0|3:0,2:0:0:0:
204,225,84880,1,2,2:0:0:0:
204,225,84994,1,8,2:0:0:0:
204,225,85108,2,0,L|210:166,1,31.5,10|0,2:0|2:0,2:0:0:0:
214,120,85335,2,0,L|220:61,1,31.5,10|0,2:0|2:0,2:0:0:0:
141,96,85562,5,2,3:2:0:0:
297,118,86017,2,0,L|452:135,2,126,10|2|10,2:0|3:2|2:0,2:0:0:0:
297,108,87039,1,0,2:0:0:0:
297,98,87153,1,2,2:0:0:0:
396,207,87380,6,0,B|419:247|418:292|396:307|366:298|376:238,1,126,0|10,3:0|2:0,2:0:0:0:
383,129,88062,1,2,2:0:0:0:
383,129,88176,1,0,2:0:0:0:
383,129,88289,2,0,P|420:95|511:113,1,126,0|10,3:0|2:0,2:0:0:0:
308,55,88971,1,2,2:0:0:0:
270,150,89198,5,0,3:0:0:0:
251,147,89312,2,0,L|197:139,1,31.5,2|0,2:0|2:0,2:0:0:0:
185,56,89539,1,2,2:0:0:0:
125,100,89653,2,0,P|72:104|56:78,1,62.9999999999999,10|2,2:0|2:0,2:0:0:0:
56,124,89994,1,2,2:0:0:0:
105,190,90108,5,2,3:2:0:0:
105,190,90221,1,2,2:0:0:0:
105,190,90335,2,0,L|121:262,1,62.9999999999999,2|10,2:0|2:0,2:0:0:0:
322,250,90789,5,2,2:0:0:0:
322,250,90903,1,2,2:0:0:0:
322,250,91017,2,0,L|319:291,1,31.5,2|2,3:2|2:0,2:0:0:0:
434,284,91244,6,0,L|388:267,1,40.5,2|2,2:0|2:0,2:0:0:0:
318,171,91471,6,0,L|319:112,1,49.4999999999999,0|2,3:0|2:0,2:0:0:0:
321,49,91698,1,2,2:0:0:0:
321,49,91812,1,0,2:0:0:0:
390,124,91926,5,10,2:0:0:0:
139,64,92153,6,0,P|109:48|59:51,1,67.5,10|0,2:0|2:0,2:0:0:0:
118,138,92380,2,0,P|84:136|55:120,1,67.5,10|0,2:0|2:0,2:0:0:0:
200,112,92608,1,10,2:0:0:0:
212,319,92835,6,0,L|205:271,1,31.5,14|0,3:2|2:0,2:0:0:0:
200,112,93062,2,0,L|238:81,1,31.5,2|0,2:3|2:0,2:0:0:0:
160,228,93289,6,0,L|153:180,1,31.5,10|0,2:0|2:0,2:0:0:0:
127,56,93517,2,0,L|81:38,1,31.5,2|0,2:3|2:0,2:0:0:0:
306,204,93744,6,0,P|351:146|424:151,1,126,2|0,3:2|2:0,2:0:0:0:
414,148,94085,1,2,2:0:0:0:
281,113,94198,2,0,L|207:94,1,63,10|0,2:0|2:0,2:0:0:0:
148,80,94426,2,0,P|135:103|147:154,1,63,2|0,2:3|2:0,2:0:0:0:
84,291,94653,6,0,L|136:281,1,31.5,2|0,3:2|2:0,2:0:0:0:
185,195,94880,2,0,L|175:247,1,31.5,2|0,2:3|2:0,2:0:0:0:
295,255,95108,6,0,L|325:260,1,31.5,10|0,2:0|2:0,2:0:0:0:
393,358,95335,2,0,L|387:327,1,31.5,2|0,2:3|2:0,2:0:0:0:
397,319,95448,1,0,2:0:0:0:
407,312,95562,6,0,P|435:305|475:326,1,63,2|0,3:2|2:0,2:0:0:0:
438,231,95789,1,2,2:3:0:0:
440,218,95903,1,2,2:0:0:0:
453,144,96017,2,0,P|395:109|346:132,1,126,8|2,2:0|2:3,2:0:0:0:
352,112,96358,1,0,2:0:0:0:
314,266,96471,6,0,P|287:286|241:275,1,63,2|0,3:2|2:0,2:0:0:0:
294,200,96698,2,0,P|263:200|238:219,1,63,2|0,2:3|2:0,2:0:0:0:
38,176,96926,6,0,P|65:196|111:185,1,63,10|0,2:0|2:0,2:0:0:0:
58,110,97153,2,0,P|88:110|113:129,1,63,2|0,2:3|2:0,2:0:0:0:
167,181,97380,1,2,3:2:0:0:
375,101,97608,5,2,2:3:0:0:
303,75,97721,1,2,2:0:0:0:
303,75,97835,2,0,L|221:85,1,63,10|0,2:0|2:0,2:0:0:0:
375,101,98062,1,2,2:3:0:0:
287,178,98289,5,2,3:2:0:0:
304,245,98460,1,2,2:0:0:0:
323,311,98630,1,2,2:0:0:0:
338,384,98744,5,8,2:0:0:0:
357,318,98914,1,2,2:0:0:0:
374,251,99085,1,10,2:0:0:0:
393,175,99198,5,2,3:2:0:0:
456,203,99312,1,8,2:0:0:0:
459,191,99426,1,2,3:0:0:0:
400,100,99539,5,8,2:0:0:0:
332,62,99653,2,0,P|303:60|262:84,1,63,10|0,2:0|2:0,2:0:0:0:
197,46,99880,2,0,P|181:70|181:117,1,63,8|0,2:0|2:0,2:0:0:0:
218,240,100108,6,0,P|145:190|119:225,1,126,14|2,3:2|2:3,2:0:0:0:
119,220,100448,1,0,2:0:0:0:
83,288,100562,2,0,L|94:354,1,63,10|0,2:0|2:0,2:0:0:0:
58,177,100789,2,0,L|47:114,1,63,2|0,2:3|2:0,2:0:0:0:
263,246,101017,6,0,P|333:265|394:240,1,126,2|2,3:2|2:3,2:0:0:0:
443,145,101358,1,2,2:0:0:0:
503,235,101471,2,0,P|443:215|384:232,1,126,10|2,2:0|2:3,2:0:0:0:
207,352,101926,5,2,3:2:0:0:
199,295,102039,1,2,2:0:0:0:
190,238,102153,1,2,2:3:0:0:
323,76,102380,5,10,2:0:0:0:
314,133,102494,1,2,2:0:0:0:
307,188,102608,2,0,L|350:181,3,31.5,2|0|0|0,2:3|2:0|2:0|2:0,2:0:0:0:
234,110,102835,6,0,P|151:79|98:119,1,126,2|0,3:2|2:0,2:0:0:0:
32,108,103176,1,2,2:0:0:0:
55,177,103289,2,0,L|71:244,1,63,10|0,2:0|2:0,2:0:0:0:
182,219,103517,2,0,L|167:280,1,63,2|0,2:3|2:0,2:0:0:0:
151,350,103744,6,0,P|174:361|236:357,1,63,2|0,3:2|2:0,2:0:0:0:
296,291,103971,2,0,P|319:280|381:284,1,63,2|0,2:3|2:0,2:0:0:0:
207,379,104198,6,0,P|175:377|146:364,1,63,10|0,2:0|2:0,2:0:0:0:
70,287,104426,2,0,P|38:288|9:301,1,63,2|0,2:3|2:0,2:0:0:0:
146,364,104653,6,0,L|175:217,1,126,2|2,3:2|2:3,2:0:0:0:
184,172,104994,1,2,2:0:0:0:
250,191,105108,2,0,L|348:216,1,63,10|0,2:0|2:0,2:0:0:0:
377,227,105335,1,2,2:3:0:0:
388,231,105448,1,0,2:0:0:0:
449,161,105562,6,0,B|434:139|434:117|434:117|423:135|371:150,2,94.5,6|2|2,3:2|2:0|2:0,2:0:0:0:
335,290,106017,6,0,B|346:306|346:329|346:329|357:311|409:302,2,84,2|2|2,2:0|2:0|2:0,2:0:0:0:
311,169,106471,5,2,3:2:0:0:
244,176,106623,5,2,3:2:0:0:
177,184,106774,5,2,3:2:0:0:
110,192,106926,6,0,L|0:208,2,94.5,10|8|8,2:0|2:0|2:0,2:0:0:0:
202,88,107380,5,2,3:2:0:0:
260,162,107608,2,0,L|324:153,1,36,2|0,2:3|2:0,2:0:0:0:
365,144,107835,1,2,2:3:0:0:
379,141,107948,1,0,2:0:0:0:
463,124,108062,1,2,3:2:0:0:
473,195,108289,6,0,L|467:229,1,24.75,2|0,3:2|2:0,2:0:0:0:
371,259,108460,2,0,L|344:236,1,24.75,2|0,2:3|2:0,2:0:0:0:
365,144,108630,2,0,L|397:132,1,24.75,2|0,3:0|2:0,2:0:0:0:
485,195,108744,6,2,L|472:287,1,72,2|2,2:0|3:2,2:1:0:0:
359,344,109198,5,2,3:2:0:0:
289,330,109312,1,2,2:3:0:0:
54,162,109539,5,2,2:3:0:0:
124,148,109653,1,10,2:0:0:0:
154,346,109880,5,2,3:2:0:0:
140,276,109994,1,2,2:3:0:0:
75,340,110108,5,2,3:2:0:0:
133,270,110259,2,0,B|98:268|98:268|88:255|88:255|40:253,1,84,4|4,3:0|3:0,2:0:0:0:
231,353,110562,5,10,2:0:0:0:
320,332,110714,5,2,2:0:0:0:
410,311,110865,5,2,2:0:0:0:
297,178,111017,6,0,P|273:120|298:92,2,84,2|2|2,3:2|2:0|2:0,2:0:0:0:
357,93,111471,2,0,P|381:151|356:179,2,84,2|2|2,2:0|2:0|2:0,2:0:0:0:
345,259,111926,6,0,L|299:247,1,40.5,2|0,3:0|2:0,2:0:0:0:
189,278,112096,2,0,L|201:323,1,40.5,2|0,2:3|2:0,2:0:0:0:
274,373,112267,2,0,L|307:339,1,40.5,0|0,3:0|2:0,2:0:0:0:
355,251,112380,6,0,L|225:219,1,126,2|0,2:0|2:0,2:0:0:0:
50,117,112835,5,2,3:2:0:0:
130,99,112948,1,2,2:3:0:0:
257,301,113176,5,2,2:0:0:0:
177,283,113289,1,10,2:0:0:0:
216,145,113517,5,2,3:2:0:0:
234,65,113630,1,2,2:0:0:0:
330,194,113744,5,4,3:2:0:0:
406,256,113895,1,8,2:0:0:0:
416,155,114047,1,8,2:0:0:0:
342,200,114198,5,8,2:0:0:0:
418,262,114350,1,8,2:0:0:0:
428,161,114501,1,8,2:0:0:0:
280,134,114653,6,0,P|226:184|100:225,1,189,6|0,3:2|2:0,2:0:0:0:
119,223,115108,2,0,L|126:151,1,63,8|0,2:0|2:0,2:0:0:0:
179,99,115335,2,0,L|172:26,1,63,2|2,2:3|2:0,2:0:0:0:
309,63,115562,6,0,P|289:154|306:247,1,189,2|0,3:2|3:0,2:0:0:0:
306,247,116017,2,0,L|377:235,1,63,8|0,2:0|2:0,2:0:0:0:
400,169,116244,2,0,L|462:179,1,63,2|2,2:3|2:0,2:0:0:0:
338,324,116471,6,0,P|268:260|179:229,1,189,2|0,3:2|2:0,2:0:0:0:
180,229,116926,6,0,L|188:301,1,63,8|0,2:0|2:0,2:0:0:0:
115,310,117153,2,0,L|122:381,1,63,2|2,2:3|2:0,2:0:0:0:
187,214,117380,6,0,L|194:285,1,63,2|0,3:2|2:0,2:0:0:0:
261,138,117608,2,0,L|268:209,1,63,2|0,2:3|2:0,2:0:0:0:
86,96,117835,6,0,L|93:167,1,63,10|2,2:0|2:0,2:0:0:0:
212,61,118062,1,2,2:3:0:0:
229,54,118176,1,2,2:0:0:0:
246,48,118289,6,0,P|148:23|35:20,1,189,2|0,3:2|2:0,2:0:0:0:
60,18,118744,2,0,P|70:51|39:83,1,63,10|0,2:0|2:0,2:0:0:0:
138,170,118971,2,0,P|114:194|71:183,1,63,2|0,2:3|2:0,2:0:0:0:
22,322,119198,6,0,P|113:298|207:292,1,189,2|0,3:2|2:0,2:0:0:0:
207,292,119653,2,0,P|179:268|190:222,1,63,10|0,2:0|2:0,2:0:0:0:
274,202,119880,2,0,P|280:165|326:151,1,63,2|0,2:3|2:0,2:0:0:0:
457,269,120108,6,0,L|479:379,1,94.5,10|0,2:0|2:0,2:0:0:0:
53,122,120562,6,0,L|31:12,1,94.5,10|0,2:0|2:0,2:0:0:0:
352,99,121017,6,0,L|462:77,1,94.5,10|0,2:0|2:0,2:0:0:0:
175,320,121471,6,0,L|82:338,1,94.5,10|0,2:0|2:0,2:0:0:0:
430,214,121926,6,0,P|449:239|457:295,1,63,10|0,2:0|2:0,2:0:0:0:
365,245,122153,2,0,P|373:275|392:299,1,63,10|0,2:0|2:0,2:0:0:0:
174,161,122380,6,0,P|193:136|201:80,1,63,10|0,2:0|2:0,2:0:0:0:
109,130,122608,2,0,P|117:99|136:75,1,63,10|0,2:0|2:0,2:0:0:0:
279,79,122835,5,10,2:0:0:0:
290,147,122948,1,2,3:2:0:0:
238,255,123062,5,10,2:0:0:0:
249,323,123176,1,2,3:2:0:0:
376,356,123289,6,0,P|404:351|438:314,6,54,10|2|2|2|10|2|2,3:2|3:2|3:2|3:2|3:2|3:2|3:2,2:0:0:0:
249,323,123744,6,0,L|194:324,1,45,2|0,3:2|2:0,2:0:0:0:
134,327,123971,2,0,L|79:328,1,45,0|0,2:0|2:0,2:0:0:0:
139,146,124198,6,0,P|172:144|209:175,1,67.5,14|0,3:2|2:0,2:0:0:0:
124,215,124426,2,0,P|152:232|185:230,1,67.5,2|0,2:3|2:0,2:0:0:0:
200,161,124653,6,0,L|35:191,1,135,2|0,3:2|2:0,2:0:0:0:
219,72,124994,1,2,2:0:0:0:
280,150,125108,2,0,P|297:174|292:240,1,67.5,10|0,2:0|2:0,2:0:0:0:
297,223,125335,1,2,2:3:0:0:
292,235,125448,1,0,2:0:0:0:
425,362,125562,6,0,P|389:302|441:243,1,135,2|2,3:2|2:3,2:0:0:0:
478,286,125903,1,0,2:0:0:0:
325,357,126017,2,0,P|259:367|240:329,1,67.5,10|0,2:0|2:0,2:0:0:0:
190,309,126244,1,2,2:3:0:0:
205,236,126358,1,0,2:0:0:0:
146,138,126471,6,0,P|83:89|5:103,1,135,2|0,3:2|2:0,2:0:0:0:
47,157,126812,1,2,2:0:0:0:
224,85,126926,2,0,P|256:73|286:39,1,67.5,10|0,2:0|2:0,2:0:0:0:
363,89,127153,2,0,P|369:55|354:12,1,67.5,2|0,2:3|2:0,2:0:0:0:
170,27,127380,6,0,L|-1:40,1,135,2|2,3:2|2:3,2:0:0:0:
59,179,127721,1,0,2:0:0:0:
109,129,127835,2,0,P|120:98|112:58,1,67.5,10|0,2:0|2:0,2:0:0:0:
147,249,128062,5,2,2:3:0:0:
186,242,128176,1,0,2:0:0:0:
264,228,128289,5,2,3:2:0:0:
337,213,128403,5,2,2:0:0:0:
350,210,128517,1,2,2:3:0:0:
457,94,128744,6,0,P|394:64|330:128,1,135,10|2,2:0|2:3,2:0:0:0:
292,305,129198,5,2,3:2:0:0:
364,251,129369,1,2,2:0:0:0:
280,218,129539,1,2,2:0:0:0:
295,316,129653,5,10,2:0:0:0:
367,262,129823,1,2,2:0:0:0:
283,229,129994,1,10,2:0:0:0:
214,298,130108,5,2,3:2:0:0:
148,314,130221,1,10,2:0:0:0:
134,304,130335,1,2,2:3:0:0:
83,246,130448,5,10,2:0:0:0:
41,187,130562,2,0,P|94:129|111:52,1,135,10|10,2:0|2:0,2:0:0:0:
340,218,131017,6,0,P|312:235|254:232,1,67.5,14|0,3:2|2:0,2:0:0:0:
203,168,131244,2,0,P|175:151|117:154,1,67.5,2|0,2:3|2:0,2:0:0:0:
284,251,131471,6,0,P|318:248|347:231,1,67.5,10|0,2:0|2:0,2:0:0:0:
417,148,131698,2,0,P|451:151|480:169,1,67.5,2|0,2:3|2:0,2:0:0:0:
346,231,131926,6,0,L|194:210,1,135,2|2,3:2|2:3,2:0:0:0:
292,300,132267,1,2,2:0:0:0:
248,132,132380,1,10,2:0:0:0:
248,132,132494,1,0,2:0:0:0:
248,132,132608,2,0,P|226:103|228:51,1,67.5,2|0,2:3|2:0,2:0:0:0:
290,33,132835,5,2,3:2:0:0:
361,52,132948,1,2,2:0:0:0:
432,71,133062,1,2,2:3:0:0:
140,177,133289,5,10,2:0:0:0:
112,178,133403,2,0,P|95:211|97:262,1,67.5,0|2,2:0|2:3,2:0:0:0:
139,298,133630,1,0,2:0:0:0:
204,333,133744,2,0,P|248:288|320:290,1,135,2|0,3:2|2:0,2:0:0:0:
292,300,134085,5,2,2:0:0:0:
194,195,134198,2,0,P|186:158|210:122,1,67.5,10|0,2:0|2:0,2:0:0:0:
261,206,134426,2,0,P|277:181|275:140,1,67.5,2|0,2:3|2:0,2:0:0:0:
435,37,134653,6,0,L|473:181,1,135,2|2,3:2|2:3,2:0:0:0:
479,284,134994,1,0,2:0:0:0:
383,208,135108,2,0,P|376:170|407:141,1,67.5,10|0,2:0|2:0,2:0:0:0:
479,284,135335,1,2,2:3:0:0:
480,324,135448,1,0,2:0:0:0:
482,364,135562,6,0,P|410:326|301:314,1,135,2|2,3:2|2:3,2:0:0:0:
287,315,135903,1,2,2:0:0:0:
195,198,136017,2,0,P|267:236|376:248,1,135,10|2,2:0|2:3,2:0:0:0:
478,112,136471,5,14,3:2:0:0:
434,54,136642,1,2,2:0:0:0:
382,105,136812,1,2,2:0:0:0:
260,147,136926,5,14,3:2:0:0:
194,116,137096,1,2,2:0:0:0:
234,56,137267,1,2,2:0:0:0:
67,136,137380,6,0,L|50:249,1,90,14|0,2:0|2:0,2:0:0:0:
115,316,137608,2,0,L|204:387,1,90,10|0,2:0|2:0,2:0:0:0:
35,232,137835,6,0,L|52:119,1,90,14|0,2:0|2:0,2:0:0:0:
131,62,138062,2,0,L|240:21,1,90,10|0,2:0|2:0,2:0:0:0:
434,175,138289,5,14,3:2:0:0:
406,161,138403,2,0,P|375:109|450:14,1,135,0|2,2:0|2:0,2:0:0:0:
314,177,138744,1,10,2:0:0:0:
320,207,138858,2,0,P|293:225|256:235,2,67.5,2|0|2,2:0|2:0|2:0,2:0:0:0:
207,298,139198,5,2,3:2:0:0:
178,279,139312,1,0,2:0:0:0:
144,276,139426,1,2,2:3:0:0:
85,355,139653,1,8,2:0:0:0:
267,336,139880,1,2,2:3:0:0:
129,189,140108,6,0,P|167:266|148:331,1,135,2|2,3:2|2:3,2:0:0:0:
73,235,140448,1,2,2:0:0:0:
177,137,140562,2,0,P|145:118|82:128,1,67.5,8|2,2:0|2:0,2:0:0:0:
254,74,140789,1,2,2:3:0:0:
321,74,140903,1,0,2:0:0:0:
385,47,141017,2,0,P|420:123|396:186,1,135,2|2,3:2|2:3,2:0:0:0:
333,217,141358,1,0,2:0:0:0:
459,284,141471,2,0,P|441:260|379:254,1,67.5,10|2,2:0|2:0,2:0:0:0:
424,345,141698,2,0,P|392:334|371:308,1,67.5,2|2,2:3|2:0,2:0:0:0:
242,134,141926,6,0,L|72:150,1,135,2|2,3:2|2:3,2:0:0:0:
242,134,142380,1,8,2:0:0:0:
48,339,142608,1,2,2:3:0:0:
48,339,142721,1,0,2:0:0:0:
48,339,142835,2,0,P|86:271|53:207,1,135,2|2,3:2|2:3,2:0:0:0:
51,200,143176,1,2,2:0:0:0:
33,178,143289,1,8,2:0:0:0:
278,269,143517,5,2,2:3:0:0:
23,294,143744,2,0,P|108:259|190:167,1,202.5,2|0,3:2|2:0,2:0:0:0:
213,105,144198,2,0,B|189:59|192:20|229:5|255:36|241:72,1,135,10|2,2:0|2:3,2:0:0:0:
269,196,144539,5,8,2:0:0:0:
194,228,144653,1,2,3:2:0:0:
276,213,144767,1,8,2:0:0:0:
362,321,144994,5,8,2:0:0:0:
440,334,145108,2,0,P|462:308|467:263,1,67.5,10|0,2:0|2:0,2:0:0:0:
461,202,145335,1,10,2:0:0:0:
453,183,145448,1,0,2:0:0:0:
419,112,145562,6,0,L|273:127,1,135,14|2,3:2|3:0,2:0:0:0:
120,59,145903,1,2,2:0:0:0:
113,131,146017,2,0,P|99:93|118:37,1,67.5,10|2,2:0|2:0,2:0:0:0:
185,131,146244,2,0,P|199:93|180:37,1,67.5,2|2,2:3|2:0,2:0:0:0:
50,290,146471,5,2,3:2:0:0:
90,254,146585,1,2,2:0:0:0:
140,234,146698,1,2,2:3:0:0:
194,230,146812,1,2,2:0:0:0:
247,236,146926,1,8,2:0:0:0:
383,321,147153,5,2,2:3:0:0:
383,321,147267,1,0,2:0:0:0:
383,321,147380,2,0,P|330:254|375:195,1,135,2|2,3:2|2:3,2:0:0:0:
415,228,147721,1,2,2:0:0:0:
284,156,147835,2,0,P|258:140|205:150,1,67.5,10|2,2:0|2:0,2:0:0:0:
268,223,148062,2,0,P|234:224|205:207,1,67.5,2|0,2:3|2:0,2:0:0:0:
11,76,148289,6,0,B|43:46|43:46|172:30,1,135,2|2,3:2|2:3,2:0:0:0:
377,87,148630,1,2,2:0:0:0:
307,49,148744,2,0,P|282:78|268:135,1,67.5,8|2,2:0|2:0,2:0:0:0:
377,87,148971,2,0,P|371:120|356:150,1,67.5,0|0,2:0|2:0,2:0:0:0:
163,163,149198,5,2,3:2:0:0:
364,290,149426,1,2,2:3:0:0:
417,282,149539,1,2,2:0:0:0:
470,273,149653,2,0,P|444:305|412:312,1,67.5,8|0,2:0|2:0,2:0:0:0:
299,229,149880,5,2,2:3:0:0:
226,212,149994,1,2,2:0:0:0:
153,197,150108,2,0,P|127:165|95:158,1,67.5,2|0,3:2|2:0,2:0:0:0:
58,271,150335,2,0,P|17:277|-4:301,1,67.5,2|0,2:3|2:0,2:0:0:0:
250,294,150562,2,0,L|287:127,1,135,10|2,2:0|2:3,2:0:0:0:
250,294,151017,5,2,3:2:0:0:
256,192,151130,12,0,152778,2:0:0:0:
