osu file format v14

[General]
AudioFilename: audio.mp3
AudioLeadIn: 0
PreviewTime: 101219
Countdown: 0
SampleSet: Soft
StackLeniency: 0.3
Mode: 0
LetterboxInBreaks: 0
WidescreenStoryboard: 1

[Editor]
Bookmarks: 14594,28308,38594,40308,42022,54665,55737,59165,69451,72880,83165,84880,86594,100308,102022,112308,115737,122594,129451,143165,153451,155165,156880,167165,170594,180880,184308,191165,197808
DistanceSpacing: 1.2
BeatDivisor: 4
GridSize: 32
TimelineZoom: 1.9

[Metadata]
Title:Zange Mairi
TitleUnicode:懺悔参り
Artist:sekai
ArtistUnicode:sekai
Creator:Yugu
Version:Voice's Insane
Source:
Tags:VoiceCore 09kami Cover Utaite flower Hanyuu Maigo VOCALOID 浮世巡り Ukiyo Meguri Japanese J-pop pop
BeatmapID:2853477
BeatmapSetID:1176431

[Difficulty]
HPDrainRate:6
CircleSize:4.4
OverallDifficulty:7
ApproachRate:8.3
SliderMultiplier:1.8
SliderTickRate:1

[Events]
//Background and Video events
0,0,"76539199_p0.jpg",0,0
//Break Periods
2,72972,79033
2,129650,142461
//Storyboard Layer 0 (Background)
//Storyboard Layer 1 (Fail)
//Storyboard Layer 2 (Pass)
//Storyboard Layer 3 (Foreground)
//Storyboard Layer 4 (Overlay)
//Storyboard Sound Samples

[TimingPoints]
880,428.571428571429,4,2,1,30,1,0
880,-133.333333333333,4,2,1,30,0,0
8594,-133.333333333333,4,2,1,30,0,0
9451,-133.333333333333,4,2,1,30,0,0
11165,-133.333333333333,4,2,1,30,0,0
12022,-133.333333333333,4,2,1,60,0,0
14594,-100,4,2,1,60,0,0
21022,-100,4,2,1,60,0,0
21451,-100,4,2,1,60,0,0
27880,-100,4,2,1,100,0,0
27987,-100,4,2,1,60,0,0
28308,-125,4,2,1,40,0,0
38594,-111.111111111111,4,2,1,40,0,0
39237,-111.111111111111,4,2,1,60,0,0
39880,-111.111111111111,4,2,1,60,0,0
40308,-142.857142857143,4,2,1,60,0,0
41165,-111.111111111111,4,2,1,60,0,0
58308,-166.666666666666,4,2,1,60,0,0
59165,-83.3333333333333,4,2,1,75,0,0
69451,-100,4,2,1,60,0,0
72880,-200,4,2,1,60,0,0
81451,-142.857142857143,4,2,1,60,0,0
83165,-100,4,2,1,60,0,0
84880,-200,4,2,1,60,0,0
86594,-100,4,2,1,60,0,0
100308,-142.857142857143,4,2,1,60,0,0
102022,-83.3333333333333,4,2,1,75,0,0
112308,-100,4,2,1,60,0,0
122594,-83.3333333333333,4,2,1,60,0,0
143165,-100,4,2,1,60,0,0
150022,-166.666666666667,4,2,1,60,0,0
150880,-125,4,2,1,60,0,0
151737,-100,4,2,1,60,0,0
156880,-76.9230769230769,4,2,1,75,0,0
167165,-100,4,2,1,60,0,0
170594,-76.9230769230769,4,2,1,75,0,0
180880,-100,4,2,1,60,0,0
184308,-100,4,2,1,60,0,0
187308,-100,4,2,1,5,0,0
187737,-100,4,2,1,40,0,0
191165,-100,4,2,1,40,0,0

[Colours]
Combo1 : 255,158,28
Combo2 : 243,16,67
Combo3 : 255,224,151

[HitObjects]
162,188,880,6,0,P|88:111|195:108,2,270.000010299683,4|0|2,0:0|0:0|0:1,0:0:0:0:
256,288,3451,1,4,0:0:0:0:
256,288,3880,1,4,0:0:0:0:
349,188,4308,6,0,P|423:111|316:108,2,270.000010299683,4|4|2,0:0|0:0|0:1,0:0:0:0:
256,288,6451,1,2,0:0:0:0:
256,192,6880,1,0,0:0:0:0:
256,96,7308,1,2,0:0:0:0:
177,226,7737,6,0,P|143:221|110:214,1,67.5000025749208,8|0,0:1|0:0,0:0:0:0:
95,207,8058,1,0,0:1:0:0:
79,201,8165,2,0,P|45:205|12:212,1,67.5000025749208,8|2,0:0|0:1,0:0:0:0:
192,142,8594,6,0,P|158:137|125:130,1,67.5000025749208,8|0,0:1|0:0,0:0:0:0:
110,123,8915,1,0,0:0:0:0:
94,117,9022,2,0,P|60:121|27:128,1,67.5000025749208,8|2,0:0|0:1,0:0:0:0:
207,58,9452,6,0,P|173:53|140:46,1,67.5000025749208,10|0,0:1|0:0,0:0:0:0:
125,39,9773,1,0,0:0:0:0:
109,33,9880,2,0,P|75:37|42:44,1,67.5000025749208,8|8,0:0|0:0,0:0:0:0:
256,0,10308,5,8,0:1:0:0:
294,146,10522,1,8,0:0:0:0:
402,41,10737,1,8,0:0:0:0:
317,61,10951,1,0,0:0:0:0:
317,61,11058,1,0,0:0:0:0:
317,61,11165,6,0,B|309:139|356:113|349:188,1,135.000005149842,2|2,0:0|0:0,0:0:0:0:
256,288,11808,1,0,0:0:0:0:
195,61,12022,2,0,B|203:139|156:113|163:188,1,135.000005149842,0|2,0:0|0:0,0:0:0:0:
256,288,12665,1,0,0:0:0:0:
446,211,12880,5,2,0:0:0:0:
256,288,13201,1,0,0:0:0:0:
236,283,13308,1,2,0:0:0:0:
66,211,13523,1,0,0:0:0:0:
46,216,13630,1,0,0:0:0:0:
26,221,13737,1,2,0:1:0:0:
161,369,14058,1,0,0:0:0:0:
161,369,14165,1,8,0:0:0:0:
134,157,14380,5,0,0:0:0:0:
156,131,14487,1,0,0:0:0:0:
147,98,14594,6,0,L|66:80,1,45,12|0,0:0|0:0,0:0:0:0:
255,48,14808,2,0,L|174:30,1,45,8|0,0:0|0:0,0:0:0:0:
271,196,15022,1,2,0:1:0:0:
271,196,15130,2,0,L|190:178,1,45,0|0,0:0|0:0,0:0:0:0:
339,135,15344,2,0,L|426:115,1,90,0|0,0:0|0:0,0:0:0:0:
464,90,15665,1,2,0:0:0:0:
498,118,15772,1,0,0:0:0:0:
491,162,15880,1,2,0:1:0:0:
491,162,16094,1,2,0:0:0:0:
431,268,16308,6,0,P|440:288|448:309,1,45,8|0,0:0|0:0,0:0:0:0:
346,313,16522,2,0,P|336:333|328:354,1,45,8|0,0:0|0:0,0:0:0:0:
271,196,16737,1,10,0:1:0:0:
271,196,16844,2,0,P|280:216|288:237,1,45,0|0,0:0|0:0,0:0:0:0:
208,313,17058,2,0,P|165:313|132:284,1,90,0|0,0:0|0:0,0:0:0:0:
147,241,17380,1,2,0:0:0:0:
128,200,17487,1,0,0:0:0:0:
83,193,17594,1,2,0:1:0:0:
83,193,17808,1,2,0:0:0:0:
25,85,18022,6,0,L|110:71,1,45,12|0,0:0|0:0,0:0:0:0:
158,0,18237,2,0,L|243:14,1,45,8|0,0:0|0:0,0:0:0:0:
206,123,18451,1,2,0:1:0:0:
206,123,18558,2,0,L|291:109,1,45,0|0,0:0|0:0,0:0:0:0:
350,61,18772,2,0,P|335:103|324:147,1,90,0|0,0:0|0:0,0:0:0:0:
359,176,19094,1,2,0:0:0:0:
384,213,19201,1,0,0:0:0:0:
368,255,19308,1,2,0:1:0:0:
368,255,19522,1,2,0:0:0:0:
489,183,19737,5,6,0:1:0:0:
259,222,19951,1,0,0:0:0:0:
440,346,20165,1,2,0:1:0:0:
440,346,20272,2,0,L|471:285,1,45,0|0,0:0|0:0,0:0:0:0:
357,230,20487,6,0,L|424:247,1,45,0|2,0:0|0:1,0:0:0:0:
323,352,20701,1,0,0:0:0:0:
323,352,20808,2,0,L|354:291,1,45,2|0,0:0|0:0,0:0:0:0:
241,237,21022,6,0,L|308:254,1,45,2|0,0:0|0:0,0:0:0:0:
207,359,21237,2,0,L|238:298,1,45,8|0,0:0|0:0,0:0:0:0:
93,257,21451,6,0,L|100:323,1,45,12|0,0:0|0:0,0:0:0:0:
159,154,21665,2,0,L|166:220,1,45,8|0,0:0|0:0,0:0:0:0:
27,145,21880,1,2,0:1:0:0:
27,145,21987,2,0,L|34:211,1,45,0|0,0:0|0:0,0:0:0:0:
104,87,22201,2,0,P|150:94|195:95,1,90,0|0,0:0|0:0,0:0:0:0:
235,109,22522,1,2,0:0:0:0:
272,83,22630,1,0,0:0:0:0:
316,87,22737,1,2,0:1:0:0:
316,87,22951,1,2,0:0:0:0:
427,169,23165,6,0,P|379:168|361:161,1,45,8|0,0:0|0:0,0:0:0:0:
324,245,23380,2,0,P|282:220|270:205,1,45,8|0,0:0|0:0,0:0:0:0:
367,324,23594,1,2,0:1:0:0:
367,324,23701,2,0,P|400:289|408:271,1,45,0|0,0:0|0:0,0:0:0:0:
319,155,23915,2,0,L|325:274,1,90,0|0,0:0|0:0,0:0:0:0:
289,274,24237,1,2,0:0:0:0:
244,265,24344,1,0,0:0:0:0:
221,226,24451,1,2,0:0:0:0:
221,226,24665,1,2,0:0:0:0:
97,357,24880,6,0,L|150:347,1,45,12|0,0:0|0:0,0:0:0:0:
26,277,25094,2,0,L|79:267,1,45,8|0,0:0|0:0,0:0:0:0:
141,203,25308,1,2,0:1:0:0:
141,203,25415,2,0,L|198:211,1,45,0|0,0:0|0:0,0:0:0:0:
48,181,25630,2,0,P|20:137|45:86,1,90,4|0,0:1|0:0,0:0:0:0:
70,87,25951,1,2,0:0:0:0:
92,48,26058,1,0,0:0:0:0:
65,11,26165,1,2,0:1:0:0:
65,11,26380,1,2,0:0:0:0:
185,158,26594,5,12,0:0:0:0:
185,158,26701,1,2,0:0:0:0:
290,121,26915,5,2,0:0:0:0:
290,121,27022,1,12,0:0:0:0:
327,226,27237,5,12,0:0:0:0:
327,226,27344,1,2,0:0:0:0:
222,263,27558,5,2,0:0:0:0:
222,263,27665,1,12,0:0:0:0:
256,192,27880,5,4,0:1:0:0:
233,26,28308,6,0,P|207:62|213:127,1,108,4|0,0:1|0:0,0:0:0:0:
221,134,28737,1,0,0:0:0:0:
288,88,28951,6,0,P|324:62|389:68,1,108,0|0,0:0|0:0,0:0:0:0:
396,75,29380,2,0,L|403:127,1,36,0|0,0:0|0:0,0:0:0:0:
467,30,29594,1,8,0:1:0:0:
467,30,29701,1,8,0:1:0:0:
467,30,29808,1,8,0:1:0:0:
401,122,30022,6,0,P|437:118|478:150,1,72,2|0,0:1|0:0,0:0:0:0:
419,201,30344,1,0,0:0:0:0:
419,201,30451,2,0,P|447:223|453:275,1,72,2|0,0:1|0:0,0:0:0:0:
380,353,30880,6,0,B|469:340|469:340|437:333,1,108,6|0,0:0|0:0,0:0:0:0:
376,267,31308,2,0,P|329:263|295:261,1,72,10|0,0:1|0:0,0:0:0:0:
132,353,31737,6,0,B|43:340|43:340|75:333,1,108,2|0,0:1|0:0,0:0:0:0:
136,267,32165,1,2,0:0:0:0:
136,267,32380,2,0,P|183:263|217:261,1,72,2|0,0:0|0:0,0:0:0:0:
93,201,32808,1,10,0:1:0:0:
93,201,32915,1,0,0:0:0:0:
93,201,33022,2,0,P|96:166|91:154,1,36,8|8,0:1|0:1,0:0:0:0:
23,121,33237,6,0,P|68:122|89:25,1,144,6|8,0:0|0:1,0:0:0:0:
100,41,33880,2,0,P|124:89|162:89,1,72,8|2,0:1|0:0,0:0:0:0:
305,48,34308,6,0,B|255:20|255:20|205:49,1,108,0|2,0:0|0:0,0:0:0:0:
225,125,34737,2,0,B|256:142|256:142|304:116,1,72,8|0,0:0|0:0,0:0:0:0:
425,187,35165,6,0,L|343:180,1,72,12|0,0:0|0:0,0:0:0:0:
364,90,35594,2,0,L|446:97,1,72,4|0,0:0|0:0,0:0:0:0:
353,180,36022,5,0,0:0:0:0:
435,96,36237,1,8,0:1:0:0:
435,96,36344,1,8,0:1:0:0:
435,96,36451,2,0,L|443:183,1,72,8|0,0:1|0:0,0:0:0:0:
323,293,36880,5,2,0:0:0:0:
383,230,37094,1,2,0:0:0:0:
457,267,37308,2,0,L|468:351,1,72,2|0,0:0|0:0,0:0:0:0:
454,186,37737,5,2,0:0:0:0:
297,220,37951,1,8,0:1:0:0:
297,220,38058,1,8,0:1:0:0:
297,220,38165,2,0,L|258:209,2,36,8|0|0,0:1|0:0|0:0,0:0:0:0:
298,322,38594,6,0,P|296:343|293:368,3,40.4999987640381,12|0|0|0,0:0|0:0|0:0|0:0,0:0:0:0:
210,282,39022,1,2,0:1:0:0:
210,282,39237,6,0,P|213:302|217:327,3,40.4999987640381,12|0|0|0,0:0|0:0|0:0|0:0,0:0:0:0:
109,270,39665,1,2,0:1:0:0:
109,270,39880,6,0,P|117:289|127:312,1,40.4999987640381,12|0,0:0|0:0,0:0:0:0:
15,283,40094,2,0,P|28:299|43:319,1,40.4999987640381,0|0,0:0|0:0,0:0:0:0:
121,181,40308,6,0,P|98:145|14:172,2,125.999996154785,2|2|8,0:0|0:0|0:1,0:0:0:0:
198,138,41272,1,8,0:1:0:0:
198,138,41380,2,0,P|238:157|270:152,1,40.4999987640381,8|8,0:1|0:1,0:0:0:0:
303,101,41594,2,0,L|295:-1,1,80.9999975280763,8|8,0:1|0:1,0:0:0:0:
375,145,42022,6,0,P|386:176|359:224,1,80.9999975280763,6|0,0:0|0:0,0:0:0:0:
355,226,42344,2,0,P|376:200|431:200,1,80.9999975280763,2|0,0:0|0:0,0:0:0:0:
436,203,42665,1,8,0:1:0:0:
265,215,42880,6,0,P|254:246|281:294,1,80.9999975280763,6|0,0:0|0:0,0:0:0:0:
285,296,43202,2,0,P|263:270|208:270,1,80.9999975280763,2|0,0:0|0:0,0:0:0:0:
204,273,43523,1,8,0:1:0:0:
379,338,43737,5,2,0:0:0:0:
504,310,43951,1,0,0:0:0:0:
504,310,44058,1,0,0:0:0:0:
504,310,44165,1,2,0:0:0:0:
482,138,44380,1,0,0:0:0:0:
341,203,44594,5,2,0:0:0:0:
444,216,44808,1,2,0:0:0:0:
290,279,45022,2,0,P|244:273|177:267,1,80.9999975280763,6|0,0:0|0:0,0:0:0:0:
109,359,45451,6,0,L|16:345,1,80.9999975280763,6|0,0:0|0:0,0:0:0:0:
44,269,45772,2,0,L|137:283,1,80.9999975280763,2|0,0:0|0:0,0:0:0:0:
135,275,46094,1,8,0:1:0:0:
316,171,46308,6,0,L|241:106,1,80.9999975280763,6|0,0:0|0:0,0:0:0:0:
243,110,46630,2,0,L|223:206,1,80.9999975280763,2|0,0:0|0:0,0:0:0:0:
226,203,46951,1,8,0:1:0:0:
48,78,47165,6,0,L|122:13,1,80.9999975280763,2|0,0:0|0:0,0:0:0:0:
121,17,47487,2,0,L|140:113,1,80.9999975280763,8|0,0:0|0:0,0:0:0:0:
138,110,47808,1,2,0:1:0:0:
325,128,48022,5,2,0:0:0:0:
235,66,48237,1,2,0:0:0:0:
156,207,48451,2,0,L|175:303,1,80.9999975280763,8|8,0:1|0:1,0:0:0:0:
408,288,48880,6,0,P|436:246|426:198,1,80.9999975280763,6|0,0:0|0:0,0:0:0:0:
436,203,49201,2,0,P|385:199|349:231,1,80.9999975280763,8|0,0:0|0:0,0:0:0:0:
348,220,49522,1,2,0:1:0:0:
437,16,49737,6,0,P|386:12|350:44,1,80.9999975280763,6|0,0:0|0:0,0:0:0:0:
349,34,50058,2,0,P|370:79|417:95,1,80.9999975280763,8|0,0:0|0:0,0:0:0:0:
408,101,50379,1,8,0:0:0:0:
241,159,50594,6,0,P|208:137|136:150,1,80.9999975280763,6|0,0:0|0:0,0:0:0:0:
110,190,50915,2,0,P|86:182|55:185,2,40.4999987640381,2|0|0,0:0|0:0|0:0,0:0:0:0:
140,265,51237,1,2,0:0:0:0:
167,134,51451,1,8,0:1:0:0:
62,190,51665,5,8,0:1:0:0:
62,190,51772,1,8,0:1:0:0:
62,190,51880,1,8,0:1:0:0:
8,90,52094,1,8,0:1:0:0:
263,82,52308,6,0,B|250:44|250:44|208:62,1,80.9999975280763,6|0,0:0|0:0,0:0:0:0:
199,65,52630,2,0,B|186:103|186:103|144:85,1,80.9999975280763,2|0,0:0|0:0,0:0:0:0:
135,82,52951,1,8,0:1:0:0:
382,185,53165,6,0,B|369:223|369:223|327:205,1,80.9999975280763,6|0,0:0|0:0,0:0:0:0:
318,202,53487,2,0,B|305:164|305:164|263:182,1,80.9999975280763,2|0,0:0|0:0,0:0:0:0:
254,185,53808,1,8,0:1:0:0:
306,374,54022,5,6,0:1:0:0:
306,374,54130,1,0,0:0:0:0:
206,374,54344,5,2,0:1:0:0:
206,374,54452,1,0,0:0:0:0:
256,287,54664,5,2,0:1:0:0:
256,287,54772,1,0,0:0:0:0:
256,287,54880,2,0,L|264:189,1,80.9999975280763,8|2,0:0|0:1,0:0:0:0:
256,192,55201,2,0,L|248:94,1,80.9999975280763,2|0,0:1|0:0,0:0:0:0:
256,100,55522,1,2,0:1:0:0:
256,14,55737,5,4,0:0:0:0:
256,14,56165,1,8,0:1:0:0:
256,14,56594,1,4,0:0:0:0:
256,14,57022,1,8,0:1:0:0:
192,73,57451,5,10,0:1:0:0:
192,73,57558,1,8,0:1:0:0:
192,73,57665,2,0,L|124:65,1,40.4999987640381,8|8,0:1|0:1,0:0:0:0:
320,73,57880,5,10,0:1:0:0:
333,71,57987,1,8,0:1:0:0:
346,69,58094,1,8,0:1:0:0:
360,68,58201,1,4,0:0:0:0:
374,67,58308,6,0,P|366:112|460:135,1,161.999995056153,4|0,0:0|0:0,0:0:0:0:
457,138,59165,6,0,P|391:140|351:202,1,107.999996704102,12|0,0:0|0:0,0:0:0:0:
502,263,59487,1,0,0:0:0:0:
502,263,59594,2,0,P|506:228|490:198,1,53.9999983520508,8|0,0:0|0:0,0:0:0:0:
364,251,59808,5,0,0:0:0:0:
389,91,60022,1,10,0:0:0:0:
430,319,60237,5,2,0:0:0:0:
430,319,60344,1,0,0:0:0:0:
430,319,60451,2,0,L|437:381,1,53.9999983520508,2|0,0:0|0:0,0:0:0:0:
376,198,60665,2,0,L|362:258,1,53.9999983520508,0|0,0:0|0:0,0:0:0:0:
198,329,60880,6,0,P|252:288|313:310,1,107.999996704102,12|0,0:0|0:0,0:0:0:0:
136,271,61201,1,0,0:0:0:0:
136,271,61308,2,0,P|96:258|79:237,1,53.9999983520508,8|0,0:0|0:0,0:0:0:0:
27,372,61522,2,0,P|45:333|37:308,1,53.9999983520508,0|0,0:0|0:0,0:0:0:0:
0,147,61737,6,0,L|10:259,1,107.999996704102,10|2,0:0|0:0,0:0:0:0:
146,189,62058,1,0,0:0:0:0:
146,189,62165,2,0,P|121:126|69:121,1,107.999996704102,2|0,0:0|0:0,0:0:0:0:
256,29,62594,6,0,P|316:67|367:54,1,107.999996704102,12|0,0:0|0:0,0:0:0:0:
464,117,62915,1,0,0:0:0:0:
464,117,63022,2,0,P|433:120|400:145,1,53.9999983520508,2|0,0:0|0:0,0:0:0:0:
351,245,63237,1,8,0:0:0:0:
503,136,63451,6,0,L|486:-4,1,107.999996704102,12|0,0:0|0:0,0:0:0:0:
413,130,63772,1,0,0:0:0:0:
413,130,63879,2,0,P|393:154|387:195,2,53.9999983520508,2|0|8,0:0|0:0|0:0,0:0:0:0:
267,214,64308,1,2,0:1:0:0:
499,280,64522,5,8,0:0:0:0:
506,254,64629,1,0,0:0:0:0:
504,227,64736,1,2,0:1:0:0:
491,203,64843,1,0,0:0:0:0:
471,186,64950,1,8,0:0:0:0:
421,327,65165,1,8,0:0:0:0:
421,327,65380,6,0,P|381:330|343:351,1,53.9999983520508,0|0,0:0|0:0,0:0:0:0:
495,373,65594,1,6,0:0:0:0:
328,262,65808,1,2,0:0:0:0:
328,262,65915,1,0,0:0:0:0:
328,262,66022,6,0,L|338:150,1,107.999996704102,12|0,0:0|0:0,0:0:0:0:
236,75,66344,1,0,0:0:0:0:
236,75,66451,2,0,P|256:22|256:12,1,53.9999983520508,0|0,0:0|0:0,0:0:0:0:
167,132,66665,5,2,0:1:0:0:
140,132,66772,1,0,0:0:0:0:
114,139,66880,2,0,L|118:211,1,53.9999983520508,12|0,0:0|0:0,0:0:0:0:
30,30,67094,2,0,L|53:115,1,53.9999983520508,2|0,0:1|0:0,0:0:0:0:
132,314,67308,6,0,P|156:291|163:272,1,53.9999983520508,8|0,0:0|0:0,0:0:0:0:
337,154,67522,2,0,P|305:144|285:148,1,53.9999983520508,2|0,0:1|0:0,0:0:0:0:
374,368,67737,6,0,L|489:355,1,107.999996704102,12|0,0:0|0:0,0:0:0:0:
358,281,68058,1,2,0:0:0:0:
358,281,68165,2,0,P|390:279|428:294,1,53.9999983520508,2|0,0:0|0:0,0:0:0:0:
285,363,68380,5,2,0:1:0:0:
250,207,68594,1,8,0:0:0:0:
250,207,68701,2,0,P|251:236|221:275,1,53.9999983520508,0|2,0:0|0:1,0:0:0:0:
142,319,68915,5,0,0:0:0:0:
142,319,69022,2,0,P|107:311|55:231,1,107.999996704102,10|0,0:1|0:0,0:0:0:0:
214,101,69451,6,0,B|261:141|261:141|237:276,1,180,12|0,0:0|0:0,0:0:0:0:
85,358,70094,5,8,0:1:0:0:
85,358,70201,1,8,0:1:0:0:
85,358,70308,2,0,B|34:312|34:312|58:218,1,135,12|0,0:0|0:0,0:0:0:0:
62,259,70737,2,0,L|53:152,1,90,0|8,0:0|0:1,0:0:0:0:
210,74,71165,6,0,P|167:36|67:56,1,135,2|0,0:0|0:0,0:0:0:0:
66,121,71594,2,0,P|109:159|209:139,1,135,2|0,0:0|0:0,0:0:0:0:
210,74,72022,6,0,L|203:14,1,45,6|0,0:0|0:0,0:0:0:0:
302,74,72237,2,0,L|309:14,1,45,2|0,0:0|0:0,0:0:0:0:
204,159,72451,6,0,L|143:172,1,45,6|0,0:0|0:0,0:0:0:0:
308,159,72665,2,0,L|369:172,1,45,2|0,0:0|0:0,0:0:0:0:
492,76,79737,6,0,P|440:85|397:57,2,90,2|0|2,0:1|0:0|0:1,0:0:0:0:
400,60,80808,2,0,L|412:170,1,90,0|0,0:0|0:0,0:0:0:0:
387,263,81451,6,0,P|420:228|500:234,2,125.999996154785,2|0|2,0:1|0:0|0:1,0:0:0:0:
443,384,82522,2,0,B|491:343|491:343|446:278,1,125.999996154785,0|0,0:0|0:0,0:0:0:0:
337,335,83165,5,6,0:0:0:0:
314,331,83272,1,0,0:0:0:0:
292,328,83379,1,0,0:0:0:0:
270,324,83486,1,0,0:0:0:0:
248,321,83594,2,0,L|256:380,1,45,0|0,0:0|0:0,0:0:0:0:
138,216,83808,5,6,0:0:0:0:
161,212,83915,1,0,0:0:0:0:
183,209,84022,1,0,0:0:0:0:
205,205,84129,1,0,0:0:0:0:
227,202,84237,2,0,L|219:261,1,45,0|0,0:0|0:0,0:0:0:0:
378,123,84451,5,6,0:0:0:0:
355,119,84558,1,0,0:0:0:0:
333,116,84665,1,0,0:0:0:0:
311,112,84772,1,0,0:0:0:0:
289,109,84880,2,0,L|303:215,3,90,2|2|2|8,0:1|0:1|0:0|0:0,0:0:0:0:
201,154,86380,1,0,0:0:0:0:
101,109,86594,6,0,L|116:19,1,90,2|0,0:0|0:0,0:0:0:0:
125,30,86915,1,0,0:0:0:0:
134,39,87022,2,0,L|119:129,1,90,0|0,0:0|0:0,0:0:0:0:
40,282,87451,6,0,L|23:192,1,90,2|0,0:0|0:0,0:0:0:0:
35,199,87772,1,0,0:0:0:0:
47,204,87879,2,0,L|63:293,1,90,0|0,0:0|0:0,0:0:0:0:
215,234,88308,5,2,0:0:0:0:
317,259,88522,1,2,0:0:0:0:
257,366,88737,1,8,0:0:0:0:
96,330,88951,1,0,0:0:0:0:
200,308,89165,1,2,0:0:0:0:
338,350,89380,5,8,0:0:0:0:
338,350,89487,1,2,0:0:0:0:
338,350,89594,2,0,L|428:340,1,90,8|0,0:0|0:0,0:0:0:0:
400,204,90022,6,0,P|456:239|500:223,1,90,2|0,0:0|0:0,0:0:0:0:
393,126,90344,1,0,0:0:0:0:
393,126,90451,2,0,P|334:156|326:203,1,90,0|0,0:0|0:0,0:0:0:0:
505,85,90880,6,0,P|474:26|427:18,1,90,2|0,0:0|0:0,0:0:0:0:
444,20,91201,1,0,0:0:0:0:
434,30,91308,2,0,P|370:49|332:22,1,90,0|0,0:0|0:0,0:0:0:0:
172,137,91737,6,0,P|228:101|273:117,1,90,2|2,0:0|0:0,0:0:0:0:
257,111,92058,1,2,0:0:0:0:
260,124,92165,2,0,P|305:172|352:168,1,90,2|2,0:1|0:1,0:0:0:0:
479,215,92594,5,8,0:0:0:0:
456,211,92701,1,0,0:0:0:0:
434,216,92808,1,8,0:0:0:0:
415,227,92915,1,0,0:0:0:0:
401,245,93022,2,0,P|427:289|475:285,1,90,2|0,0:0|0:0,0:0:0:0:
233,366,93451,6,0,L|338:354,1,90,2|0,0:0|0:0,0:0:0:0:
333,356,93772,1,0,0:0:0:0:
324,346,93880,2,0,L|256:270,1,90,0|0,0:0|0:0,0:0:0:0:
111,112,94308,6,0,L|68:208,1,90,2|0,0:0|0:0,0:0:0:0:
69,203,94629,1,0,0:0:0:0:
82,200,94737,2,0,L|181:179,1,90,0|0,0:0|0:0,0:0:0:0:
391,133,95165,6,0,L|328:48,1,90,2|2,0:0|0:0,0:0:0:0:
334,51,95486,1,0,0:0:0:0:
330,64,95594,2,0,L|298:160,1,90,2|4,0:0|0:0,0:0:0:0:
302,331,96022,6,0,P|350:329|322:259,1,135,4|0,0:0|0:0,0:0:0:0:
337,248,96451,2,0,L|232:257,1,90,2|0,0:1|0:0,0:0:0:0:
21,317,96880,6,0,P|72:326|92:357,1,90,2|0,0:0|0:0,0:0:0:0:
98,366,97201,1,0,0:0:0:0:
105,375,97308,2,0,P|114:324|145:304,1,90,0|0,0:0|0:0,0:0:0:0:
318,237,97737,6,0,P|267:246|247:277,1,90,2|0,0:0|0:0,0:0:0:0:
241,286,98058,1,0,0:0:0:0:
234,295,98165,2,0,P|225:244|194:224,1,90,0|0,0:0|0:0,0:0:0:0:
43,162,98594,5,8,0:0:0:0:
43,162,98701,1,2,0:1:0:0:
205,74,98915,5,2,0:1:0:0:
205,74,99022,1,8,0:0:0:0:
78,32,99237,5,0,0:0:0:0:
78,32,99344,1,0,0:0:0:0:
78,32,99451,1,2,0:0:0:0:
78,32,99558,2,0,B|48:68|48:68|102:79,1,90,8|8,0:0|0:0,0:0:0:0:
143,134,99880,2,0,L|242:122,1,90,2|0,0:1|0:0,0:0:0:0:
310,175,100201,5,0,0:0:0:0:
310,175,100308,2,0,P|286:231|403:212,1,251.999992309571,0|8,0:0|0:1,0:0:0:0:
310,175,102022,6,0,L|317:296,1,107.999996704102,12|0,0:0|0:0,0:0:0:0:
352,109,102344,1,0,0:0:0:0:
352,109,102451,2,0,L|359:46,1,53.9999983520508,8|0,0:0|0:0,0:0:0:0:
279,242,102665,5,0,0:0:0:0:
474,206,102880,1,10,0:0:0:0:
274,108,103094,5,2,0:0:0:0:
274,108,103201,1,0,0:0:0:0:
274,108,103308,2,0,L|211:122,1,53.9999983520508,2|0,0:0|0:0,0:0:0:0:
411,64,103522,2,0,L|336:51,1,53.9999983520508,2|0,0:1|0:0,0:0:0:0:
166,96,103737,6,0,L|306:111,1,107.999996704102,12|0,0:0|0:0,0:0:0:0:
428,232,104058,1,0,0:0:0:0:
428,232,104165,2,0,P|464:207|503:211,1,53.9999983520508,8|0,0:0|0:0,0:0:0:0:
341,273,104380,2,0,P|303:276|261:237,1,53.9999983520508,0|0,0:0|0:0,0:0:0:0:
499,338,104594,6,0,B|413:348|413:348|432:307,1,107.999996704102,10|2,0:0|0:0,0:0:0:0:
489,114,104915,1,0,0:0:0:0:
489,114,105022,2,0,P|502:171|457:210,1,107.999996704102,2|2,0:0|0:1,0:0:0:0:
287,104,105451,6,0,P|235:113|179:85,1,107.999996704102,12|0,0:0|0:0,0:0:0:0:
16,22,105772,1,0,0:0:0:0:
16,22,105880,2,0,P|55:22|80:48,1,53.9999983520508,2|0,0:0|0:0,0:0:0:0:
117,152,106094,1,8,0:0:0:0:
84,342,106308,6,0,L|75:217,1,107.999996704102,12|0,0:0|0:0,0:0:0:0:
66,29,106630,1,0,0:0:0:0:
66,29,106738,2,0,P|99:48|108:83,2,53.9999983520508,2|0|0,0:0|0:0|0:0,0:0:0:0:
233,113,107165,1,2,0:1:0:0:
7,205,107380,5,8,0:0:0:0:
17,180,107487,1,0,0:0:0:0:
37,162,107594,1,2,0:1:0:0:
62,154,107701,1,0,0:0:0:0:
89,157,107808,1,8,0:0:0:0:
237,250,108022,1,2,0:1:0:0:
237,250,108237,6,0,P|199:273|177:275,1,53.9999983520508,8|0,0:0|0:0,0:0:0:0:
79,237,108451,1,12,0:0:0:0:
285,180,108665,1,2,0:0:0:0:
285,180,108772,1,0,0:0:0:0:
285,180,108880,6,0,L|430:189,1,107.999996704102,12|0,0:0|0:0,0:0:0:0:
389,330,109201,1,0,0:0:0:0:
389,330,109308,2,0,L|482:316,1,53.9999983520508,0|0,0:0|0:0,0:0:0:0:
269,255,109522,5,2,0:1:0:0:
265,281,109629,1,0,0:0:0:0:
261,308,109737,2,0,L|354:294,1,53.9999983520508,12|0,0:0|0:0,0:0:0:0:
124,364,109951,2,0,P|70:341|47:342,1,53.9999983520508,2|0,0:1|0:0,0:0:0:0:
199,206,110165,6,0,P|195:172|171:139,1,53.9999983520508,8|0,0:0|0:0,0:0:0:0:
28,58,110380,2,0,P|96:80|111:73,1,53.9999983520508,2|0,0:1|0:0,0:0:0:0:
332,38,110594,6,0,P|320:26|227:20,1,107.999996704102,12|0,0:0|0:0,0:0:0:0:
281,149,110915,1,2,0:0:0:0:
281,149,111022,2,0,L|268:82,1,53.9999983520508,2|0,0:0|0:0,0:0:0:0:
199,206,111237,5,2,0:1:0:0:
345,223,111451,1,8,0:0:0:0:
345,223,111558,2,0,L|406:227,1,53.9999983520508,0|2,0:0|0:1,0:0:0:0:
404,105,111772,5,0,0:0:0:0:
404,105,111880,2,0,P|446:66|515:83,1,107.999996704102,10|0,0:1|0:0,0:0:0:0:
482,191,112308,6,0,B|507:285|456:275|487:391,1,180,12|0,0:0|0:0,0:0:0:0:
288,277,112951,5,8,0:1:0:0:
288,277,113058,1,8,0:1:0:0:
288,277,113165,2,0,P|306:216|374:217,1,135,12|0,0:0|0:0,0:0:0:0:
376,224,113594,2,0,P|401:260|459:250,1,90,0|8,0:0|0:1,0:0:0:0:
467,46,114022,6,0,L|304:68,1,135,2|0,0:0|0:0,0:0:0:0:
281,133,114451,2,0,L|140:114,1,135,2|0,0:0|0:0,0:0:0:0:
98,48,114880,1,2,0:1:0:0:
206,163,115094,5,8,0:0:0:0:
91,271,115308,1,8,0:0:0:0:
13,169,115522,1,8,0:0:0:0:
13,169,115630,1,0,0:0:0:0:
13,169,115737,6,0,L|119:156,1,90,6|2,0:0|0:0,0:0:0:0:
191,271,116058,1,8,0:0:0:0:
191,271,116165,2,0,L|297:258,1,90,4|0,0:0|0:0,0:0:0:0:
226,194,116594,1,0,0:0:0:0:
157,347,116808,5,8,0:0:0:0:
226,194,117022,1,8,0:0:0:0:
336,330,117236,1,8,0:0:0:0:
491,230,117451,5,6,0:0:0:0:
498,208,117558,1,0,0:0:0:0:
497,186,117665,1,2,0:0:0:0:
488,165,117772,1,8,0:0:0:0:
473,150,117879,1,4,0:0:0:0:
418,286,118094,2,0,L|434:382,1,90,2|0,0:0|0:0,0:0:0:0:
359,204,118522,6,0,P|336:234|327:260,1,45,6|0,0:0|0:0,0:0:0:0:
367,123,118737,2,0,P|329:127|304:139,1,45,2|2,0:0|0:0,0:0:0:0:
429,71,118951,2,0,P|399:48|373:38,1,45,8|0,0:0|0:0,0:0:0:0:
277,189,119165,6,0,P|325:212|376:189,1,90,6|2,0:0|0:0,0:0:0:0:
381,86,119487,1,8,0:0:0:0:
381,86,119594,2,0,P|333:63|282:86,1,90,4|0,0:0|0:0,0:0:0:0:
428,154,120022,1,0,0:0:0:0:
230,120,120237,5,8,0:0:0:0:
230,120,120344,1,0,0:0:0:0:
230,120,120451,1,8,0:0:0:0:
302,246,120665,1,8,0:0:0:0:
144,126,120880,5,6,0:0:0:0:
146,103,120987,1,0,0:0:0:0:
148,81,121094,1,2,0:0:0:0:
150,58,121201,1,8,0:0:0:0:
153,36,121308,1,4,0:0:0:0:
37,146,121522,5,2,0:1:0:0:
37,146,121630,1,2,0:1:0:0:
37,146,121737,2,0,P|55:172|65:202,1,45,2|2,0:1|0:1,0:0:0:0:
74,329,121951,6,0,P|48:347|18:357,1,45,8|0,0:0|0:0,0:0:0:0:
180,253,122165,2,0,P|148:255|117:249,1,45,8|0,0:0|0:0,0:0:0:0:
301,199,122380,2,0,P|272:185|248:164,1,45,8|0,0:0|0:0,0:0:0:0:
383,24,122594,6,0,L|372:155,1,107.999996704102,4|2,0:1|0:0,0:0:0:0:
282,52,123022,1,8,0:0:0:0:
478,70,123237,1,0,0:0:0:0:
366,225,123451,6,0,L|238:236,1,107.999996704102,4|2,0:1|0:0,0:0:0:0:
460,320,123880,5,8,0:0:0:0:
433,322,123987,1,0,0:0:0:0:
406,324,124094,1,0,0:0:0:0:
379,326,124201,1,0,0:0:0:0:
352,329,124308,6,0,L|471:346,1,107.999996704102,4|2,0:1|0:0,0:0:0:0:
262,373,124737,1,8,0:0:0:0:
262,373,124951,2,0,L|258:312,1,53.9999983520508,0|0,0:0|0:0,0:0:0:0:
201,208,125165,5,4,0:1:0:0:
198,234,125272,1,0,0:0:0:0:
195,261,125379,1,2,0:0:0:0:
46,358,125594,2,0,P|85:302|139:301,1,107.999996704102,2|2,0:0|0:0,0:0:0:0:
124,300,125915,1,0,0:0:0:0:
124,300,126022,6,0,B|72:316|72:316|30:266,1,107.999996704102,4|2,0:1|0:0,0:0:0:0:
187,245,126451,1,8,0:0:0:0:
7,197,126665,1,0,0:0:0:0:
149,30,126880,6,0,B|152:151,1,107.999996704102,4|2,0:1|0:0,0:0:0:0:
363,30,127308,5,8,0:0:0:0:
364,56,127415,1,0,0:0:0:0:
362,83,127522,1,0,0:0:0:0:
361,110,127629,1,0,0:0:0:0:
360,137,127737,6,0,P|333:101|252:108,1,107.999996704102,4|2,0:1|0:0,0:0:0:0:
355,213,128058,1,0,0:0:0:0:
355,213,128165,2,0,P|399:207|434:133,1,107.999996704102,8|0,0:0|0:0,0:0:0:0:
291,170,128487,1,0,0:0:0:0:
291,170,128594,6,8,L|230:175,1,53.9999983520508,8|0,0:0|0:0,0:0:0:0:
356,292,128808,2,0,L|436:281,1,53.9999983520508
252,268,129022,5,2,0:0:0:0:
202,252,129129,1,2,0:0:0:0:
156,277,129236,1,8,0:0:0:0:
110,305,129343,1,2,0:0:0:0:
58,289,129450,1,8,0:0:0:0:
502,27,143165,5,2,0:1:0:0:
379,95,143594,1,2,0:1:0:0:
256,27,144022,1,2,0:1:0:0:
133,95,144452,1,2,0:1:0:0:
10,27,144880,1,10,0:1:0:0:
10,357,146380,5,0,0:0:0:0:
10,357,146594,5,2,0:1:0:0:
133,289,147023,1,2,0:1:0:0:
256,357,147451,1,2,0:1:0:0:
379,289,147881,1,2,0:1:0:0:
502,357,148309,1,10,0:1:0:0:
239,369,150022,6,0,P|210:328|219:279,1,80.9999975280763,6|0,0:0|0:0,0:0:0:0:
236,292,150451,2,0,P|274:302|279:330,1,53.9999983520508,6|0,0:0|0:0,0:0:0:0:
410,301,150880,6,0,P|448:246|436:181,1,108,6|0,0:0|0:0,0:0:0:0:
429,201,151309,2,0,P|378:214|371:251,1,72,6|0,0:0|0:0,0:0:0:0:
146,235,151737,6,0,P|97:166|126:87,1,135,6|0,0:0|0:0,0:0:0:0:
118,116,152166,2,0,P|181:132|189:179,1,90,8|0,0:0|0:0,0:0:0:0:
342,20,152594,6,0,P|285:19|260:55,1,90,6|0,0:0|0:0,0:0:0:0:
256,60,152915,5,0,0:0:0:0:
248,39,153022,1,8,0:0:0:0:
233,23,153129,1,0,0:0:0:0:
213,13,153236,1,0,0:0:0:0:
191,12,153343,1,0,0:0:0:0:
170,20,153450,1,6,0:1:0:0:
210,318,155165,6,0,L|115:373,1,90,2|0,0:0|0:0,0:0:0:0:
301,318,155487,2,0,L|396:373,1,90,2|0,0:0|0:0,0:0:0:0:
256,240,155808,5,2,0:0:0:0:
256,217,155915,1,2,0:0:0:0:
256,195,156022,2,0,L|256:85,1,90,6|0,0:0|0:0,0:0:0:0:
257,11,156344,2,0,P|297:53|238:103,1,135,2|0,0:0|0:0,0:0:0:0:
76,92,156880,6,0,P|124:56|196:70,1,116.999994644165,12|0,0:0|0:0,0:0:0:0:
256,195,157201,1,0,0:0:0:0:
256,195,157308,2,0,P|304:208|332:202,1,58.4999973220826,8|0,0:0|0:0,0:0:0:0:
148,146,157522,5,0,0:0:0:0:
66,291,157737,1,10,0:0:0:0:
302,130,157951,5,2,0:0:0:0:
302,130,158058,1,0,0:0:0:0:
302,130,158165,2,0,L|293:36,1,58.4999973220826,2|0,0:0|0:0,0:0:0:0:
197,253,158380,2,0,L|187:323,1,58.4999973220826,2|0,0:1|0:0,0:0:0:0:
396,268,158594,6,0,P|337:224|288:247,1,116.999994644165,12|0,0:0|0:0,0:0:0:0:
452,344,158915,1,0,0:0:0:0:
452,344,159022,2,0,L|522:355,1,58.4999973220826,8|0,0:0|0:0,0:0:0:0:
274,309,159237,2,0,L|353:300,1,58.4999973220826,0|0,0:0|0:0,0:0:0:0:
95,350,159451,6,0,L|233:367,1,116.999994644165,10|2,0:0|0:0,0:0:0:0:
113,185,159772,1,0,0:0:0:0:
113,185,159880,2,0,B|60:160|60:160|16:203,1,116.999994644165,2|2,0:0|0:1,0:0:0:0:
341,363,160308,6,0,P|356:295|325:235,1,116.999994644165,12|0,0:0|0:0,0:0:0:0:
178,136,160630,1,0,0:0:0:0:
178,136,160737,2,0,P|156:92|158:69,1,58.4999973220826,2|0,0:0|0:0,0:0:0:0:
78,255,160951,1,8,0:0:0:0:
339,252,161165,6,0,P|301:193|237:172,1,116.999994644165,12|0,0:0|0:0,0:0:0:0:
216,25,161487,1,0,0:0:0:0:
216,25,161594,2,0,P|238:69|236:92,2,58.4999973220826,2|0|8,0:0|0:0|0:0,0:0:0:0:
188,226,162022,1,2,0:1:0:0:
463,75,162237,5,8,0:0:0:0:
445,51,162344,1,0,0:0:0:0:
420,37,162451,1,2,0:1:0:0:
391,35,162558,1,0,0:0:0:0:
364,46,162665,1,8,0:0:0:0:
360,237,162880,1,8,0:0:0:0:
360,237,163094,5,0,0:0:0:0:
366,208,163201,1,0,0:0:0:0:
363,179,163308,1,6,0:0:0:0:
206,11,163522,5,2,0:0:0:0:
199,39,163629,1,0,0:0:0:0:
202,68,163737,2,0,B|168:64|168:64|164:64|164:64|78:57,1,116.999994644165,12|0,0:0|0:0,0:0:0:0:
273,144,164058,1,0,0:0:0:0:
273,144,164165,2,0,L|193:159,1,58.4999973220826,0|0,0:0|0:0,0:0:0:0:
21,273,164380,5,2,0:1:0:0:
43,255,164487,1,0,0:0:0:0:
72,253,164594,2,0,L|80:344,1,58.4999973220826,12|0,0:0|0:0,0:0:0:0:
256,372,164808,2,0,L|256:299,1,58.4999973220826,2|0,0:1|0:0,0:0:0:0:
439,253,165022,6,0,L|432:344,1,58.4999973220826,8|0,0:0|0:0,0:0:0:0:
256,144,165237,2,0,L|256:71,1,58.4999973220826,2|0,0:1|0:0,0:0:0:0:
83,369,165451,6,0,L|69:229,1,116.999994644165,12|0,0:0|0:0,0:0:0:0:
256,144,165772,1,2,0:0:0:0:
256,144,165880,2,0,P|243:196|212:214,1,58.4999973220826,2|0,0:0|0:0,0:0:0:0:
111,178,166094,5,2,0:1:0:0:
316,90,166308,1,8,0:0:0:0:
316,90,166415,2,0,L|380:98,1,58.4999973220826,0|2,0:0|0:1,0:0:0:0:
342,264,166630,5,0,0:0:0:0:
342,264,166737,2,0,P|361:207|426:202,1,116.999994644165,10|0,0:1|0:0,0:0:0:0:
255,294,167165,5,4,0:1:0:0:
199,348,167380,2,0,P|254:373|305:356,2,90,2|0|2,0:0|0:0|0:0,0:0:0:0:
122,298,167915,1,0,0:0:0:0:
122,298,168022,1,4,0:1:0:0:
178,245,168237,2,0,P|123:220|72:237,2,90,2|0|2,0:0|0:0|0:0,0:0:0:0:
16,288,168880,5,6,0:0:0:0:
151,179,169094,1,0,0:0:0:0:
5,112,169308,5,6,0:0:0:0:
233,169,169522,1,0,0:0:0:0:
28,195,169737,5,2,0:1:0:0:
69,189,169844,1,2,0:1:0:0:
110,185,169951,1,2,0:1:0:0:
151,179,170058,1,2,0:1:0:0:
192,173,170165,1,10,0:1:0:0:
233,169,170272,1,10,0:1:0:0:
274,163,170380,1,10,0:1:0:0:
315,159,170487,1,10,0:1:0:0:
356,153,170594,6,0,P|288:165|269:101,1,116.999994644165,12|0,0:0|0:0,0:0:0:0:
437,36,170915,1,0,0:0:0:0:
437,36,171022,2,0,L|425:119,1,58.4999973220826,8|0,0:0|0:0,0:0:0:0:
408,268,171237,5,0,0:0:0:0:
324,75,171451,1,10,0:0:0:0:
511,189,171665,5,2,0:0:0:0:
511,189,171772,1,0,0:0:0:0:
511,189,171880,2,0,L|449:192,1,58.4999973220826,2|0,0:0|0:0,0:0:0:0:
350,364,172094,2,0,L|269:354,1,58.4999973220826,2|0,0:1|0:0,0:0:0:0:
506,338,172308,6,0,P|476:287|408:293,1,116.999994644165,12|0,0:0|0:0,0:0:0:0:
220,322,172630,1,0,0:0:0:0:
220,322,172737,2,0,L|146:328,1,58.4999973220826,8|0,0:0|0:0,0:0:0:0:
298,225,172951,2,0,L|369:237,1,58.4999973220826,0|0,0:0|0:0,0:0:0:0:
150,340,173165,6,0,L|133:190,1,116.999994644165,10|2,0:0|0:0,0:0:0:0:
237,33,173487,1,0,0:0:0:0:
237,33,173594,2,0,P|254:89|219:129,1,116.999994644165,2|2,0:0|0:1,0:0:0:0:
437,117,174022,6,0,P|374:98|322:109,1,116.999994644165,12|2,0:0|0:0,0:0:0:0:
136,223,174344,1,0,0:0:0:0:
136,223,174451,2,0,P|174:222|201:209,1,58.4999973220826,2|0,0:0|0:0,0:0:0:0:
303,19,174665,2,0,P|271:0|227:13,1,58.4999973220826,8|0,0:0|0:0,0:0:0:0:
139,89,174880,6,0,L|273:68,1,116.999994644165,12|0,0:0|0:0,0:0:0:0:
383,181,175201,1,0,0:0:0:0:
383,181,175308,2,0,P|423:200|457:192,2,58.4999973220826,2|0|8,0:0|0:0|0:0,0:0:0:0:
192,264,175737,6,0,P|250:208|315:236,1,116.999994644165,2|8,0:1|0:0,0:0:0:0:
444,141,176058,1,0,0:0:0:0:
444,141,176165,2,0,L|433:216,1,58.4999973220826,2|0,0:1|0:0,0:0:0:0:
409,337,176380,5,8,0:0:0:0:
347,120,176594,1,8,0:0:0:0:
261,278,176808,5,0,0:0:0:0:
261,278,176915,1,0,0:0:0:0:
261,278,177022,2,0,L|185:265,1,58.4999973220826,6|0,0:0|0:0,0:0:0:0:
75,192,177237,1,2,0:0:0:0:
97,172,177344,1,0,0:0:0:0:
123,182,177451,1,12,0:0:0:0:
123,182,177665,6,0,P|168:194|199:176,1,58.4999973220826,2|0,0:0|0:0,0:0:0:0:
330,81,177880,2,0,P|298:114|298:150,1,58.4999973220826,2|0,0:0|0:0,0:0:0:0:
314,311,178094,2,0,P|301:267|270:249,1,58.4999973220826,2|0,0:1|0:0,0:0:0:0:
184,132,178308,6,0,L|176:211,1,58.4999973220826,14|0,0:0|0:0,0:0:0:0:
328,132,178522,2,0,L|336:211,1,58.4999973220826,2|0,0:1|0:0,0:0:0:0:
156,53,178737,6,0,L|92:42,1,58.4999973220826,10|0,0:0|0:0,0:0:0:0:
356,53,178951,2,0,L|420:42,1,58.4999973220826,2|0,0:1|0:0,0:0:0:0:
256,242,179165,1,14,0:0:0:0:
256,242,179380,6,0,L|264:317,1,58.4999973220826,2|2,0:0|0:0,0:0:0:0:
212,113,179594,2,0,L|204:188,1,58.4999973220826,2|0,0:0|0:0,0:0:0:0:
307,14,179808,2,0,L|315:89,1,58.4999973220826,2|0,0:1|0:0,0:0:0:0:
375,227,180022,5,10,0:0:0:0:
116,136,180237,1,2,0:1:0:0:
396,136,180451,5,10,0:1:0:0:
137,227,180665,1,2,0:0:0:0:
137,227,180772,1,0,0:0:0:0:
137,227,180880,6,0,B|61:263|66:196|-24:242,2,135,6|8|2,0:0|0:0|0:0,0:0:0:0:
375,227,181737,2,0,B|451:263|446:196|536:242,2,135,6|8|2,0:0|0:0|0:0,0:0:0:0:
256,332,182594,5,6,0:0:0:0:
256,52,183022,1,6,0:0:0:0:
256,332,183451,5,6,0:0:0:0:
396,192,183665,1,6,0:0:0:0:
256,52,183880,1,6,0:0:0:0:
116,192,184094,1,6,0:0:0:0:
256,332,184308,1,6,0:0:0:0:
256,192,184415,12,0,187308,0:0:0:0:
382,239,187737,6,0,L|484:215,1,90,2|0,0:0|0:0,0:0:0:0:
369,146,188165,2,0,L|345:44,1,90,2|0,0:0|0:0,0:0:0:0:
276,159,188594,2,0,L|174:183,1,90,2|0,0:0|0:0,0:0:0:0:
289,252,189022,2,0,L|313:354,1,90,2|0,0:0|0:0,0:0:0:0:
382,239,189451,2,0,P|373:172|263:171,2,180,2|2|10,0:0|0:0|0:1,0:0:0:0:
238,367,190737,1,10,0:1:0:0:
171,299,191165,5,6,0:0:0:0:
171,299,191594,2,0,L|188:199,1,90,2|0,0:0|0:0,0:0:0:0:
86,137,192022,1,2,0:0:0:0:
86,137,192130,2,0,P|86:84|118:58,1,90,2|0,0:1|0:0,0:0:0:0:
121,69,192451,2,0,L|220:76,1,90,2|0,0:0|0:0,0:0:0:0:
59,12,192880,5,2,0:0:0:0:
59,12,193308,1,2,0:0:0:0:
41,94,193522,1,0,0:0:0:0:
121,69,193737,2,0,L|220:76,1,90,2|0,0:0|0:0,0:0:0:0:
301,83,194165,5,2,0:0:0:0:
308,104,194272,1,0,0:0:0:0:
324,119,194379,1,0,0:0:0:0:
345,126,194486,1,0,0:0:0:0:
367,123,194593,1,12,0:1:0:0:
492,67,194808,2,0,L|502:3,1,45,0|8,0:0|0:1,0:0:0:0:
450,142,195022,5,8,0:1:0:0:
451,164,195129,1,2,0:0:0:0:
453,186,195236,1,8,0:0:0:0:
454,209,195343,1,8,0:1:0:0:
456,231,195450,1,12,0:1:0:0:
339,279,195665,2,0,P|386:289|396:304,1,45,2|8,0:0|0:0,0:0:0:0:
297,349,195880,5,8,0:1:0:0:
277,360,195987,1,2,0:0:0:0:
255,364,196094,1,2,0:0:0:0:
233,360,196201,1,2,0:0:0:0:
214,348,196308,1,12,0:1:0:0:
130,285,196737,1,12,0:1:0:0:
319,200,197165,5,12,0:1:0:0:
193,200,197380,1,8,0:1:0:0:
256,115,197594,5,8,0:1:0:0:
256,115,197808,6,0,L|256:46,1,45,8|0,0:1|0:0,0:0:0:0:
