osu file format v14

[General]
AudioFilename: audio.mp3
AudioLeadIn: 0
PreviewTime: 49874
Countdown: 0
SampleSet: Soft
StackLeniency: 0.3
Mode: 0
LetterboxInBreaks: 0
WidescreenStoryboard: 1

[Editor]
DistanceSpacing: 1
BeatDivisor: 8
GridSize: 4
TimelineZoom: 1.800006

[Metadata]
Title:God-ish
TitleUnicode:神っぽいな
Artist:sekai
ArtistUnicode:sekai
Creator:seros
Version:climb's Hard
Source:
Tags:corsace closed ro16 nm3 cc22 cover jpop j-pop japanese pop vocaloid Sankaku Zuwari ピノキオピー godish kami ppoi poi na pinocchiop hatsune miku nenneO petal matha climbx3145 climb kuse KuBsNia_ZhoYL_ irin surou setu shiratamamywife
BeatmapID:3601682
BeatmapSetID:1759764

[Difficulty]
HPDrainRate:4.5
CircleSize:4
OverallDifficulty:5
ApproachRate:8
SliderMultiplier:1.8
SliderTickRate:1

[Events]
//Background and Video events
0,0,"bg.jpg",0,0
//Break Periods
2,19704,20444
//Storyboard Layer 0 (Background)
//Storyboard Layer 1 (Fail)
//Storyboard Layer 2 (Pass)
//Storyboard Layer 3 (Foreground)
//Storyboard Layer 4 (Overlay)
//Storyboard Sound Samples

[TimingPoints]
913,422.535211267606,4,2,1,69,1,0
5983,-125,4,2,1,5,0,0
7673,-125,4,2,1,69,0,0
14434,-111.111111111111,4,2,1,69,0,0
20772,-125,4,2,1,69,0,0
21194,-100,4,2,1,69,0,0
34293,-100,4,2,1,69,0,0
34663,-100,4,2,1,5,0,0
34715,-125,4,2,1,69,0,0
38096,-111.111111111111,4,2,1,69,0,0
41476,-125,4,2,1,69,0,0
44856,-111.111111111111,4,2,1,69,0,0
48236,-100,4,2,1,69,0,0
51194,-100,4,2,1,39,0,0
51617,-83.3333333333333,4,2,1,80,0,1
64293,-83.3333333333333,4,2,1,80,0,0
65138,-83.3333333333333,4,2,1,80,0,1
78659,-111.111111111111,4,2,1,69,0,0
85155,-111.111111111111,4,2,1,5,0,0
85208,-111.111111111111,4,2,1,69,0,0
85420,-111.111111111111,4,2,1,69,0,0
91335,-100,4,2,1,69,0,0
91758,-100,4,2,1,69,0,0
92127,-100,4,2,1,5,0,0
92180,582.52427184466,4,2,1,39,1,0
92180,-125,4,2,1,39,0,0
94218,-125,4,2,1,9,0,0
94510,-111.111111111111,4,2,1,44,0,0
96840,-100,4,2,1,49,0,0
99170,-90.9090909090909,4,2,1,69,0,0
101500,-83.3333333333333,4,2,1,59,0,0
103830,-76.9230769230769,4,2,1,64,0,0
106160,-71.4285714285714,4,2,1,69,0,0
108490,-100,4,2,1,69,0,0
108781,-100,4,2,1,19,0,0
109655,-100,4,2,1,69,0,0
110092,-100,4,2,1,20,0,0
110238,-100,4,2,1,69,0,0
110820,-72.992700729927,4,2,1,39,0,0
127131,-85.4700854700855,4,2,1,39,0,0
129461,422.535211267606,4,2,1,69,1,0
129461,-125,4,2,1,69,0,0
132841,-111.111111111111,4,2,1,69,0,0
136221,-125,4,2,1,69,0,0
139601,-111.111111111111,4,2,1,69,0,0
142982,-111.111111111111,4,2,1,69,0,0
146151,-100,4,2,1,69,0,0
147418,-76.9230769230769,4,2,1,69,0,0
147577,-76.9230769230769,4,2,1,5,0,0
147630,-100,4,2,1,69,0,0
148052,-83.3333333333333,4,2,1,80,0,1
159883,-83.3333333333333,4,2,1,80,0,0
161573,-83.3333333333333,4,2,1,80,0,1
175094,-83.3333333333333,4,2,1,80,0,1
186925,-100,4,2,1,80,0,0
187982,-125,4,2,1,40,0,0
188193,-125,4,2,1,40,0,0
188615,-125,4,2,1,49,0,0
195376,-111.111111111111,4,2,1,49,0,0
201503,-100,4,2,1,20,0,0

[Colours]
Combo1 : 200,121,121
Combo2 : 118,145,165
Combo3 : 215,177,168
Combo4 : 142,146,179

[HitObjects]
214,159,7673,6,0,P|183:117|132:119,2,108,2|2|2,0:0|0:0|0:0,0:0:0:0:
257,250,8518,2,0,P|292:242|327:235,1,72,2|2,0:0|0:0,0:0:0:0:
375,250,8835,2,0,P|384:196|396:144,1,108,2|2,0:0|0:0,0:0:0:0:
428,48,9363,2,0,P|392:41|310:94,1,108,2|2,0:0|0:0,0:0:0:0:
299,111,9786,1,0,0:0:0:0:
201,85,9997,2,0,P|152:73|96:58,2,108,2|0|0,0:0|0:0|0:0,0:0:0:0:
299,111,10842,1,2,0:0:0:0:
261,204,11053,6,0,P|278:256|345:270,2,108,2|2|2,0:0|0:0|0:0,0:0:0:0:
160,189,11898,2,0,P|150:223|124:247,1,72,2|2,0:0|0:0,0:0:0:0:
85,279,12215,2,0,P|137:278|171:318,1,108,2|2,0:0|0:0,0:0:0:0:
255,384,12743,6,0,P|307:372|360:362,1,108,2|2,0:0|0:0,0:0:0:0:
411,353,13166,1,0,0:0:0:0:
369,261,13377,1,2,0:0:0:0:
464,228,13589,2,0,B|500:215|500:215|517:136|446:111,1,144,2|2,0:0|0:0,0:0:0:0:
269,13,14434,6,0,P|307:24|347:32,1,80.9999975280763,2|2,0:0|0:1,0:0:0:0:
397,48,14751,2,0,P|379:106|366:165,1,121.499996292114,2|2,0:0|0:1,0:0:0:0:
281,227,15279,2,0,P|242:235|205:220,1,80.9999975280763,2|2,0:0|0:1,0:0:0:0:
165,193,15596,1,2,0:0:0:0:
165,193,15701,1,0,0:0:0:0:
216,100,15913,1,2,0:1:0:0:
161,9,16124,6,0,P|123:24|85:39,1,80.9999975280763,2|2,0:0|0:1,0:0:0:0:
38,55,16441,1,2,0:0:0:0:
38,55,16546,1,0,0:0:0:0:
2,154,16758,2,0,P|23:210|40:269,2,121.499996292114,2|2|2,0:1|0:0|0:0,0:0:0:0:
105,132,17603,1,2,0:1:0:0:
186,198,17814,6,0,P|171:235|159:274,1,80.9999975280763,2|2,0:0|0:1,0:0:0:0:
142,324,18131,2,0,P|200:340|257:362,1,121.499996292114,2|2,0:0|0:1,0:0:0:0:
338,295,18659,2,0,P|352:257|364:218,1,80.9999975280763,2|2,0:0|0:1,0:0:0:0:
382,169,18976,2,0,P|323:152|266:130,1,121.499996292114,2|2,0:0|0:1,0:0:0:0:
168,93,19504,5,2,0:0:0:0:
168,93,21194,6,0,B|154:89|154:89|167:163,1,90,0|2,3:0|0:3,0:0:0:0:
145,269,21617,1,2,1:2:0:0:
155,260,21722,2,0,L|243:244,1,90,2|2,0:0|0:0,0:0:0:0:
281,205,22039,1,0,3:0:0:0:
281,205,22145,2,0,L|369:220,1,90,2|2,0:0|0:3,0:0:0:0:
424,226,22462,1,2,1:2:0:0:
488,139,22673,2,0,L|484:116,2,22.5,2|2|2,0:3|0:3|0:3,0:0:0:0:
476,86,22884,5,0,3:0:0:0:
401,6,23096,1,2,0:3:0:0:
313,67,23307,1,2,1:2:0:0:
304,78,23413,2,0,P|264:97|220:92,1,90,2|2,0:0|0:0,0:0:0:0:
180,64,23729,1,0,3:0:0:0:
180,64,23835,2,0,P|138:81|96:96,1,90,2|2,0:0|0:3,0:0:0:0:
43,108,24152,1,2,1:2:0:0:
6,209,24363,2,0,L|9:231,2,22.5,2|2|2,0:3|0:3|0:3,0:0:0:0:
20,261,24574,6,0,P|53:232|97:223,1,90,0|2,3:0|0:3,0:0:0:0:
204,210,24997,1,2,1:2:0:0:
195,219,25103,2,0,L|179:307,1,90,2|2,0:0|0:0,0:0:0:0:
221,349,25420,1,0,3:0:0:0:
221,349,25525,2,0,P|265:342|300:315,1,90,2|2,0:0|0:3,0:0:0:0:
327,269,25842,1,2,1:2:0:0:
433,282,26053,2,0,L|455:285,2,22.5,2|2|2,0:3|0:3|0:3,0:0:0:0:
482,258,26265,6,0,P|483:214|455:180,1,90,0|2,3:0|0:3,0:0:0:0:
349,155,26687,1,0,1:0:0:0:
412,67,26898,2,0,P|367:57|324:45,1,90,2|2,0:3|3:2,0:0:0:0:
158,97,27321,2,0,P|202:106|246:119,1,90,2|2,0:3|1:2,0:0:0:0:
349,155,27743,2,0,L|345:177,2,22.5,2|2|2,0:3|0:3|0:3,0:0:0:0:
334,207,27955,6,0,P|291:213|270:252,1,90,0|2,3:0|0:3,0:0:0:0:
268,358,28377,1,2,1:2:0:0:
259,349,28483,2,0,L|171:333,1,90,2|2,0:0|0:0,0:0:0:0:
120,345,28800,1,0,3:0:0:0:
120,345,28905,2,0,P|58:329|53:293,1,90,2|2,0:0|0:3,0:0:0:0:
66,257,29222,1,2,1:2:0:0:
124,166,29434,2,0,L|120:143,2,22.5,2|2|2,0:3|0:3|0:3,0:0:0:0:
113,112,29645,5,0,3:0:0:0:
52,22,29856,1,2,0:3:0:0:
159,4,30067,1,2,1:2:0:0:
174,2,30173,2,0,P|216:16|259:28,1,90,2|2,0:0|0:0,0:0:0:0:
303,68,30490,1,0,3:0:0:0:
303,68,30596,2,0,P|345:53|388:41,1,90,2|2,0:0|0:3,0:0:0:0:
442,32,30913,1,2,1:2:0:0:
503,120,31124,2,0,L|499:142,2,22.5,2|2|2,0:3|0:3|0:3,0:0:0:0:
494,173,31335,6,0,L|406:189,1,90,0|2,3:0|0:3,0:0:0:0:
298,170,31758,1,2,1:2:0:0:
307,179,31863,2,0,L|323:267,1,90,2|2,0:0|0:0,0:0:0:0:
300,318,32180,1,0,3:0:0:0:
300,318,32286,2,0,L|212:302,1,90,2|2,0:0|0:3,0:0:0:0:
157,297,32603,1,2,1:2:0:0:
91,211,32814,2,0,L|94:188,2,22.5,2|2|2,0:3|0:3|0:3,0:0:0:0:
103,158,33025,5,2,3:2:0:0:
103,158,34082,2,0,L|95:113,1,45,0|0,3:0|3:0,0:0:0:0:
83,60,34293,1,8,0:2:0:0:
256,53,34715,6,0,P|290:44|325:35,2,72,0|0|0,3:0|0:0|0:0,0:0:0:0:
173,111,35349,2,0,P|138:102|103:93,2,72,0|0|0,3:0|0:0|0:0,0:0:0:0:
232,192,35983,2,0,P|266:183|301:174,1,72,10|2,0:0|0:0,0:0:0:0:
384,232,36405,6,0,P|418:240|453:249,2,72,0|0|0,3:0|0:0|0:0,0:0:0:0:
301,174,37039,2,0,P|266:182|231:191,2,72,0|0|2,3:0|0:0|0:0,0:0:0:0:
360,93,37673,2,0,P|394:101|429:110,1,72,10|2,0:0|0:0,0:0:0:0:
500,187,38096,6,0,P|506:265|445:313,1,161.999995056153,2|10,3:2|0:0,0:0:0:0:
344,285,38729,1,0,0:0:0:0:
227,367,38941,2,0,P|266:378|306:382,1,80.9999975280763,2|2,3:2|0:0,0:0:0:0:
211,266,39363,2,0,P|171:276|131:281,1,80.9999975280763,10|2,0:0|0:0,0:0:0:0:
250,167,39786,6,0,P|328:154|384:97,1,161.999995056153,2|8,3:2|0:0,0:0:0:0:
333,4,40420,1,8,0:0:0:0:
239,53,40631,2,0,L|199:46,3,40.4999987640381,0|0|8|0,3:0|0:0|0:0|0:0,0:0:0:0:
154,18,41053,2,0,L|114:24,1,40.4999987640381,8|0,1:2|1:0,0:0:0:0:
71,57,41265,2,0,L|77:96,1,40.4999987640381,0|0,1:0|1:0,0:0:0:0:
80,143,41476,6,0,P|45:134|10:125,2,72,0|0|0,3:0|0:0|0:0,0:0:0:0:
163,201,42110,2,0,P|197:192|232:183,2,72,0|0|0,3:0|0:0|0:0,0:0:0:0:
104,282,42743,2,0,P|69:273|34:264,1,72,10|2,0:0|0:0,0:0:0:0:
163,201,43166,6,0,P|197:209|232:218,2,72,0|0|0,3:0|0:0|0:0,0:0:0:0:
80,143,43800,2,0,P|45:151|10:160,2,72,0|0|2,3:0|0:0|0:0,0:0:0:0:
139,62,44434,2,0,P|173:70|208:79,1,72,10|2,0:0|0:0,0:0:0:0:
311,101,44856,5,2,3:2:0:0:
311,101,45279,1,10,0:0:0:0:
352,197,45490,1,2,3:2:0:0:
265,257,45701,2,0,L|286:335,1,80.9999975280763,2|2,3:2|0:0,0:0:0:0:
380,384,46124,2,0,L|401:305,1,80.9999975280763,10|2,0:0|3:2,0:0:0:0:
474,230,46546,5,2,3:2:0:0:
428,135,46758,1,8,0:0:0:0:
424,146,46863,1,8,0:0:0:0:
418,157,46969,2,0,P|391:186|352:196,1,80.9999975280763,0|10,3:0|0:0,0:0:0:0:
249,172,47391,1,2,3:2:0:0:
205,268,47603,1,8,0:0:0:0:
193,270,47708,1,8,0:0:0:0:
180,270,47814,2,0,P|141:261|113:232,1,80.9999975280763,0|8,3:0|0:0,0:0:0:0:
109,116,48236,5,2,3:2:0:0:
256,192,48342,12,0,49927,0:0:0:0:
214,227,51194,5,8,0:0:0:0:
214,227,51617,5,2,3:2:0:0:
312,270,51828,1,2,0:3:0:0:
411,227,52039,1,10,0:0:0:0:
307,257,52251,1,2,3:0:0:0:
206,217,52462,2,0,P|219:165|234:113,1,107.999996704102,2|2,0:0|3:3,0:0:0:0:
209,71,52779,1,2,0:3:0:0:
209,71,52884,2,0,P|156:65|115:98,1,107.999996704102,10|2,0:0|0:3,0:0:0:0:
95,204,53307,5,2,3:2:0:0:
193,247,53518,1,2,0:3:0:0:
292,204,53729,1,10,0:0:0:0:
188,234,53941,1,2,3:0:0:0:
87,194,54152,2,0,P|100:141|115:89,1,107.999996704102,2|2,0:0|3:0,0:0:0:0:
138,42,54469,1,2,0:3:0:0:
138,42,54574,2,0,P|190:55|242:70,1,107.999996704102,10|2,0:0|0:3,0:0:0:0:
332,130,54997,5,2,3:2:0:0:
295,231,55208,1,2,0:3:0:0:
318,124,55420,1,10,0:0:0:0:
282,226,55631,1,2,3:0:0:0:
193,164,55842,2,0,P|144:187|93:206,1,107.999996704102,2|2,0:0|3:0,0:0:0:0:
49,234,56159,1,2,0:3:0:0:
49,234,56265,2,0,P|50:286|91:318,1,107.999996704102,10|2,0:0|0:3,0:0:0:0:
193,353,56687,5,2,3:2:0:0:
281,291,56898,1,2,0:3:0:0:
184,339,57110,1,10,0:0:0:0:
198,232,57321,1,2,3:0:0:0:
202,214,57427,1,0,0:0:0:0:
204,198,57532,2,0,L|213:144,3,53.9999983520508,2|2|2|2,0:0|0:0|3:0|0:3,0:0:0:0:
222,90,57955,2,0,P|273:82|315:113,1,107.999996704102,10|2,0:0|0:3,0:0:0:0:
342,167,58272,1,2,0:3:0:0:
342,167,58377,5,2,3:2:0:0:
371,271,58589,1,2,0:3:0:0:
300,352,58800,1,10,0:0:0:0:
382,282,59011,1,2,3:0:0:0:
356,177,59222,2,0,P|369:124|384:72,1,107.999996704102,2|2,0:0|3:0,0:0:0:0:
363,28,59539,1,2,0:3:0:0:
363,28,59645,2,0,P|309:25|265:55,1,107.999996704102,8|2,0:0|0:3,0:0:0:0:
218,152,60067,5,2,3:2:0:0:
110,139,60279,1,2,0:3:0:0:
65,40,60490,1,10,0:0:0:0:
95,143,60701,1,2,3:0:0:0:
201,162,60913,2,0,P|253:175|305:190,1,107.999996704102,2|2,0:0|3:0,0:0:0:0:
358,175,61229,1,2,0:3:0:0:
358,175,61335,2,0,P|371:227|386:279,1,107.999996704102,10|2,0:0|0:3,0:0:0:0:
324,368,61758,5,2,3:2:0:0:
223,331,61969,1,2,0:3:0:0:
330,354,62180,1,10,0:0:0:0:
228,318,62391,1,2,3:0:0:0:
130,363,62603,2,0,P|81:339|30:320,1,107.999996704102,2|2,0:0|3:0,0:0:0:0:
8,276,62920,1,2,0:3:0:0:
8,276,63025,2,0,P|9:223|50:191,1,107.999996704102,10|2,0:0|0:3,0:0:0:0:
156,178,63448,5,0,3:0:0:0:
299,339,63870,1,0,3:0:0:0:
365,133,64293,1,0,3:0:0:0:
365,133,65138,6,0,P|338:128|314:115,3,53.9999983520508,4|2|2|2,3:1|0:0|0:3|0:0,0:0:0:0:
270,84,65560,2,0,P|246:96|219:101,3,53.9999983520508,10|2|2|2,1:2|0:0|0:3|0:0,0:0:0:0:
167,84,65983,2,0,L|157:137,1,53.9999983520508,2|2,3:2|0:0,0:0:0:0:
126,181,66194,2,0,L|135:234,1,53.9999983520508,2|2,0:3|0:3,0:0:0:0:
147,287,66405,1,10,1:2:0:0:
226,360,66617,1,2,0:3:0:0:
238,369,66722,1,2,0:3:0:0:
253,374,66828,6,0,P|311:335|367:335,1,107.999996704102,2|2,3:2|0:3,0:0:0:0:
452,357,67251,2,0,P|456:330|469:306,3,53.9999983520508,10|2|2|2,1:2|0:0|0:3|0:0,0:0:0:0:
503,264,67673,2,0,P|498:237|485:213,1,53.9999983520508,2|2,3:2|0:0,0:0:0:0:
445,176,67884,2,0,P|449:149|462:125,1,53.9999983520508,2|2,0:3|0:3,0:0:0:0:
486,76,68096,1,10,1:2:0:0:
403,6,68307,1,2,0:3:0:0:
387,8,68413,1,0,0:0:0:0:
371,11,68518,5,2,3:2:0:0:
287,78,68729,1,2,0:3:0:0:
192,25,68941,1,10,1:2:0:0:
293,61,69152,1,2,0:3:0:0:
387,8,69363,2,0,P|372:59|358:112,1,107.999996704102,2|2,3:2|0:3,0:0:0:0:
384,164,69680,1,2,0:3:0:0:
384,164,69786,2,0,P|331:177|279:192,1,107.999996704102,10|2,1:2|0:3,0:0:0:0:
209,274,70208,5,2,3:2:0:0:
272,361,70420,1,2,0:3:0:0:
379,360,70631,1,10,1:2:0:0:
272,345,70842,1,2,0:3:0:0:
196,268,71053,2,0,P|182:215|167:163,1,107.999996704102,2|2,3:2|0:3,0:0:0:0:
132,128,71370,1,2,0:3:0:0:
132,128,71476,2,0,P|139:102|145:75,3,53.9999983520508,8|2|2|2,1:2|0:0|0:3|0:3,0:0:0:0:
153,22,71898,6,0,P|87:48|47:64,1,107.999996704102,4|2,3:1|0:3,0:0:0:0:
50,170,72321,2,0,P|27:158|0:153,2,53.9999983520508,10|2|0,1:2|0:0|0:0,0:0:0:0:
91,205,72638,2,0,P|67:251|57:305,1,107.999996704102,2|2,0:0|0:0,0:0:0:0:
57,359,72955,2,0,P|80:345|106:341,1,53.9999983520508,2|2,0:3|0:3,0:0:0:0:
156,361,73166,1,10,1:2:0:0:
263,373,73377,1,2,0:3:0:0:
278,379,73483,1,2,0:3:0:0:
294,378,73589,6,0,P|317:365|344:360,3,53.9999983520508,2|2|2|0,3:2|0:0|0:3|0:0,0:0:0:0:
373,314,74011,2,0,P|396:327|423:332,3,53.9999983520508,10|2|2|2,1:2|0:0|0:3|0:0,0:0:0:0:
464,296,74434,2,0,P|477:273|482:246,1,53.9999983520508,2|2,3:2|0:0,0:0:0:0:
509,199,74645,2,0,P|501:173|486:150,1,53.9999983520508,2|2,0:3|0:3,0:0:0:0:
436,129,74856,1,10,1:2:0:0:
344,185,75067,1,2,0:3:0:0:
328,187,75173,1,2,0:3:0:0:
312,190,75279,5,2,3:2:0:0:
252,99,75490,1,2,0:3:0:0:
308,7,75701,1,10,1:2:0:0:
238,89,75913,1,2,0:3:0:0:
301,176,76124,2,0,P|286:227|272:280,1,107.999996704102,2|2,3:2|0:3,0:0:0:0:
263,337,76441,1,2,0:3:0:0:
263,337,76546,1,10,1:2:0:0:
160,372,76758,2,0,P|152:345|145:320,1,53.9999983520508,2|2,0:3|0:3,0:0:0:0:
130,267,76969,5,2,3:2:0:0:
71,176,77180,2,0,P|97:168|122:161,1,53.9999983520508,2|2,0:3|0:3,0:0:0:0:
176,146,77391,1,10,1:2:0:0:
274,100,77603,1,2,0:3:0:0:
285,114,77708,1,2,0:3:0:0:
294,127,77814,2,0,L|278:178,1,53.9999983520508,2|2,3:2|3:2,0:0:0:0:
233,210,78025,2,0,L|248:261,1,53.9999983520508,2|2,3:0|3:0,0:0:0:0:
262,314,78236,1,10,1:2:0:0:
262,314,78659,6,0,P|223:301|184:292,2,80.9999975280763,0|2|2,3:0|0:3|0:0,0:0:0:0:
299,350,79187,1,2,0:0:0:0:
403,357,79398,2,0,P|416:297|445:244,1,121.499996292114,2|2,0:0|3:0,0:0:0:0:
496,152,79927,1,2,1:2:0:0:
438,63,80138,2,0,L|418:59,2,20.2499993820191,2|2|2,0:3|0:3|0:3,0:0:0:0:
386,72,80349,6,0,P|363:33|364:-5,2,80.9999975280763,0|2|2,3:0|0:3|0:0,0:0:0:0:
372,122,80877,1,2,0:0:0:0:
272,157,81089,2,0,P|215:135|155:124,1,121.499996292114,2|2,0:0|3:0,0:0:0:0:
49,130,81617,1,2,1:2:0:0:
60,234,81828,2,0,L|56:253,2,20.2499993820191,2|2|2,0:3|0:3|0:3,0:0:0:0:
48,285,82039,6,0,P|17:309|12:348,2,80.9999975280763,0|2|2,3:0|0:3|0:0,0:0:0:0:
100,278,82567,1,2,0:0:0:0:
199,313,82779,2,0,P|225:258|219:199,1,121.499996292114,2|2,0:0|3:0,0:0:0:0:
160,113,83307,1,2,1:2:0:0:
234,39,83518,2,0,L|253:42,2,20.2499993820191,2|2|2,0:3|0:3|0:3,0:0:0:0:
286,48,83729,5,0,3:0:0:0:
286,48,84997,2,0,L|365:62,1,80.9999975280763,0|2,3:0|0:0,0:0:0:0:
406,102,85314,1,0,0:0:0:0:
406,102,85420,6,0,P|380:132|379:172,1,80.9999975280763,0|2,3:0|0:3,0:0:0:0:
404,273,85842,2,0,P|367:282|325:293,1,80.9999975280763,2|2,0:0|3:0,0:0:0:0:
274,306,86159,1,2,0:0:0:0:
183,359,86370,2,0,P|146:350|104:338,1,80.9999975280763,2|2,0:0|0:3,0:0:0:0:
53,325,86687,1,2,1:2:0:0:
29,222,86898,2,0,L|32:202,2,20.2499993820191,2|2|2,0:3|0:3|0:3,0:0:0:0:
41,170,87110,5,0,3:0:0:0:
15,67,87321,1,2,0:3:0:0:
105,14,87532,2,0,P|144:24|183:34,1,80.9999975280763,2|2,0:0|3:0,0:0:0:0:
234,47,87849,1,2,0:0:0:0:
260,148,88060,2,0,P|233:178|222:216,1,80.9999975280763,2|2,0:0|0:3,0:0:0:0:
236,268,88377,1,0,1:0:0:0:
328,319,88589,2,0,L|347:315,2,20.2499993820191,2|2|2,0:3|0:3|0:3,0:0:0:0:
379,306,88800,6,0,P|388:266|399:227,1,80.9999975280763,0|2,3:0|0:3,0:0:0:0:
469,149,89222,2,0,P|458:109|448:70,1,80.9999975280763,2|2,0:0|3:0,0:0:0:0:
427,22,89539,1,2,0:0:0:0:
322,33,89751,2,0,P|293:61|255:73,1,80.9999975280763,2|2,0:0|0:3,0:0:0:0:
202,71,90067,1,2,1:2:0:0:
114,129,90279,2,0,L|117:148,2,20.2499993820191,2|2|2,0:3|0:3|0:3,0:0:0:0:
123,180,90490,5,2,3:2:0:0:
123,180,91335,2,0,B|145:170|145:170|167:172|167:172|184:164|184:164|203:164|203:164|220:156|220:156|240:158|240:158|258:148,1,135,2|0,0:0|0:0,0:0:0:0:
302,181,91758,2,0,L|295:219,6,22.5,2|2|2|2|2|2|2,0:3|0:3|0:3|0:3|0:3|0:3|0:3,0:0:0:0:
296,233,92180,6,0,B|376:210|421:291|421:291|531:159|460:64|364:38|328:59|318:89|345:130,1,504,4|2,3:0|0:0,0:0:0:0:
182,136,94510,2,0,B|89:95|125:0|125:0|152:35|205:31,1,242.999992584229,8|8,3:0|3:0,0:0:0:0:
334,106,95675,2,0,P|372:94|413:92,1,80.9999975280763,4|4,3:0|3:0,0:0:0:0:
487,123,96112,1,4,3:0:0:0:
454,196,96257,2,0,L|461:235,3,40.4999987640381,0|0|2|2,3:0|3:0|3:1|0:1,0:0:0:0:
382,271,96840,6,0,P|354:237|310:236,2,90,4|0|2,3:0|0:0|0:0,0:0:0:0:
252,382,97713,1,2,0:1:0:0:
98,305,98005,2,0,P|59:281|16:268,1,90,2|2,0:1|0:1,0:0:0:0:
15,97,98587,2,0,P|57:83|96:60,1,90,2|2,0:1|0:1,0:0:0:0:
167,12,99024,1,2,0:1:0:0:
246,53,99170,6,0,L|254:101,3,49.5000015106202,8|8|8|8,3:0|3:0|3:0|3:0,0:0:0:0:
322,159,99752,2,0,L|313:207,3,49.5000015106202,4|4|4|4,3:0|3:0|3:0|3:0,0:0:0:0:
267,285,100335,2,0,L|218:276,1,49.5000015106202,0|0,3:0|3:0,0:0:0:0:
149,219,100626,2,0,L|100:227,1,49.5000015106202,0|0,3:0|3:0,0:0:0:0:
31,284,100917,2,0,L|39:332,3,49.5000015106202,2|2|2|2,0:1|0:1|0:1|0:1,0:0:0:0:
115,384,101500,6,0,P|169:370|220:357,1,107.999996704102,4|0,3:0|0:0,0:0:0:0:
311,373,101937,1,2,0:0:0:0:
369,302,102082,2,0,P|362:275|355:249,1,53.9999983520508,2|2,0:0|0:0,0:0:0:0:
291,182,102374,2,0,P|297:155|304:129,1,53.9999983520508,2|2,0:1|0:1,0:0:0:0:
268,45,102665,2,0,P|215:55|176:91,1,107.999996704102,2|2,1:1|0:1,0:0:0:0:
117,265,103247,2,0,P|143:271|169:278,1,53.9999983520508,2|2,0:1|0:1,0:0:0:0:
237,343,103539,2,0,P|263:336|289:329,1,53.9999983520508,2|2,0:1|0:1,0:0:0:0:
373,370,103830,6,0,P|423:344|436:289,1,116.999994644165,4|0,3:0|0:0,0:0:0:0:
477,204,104267,1,2,0:0:0:0:
406,142,104413,2,0,P|377:147|348:151,1,58.4999973220826,2|2,0:0|0:0,0:0:0:0:
236,218,104704,2,0,P|265:222|293:228,1,58.4999973220826,2|2,3:1|0:1,0:0:0:0:
203,130,104995,2,0,P|174:135|145:139,1,58.4999973220826,2|2,1:1|0:0,0:0:0:0:
80,208,105286,2,0,P|133:194|145:140,1,116.999994644165,2|2,0:1|0:1,0:0:0:0:
89,63,105723,1,2,0:1:0:0:
160,2,105869,2,0,P|188:6|217:11,1,58.4999973220826,2|2,0:1|0:1,0:0:0:0:
287,76,106160,6,0,P|348:72|394:31,1,125.999996154785,4|0,3:0|0:0,0:0:0:0:
502,187,106743,2,0,P|492:217|483:247,1,62.9999980773926,2|2,0:0|0:0,0:0:0:0:
398,289,107034,2,0,P|388:258|379:228,1,62.9999980773926,2|2,3:1|0:1,0:0:0:0:
304,170,107325,2,0,P|273:179|243:188,1,62.9999980773926,2|2,1:1|0:1,0:0:0:0:
181,259,107616,2,0,P|150:249|120:240,1,62.9999980773926,2|2,0:1|0:1,0:0:0:0:
31,264,107908,1,2,0:1:0:0:
31,264,108053,1,2,0:1:0:0:
7,172,108199,2,0,P|16:141|25:111,1,62.9999980773926,2|2,0:1|0:1,0:0:0:0:
84,43,108490,6,0,B|127:50|127:50|126:54|126:54|167:61,1,90,4|0,3:0|0:0,0:0:0:0:
167,61,109655,2,2,P|222:23|289:16,1,135,2|0,0:0|0:0,0:2:0:0:
370,54,110238,2,0,L|374:32,6,22.5,2|2|2|2|2|2|2,0:3|0:3|0:3|0:3|0:3|0:3|0:3,0:0:0:0:
349,144,110820,6,0,P|290:158|219:179,1,123.300003480606,2|2,3:2|0:0,0:0:0:0:
47,140,111403,1,2,0:0:0:0:
225,189,111694,2,0,P|254:196|284:204,1,61.6500017403031,2|2,0:1|0:1,0:0:0:0:
339,278,111985,2,0,P|398:260|458:246,1,123.300003480606,10|2,0:0|0:1,0:0:0:0:
475,63,112568,2,0,P|448:47|418:50,1,61.6500017403031,2|2,0:1|0:1,0:0:0:0:
332,16,112859,2,0,P|305:31|293:58,1,61.6500017403031,2|2,0:1|0:1,0:0:0:0:
232,128,113150,6,0,P|174:105|115:87,2,123.300003480606,2|2|2,3:2|0:0|0:0,0:0:0:0:
389,225,114024,2,0,P|359:233|330:245,1,61.6500017403031,2|2,3:1|0:1,0:0:0:0:
243,275,114315,2,0,B|180:278|148:205|148:205|90:212|71:269|111:316,1,246.600006961212,10|2,0:0|0:1,0:0:0:0:
257,383,115189,2,0,P|285:371|315:362,1,61.6500017403031,2|2,0:1|0:1,0:0:0:0:
398,322,115480,5,2,3:2:0:0:
443,142,115772,1,2,0:0:0:0:
386,317,116063,1,2,0:0:0:0:
261,180,116354,1,2,0:1:0:0:
436,120,116646,2,0,P|447:59|458:-1,1,123.300003480606,10|2,0:0|0:1,0:0:0:0:
273,0,117228,2,0,P|217:21|203:78,1,123.300003480606,2|2,0:1|0:1,0:0:0:0:
291,242,117811,5,2,3:2:0:0:
116,301,118102,1,2,0:0:0:0:
3,154,118393,2,0,P|17:96|72:75,1,123.300003480606,2|2,0:0|3:1,0:0:0:0:
256,93,118976,2,0,L|286:98,8,30.8250008701515,10|0|2|0|2|0|2|0|2,0:0|0:0|0:1|0:0|0:1|0:0|0:1|0:0|0:0,0:0:0:0:
286,98,120141,6,0,P|268:157|254:217,1,123.300003480606,2|2,3:2|0:0,0:0:0:0:
355,372,120723,1,2,0:0:0:0:
238,228,121014,2,0,P|231:199|223:169,1,61.6500017403031,2|2,0:1|0:1,0:0:0:0:
166,94,121306,2,0,P|107:84|66:127,1,123.300003480606,10|2,0:0|0:1,0:0:0:0:
8,303,121888,2,0,P|35:319|65:316,1,61.6500017403031,2|2,0:1|0:1,0:0:0:0:
151,350,122179,2,0,P|178:335|190:308,1,61.6500017403031,2|2,0:1|0:1,0:0:0:0:
237,227,122471,6,0,P|179:214|126:243,2,123.300003480606,2|2|2,3:2|0:0|0:0,0:0:0:0:
353,372,123345,2,0,P|381:360|411:352,1,61.6500017403031,2|2,3:1|0:1,0:0:0:0:
503,356,123636,2,0,B|500:294|447:269|447:269|401:197|474:133,1,246.600006961212,10|0,0:0|0:1,0:0:0:0:
344,1,124510,2,0,P|315:13|286:21,1,61.6500017403031,2|2,0:1|0:1,0:0:0:0:
197,49,124801,5,2,3:2:0:0:
242,229,125092,1,2,0:0:0:0:
185,54,125383,1,2,0:0:0:0:
60,191,125675,1,2,0:1:0:0:
234,254,125966,2,0,P|285:221|345:227,1,123.300003480606,8|2,0:0|0:0,0:0:0:0:
511,148,126548,2,0,P|450:153|400:120,1,123.300003480606,2|2,0:1|0:1,0:0:0:0:
289,39,127131,6,0,B|259:75|265:125|265:125|193:12|71:48|71:48|56:118|114:138,1,421.20000160675,2|2,3:2|3:2,0:0:0:0:
106,135,129461,6,0,P|97:101|88:66,2,72,2|2|2,3:2|0:0|0:0,0:0:0:0:
164,218,130094,2,0,P|155:253|146:288,2,72,2|2|2,0:0|0:0|0:0,0:0:0:0:
209,127,130728,2,0,P|243:118|278:108,1,72,10|2,0:0|0:0,0:0:0:0:
381,116,131151,6,0,P|390:82|399:47,2,72,2|2|2,3:2|0:0|0:0,0:0:0:0:
323,199,131784,2,0,P|332:234|341:269,2,72,2|2|2,0:0|0:0|0:0,0:0:0:0:
278,108,132418,2,0,P|243:99|208:89,1,72,10|2,0:0|0:0,0:0:0:0:
105,65,132841,6,0,P|99:143|160:191,1,161.999995056153,2|10,3:2|0:0,0:0:0:0:
244,253,133475,1,2,0:0:0:0:
130,373,133686,2,0,P|135:332|146:294,1,80.9999975280763,0|2,3:0|0:0,0:0:0:0:
56,140,134108,2,0,P|65:179|71:220,1,80.9999975280763,10|2,0:0|0:0,0:0:0:0:
244,253,134531,6,0,P|307:212|272:126,1,161.999995056153,2|8,3:2|0:0,0:0:0:0:
217,59,135165,1,8,0:0:0:0:
310,10,135376,2,0,L|350:17,3,40.4999987640381,2|2|10|2,3:2|0:0|0:0|0:0,0:0:0:0:
398,37,135799,2,0,L|438:31,1,40.4999987640381,8|0,1:2|1:0,0:0:0:0:
491,29,136010,2,0,L|485:68,1,40.4999987640381,0|0,1:0|1:0,0:0:0:0:
461,113,136221,6,0,P|470:148|479:183,2,72,2|2|10,3:2|0:0|0:0,0:0:0:0:
380,174,136855,2,0,P|389:208|398:243,2,72,2|2|2,0:0|0:0|0:0,0:0:0:0:
300,236,137489,2,0,P|309:271|318:306,1,72,10|2,0:0|0:0,0:0:0:0:
398,243,137911,6,0,P|389:208|380:173,2,72,2|2|10,3:2|0:0|0:0,0:0:0:0:
317,305,138545,2,0,P|308:271|299:236,2,72,2|2|2,0:0|0:0|0:0,0:0:0:0:
236,366,139179,2,0,P|227:331|218:296,1,72,10|2,0:0|0:0,0:0:0:0:
193,193,139601,5,2,3:2:0:0:
193,193,140024,1,10,0:0:0:0:
107,254,140235,1,2,3:2:0:0:
29,183,140446,2,0,P|24:143|44:109,1,80.9999975280763,2|2,3:2|0:0,0:0:0:0:
131,48,140869,2,0,P|169:59|209:68,1,80.9999975280763,10|0,0:0|3:0,0:0:0:0:
312,44,141291,5,2,3:2:0:0:
373,130,141503,1,8,0:0:0:0:
377,119,141608,1,8,0:0:0:0:
383,108,141714,2,0,P|410:79|449:69,1,80.9999975280763,0|10,3:0|0:0,0:0:0:0:
487,191,142137,1,2,3:2:0:0:
439,285,142348,1,8,0:0:0:0:
431,275,142453,1,8,0:0:0:0:
422,266,142559,2,0,P|388:244|347:245,1,80.9999975280763,0|10,3:0|0:0,0:0:0:0:
260,303,142982,5,2,3:2:0:0:
256,192,143087,12,0,146151,0:0:0:0:
121,93,147418,6,2,L|193:103,1,58.4999973220826,2|0,0:3|0:0,0:2:0:0:
220,136,147630,2,2,B|226:132|226:132|234:133|234:133|242:130|242:130|250:130|250:130|258:127|258:127|265:128|265:128|271:124|271:124|279:125|279:125|285:122|285:122|292:123|292:123|299:119|299:119|307:120|307:120|314:117|314:117|322:117|322:117|328:113|328:113|337:115|337:115|344:110|344:110|355:113|355:113|362:107,1,135,2|0,0:3|0:0,0:1:0:0:
394,138,148052,5,4,3:1:0:0:
437,236,148263,1,2,0:3:0:0:
394,335,148475,1,10,0:0:0:0:
424,231,148686,1,2,3:0:0:0:
379,132,148897,2,0,P|327:146|274:160,1,107.999996704102,2|2,0:0|3:0,0:0:0:0:
236,198,149214,1,2,0:3:0:0:
236,198,149320,2,0,P|183:204|142:171,1,107.999996704102,10|2,0:0|0:3,0:0:0:0:
116,66,149742,5,2,3:2:0:0:
214,23,149953,1,2,0:3:0:0:
313,66,150165,1,10,0:0:0:0:
209,36,150376,1,2,3:0:0:0:
110,78,150587,2,0,P|124:129|137:182,1,107.999996704102,2|2,0:0|3:0,0:0:0:0:
115,233,150904,1,2,0:3:0:0:
115,233,151010,2,0,P|174:225|216:267,1,107.999996704102,10|2,0:0|0:3,0:0:0:0:
288,328,151432,5,2,3:2:0:0:
389,291,151644,1,2,0:3:0:0:
282,314,151855,1,10,0:0:0:0:
384,278,152066,1,2,3:0:0:0:
464,206,152277,2,0,P|441:157|422:106,1,107.999996704102,2|2,0:2|3:0,0:0:0:0:
420,56,152594,1,2,0:3:0:0:
420,56,152700,2,0,P|368:57|336:98,1,107.999996704102,10|2,0:0|0:3,0:0:0:0:
295,198,153122,5,2,3:2:0:0:
207,136,153334,1,2,0:3:0:0:
304,184,153545,1,10,0:0:0:0:
209,236,153756,1,2,3:0:0:0:
191,232,153862,1,0,0:0:0:0:
175,230,153968,2,0,L|121:221,3,53.9999983520508,2|2|2|2,0:0|0:0|3:0|0:3,0:0:0:0:
69,236,154390,2,0,P|36:194|44:142,1,107.999996704102,10|2,0:2|0:3,0:0:0:0:
82,104,154707,1,2,0:3:0:0:
82,104,154813,5,4,3:1:0:0:
5,27,155024,1,2,0:3:0:0:
109,0,155235,1,10,0:0:0:0:
10,43,155446,1,2,3:0:0:0:
80,124,155658,2,0,P|131:109|184:96,1,107.999996704102,2|2,0:0|3:0,0:0:0:0:
229,65,155975,1,2,0:3:0:0:
229,65,156080,2,0,P|271:99|272:156,1,107.999996704102,10|2,0:0|0:3,0:0:0:0:
212,237,156503,5,2,3:2:0:0:
303,295,156714,1,2,0:3:0:0:
207,345,156925,1,10,0:0:0:0:
294,282,157137,1,2,3:0:0:0:
200,227,157348,2,0,P|148:241|95:255,1,107.999996704102,2|2,0:0|3:0,0:0:0:0:
50,236,157665,1,2,0:3:0:0:
50,236,157770,2,0,P|33:179|78:132,1,107.999996704102,10|2,0:0|0:3,0:0:0:0:
95,39,158193,5,2,3:2:0:0:
196,76,158404,1,2,0:3:0:0:
89,53,158615,1,10,0:0:0:0:
191,89,158827,1,2,3:0:0:0:
298,85,159038,2,0,P|321:72|346:61,1,53.9999983520508,2|2,0:0|0:0,0:0:0:0:
389,28,159249,2,0,P|412:40|437:51,1,53.9999983520508,2|2,3:0|0:3,0:0:0:0:
469,95,159461,2,0,P|468:147|427:179,1,107.999996704102,10|2,0:0|0:3,0:0:0:0:
325,214,159883,5,0,3:0:0:0:
182,53,160306,1,0,3:0:0:0:
116,259,160728,1,0,3:0:0:0:
116,259,161151,5,2,1:2:0:0:
128,268,161256,1,2,1:2:0:0:
144,269,161362,1,2,1:2:0:0:
159,264,161468,1,2,1:2:0:0:
173,257,161573,6,0,P|196:269|223:274,3,53.9999983520508,4|0|2|2,3:1|0:0|0:3|0:3,0:0:0:0:
268,305,161996,2,0,P|291:292|318:287,3,53.9999983520508,10|2|2|2,1:2|0:0|0:3|0:3,0:0:0:0:
369,304,162418,2,0,P|381:280|386:253,1,53.9999983520508,2|0,3:2|0:0,0:0:0:0:
414,206,162630,2,0,P|399:183|379:165,1,53.9999983520508,2|2,0:3|0:3,0:0:0:0:
328,149,162841,1,10,1:2:0:0:
221,169,163052,1,2,0:3:0:0:
208,175,163158,1,2,0:3:0:0:
193,179,163263,6,0,P|140:132|161:57,1,107.999996704102,0|2,3:0|0:3,0:0:0:0:
200,8,163686,2,0,P|227:12|251:25,3,53.9999983520508,10|2|2|2,1:2|0:0|0:3|0:0,0:0:0:0:
284,66,164108,2,0,P|311:61|335:48,1,53.9999983520508,2|2,3:2|0:0,0:0:0:0:
371,11,164320,2,0,P|398:15|422:28,1,53.9999983520508,2|2,0:3|0:3,0:0:0:0:
472,47,164531,1,10,1:2:0:0:
451,152,164742,1,2,0:3:0:0:
449,168,164848,1,2,0:3:0:0:
446,184,164953,5,2,3:2:0:0:
348,229,165165,1,2,0:3:0:0:
436,291,165376,1,10,1:2:0:0:
354,219,165587,1,2,0:3:0:0:
449,168,165799,2,0,P|433:116|419:63,1,107.999996704102,2|2,3:2|0:3,0:0:0:0:
406,16,166115,1,2,0:3:0:0:
406,16,166221,2,0,P|354:3|309:30,1,107.999996704102,10|2,1:2|0:3,0:0:0:0:
252,121,166644,5,2,3:2:0:0:
189,34,166855,1,2,0:3:0:0:
82,35,167066,1,10,1:2:0:0:
189,50,167277,1,2,0:3:0:0:
261,129,167489,2,0,P|246:180|232:233,1,107.999996704102,2|2,3:2|0:3,0:0:0:0:
199,276,167806,1,2,0:3:0:0:
199,276,167911,2,0,P|206:302|212:329,3,53.9999983520508,10|2|2|2,1:2|0:0|0:3|0:3,0:0:0:0:
221,379,168334,6,0,P|168:386|127:354,1,107.999996704102,4|2,3:1|0:3,0:0:0:0:
49,278,168756,2,0,P|25:290|-1:295,2,53.9999983520508,10|2|0,1:2|0:0|0:0,0:0:0:0:
68,227,169073,2,0,P|42:181|32:127,1,107.999996704102,2|2,0:0|0:0,0:0:0:0:
46,75,169390,2,0,P|69:88|96:93,1,53.9999983520508,2|2,0:3|0:3,0:0:0:0:
149,80,169601,1,10,1:2:0:0:
226,3,169813,1,2,0:3:0:0:
241,3,169918,1,2,0:3:0:0:
257,3,170024,6,0,P|280:16|307:21,3,53.9999983520508,2|2|2|2,3:2|0:0|0:3|0:0,0:0:0:0:
344,59,170446,2,0,P|331:82|326:109,3,53.9999983520508,10|2|2|2,1:2|0:0|0:3|0:0,0:0:0:0:
318,163,170869,2,0,P|294:176|268:181,1,53.9999983520508,2|2,3:2|0:0,0:0:0:0:
220,206,171080,2,0,P|224:232|237:255,1,53.9999983520508,2|2,0:3|0:3,0:0:0:0:
278,291,171291,1,10,1:2:0:0:
376,245,171503,1,2,0:3:0:0:
392,247,171608,1,2,0:3:0:0:
408,250,171714,5,2,3:2:0:0:
472,350,171925,1,2,0:3:0:0:
364,349,172137,1,10,1:2:0:0:
471,333,172348,1,2,0:3:0:0:
417,239,172559,2,0,P|430:186|446:134,1,107.999996704102,2|2,3:2|0:3,0:0:0:0:
489,101,172876,1,2,0:3:0:0:
489,101,172982,1,10,1:2:0:0:
442,3,173193,2,0,P|415:11|390:18,1,53.9999983520508,2|0,0:3|0:0,0:0:0:0:
337,33,173404,5,2,3:2:0:0:
252,100,173615,2,0,P|259:125|267:151,1,53.9999983520508,2|2,0:3|0:3,0:0:0:0:
282,205,173827,1,10,1:2:0:0:
287,313,174038,1,2,0:3:0:0:
273,324,174144,1,2,0:3:0:0:
260,333,174249,2,0,L|209:317,1,53.9999983520508,2|2,3:2|3:2,0:0:0:0:
164,286,174461,2,0,L|113:301,1,53.9999983520508,2|2,3:0|3:0,0:0:0:0:
63,322,174672,1,10,1:2:0:0:
17,223,174883,1,2,0:3:0:0:
11,207,174989,1,0,0:0:0:0:
14,191,175094,6,0,P|65:163|121:176,1,107.999996704102,4|2,3:1|0:3,0:0:0:0:
215,202,175517,1,10,1:2:0:0:
205,190,175622,2,0,L|223:83,1,107.999996704102,2|2,0:0|0:3,0:0:0:0:
205,32,175939,2,0,L|312:14,1,107.999996704102,2|2,3:2|0:3,0:0:0:0:
368,9,176256,1,2,0:3:0:0:
368,9,176362,1,10,1:2:0:0:
447,82,176573,1,2,0:3:0:0:
431,85,176679,1,2,0:3:0:0:
415,86,176784,6,0,L|397:193,1,107.999996704102,0|2,3:0|0:3,0:0:0:0:
321,270,177207,1,10,1:2:0:0:
309,280,177313,2,0,P|256:286|210:259,1,107.999996704102,2|2,0:0|0:0,0:0:0:0:
199,206,177630,2,0,L|217:99,1,107.999996704102,0|2,3:0|0:3,0:0:0:0:
226,49,177946,1,2,0:3:0:0:
226,49,178052,1,10,1:2:0:0:
123,14,178263,1,2,0:3:0:0:
107,17,178369,1,2,0:3:0:0:
93,25,178475,6,0,P|82:80|130:120,1,107.999996704102,0|2,3:0|0:3,0:0:0:0:
189,194,178897,1,10,1:2:0:0:
199,206,179003,2,0,P|205:259|178:305,1,107.999996704102,2|2,0:0|0:0,0:0:0:0:
209,349,179320,2,0,P|254:322|307:328,1,107.999996704102,0|2,3:0|0:3,0:0:0:0:
357,361,179637,1,2,0:3:0:0:
357,361,179742,1,10,1:2:0:0:
420,273,179953,1,2,0:3:0:0:
430,260,180059,1,2,0:3:0:0:
441,248,180165,6,0,P|434:193|383:157,1,107.999996704102,0|2,3:0|0:3,0:0:0:0:
287,164,180587,1,8,1:2:0:0:
233,257,180799,2,0,P|285:278|341:251,1,107.999996704102,2|2,0:3|3:2,0:0:0:0:
340,80,181221,2,0,P|297:113|291:176,1,107.999996704102,2|10,0:3|1:2,0:0:0:0:
332,260,181644,1,2,0:3:0:0:
341,274,181749,1,2,0:3:0:0:
347,288,181855,6,0,L|454:269,1,107.999996704102,4|2,3:1|0:3,0:0:0:0:
493,168,182277,1,10,1:2:0:0:
503,156,182382,2,0,L|485:49,1,107.999996704102,2|2,0:0|0:0,0:0:0:0:
449,7,182700,2,0,P|403:33|350:27,1,107.999996704102,0|2,3:0|0:3,0:0:0:0:
303,12,183017,1,2,0:3:0:0:
303,12,183122,1,10,1:2:0:0:
194,12,183334,1,2,0:3:0:0:
179,19,183439,1,2,0:3:0:0:
169,31,183545,6,0,P|173:85|231:112,1,107.999996704102,2|2,3:2|0:3,0:0:0:0:
321,134,183968,1,10,1:2:0:0:
331,146,184073,2,0,L|313:253,1,107.999996704102,2|2,0:0|0:0,0:0:0:0:
341,298,184390,2,0,L|234:316,1,107.999996704102,0|2,3:0|0:3,0:0:0:0:
184,327,184707,1,2,0:3:0:0:
184,327,184813,1,10,1:2:0:0:
113,245,185024,1,2,0:3:0:0:
129,242,185130,1,2,0:3:0:0:
145,241,185235,6,0,L|164:134,1,107.999996704102,2|2,3:2|0:3,0:0:0:0:
143,28,185658,1,10,1:2:0:0:
155,38,185764,2,0,P|208:44|254:17,1,107.999996704102,2|2,0:0|0:0,0:0:0:0:
303,37,186080,2,0,P|356:31|402:58,1,107.999996704102,0|2,3:0|0:3,0:0:0:0:
446,96,186397,1,2,0:3:0:0:
446,96,186503,1,10,1:2:0:0:
496,191,186714,1,2,3:0:0:0:
494,207,186820,1,2,3:0:0:0:
491,223,186925,5,0,3:0:0:0:
491,223,187982,6,0,L|496:265,1,36,0|0,3:0|3:0,0:0:0:0:
499,304,188193,1,2,0:3:0:0:
328,365,188615,6,0,P|284:340|223:342,2,108,2|2|2,3:2|0:0|0:0,0:0:0:0:
369,272,189461,2,0,P|334:263|308:239,1,72,2|2,0:0|0:0,0:0:0:0:
269,206,189777,2,0,P|281:153|289:100,1,108,2|2,0:0|0:0,0:0:0:0:
226,21,190306,2,0,P|173:17|136:55,1,108,2|2,3:2|0:0,0:0:0:0:
146,105,190728,1,0,0:0:0:0:
129,204,190939,2,0,P|80:192|24:177,2,108,2|0|2,0:0|0:0|0:1,0:0:0:0:
224,171,191784,1,2,0:0:0:0:
274,258,191996,6,0,P|257:310|190:324,2,108,2|2|2,3:2|0:0|0:0,0:0:0:0:
325,171,192841,2,0,P|349:144|383:134,1,72,2|2,0:0|0:0,0:0:0:0:
428,112,193158,2,0,P|428:59|388:25,1,108,2|2,0:0|0:0,0:0:0:0:
290,50,193686,6,0,P|238:38|185:28,1,108,2|2,3:2|0:0,0:0:0:0:
134,19,194108,1,0,0:0:0:0:
54,81,194320,1,2,0:0:0:0:
138,136,194531,2,0,B|160:162|160:162|111:205|141:280,1,144,2|2,0:0|0:1,0:0:0:0:
321,360,195376,6,0,P|283:349|243:341,1,80.9999975280763,2|2,3:2|0:1,0:0:0:0:
239,288,195693,2,0,P|298:274|356:256,1,121.499996292114,2|2,0:0|0:1,0:0:0:0:
429,181,196221,2,0,P|389:174|360:147,1,80.9999975280763,2|2,0:0|0:1,0:0:0:0:
338,104,196538,1,2,0:0:0:0:
338,104,196644,1,0,0:0:0:0:
374,4,196855,1,2,0:1:0:0:
268,1,197066,6,0,P|230:16|192:31,1,80.9999975280763,2|2,3:2|0:1,0:0:0:0:
144,42,197383,1,2,0:0:0:0:
144,42,197489,1,0,0:0:0:0:
107,141,197700,2,0,P|58:105|0:101,2,121.499996292114,2|2|2,0:1|0:0|0:0,0:0:0:0:
128,244,198545,1,2,0:1:0:0:
231,263,198756,6,0,P|242:224|258:186,1,80.9999975280763,2|2,3:2|0:1,0:0:0:0:
224,145,199073,2,0,P|282:129|339:107,1,121.499996292114,2|2,0:0|0:1,0:0:0:0:
413,181,199601,2,0,P|401:219|385:257,1,80.9999975280763,2|0,0:0|0:0,0:0:0:0:
420,299,199918,2,0,P|362:315|305:337,1,121.499996292114,2|2,0:0|0:0,0:0:0:0:
231,263,200446,5,2,3:2:0:0:
