osu file format v14

[General]
AudioFilename: audio.mp3
AudioLeadIn: 0
PreviewTime: 49874
Countdown: 0
SampleSet: Soft
StackLeniency: 0.3
Mode: 0
LetterboxInBreaks: 0
WidescreenStoryboard: 1

[Editor]
Bookmarks: 7673,14434,21194,33025,34715,48236,49927,51194,51617,65138,78659,94510,95383,95675,95966,96257,96840,99170,101500,102665,103830,104413,104704,104995,106160,107325,108490,108636,110820,146362,148052,175094,186925
DistanceSpacing: 0.9
BeatDivisor: 8
GridSize: 16
TimelineZoom: 1.900005

[Metadata]
Title:God-ish
TitleUnicode:神っぽいな
Artist:sekai
ArtistUnicode:sekai
Creator:seros
Version:Surou's Normal
Source:
Tags:corsace closed ro16 nm3 cc22 cover jpop j-pop japanese pop vocaloid Sankaku Zuwari ピノキオピー godish kami ppoi poi na pinocchiop hatsune miku nenneO petal matha climbx3145 climb kuse KuBsNia_ZhoYL_ irin surou setu shiratamamywife
BeatmapID:3601685
BeatmapSetID:1759764

[Difficulty]
HPDrainRate:3
CircleSize:3
OverallDifficulty:4
ApproachRate:5.4
SliderMultiplier:1.25
SliderTickRate:1

[Events]
//Background and Video events
0,0,"bg.jpg",0,0
//Break Periods
2,108835,109681
//Storyboard Layer 0 (Background)
//Storyboard Layer 1 (Fail)
//Storyboard Layer 2 (Pass)
//Storyboard Layer 3 (Foreground)
//Storyboard Layer 4 (Overlay)
//Storyboard Sound Samples

[TimingPoints]
913,422.535211267606,4,2,1,69,1,0
7673,-100,4,2,1,49,0,0
8624,-100,4,2,1,69,0,0
8941,-100,4,2,1,49,0,0
12004,-100,4,2,1,69,0,0
12320,-100,4,2,1,49,0,0
14856,-100,4,2,1,69,0,0
15067,-100,4,2,1,49,0,0
15701,-100,4,2,1,69,0,0
15912,-100,4,2,1,49,0,0
16546,-100,4,2,1,69,0,0
16758,-100,4,2,1,49,0,0
19082,-100,4,2,1,69,0,0
19293,-100,4,2,1,49,0,0
20771,-100,4,2,14,49,0,0
21194,-100,4,2,1,69,0,0
51617,-90.9090909090909,4,2,1,80,0,1
64293,-90.9090909090909,4,2,1,80,0,0
65138,-90.9090909090909,4,2,1,80,0,1
72532,-90.9090909090909,4,2,1,69,0,1
72743,-90.9090909090909,4,2,1,80,0,1
78659,-100,4,2,1,69,0,0
92180,582.52427184466,4,2,1,39,1,0
94510,-100,4,2,1,44,0,0
96840,-100,4,2,1,49,0,0
99170,-100,4,2,1,69,0,0
101500,-100,4,2,1,59,0,0
103830,-100,4,2,1,64,0,0
106160,-100,4,2,1,69,0,0
108635,-100,4,2,1,39,0,0
129461,422.535211267606,4,2,1,69,1,0
148052,-90.9090909090909,4,2,1,80,0,1
160728,-90.9090909090909,4,2,1,80,0,0
161573,-90.9090909090909,4,2,1,80,0,1
168968,-90.9090909090909,4,2,1,69,0,1
169179,-90.9090909090909,4,2,1,80,0,1
174883,-90.9090909090909,4,2,1,80,0,0
175094,-90.9090909090909,4,2,1,80,0,1
186925,-100,4,2,1,80,0,0
188615,-100,4,2,1,49,0,0
190728,-100,4,2,1,69,0,0
190939,-100,4,2,1,49,0,0
195799,-100,4,2,1,69,0,0
196010,-100,4,2,1,49,0,0
196644,-100,4,2,1,69,0,0
196855,-100,4,2,1,49,0,0
197488,-100,4,2,1,69,0,0
197700,-100,4,2,1,49,0,0
199179,-100,4,2,1,69,0,0
199390,-100,4,2,1,49,0,0
199706,-100,4,2,1,69,0,0
200235,-100,4,2,1,49,0,0

[Colours]
Combo1 : 200,121,121
Combo2 : 118,145,165
Combo3 : 215,177,168
Combo4 : 142,146,179

[HitObjects]
273,66,7673,6,0,P|170:33|90:49,1,187.5,2|2,0:0|0:0,0:0:0:0:
34,122,8624,1,0,0:0:0:0:
109,177,8941,2,0,P|124:210|130:240,1,62.5,0|2,0:0|0:0,0:0:0:0:
164,287,9363,2,0,P|117:329|66:317,2,93.75,2|2|2,0:0|0:0|0:0,0:0:0:0:
244,239,10314,2,0,B|285:248|285:248|299:241|299:241|352:253,1,93.75
386,362,11053,6,0,P|435:371|471:334,1,93.75,2|2,0:0|0:0,0:0:0:0:
510,261,11687,1,2,0:0:0:0:
458,182,12004,2,0,L|348:161,1,93.75
320,208,12532,1,2,0:0:0:0:
320,208,12743,2,0,P|273:237|215:226,1,93.75,2|2,0:0|0:0,0:0:0:0:
183,157,13377,2,0,P|136:147|71:137,1,93.75,2|2,0:0|0:0,0:0:0:0:
19,201,14011,1,2,0:0:0:0:
83,308,14434,6,0,P|114:295|151:286,1,62.5,2|2,0:0|0:1,0:0:0:0:
197,315,14856,1,0,0:0:0:0:
197,315,15067,2,0,P|244:343|296:321,1,93.75,2|0,0:1|0:0,0:0:0:0:
348,270,15701,2,0,L|331:197,1,62.5,0|2,0:0|0:1,0:0:0:0:
380,167,16124,2,0,P|340:120|281:129,1,125,2|0,0:0|0:0,0:0:0:0:
224,151,16758,2,0,P|231:104|241:52,2,93.75,2|2|2,0:1|0:0|0:0,0:0:0:0:
116,87,17814,6,0,P|83:95|42:110,1,62.5,2|2,0:0|0:1,0:0:0:0:
28,162,18236,1,0,0:0:0:0:
28,162,18448,2,0,P|61:191|77:248,1,93.75,2|0,0:1|0:0,0:0:0:0:
91,330,19082,2,0,P|122:350|157:352,1,62.5,0|2,0:0|0:1,0:0:0:0:
200,320,19504,1,2,0:0:0:0:
468,166,20560,2,0,B|468:133|468:133|449:101,1,62.5,8|10,3:0|2:0,0:0:0:0:
345,168,21194,5,0,3:0:0:0:
345,168,21405,2,0,L|271:183,1,62.5,2|2,0:3|1:2,0:0:0:0:
225,254,21934,2,0,P|195:247|154:240,1,62.5,2|2,0:0|0:0,0:0:0:0:
114,280,22356,2,0,P|56:277|39:239,1,93.75,2|2,0:3|0:3,0:0:0:0:
34,192,22884,1,0,3:0:0:0:
34,192,23096,2,0,L|50:117,1,62.5,2|2,0:3|1:2,0:0:0:0:
103,55,23624,2,0,P|138:42|178:34,1,62.5,2|2,0:0|0:0,0:0:0:0:
215,70,24046,2,0,P|208:125|244:158,1,93.75,2|2,0:3|0:3,0:0:0:0:
295,168,24574,5,0,3:0:0:0:
295,168,24786,2,0,P|328:158|371:149,1,62.5,2|2,0:3|1:2,0:0:0:0:
398,68,25314,2,0,P|431:66|468:87,1,62.5,2|2,0:0|0:0,0:0:0:0:
479,136,25736,2,0,P|465:178|449:236,1,93.75,2|2,0:3|0:3,0:0:0:0:
472,285,26265,1,0,3:0:0:0:
472,285,26476,1,2,0:3:0:0:
371,359,26898,1,2,0:3:0:0:
277,275,27321,1,2,0:3:0:0:
180,354,27743,2,0,P|147:369|111:369,1,62.5,2|0,0:3|3:0,0:0:0:0:
94,326,28166,6,0,L|106:260,1,62.5,2|2,0:3|1:2,0:0:0:0:
158,187,28694,2,0,P|133:167|93:160,1,62.5,2|2,0:0|0:0,0:0:0:0:
44,179,29117,2,0,P|9:128|23:85,1,93.75,2|2,0:3|0:3,0:0:0:0:
58,56,29645,1,0,3:0:0:0:
58,56,29856,2,0,L|133:40,1,62.5,2|2,0:3|1:2,0:0:0:0:
205,5,30384,2,0,P|236:11|266:18,1,62.5,2|2,0:0|0:0,0:0:0:0:
328,17,30807,2,0,P|337:67|307:106,1,93.75,2|2,0:3|0:3,0:0:0:0:
274,149,31335,5,0,3:0:0:0:
274,149,31546,2,0,L|285:218,1,62.5,2|2,0:3|1:2,0:0:0:0:
256,300,32074,2,0,P|284:325|325:327,1,62.5,2|2,0:0|0:0,0:0:0:0:
361,297,32497,2,0,P|408:268|450:286,1,93.75,2|2,0:3|0:3,0:0:0:0:
485,322,33025,1,2,3:2:0:0:
368,31,34082,2,0,B|349:61|349:61|361:108,1,62.5,0|8,3:0|0:2,0:0:0:0:
429,187,34715,6,0,P|366:202|294:223,1,125,0|0,3:0|0:0,0:0:0:0:
272,270,35349,2,0,P|193:261|172:208,1,125,0|0,3:0|0:0,0:0:0:0:
191,166,35983,1,10,0:0:0:0:
143,50,36405,6,0,P|95:13|36:34,1,125,0|0,3:0|0:0,0:0:0:0:
14,89,37039,1,0,3:0:0:0:
59,205,37462,2,0,P|26:212|-10:228,2,62.5,2|10|2,0:0|0:0|0:0,0:0:0:0:
116,178,38096,6,0,P|141:230|224:225,1,125,2|10,3:2|0:0,0:0:0:0:
283,334,38941,2,0,P|315:321|358:310,1,62.5,2|2,3:2|0:0,0:0:0:0:
396,343,39363,2,0,P|422:324|431:290,1,62.5,10|2,0:0|0:0,0:0:0:0:
408,237,39786,6,0,P|379:183|418:125,1,125,2|8,3:2|0:0,0:0:0:0:
418,6,40631,2,0,P|455:16|482:25,2,62.5,0|8|8,3:0|0:0|1:2,0:0:0:0:
368,43,41265,1,0,1:0:0:0:
368,43,41476,6,0,P|306:57|241:79,1,125,0|0,3:0|0:0,0:0:0:0:
232,137,42110,2,0,P|274:152|286:231,1,125,0|0,3:0|0:0,0:0:0:0:
264,281,42743,1,10,0:0:0:0:
162,353,43166,6,0,P|140:284|112:214,1,125,0|0,3:0|0:0,0:0:0:0:
62,212,43800,1,0,3:0:0:0:
21,93,44222,2,0,P|62:43|121:42,1,125,2|2,0:0|0:0,0:0:0:0:
162,86,44856,6,0,B|217:78|217:78|222:73|222:73|292:63,1,125,2|10,3:2|0:0,0:0:0:0:
342,98,45490,1,2,3:2:0:0:
342,98,45701,1,2,3:2:0:0:
252,185,46124,2,0,P|237:217|230:253,1,62.5,10|2,0:0|3:2,0:0:0:0:
240,305,46546,2,0,B|300:323|303:258|364:278,1,125,2|0,3:2|3:0,0:0:0:0:
417,307,47180,1,10,0:0:0:0:
417,307,47391,1,2,3:2:0:0:
492,207,47814,2,0,P|485:177|472:147,1,62.5,0|8,3:0|0:0,0:0:0:0:
418,115,48236,5,2,3:2:0:0:
256,192,48342,12,0,49927,0:0:0:0:
418,115,51194,5,0,0:0:0:0:
330,26,51617,2,0,P|267:42|193:66,1,137.500004196167,2|10,3:2|0:0,0:0:0:0:
163,115,52251,1,2,3:0:0:0:
281,150,52673,1,2,3:3:0:0:
243,199,52884,2,0,P|231:240|225:283,1,68.7500020980836,10|2,0:0|0:3,0:0:0:0:
259,318,53307,6,0,P|205:374|134:343,1,137.500004196167,2|10,3:2|0:0,0:0:0:0:
130,304,53941,1,2,3:0:0:0:
26,235,54363,1,2,3:0:0:0:
10,175,54574,2,0,P|20:139|44:99,1,68.7500020980836,10|2,0:0|0:3,0:0:0:0:
95,99,54997,5,2,3:2:0:0:
211,141,55420,1,10,0:0:0:0:
242,193,55631,1,2,3:0:0:0:
231,317,56053,1,2,3:0:0:0:
273,362,56265,2,0,P|309:357|339:334,1,68.7500020980836,10|2,0:0|0:3,0:0:0:0:
350,279,56687,6,0,P|369:208|393:127,1,137.500004196167,2|10,3:2|0:0,0:0:0:0:
446,37,57532,2,0,P|487:47|528:63,2,68.7500020980836,2|2|10,0:0|3:0|0:0,0:0:0:0:
394,3,58166,1,2,0:3:0:0:
337,27,58377,6,0,P|287:71|199:42,1,137.500004196167,2|10,3:2|0:0,0:0:0:0:
164,36,59011,1,2,3:0:0:0:
81,128,59434,1,2,3:0:0:0:
134,158,59645,2,0,P|147:198|154:236,1,68.7500020980836,8|2,0:0|0:3,0:0:0:0:
133,282,60067,6,0,P|208:304|259:251,1,137.500004196167,2|10,3:2|0:0,0:0:0:0:
282,219,60701,1,2,3:0:0:0:
358,316,61124,1,2,3:0:0:0:
390,263,61335,2,0,P|422:238|451:223,1,68.7500020980836,10|2,0:0|0:3,0:0:0:0:
508,231,61758,5,2,3:2:0:0:
483,107,62180,1,10,0:0:0:0:
427,80,62391,1,2,3:0:0:0:
319,141,62814,1,2,3:0:0:0:
263,113,63025,2,0,P|228:98|183:91,1,68.7500020980836,10|2,0:0|0:3,0:0:0:0:
137,104,63448,6,0,B|103:248|140:109|107:253,2,137.500004196167,0|0|0,3:0|3:0|3:0,0:0:0:0:
27,325,65138,6,0,P|84:283|158:304,1,137.500004196167,4|10,3:1|1:2,0:0:0:0:
181,345,65772,1,2,0:3:0:0:
242,339,65983,2,0,P|253:306|269:272,1,68.7500020980836,2|2,3:2|0:3,0:0:0:0:
315,237,66405,2,0,P|304:193|288:152,1,68.7500020980836,10|2,1:2|0:3,0:0:0:0:
246,133,66828,5,2,3:2:0:0:
147,208,67251,2,0,P|111:200|77:173,1,68.7500020980836,10|2,1:2|0:3,0:0:0:0:
69,122,67673,2,0,L|-9:141,2,68.7500020980836,2|2|10,3:2|0:3|1:2,0:0:0:0:
103,70,68307,1,2,0:3:0:0:
161,49,68518,5,2,3:2:0:0:
271,104,68941,1,10,1:2:0:0:
330,86,69152,2,0,P|367:91|407:106,1,68.7500020980836,2|2,0:3|3:2,0:0:0:0:
416,160,69574,2,0,P|451:141|488:128,2,68.7500020980836,2|10|2,0:3|1:2|0:3,0:0:0:0:
387,215,70208,6,0,P|410:284|352:326,1,137.500004196167,2|10,3:2|1:2,0:0:0:0:
246,346,71053,2,0,B|206:324|206:324|180:332,1,68.7500020980836,2|2,3:2|0:3,0:0:0:0:
135,369,71476,2,0,B|112:375|112:375|72:353,1,68.7500020980836,8|2,1:2|0:3,0:0:0:0:
31,308,71898,6,0,P|52:239|79:164,1,137.500004196167,4|10,3:1|1:2,0:0:0:0:
130,152,72532,1,0,0:0:0:0:
174,194,72743,1,0,3:0:0:0:
297,179,73166,2,0,P|330:186|359:212,1,68.7500020980836,10|2,1:2|0:3,0:0:0:0:
378,266,73589,5,2,3:2:0:0:
481,198,74011,2,0,P|487:155|498:108,1,68.7500020980836,10|2,1:2|0:3,0:0:0:0:
449,85,74434,2,0,P|440:49|427:14,2,68.7500020980836,2|2|10,3:2|0:3|1:2,0:0:0:0:
393,113,75067,1,2,0:3:0:0:
335,90,75279,5,2,3:2:0:0:
234,162,75701,1,10,1:2:0:0:
175,142,75913,2,0,P|142:139|110:154,1,68.7500020980836,2|2,0:3|3:2,0:0:0:0:
59,188,76335,2,0,P|47:151|24:114,2,68.7500020980836,2|10|2,0:3|1:2|0:3,0:0:0:0:
66,249,76969,5,2,3:2:0:0:
147,342,77391,1,10,1:2:0:0:
245,266,77814,2,0,P|276:250|320:262,1,68.7500020980836,2|2,3:2|3:0,0:0:0:0:
349,300,78236,1,10,1:2:0:0:
459,237,78659,5,0,3:0:0:0:
459,237,78870,1,2,0:3:0:0:
440,113,79293,2,0,P|373:96|303:83,1,125,0|2,0:0|3:0,0:0:0:0:
275,131,79927,2,0,L|198:148,1,62.5,2|2,1:2|0:3,0:0:0:0:
170,188,80349,1,0,3:0:0:0:
170,188,80560,1,2,0:3:0:0:
99,84,80983,2,0,P|38:93|1:167,1,125,0|2,0:0|3:0,0:0:0:0:
37,194,81617,2,0,P|45:232|51:265,1,62.5,2|2,1:2|0:3,0:0:0:0:
30,314,82039,5,0,3:0:0:0:
30,314,82251,1,2,0:3:0:0:
143,366,82673,2,0,P|207:345|269:329,1,125,0|2,0:0|3:0,0:0:0:0:
318,358,83307,2,0,P|346:332|357:299,1,62.5,2|2,1:2|0:3,0:0:0:0:
333,251,83729,1,0,3:0:0:0:
94,32,84997,1,0,3:0:0:0:
40,147,85420,5,0,3:0:0:0:
40,147,85631,1,2,0:3:0:0:
130,232,86053,2,0,P|193:234|228:161,1,125,2|2,3:0|0:3,0:0:0:0:
200,132,86687,2,0,P|205:95|215:67,1,62.5,2|2,1:2|0:3,0:0:0:0:
266,35,87110,1,0,3:0:0:0:
266,35,87321,1,2,0:3:0:0:
387,63,87743,2,0,P|403:126|416:196,1,125,2|2,3:0|0:3,0:0:0:0:
399,245,88377,2,0,P|367:228|326:219,1,62.5,0|2,1:0|0:3,0:0:0:0:
290,253,88800,5,0,3:0:0:0:
290,253,89011,1,2,0:3:0:0:
203,343,89434,2,0,P|140:368|92:327,1,125,2|2,3:0|0:3,0:0:0:0:
54,293,90067,2,0,P|70:261|82:220,1,62.5,2|2,1:2|0:3,0:0:0:0:
49,180,90490,1,2,3:2:0:0:
49,180,92180,6,0,P|155:66|372:63,1,375,4|2,3:0|0:0,0:0:0:0:
445,154,94510,2,0,P|429:237|371:179,1,187.5,8|8,3:0|3:0,0:0:0:0:
323,155,95675,2,0,P|335:121|349:87,2,62.5,4|4|0,3:0|3:0|3:0,0:0:0:0:
300,278,96840,2,0,P|166:334|27:169,1,375,4|2,3:0|0:1,0:0:0:0:
68,66,99170,2,0,B|124:45|124:45|171:91|171:91|229:64|229:64|274:104|274:104|336:81|336:81|384:121,1,375,8|2,3:0|0:1,0:0:0:0:
492,176,101500,2,0,P|519:248|386:283,1,250,4|2,3:0|1:1,0:0:0:0:
150,362,103830,2,0,P|169:291|196:223,1,125,4|2,3:0|0:0,0:0:0:0:
244,216,104704,1,2,3:1:0:0:
244,216,104995,1,2,1:1:0:0:
489,170,106160,2,0,P|402:83|269:67,1,250,4|2,3:0|1:1,0:0:0:0:
42,139,108490,2,0,L|30:187,1,31.25,4|0,3:0|0:0,0:0:0:0:
483,304,110820,6,0,P|423:284|357:268,2,125,2|2|10,3:2|0:0|0:0,0:0:0:0:
242,371,113150,2,0,P|225:310|202:245,1,125,2|2,3:2|0:0,0:0:0:0:
155,223,114024,1,2,3:1:0:0:
155,223,114315,1,10,0:0:0:0:
0,26,115480,6,0,P|55:72|114:62,2,125,2|2|10,3:2|0:0|0:0,0:0:0:0:
249,6,117811,2,0,P|272:72|293:136,1,125,2|2,3:2|0:0,0:0:0:0:
252,175,118684,1,2,3:1:0:0:
252,175,118976,1,10,0:0:0:0:
442,337,120141,6,0,P|466:284|432:221,1,125,2|2,3:2|0:0,0:0:0:0:
338,153,121306,2,0,P|278:175|211:202,1,125,10|2,0:0|0:1,0:0:0:0:
130,283,122471,2,0,P|66:302|25:242,1,125,2|2,3:2|0:0,0:0:0:0:
22,207,123345,1,2,3:1:0:0:
22,207,123636,1,10,0:0:0:0:
66,90,124218,1,0,0:1:0:0:
185,53,124801,6,0,P|245:66|317:85,1,125,2|2,3:2|0:0,0:0:0:0:
411,149,125966,2,0,P|376:196|391:265,1,125,8|2,0:0|0:1,0:0:0:0:
306,355,127131,2,0,B|260:335|260:335|207:351,1,93.75,2|0,3:2|0:0,0:0:0:0:
95,250,128296,2,0,B|141:270|141:270|194:254,1,93.75,2|0,3:2|0:0,0:0:0:0:
358,132,129461,6,0,P|353:85|409:37,1,125,2|2,3:2|0:0,0:0:0:0:
467,52,130094,1,2,0:0:0:0:
505,235,130728,1,10,0:0:0:0:
425,331,131151,2,0,P|362:317|301:304,1,125,2|2,3:2|0:0,0:0:0:0:
247,332,131784,1,2,0:0:0:0:
61,356,132418,1,10,0:0:0:0:
125,248,132841,6,0,P|112:188|91:124,1,125,2|10,3:2|0:0,0:0:0:0:
151,17,133686,2,0,P|186:21|227:33,1,62.5,0|2,3:0|0:0,0:0:0:0:
245,80,134108,2,0,P|279:73|314:61,1,62.5,10|2,0:0|0:0,0:0:0:0:
363,40,134531,2,0,P|353:98|345:165,1,125,2|8,3:2|0:0,0:0:0:0:
450,231,135376,1,2,3:2:0:0:
398,345,135799,2,0,P|362:336|322:329,1,62.5,8|0,1:2|1:0,0:0:0:0:
280,358,136221,6,0,P|220:335|223:264,1,125,2|10,3:2|0:0,0:0:0:0:
255,234,136855,1,2,0:0:0:0:
335,64,137489,1,10,0:0:0:0:
216,24,137911,2,0,P|164:37|89:62,1,125,2|10,3:2|0:0,0:0:0:0:
67,115,138545,1,2,0:0:0:0:
106,298,139179,1,10,0:0:0:0:
214,360,139601,6,0,B|248:334|248:334|348:354,1,125,2|10,3:2|0:0,0:0:0:0:
393,367,140235,1,2,3:2:0:0:
393,367,140446,1,2,3:2:0:0:
384,242,140869,2,0,P|403:207|431:178,1,62.5,10|0,0:0|3:0,0:0:0:0:
468,153,141291,2,0,L|335:126,1,125,2|0,3:2|3:0,0:0:0:0:
289,115,141925,1,10,0:0:0:0:
289,115,142137,1,2,3:2:0:0:
187,41,142559,2,0,P|156:51|120:68,1,62.5,0|10,3:0|0:0,0:0:0:0:
96,116,142982,5,2,3:2:0:0:
256,192,143087,12,0,146362,0:0:0:0:
96,116,148052,6,0,L|74:261,1,137.500004196167,4|10,3:1|0:0,0:0:0:0:
40,303,148686,1,2,3:0:0:0:
150,358,149108,1,2,3:0:0:0:
189,310,149320,2,0,P|227:293|268:290,1,68.7500020980836,10|2,0:0|0:3,0:0:0:0:
306,321,149742,6,0,P|354:346|416:288,1,137.500004196167,2|10,3:2|0:0,0:0:0:0:
386,244,150376,1,2,3:0:0:0:
472,154,150799,1,2,3:0:0:0:
440,100,151010,2,0,P|407:87|373:84,1,68.7500020980836,10|2,0:0|0:3,0:0:0:0:
332,130,151432,5,2,3:2:0:0:
257,30,151855,1,10,0:0:0:0:
196,16,152066,1,2,3:0:0:0:
93,85,152489,1,2,3:0:0:0:
32,71,152700,2,0,P|17:103|7:146,1,68.7500020980836,10|2,0:0|0:3,0:0:0:0:
37,189,153122,6,0,P|22:249|82:291,1,137.500004196167,2|10,3:2|0:0,0:0:0:0:
196,319,153968,2,0,P|208:351|217:384,2,68.7500020980836,2|2|10,0:0|3:0|0:2,0:0:0:0:
233,269,154601,1,2,0:3:0:0:
200,216,154813,6,0,P|183:164|241:106,1,137.500004196167,4|10,3:1|0:0,0:0:0:0:
292,126,155446,1,2,3:0:0:0:
392,53,155869,1,2,3:0:0:0:
451,70,156080,2,0,P|466:108|473:146,1,68.7500020980836,10|2,0:0|0:3,0:0:0:0:
425,176,156503,6,0,P|411:244|400:325,1,137.500004196167,2|10,3:2|0:0,0:0:0:0:
367,363,157137,1,2,3:0:0:0:
249,325,157559,1,2,3:0:0:0:
280,271,157770,2,0,P|271:228|259:201,1,68.7500020980836,10|2,0:0|0:3,0:0:0:0:
201,188,158193,5,2,3:2:0:0:
282,94,158615,1,10,0:0:0:0:
304,36,158827,1,2,3:0:0:0:
182,13,159249,1,2,3:0:0:0:
159,71,159461,2,0,P|134:94|89:112,1,68.7500020980836,10|2,0:0|0:3,0:0:0:0:
43,124,159883,6,0,B|-10:161|7:218|7:218|39:230,2,137.500004196167,0|0|0,3:0|3:0|3:0,0:0:0:0:
139,202,161151,2,0,B|176:218|176:218|219:202,1,68.7500020980836,2|2,1:2|1:2,0:0:0:0:
230,152,161573,6,0,P|263:95|344:88,1,137.500004196167,4|10,3:1|1:2,0:0:0:0:
388,101,162207,1,2,0:3:0:0:
398,161,162418,2,0,L|377:252,1,68.7500020980836,2|2,3:2|0:3,0:0:0:0:
424,273,162841,2,0,L|436:346,1,68.7500020980836,10|2,1:2|0:3,0:0:0:0:
385,377,163263,5,0,3:0:0:0:
288,301,163686,2,0,P|254:288|217:283,1,68.7500020980836,10|2,1:2|0:3,0:0:0:0:
171,318,164108,2,0,P|182:353|188:396,2,68.7500020980836,2|2|10,3:2|0:3|1:2,0:0:0:0:
111,300,164742,1,2,0:3:0:0:
89,242,164953,5,2,3:2:0:0:
186,165,165376,1,10,1:2:0:0:
168,105,165587,2,0,P|188:72|219:49,1,68.7500020980836,2|2,0:3|3:2,0:0:0:0:
271,65,166010,2,0,P|263:35|249:-4,2,68.7500020980836,2|10|2,0:3|1:2|0:3,0:0:0:0:
316,107,166644,6,0,P|302:184|291:260,1,137.500004196167,2|10,3:2|1:2,0:0:0:0:
359,347,167489,2,0,B|392:368|392:368|425:361,1,68.7500020980836,2|2,3:2|0:3,0:0:0:0:
474,331,167911,2,0,B|495:298|495:298|488:265,1,68.7500020980836,10|2,1:2|0:3,0:0:0:0:
462,212,168334,6,0,P|441:138|418:78,1,137.500004196167,4|10,3:1|1:2,0:0:0:0:
373,39,168968,1,0,0:0:0:0:
318,68,169179,1,0,3:0:0:0:
253,173,169601,2,0,P|268:213|274:247,1,68.7500020980836,10|2,1:2|0:3,0:0:0:0:
262,299,170024,5,2,3:2:0:0:
156,362,170446,2,0,P|122:368|86:347,1,68.7500020980836,10|2,1:2|0:3,0:0:0:0:
64,298,170869,2,0,P|29:309|-3:322,2,68.7500020980836,2|2|10,3:2|0:3|1:2,0:0:0:0:
86,240,171503,1,2,0:3:0:0:
145,220,171714,5,2,3:2:0:0:
162,97,172137,1,10,1:2:0:0:
222,81,172348,2,0,P|259:83|285:107,1,68.7500020980836,2|2,0:3|3:2,0:0:0:0:
309,158,172770,2,0,P|295:194|284:231,2,68.7500020980836,2|10|2,0:3|1:2|0:3,0:0:0:0:
370,152,173404,5,2,3:2:0:0:
468,226,173827,1,10,1:2:0:0:
413,337,174249,2,0,P|378:324|339:320,1,68.7500020980836,2|2,3:2|3:0,0:0:0:0:
291,348,174672,2,0,B|261:362|261:362|227:348,1,68.7500020980836,10|2,1:2|0:3,0:0:0:0:
192,298,175094,5,4,3:1:0:0:
229,248,175306,2,0,L|243:175,1,68.7500020980836,2|10,0:3|1:2,0:0:0:0:
184,107,175834,2,0,L|198:34,1,68.7500020980836,2|2,0:3|0:0,0:0:0:0:
111,6,176362,2,0,P|78:10|44:38,1,68.7500020980836,10|2,1:2|0:3,0:0:0:0:
16,82,176784,5,0,3:0:0:0:
54,130,176996,2,0,L|67:203,1,68.7500020980836,2|10,0:3|1:2,0:0:0:0:
26,281,177524,2,0,L|39:354,1,68.7500020980836,2|2,0:0|0:0,0:0:0:0:
127,376,178052,2,0,P|160:350|200:346,1,68.7500020980836,10|2,1:2|0:3,0:0:0:0:
242,369,178475,5,0,3:0:0:0:
292,333,178686,2,0,L|275:255,1,68.7500020980836,2|10,0:3|1:2,0:0:0:0:
207,204,179214,2,0,L|224:126,1,68.7500020980836,2|2,0:0|0:0,0:0:0:0:
274,60,179742,2,0,P|306:41|349:44,1,68.7500020980836,10|2,1:2|0:3,0:0:0:0:
388,75,180165,5,0,3:0:0:0:
433,117,180376,2,0,L|409:199,1,68.7500020980836,2|8,0:3|1:2,0:0:0:0:
448,234,180799,1,2,0:3:0:0:
380,337,181221,2,0,P|348:328|307:320,1,68.7500020980836,2|10,0:3|1:2,0:0:0:0:
267,363,181644,2,0,P|234:372|204:357,1,68.7500020980836,2|4,0:3|3:1,0:0:0:0:
165,309,182066,6,0,L|182:226,1,68.7500020980836,2|10,0:3|1:2,0:0:0:0:
245,176,182594,2,0,L|231:108,1,68.7500020980836,2|2,0:0|0:0,0:0:0:0:
159,51,183122,2,0,P|127:34|93:39,1,68.7500020980836,10|2,1:2|0:3,0:0:0:0:
48,78,183545,5,2,3:2:0:0:
75,133,183756,2,0,L|86:205,1,68.7500020980836,2|10,0:3|1:2,0:0:0:0:
98,292,184284,2,0,L|170:329,1,68.7500020980836,2|2,0:0|0:0,0:0:0:0:
244,284,184813,2,0,P|278:293|309:316,1,68.7500020980836,10|2,1:2|0:3,0:0:0:0:
337,364,185235,5,2,3:2:0:0:
398,354,185446,2,0,L|416:280,1,68.7500020980836,2|10,0:3|1:2,0:0:0:0:
366,207,185975,2,0,L|348:133,1,68.7500020980836,2|2,0:0|0:0,0:0:0:0:
403,63,186503,2,0,P|362:44|331:38,1,68.7500020980836,10|2,1:2|3:0,0:0:0:0:
280,60,186925,5,0,3:0:0:0:
280,60,188615,6,0,P|264:112|248:171,2,93.75,2|2|2,3:2|0:0|0:0,0:0:0:0:
339,38,189461,1,2,0:0:0:0:
454,84,189883,2,0,P|444:119|438:149,1,62.5,2|2,0:1|0:0,0:0:0:0:
468,200,190306,2,0,P|406:209|368:265,1,125,2|0,3:2|0:0,0:0:0:0:
318,292,190939,2,0,P|325:339|335:391,2,93.75,2|0|2,0:0|0:0|0:1,0:0:0:0:
204,344,191996,6,0,P|170:365|109:340,2,93.75,2|2|2,3:2|0:0|0:0,0:0:0:0:
199,281,192841,1,2,0:0:0:0:
147,167,193263,2,0,P|123:150|85:137,1,62.5,2|2,0:1|0:0,0:0:0:0:
39,104,193686,2,0,L|146:78,1,93.75,2|2,3:2|0:0,0:0:0:0:
199,18,194320,2,0,P|249:27|297:38,1,93.75,2|2,0:0|0:0,0:0:0:0:
333,120,194953,1,2,0:1:0:0:
454,150,195376,6,0,P|468:180|476:210,1,62.5,2|2,3:2|0:1,0:0:0:0:
446,263,195799,1,0,0:0:0:0:
446,263,196010,2,0,P|406:241|340:245,1,93.75,2|0,0:1|0:0,0:0:0:0:
297,310,196644,2,0,L|224:327,1,62.5,0|2,0:0|0:1,0:0:0:0:
182,355,197066,2,0,P|139:305|153:246,1,125,2|0,3:2|0:0,0:0:0:0:
171,192,197700,2,0,P|126:169|59:158,2,93.75,2|2|2,0:1|0:0|0:0,0:0:0:0:
251,96,198756,6,0,P|287:80|321:70,1,62.5,2|2,3:2|0:1,0:0:0:0:
364,101,199179,1,0,0:0:0:0:
364,101,199390,2,0,P|353:146|342:199,1,93.75,2|0,0:1|0:0,0:0:0:0:
419,248,200024,2,0,P|430:283|437:312,1,62.5,0|2,0:0|0:0,0:0:0:0:
408,363,200446,1,2,3:2:0:0:
113,257,201503,2,0,B|83:262|83:262|61:292,1,62.5,2|2,0:0|0:0,0:0:0:0:
