osu file format v14

[General]
AudioFilename: audio.mp3
AudioLeadIn: 0
PreviewTime: 49874
Countdown: 0
SampleSet: Soft
StackLeniency: 0.3
Mode: 0
LetterboxInBreaks: 0
WidescreenStoryboard: 1

[Editor]
Bookmarks: 7673,21194,31124,34715,49927,51617,65138,65983,78659,92180,110820,129461,146362,148052,161573,173404,175094,188615,202137
DistanceSpacing: 1.2
BeatDivisor: 4
GridSize: 4
TimelineZoom: 1.700006

[Metadata]
Title:God-ish
TitleUnicode:神っぽいな
Artist:sekai
ArtistUnicode:sekai
Creator:seros
Version:Setu's Insane
Source:
Tags:corsace closed ro16 nm3 cc22 cover jpop j-pop japanese pop vocaloid Sankaku Zuwari ピノキオピー godish kami ppoi poi na pinocchiop hatsune miku nenneO petal matha climbx3145 climb kuse KuBsNia_ZhoYL_ irin surou setu shiratamamywife
BeatmapID:3601684
BeatmapSetID:1759764

[Difficulty]
HPDrainRate:5
CircleSize:4
OverallDifficulty:8
ApproachRate:9
SliderMultiplier:1.8
SliderTickRate:1

[Events]
//Background and Video events
0,0,"bg.jpg",0,0
//Break Periods
//Storyboard Layer 0 (Background)
//Storyboard Layer 1 (Fail)
//Storyboard Layer 2 (Pass)
//Storyboard Layer 3 (Foreground)
//Storyboard Layer 4 (Overlay)
//Storyboard Sound Samples

[TimingPoints]
913,422.535211267606,4,2,1,69,1,0
5983,-100,4,2,1,5,0,0
7673,-100,4,2,1,69,0,0
20772,-100,4,2,14,69,0,0
20877,-100,4,2,1,69,0,0
21194,-90.9090909090909,4,2,1,69,0,0
22673,-66.6666666666667,4,2,1,69,0,0
22884,-90.9090909090909,4,2,1,69,0,0
24363,-66.6666666666667,4,2,1,69,0,0
24574,-90.9090909090909,4,2,1,69,0,0
26053,-66.6666666666667,4,2,1,69,0,0
26265,-90.9090909090909,4,2,1,69,0,0
27743,-66.6666666666667,4,2,1,69,0,0
27955,-90.9090909090909,4,2,1,69,0,0
29434,-66.6666666666667,4,2,1,69,0,0
29645,-90.9090909090909,4,2,1,69,0,0
31124,-66.6666666666667,4,2,1,69,0,0
31335,-90.9090909090909,4,2,1,69,0,0
32814,-66.6666666666667,4,2,1,69,0,0
34715,-125,4,2,1,69,0,0
46546,-100,4,2,1,69,0,0
51617,-55.5555555555556,4,2,1,80,0,0
51828,-83.3333333333333,4,2,1,80,0,0
53307,-55.5555555555556,4,2,1,80,0,0
53518,-83.3333333333333,4,2,1,80,0,0
54997,-66.6666666666667,4,2,1,80,0,0
55208,-76.9230769230769,4,2,1,80,0,0
55420,-66.6666666666667,4,2,1,80,0,0
55631,-74.0740740740741,4,2,1,80,0,0
56898,-68.9655172413793,4,2,1,80,0,0
57110,-64.5161290322581,4,2,1,80,0,0
58377,-55.5555555555556,4,2,1,80,0,0
58589,-76.9230769230769,4,2,1,80,0,0
60067,-55.5555555555556,4,2,1,80,0,0
60279,-76.9230769230769,4,2,1,80,0,0
61758,-62.5,4,2,1,80,0,0
61969,-76.9230769230769,4,2,1,80,0,0
62180,-58.8235294117647,4,2,1,80,0,0
62391,-71.4285714285714,4,2,1,80,0,0
64293,-100,4,2,1,80,0,0
68518,-62.5,4,2,1,80,0,0
68729,-76.9230769230769,4,2,1,80,0,0
69363,-66.6666666666667,4,2,1,80,0,0
69574,-76.9230769230769,4,2,1,80,0,0
70208,-55.5555555555556,4,2,1,80,0,0
70420,-76.9230769230769,4,2,1,80,0,0
71053,-66.6666666666667,4,2,1,80,0,0
73166,-83.3333333333333,4,2,1,80,0,0
74011,-71.4285714285714,4,2,1,80,0,0
75279,-55.5555555555556,4,2,1,80,0,0
75490,-83.3333333333333,4,2,1,80,0,0
75913,-66.6666666666667,4,2,1,80,0,0
76124,-76.9230769230769,4,2,1,80,0,0
77603,-55.5555555555556,4,2,1,80,0,0
77814,-76.9230769230769,4,2,1,80,0,0
78236,-50,4,2,1,80,0,0
78659,-100,4,2,1,69,0,0
86898,-74.074074074074,4,2,1,69,0,0
87110,-100,4,2,1,69,0,0
88589,-74.074074074074,4,2,1,69,0,0
88800,-100,4,2,1,69,0,0
90279,-74.074074074074,4,2,1,69,0,0
90490,-100,4,2,1,69,0,0
91758,-66.6666666666667,4,2,1,69,0,0
92180,582.52427184466,4,2,1,39,1,0
92616,-90.9090909090909,4,2,1,39,0,0
94510,-83.3333333333333,4,2,1,44,0,0
96840,-76.9230769230769,4,2,1,49,0,0
99170,-71.4285714285714,4,2,1,69,0,0
101500,-66.6666666666667,4,2,1,59,0,0
103830,-66.6666666666667,4,2,1,64,0,0
106160,-66.6666666666667,4,2,1,69,0,0
109073,-66.6666666666667,4,2,1,5,0,0
109655,-66.6666666666667,4,2,1,69,0,0
110820,-90.9090909090909,4,2,1,39,0,0
111985,-71.4285714285714,4,2,1,39,0,0
113150,-90.9090909090909,4,2,1,39,0,0
114315,-71.4285714285714,4,2,1,39,0,0
115480,-90.9090909090909,4,2,1,39,0,0
126184,-90.9090909090909,4,2,1,5,0,0
126257,-90.9090909090909,4,2,1,39,0,0
126476,-90.9090909090909,4,2,1,5,0,0
126548,-90.9090909090909,4,2,1,39,0,0
126767,-90.9090909090909,4,2,1,5,0,0
126840,-90.9090909090909,4,2,1,39,0,0
127131,-500,4,2,1,39,0,0
129461,422.535211267606,4,2,1,69,1,0
129461,-100,4,2,1,69,0,0
147418,-71.4285714285714,4,2,1,69,0,0
147630,-58.8235294117647,4,2,1,69,0,0
148052,-100,4,2,1,80,0,0
148263,-50,4,2,1,80,0,0
148475,-71.4285714285714,4,2,1,80,0,0
149953,-50,4,2,1,80,0,0
150165,-71.4285714285714,4,2,1,80,0,0
151432,-55.5555555555556,4,2,1,80,0,0
151644,-66.6666666666667,4,2,1,80,0,0
151855,-55.5555555555556,4,2,1,80,0,0
152066,-66.6666666666667,4,2,1,80,0,0
152277,-71.4285714285714,4,2,1,80,0,0
153545,-62.5,4,2,1,80,0,0
155024,-76.9230769230769,4,2,1,80,0,0
156503,-55.5555555555556,4,2,1,80,0,0
156714,-76.9230769230769,4,2,1,80,0,0
158193,-62.5,4,2,1,80,0,0
158404,-76.9230769230769,4,2,1,80,0,0
158615,-58.8235294117647,4,2,1,80,0,0
158827,-76.9230769230769,4,2,1,80,0,0
159038,-71.4285714285714,4,2,1,80,0,0
160728,-208.333333333333,4,2,1,80,0,0
161151,-71.4285714285714,4,2,1,80,0,0
161573,-90.9090909090909,4,2,1,80,0,0
164953,-62.5,4,2,1,80,0,0
165165,-76.9230769230769,4,2,1,80,0,0
165799,-66.6666666666667,4,2,1,80,0,0
166010,-76.9230769230769,4,2,1,80,0,0
166644,-55.5555555555556,4,2,1,80,0,0
166855,-76.9230769230769,4,2,1,80,0,0
167911,-66.6666666666667,4,2,1,80,0,0
169601,-83.3333333333333,4,2,1,80,0,0
171714,-55.5555555555556,4,2,1,80,0,0
171925,-83.3333333333333,4,2,1,80,0,0
172348,-66.6666666666667,4,2,1,80,0,0
175094,-71.4285714285714,4,2,1,80,0,0
186925,-100,4,2,1,80,0,0
188615,-125,4,2,1,49,0,0
200446,-1000,4,2,1,49,0,0

[Colours]
Combo1 : 200,121,121
Combo2 : 118,145,165
Combo3 : 215,177,168
Combo4 : 142,146,179

[HitObjects]
31,227,7673,6,0,P|101:230|157:154,2,135,2|2|2,0:0|0:0|0:0,0:0:0:0:
45,76,8518,2,0,P|71:134|63:192,1,90,2|2,0:0|0:0,0:0:0:0:
146,189,8835,1,2,0:0:0:0:
146,189,8941,2,0,P|169:162|202:152,1,45
229,91,9152,1,2,0:0:0:0:
229,91,9258,1,2,0:0:0:0:
229,91,9363,6,0,P|263:132|354:126,2,135,2|2|2,0:0|0:0|0:0,0:0:0:0:
210,223,10208,2,0,L|219:273,1,45,2|0,0:0|0:0,0:0:0:0:
422,132,10525,1,2,0:0:0:0:
422,132,10631,2,0,P|419:106|404:83,1,45
298,21,10842,2,0,L|305:76,1,45,2|0,0:0|0:0,0:0:0:0:
340,134,11053,6,0,B|329:199|329:199|319:210|319:210|312:267,2,135,2|2|2,0:0|0:0|0:0,0:0:0:0:
432,303,11898,2,0,P|384:311|350:363,1,90,2|2,0:0|0:0,0:0:0:0:
312,263,12215,1,2,0:0:0:0:
312,263,12321,2,0,P|288:259|271:233,1,45
238,314,12532,2,0,P|214:318|197:344,1,45,2|0,0:0|0:0,0:0:0:0:
29,293,12743,6,0,P|76:301|115:388,2,135,2|2|2,0:0|0:0|0:0,0:0:0:0:
195,232,13589,1,2,0:0:0:0:
201,210,13694,1,2,0:0:0:0:
214,191,13800,1,2,0:0:0:0:
231,177,13905,1,2,0:0:0:0:
252,168,14011,2,0,L|162:153,1,90,2|2,0:0|0:0,0:0:0:0:
39,273,14434,6,0,P|22:299|29:332,1,45,2|0,0:0|0:0,0:0:0:0:
110,373,14645,1,2,0:3:0:0:
110,373,14751,2,0,P|144:321|130:255,1,90,2|0,0:0|0:0,0:0:0:0:
86,160,15067,2,0,P|89:182|104:200,1,45,2|0,0:3|0:0,0:0:0:0:
151,291,15279,6,0,L|217:281,1,45,2|0,0:0|0:0,0:0:0:0:
285,236,15490,1,2,0:3:0:0:
289,240,15596,2,0,L|274:363,1,90,2|0,0:0|0:0,0:0:0:0:
341,380,15913,2,0,P|361:359|400:349,1,45,2|0,0:3|0:0,0:0:0:0:
511,245,16124,6,0,L|445:235,1,45,2|0,0:0|0:0,0:0:0:0:
386,276,16335,1,2,0:3:0:0:
386,276,16441,2,0,L|371:153,1,90,2|0,0:0|0:0,0:0:0:0:
326,120,16758,2,0,P|318:141|286:155,1,45,2|0,0:3|0:0,0:0:0:0:
231,101,16969,5,2,0:0:0:0:
222,91,17074,2,0,L|168:100,1,45,2|2,0:0|0:3,0:0:0:0:
57,150,17286,5,2,0:3:0:0:
66,140,17391,2,0,L|120:149,1,45,2|0,0:0|0:0,0:0:0:0:
153,222,17603,2,0,P|155:237|141:222,1,45,2|0,0:3|0:0,0:0:0:0:
223,181,17814,6,0,P|237:228|212:288,1,90,2|2,0:0|0:3,0:0:0:0:
160,345,18131,1,2,0:0:0:0:
160,345,18236,2,0,P|142:320|116:311,1,45,0|2,0:0|0:0,0:0:0:0:
233,270,18448,2,0,P|261:271|295:262,1,45,2|0,0:3|0:0,0:0:0:0:
414,348,18659,6,0,L|399:285,1,45,2|0,0:0|0:0,0:0:0:0:
351,243,18870,1,2,0:3:0:0:
351,243,18976,2,0,L|365:120,1,90,2|0,0:0|0:0,0:0:0:0:
359,74,19293,2,0,L|421:88,1,45,2|0,0:3|0:0,0:0:0:0:
292,115,19504,5,2,0:0:0:0:
43,34,20560,5,8,3:0:0:0:
43,34,20666,1,8,3:0:0:0:
43,34,20772,2,0,L|58:130,1,90,10|2,2:0|0:3,0:0:0:0:
129,175,21194,6,0,P|135:159|125:174,1,49.5000015106202,0|0,3:0|0:0,0:0:0:0:
68,231,21405,6,0,P|56:214|15:197,1,49.5000015106202,2|2,0:3|0:3,0:0:0:0:
196,119,21617,1,2,1:2:0:0:
196,119,21722,2,0,P|208:140|211:164,1,49.5000015106202,2|2,0:0|0:3,0:0:0:0:
93,334,21934,6,0,P|105:317|146:300,1,49.5000015106202,2|0,0:0|3:0,0:0:0:0:
303,355,22145,2,0,P|282:353|247:326,1,49.5000015106202,2|2,0:0|0:3,0:0:0:0:
178,242,22356,1,2,0:3:0:0:
178,242,22462,2,0,P|195:254|212:295,1,49.5000015106202,2|0,1:2|0:0,0:0:0:0:
265,221,22673,6,0,P|282:209|299:168,3,33.7500012874604,2|2|2|2,0:3|0:3|0:3|0:3,0:0:0:0:
342,256,22884,2,0,P|349:268|347:250,1,49.5000015106202,0|0,3:0|0:0,0:0:0:0:
409,330,23096,6,0,P|421:306|446:284,1,49.5000015106202,2|2,0:3|0:3,0:0:0:0:
374,174,23307,1,2,1:2:0:0:
374,174,23413,2,0,P|362:150|337:128,1,49.5000015106202,2|2,0:0|0:3,0:0:0:0:
227,29,23624,6,0,L|275:39,1,49.5000015106202,2|0,0:0|3:0,0:0:0:0:
440,42,23835,2,0,L|488:52,1,49.5000015106202,2|2,0:0|0:3,0:0:0:0:
350,54,24046,1,2,0:3:0:0:
356,62,24152,2,0,L|367:14,1,49.5000015106202,2|0,1:2|0:0,0:0:0:0:
273,149,24363,6,0,L|266:117,3,33.7500012874604,2|2|2|2,0:3|0:3|0:3|0:3,0:0:0:0:
182,93,24574,2,0,P|179:111|187:95,1,49.5000015106202,0|0,3:0|0:0,0:0:0:0:
128,29,24786,6,0,P|113:48|81:65,1,49.5000015106202,2|2,0:3|0:3,0:0:0:0:
158,185,24997,1,2,1:2:0:0:
158,185,25103,2,0,P|191:190|224:176,1,49.5000015106202,2|2,0:0|0:3,0:0:0:0:
79,139,25314,6,0,P|67:166|68:197,1,49.5000015106202,2|0,0:0|3:0,0:0:0:0:
115,254,25525,2,0,P|127:281|126:312,1,49.5000015106202,2|2,0:0|0:3,0:0:0:0:
17,367,25736,1,2,0:3:0:0:
11,359,25842,2,0,L|78:369,1,49.5000015106202,2|0,1:2|0:0,0:0:0:0:
125,307,26053,6,0,L|179:315,3,33.7500012874604,2|2|2|2,0:3|0:3|0:3|0:3,0:0:0:0:
219,355,26265,2,0,L|290:343,1,49.5000015106202,0|0,3:0|0:0,0:0:0:0:
355,324,26476,6,0,P|349:353|343:391,1,49.5000015106202,2|2,0:3|0:3,0:0:0:0:
292,273,26687,2,0,P|286:244|280:206,1,49.5000015106202,0|0,1:0|0:0,0:0:0:0:
345,118,26898,2,0,P|373:155|440:156,1,99.0000030212403,2|2,0:3|3:2,0:0:0:0:
504,139,27215,1,2,0:0:0:0:
504,139,27321,2,0,P|498:168|492:206,1,49.5000015106202,2|2,0:3|0:3,0:0:0:0:
413,91,27532,2,0,P|407:62|401:24,1,49.5000015106202,2|2,1:2|0:2,0:0:0:0:
367,192,27743,6,0,P|362:215|357:245,3,33.7500012874604,2|2|2|2,0:3|0:3|0:3|0:3,0:0:0:0:
292,273,27955,2,0,P|297:290|294:272,1,49.5000015106202,0|0,3:0|0:0,0:0:0:0:
334,360,28166,6,0,P|350:344|384:330,1,49.5000015106202,2|2,0:3|0:3,0:0:0:0:
232,209,28377,1,2,1:2:0:0:
237,213,28483,2,0,P|217:241|213:270,1,49.5000015106202,2|2,0:0|0:3,0:0:0:0:
249,350,28694,6,0,L|179:356,1,49.5000015106202,2|0,0:0|3:0,0:0:0:0:
49,312,28905,2,0,L|-21:318,1,49.5000015106202,2|2,0:0|0:3,0:0:0:0:
124,293,29117,1,2,0:3:0:0:
131,300,29222,2,0,L|122:367,1,49.5000015106202,2|0,1:2|0:0,0:0:0:0:
72,239,29434,6,0,L|65:187,3,33.7500012874604,2|2|2|2,0:3|0:3|0:3|0:3,0:0:0:0:
117,143,29645,2,0,P|130:131|120:146,1,49.5000015106202,0|0,3:0|0:0,0:0:0:0:
55,84,29856,6,0,P|86:64|99:44,1,49.5000015106202,2|2,0:3|0:3,0:0:0:0:
196,177,30067,1,2,1:2:0:0:
196,177,30173,2,0,P|176:207|152:219,1,49.5000015106202,2|2,0:0|0:3,0:0:0:0:
180,81,30384,6,0,L|256:90,1,49.5000015106202,2|0,0:0|3:0,0:0:0:0:
379,71,30596,2,0,L|455:80,1,49.5000015106202,2|2,0:0|0:3,0:0:0:0:
314,118,30807,1,2,0:3:0:0:
306,112,30913,2,0,L|297:36,1,49.5000015106202,2|0,1:2|0:0,0:0:0:0:
381,151,31124,6,0,L|374:202,3,33.7500012874604,2|2|2|2,0:3|0:3|0:3|0:3,0:0:0:0:
401,257,31335,2,0,P|412:271|404:254,1,49.5000015106202,0|0,3:0|0:0,0:0:0:0:
341,330,31546,6,0,P|333:306|313:284,1,49.5000015106202,2|2,0:3|0:3,0:0:0:0:
486,237,31758,1,2,1:2:0:0:
486,237,31863,2,0,P|490:271|476:302,1,49.5000015106202,2|2,0:0|0:3,0:0:0:0:
310,281,32074,6,0,L|254:275,1,49.5000015106202,2|0,0:0|3:0,0:0:0:0:
94,304,32286,2,0,L|38:298,1,49.5000015106202,2|2,0:0|0:3,0:0:0:0:
170,266,32497,1,2,0:3:0:0:
178,272,32603,2,0,L|172:328,1,49.5000015106202,2|0,1:2|0:0,0:0:0:0:
102,224,32814,6,0,L|96:168,3,33.7500012874604,2|2|2|2,0:3|0:3|0:3|0:3,0:0:0:0:
107,172,33025,1,2,3:2:0:0:
427,169,34082,5,0,3:0:0:0:
427,169,34187,1,0,3:0:0:0:
427,169,34293,1,8,0:2:0:0:
427,169,34715,6,0,L|434:98,2,72,0|0|0,3:0|0:0|0:0,0:0:0:0:
382,26,35349,2,0,P|356:49|321:57,2,72,0|0|0,3:0|0:0|0:0,0:0:0:0:
302,149,35983,1,10,0:0:0:0:
302,149,36089,1,2,0:0:0:0:
302,149,36194,1,2,0:0:0:0:
302,149,36405,6,0,P|271:123|222:120,2,72,0|0|0,3:0|0:0|0:0,0:0:0:0:
214,40,37039,2,0,P|191:61|150:67,1,72,0|0,3:0|0:0,0:0:0:0:
146,153,37462,1,2,0:0:0:0:
146,153,37567,1,0,0:0:0:0:
146,153,37673,2,0,P|118:139|76:138,1,72,10|2,0:0|0:0,0:0:0:0:
60,218,38096,6,0,P|88:232|130:233,1,72,2|0,3:2|0:0,0:0:0:0:
221,266,38413,1,0,0:0:0:0:
221,266,38518,2,0,P|194:283|173:319,1,72,10|0,0:0|0:0,0:0:0:0:
106,378,38835,1,0,0:0:0:0:
106,378,38941,2,0,P|104:346|83:309,1,72,2|2,3:2|0:0,0:0:0:0:
251,340,39258,1,0,0:0:0:0:
251,340,39363,2,0,L|333:350,1,72,10|2,0:0|0:0,0:0:0:0:
409,364,39680,1,0,0:0:0:0:
409,364,39786,6,0,L|401:312,1,36,2|0,3:2|0:0,0:0:0:0:
338,274,39997,2,0,L|346:222,1,36
448,180,40208,2,0,L|396:188,1,36,8|0,0:0|0:0,0:0:0:0:
337,111,40420,2,0,L|389:119,1,36,8|8,0:0|0:0,0:0:0:0:
463,6,40631,5,0,3:0:0:0:
444,21,40736,1,0,0:0:0:0:
422,28,40842,1,8,0:0:0:0:
397,26,40948,1,2,2:0:0:0:
366,17,41053,5,8,1:2:0:0:
336,27,41159,1,0,1:0:0:0:
317,53,41264,1,0,1:0:0:0:
318,85,41370,1,0,1:0:0:0:
336,111,41476,6,0,L|348:189,2,72,0|0|0,3:0|0:0|0:0,0:0:0:0:
126,168,42110,2,0,P|97:135|53:124,2,72,0|0|0,3:0|0:0|0:0,0:0:0:0:
173,93,42743,1,10,0:0:0:0:
173,93,42849,1,2,0:0:0:0:
173,93,42955,1,2,0:0:0:0:
204,236,43166,6,0,L|214:164,2,72,0|0|0,3:0|0:0|0:0,0:0:0:0:
55,202,43800,2,0,L|65:274,1,72,0|0,3:0|0:0,0:0:0:0:
36,360,44222,1,2,0:0:0:0:
36,360,44328,1,0,0:0:0:0:
36,360,44434,2,0,P|76:347|115:360,1,72,10|2,0:0|0:0,0:0:0:0:
168,304,44856,6,0,P|195:338|270:337,1,108,2|0,3:2|0:0,0:0:0:0:
264,337,45279,1,10,0:0:0:0:
202,115,45490,1,2,3:2:0:0:
341,186,45701,6,0,L|419:199,1,72,2|2,3:2|0:0,0:0:0:0:
232,268,46124,1,10,0:0:0:0:
291,53,46335,1,2,3:2:0:0:
232,268,46546,5,2,3:2:0:0:
74,169,46758,2,0,L|20:161,1,45,8|8,0:0|0:0,0:0:0:0:
22,167,46969,1,0,3:0:0:0:
202,115,47180,5,10,0:0:0:0:
115,339,47391,1,2,3:2:0:0:
329,283,47603,2,0,L|383:275,1,45,8|8,0:0|0:0,0:0:0:0:
381,281,47814,1,0,3:0:0:0:
256,192,48025,5,8,0:0:0:0:
297,371,48236,1,2,3:2:0:0:
256,192,48342,12,0,49927,0:0:0:0:
67,114,51405,6,0,P|54:102|69:113,1,45,2|0,0:0|0:0,0:0:0:0:
127,178,51617,6,0,P|140:139|174:116,1,80.9999975280763,2|0,3:2|0:0,0:0:0:0:
33,185,51828,1,2,0:3:0:0:
33,185,51934,1,2,0:3:0:0:
33,185,52039,2,0,P|52:207|55:237,1,53.9999983520508,10|0,0:0|0:0,0:0:0:0:
205,185,52251,2,0,L|275:198,1,53.9999983520508,2|0,3:0|0:0,0:0:0:0:
94,309,52462,2,0,L|24:322,1,53.9999983520508,2|0,0:0|0:0,0:0:0:0:
160,369,52673,5,2,3:3:0:0:
179,319,52779,1,2,0:3:0:0:
224,292,52884,1,10,0:0:0:0:
277,300,52990,1,0,0:0:0:0:
325,364,53096,6,0,L|386:355,1,53.9999983520508,2|2,0:3|0:3,0:0:0:0:
497,236,53307,6,0,P|454:228|408:214,1,80.9999975280763,2|0,3:2|0:0,0:0:0:0:
330,235,53518,5,2,0:3:0:0:
330,235,53624,1,2,0:3:0:0:
330,235,53729,2,0,P|350:257|357:293,1,53.9999983520508,10|0,0:0|0:0,0:0:0:0:
413,214,53941,2,0,P|427:185|456:179,1,53.9999983520508,2|0,3:0|0:0,0:0:0:0:
487,319,54152,2,0,P|454:321|435:299,1,53.9999983520508,2|0,0:0|0:0,0:0:0:0:
347,154,54363,5,2,3:0:0:0:
311,151,54469,1,2,0:3:0:0:
278,165,54574,1,10,0:0:0:0:
255,193,54680,1,0,0:0:0:0:
204,130,54786,6,0,P|179:127|156:104,1,53.9999983520508,2|0,0:3|0:0,0:0:0:0:
4,270,54997,6,0,P|48:261|78:243,1,67.5000025749208,2|0,3:2|0:0,0:0:0:0:
217,339,55208,2,0,P|226:351|215:339,1,58.4999973220826,2|0,0:3|0:0,0:0:0:0:
93,332,55420,6,0,P|48:340|19:359,1,67.5000025749208,10|0,0:0|0:0,0:0:0:0:
144,267,55631,2,0,P|163:256|145:270,1,60.7500002317429,2|0,3:0|0:0,0:0:0:0:
19,189,55842,6,0,P|14:156|7:130,1,60.7500002317429,2|0,0:0|0:0,0:0:0:0:
166,39,56053,2,0,P|158:68|153:98,1,60.7500002317429,2|2,3:0|0:3,0:0:0:0:
9,45,56265,6,0,L|78:58,1,60.7500002317429,10|2,0:0|0:0,0:0:0:0:
131,182,56476,2,0,L|200:169,1,60.7500002317429,2|2,0:3|0:3,0:0:0:0:
293,82,56687,6,0,P|316:117|349:132,1,60.7500002317429,2|0,3:2|0:0,0:0:0:0:
392,75,56898,2,0,P|369:40|336:25,1,65.250001991272,2|0,0:3|0:0,0:0:0:0:
460,248,57110,6,0,P|482:221|488:187,1,69.7500005321503,10|0,0:0|0:0,0:0:0:0:
417,156,57321,2,0,P|394:182|388:216,1,69.7500005321503,2|0,3:0|0:0,0:0:0:0:
388,295,57532,5,2,0:0:0:0:
354,293,57638,1,2,0:0:0:0:
324,310,57743,1,2,3:0:0:0:
309,341,57849,1,2,0:3:0:0:
246,291,57955,5,10,0:0:0:0:
200,293,58060,1,2,0:0:0:0:
161,271,58166,1,2,0:3:0:0:
141,230,58272,1,2,0:3:0:0:
78,284,58377,6,0,P|37:289|-10:306,1,80.9999975280763,2|0,3:2|0:0,0:0:0:0:
57,210,58589,1,2,0:3:0:0:
57,210,58694,1,2,0:3:0:0:
57,210,58800,2,0,P|72:185|83:153,1,58.4999973220826,10|0,0:0|0:0,0:0:0:0:
82,289,59011,6,0,L|68:356,1,58.4999973220826,2|0,3:0|0:0,0:0:0:0:
228,194,59222,2,0,P|228:164|222:131,1,58.4999973220826,2|0,0:0|0:0,0:0:0:0:
141,230,59434,5,2,3:0:0:0:
161,271,59539,1,2,0:3:0:0:
200,293,59645,1,8,0:0:0:0:
246,291,59751,1,0,0:0:0:0:
315,252,59856,6,0,L|324:313,1,58.4999973220826,2|2,0:3|0:3,0:0:0:0:
477,371,60067,6,0,P|485:328|499:282,1,80.9999975280763,2|0,3:2|0:0,0:0:0:0:
512,187,60279,5,2,0:3:0:0:
512,187,60384,1,2,0:3:0:0:
512,187,60490,2,0,P|490:207|447:214,1,58.4999973220826,10|0,0:0|0:0,0:0:0:0:
310,377,60701,6,0,L|318:319,1,58.4999973220826,2|0,3:0|0:0,0:0:0:0:
416,277,60913,2,0,P|406:307|402:334,1,58.4999973220826,2|0,0:0|0:0,0:0:0:0:
369,195,61124,5,2,3:0:0:0:
335,175,61229,1,2,0:3:0:0:
297,173,61335,1,10,0:0:0:0:
263,191,61441,1,0,0:0:0:0:
191,234,61546,6,0,L|183:176,1,58.4999973220826,2|0,0:3|0:0,0:0:0:0:
92,29,61758,6,0,P|69:62|18:69,1,72,2|0,3:2|0:0,0:0:0:0:
237,117,61969,2,0,P|251:106|234:115,1,58.4999973220826,2|0,0:3|0:0,0:0:0:0:
35,76,62180,6,0,P|72:90|94:124,1,76.5000014591217,10|0,0:0|0:0,0:0:0:0:
178,42,62391,2,0,P|185:21|175:40,1,62.9999980773926,2|0,3:0|0:0,0:0:0:0:
18,151,62603,6,0,P|29:179|26:216,1,62.9999980773926,2|0,0:0|0:0,0:0:0:0:
176,294,62814,2,0,P|174:262|185:233,1,62.9999980773926,2|2,3:0|0:3,0:0:0:0:
42,297,63025,5,10,0:0:0:0:
75,297,63131,1,2,0:0:0:0:
102,316,63236,1,2,0:3:0:0:
114,347,63342,1,2,0:3:0:0:
181,299,63448,6,0,L|255:310,1,62.9999980773926,0|0,3:0|0:0,0:0:0:0:
359,163,63870,6,0,L|285:174,1,62.9999980773926,0|0,3:0|0:0,0:0:0:0:
179,70,64293,6,0,B|137:70|137:27|137:27|179:27|179:70,1,135,0|0,3:0|0:0,0:0:0:0:
253,96,64715,6,0,P|234:128|205:149,3,45,2|2|2|2,0:0|0:0|0:0|0:0,0:0:0:0:
174,187,65138,5,4,3:1:0:0:
158,161,65243,1,2,0:0:0:0:
134,144,65349,1,2,0:3:0:0:
105,140,65455,1,2,0:0:0:0:
35,187,65560,6,0,L|21:132,3,45,2|2|2|2,1:2|0:0|0:3|0:0,0:0:0:0:
104,214,65983,5,2,3:2:0:0:
90,242,66089,1,2,0:0:0:0:
62,258,66194,1,2,0:3:0:0:
33,262,66300,1,2,0:3:0:0:
4,252,66405,6,0,P|37:266|62:331,1,90,2|2,1:2|0:3,0:0:0:0:
131,363,66722,1,2,0:3:0:0:
131,363,66828,6,0,P|163:334|198:335,1,45,2|0,3:2|0:0,0:0:0:0:
222,199,67039,2,0,L|170:192,1,45,2|2,0:3|0:3,0:0:0:0:
230,283,67251,5,2,1:2:0:0:
230,283,67356,1,2,0:0:0:0:
230,283,67462,2,0,L|282:276,1,45,2|2,0:3|0:0,0:0:0:0:
378,216,67673,5,2,3:2:0:0:
334,207,67779,1,2,0:0:0:0:
301,178,67884,1,2,0:3:0:0:
287,135,67990,1,2,0:3:0:0:
321,66,68096,6,0,L|373:73,3,45,2|0|2|0,1:2|0:0|0:3|0:0,0:0:0:0:
249,5,68518,6,0,P|219:43|154:47,1,108,2|0,3:2|0:0,0:0:0:0:
158,46,68729,6,0,P|143:75|150:110,1,58.4999973220826,2|0,0:3|0:0,0:0:0:0:
117,193,68941,2,0,P|99:165|65:154,1,58.4999973220826,2|0,1:2|0:0,0:0:0:0:
15,87,69152,6,0,P|47:85|74:61,1,58.4999973220826,2|0,0:3|0:0,0:0:0:0:
47,225,69363,2,0,P|62:254|55:289,1,67.5000025749208,2|0,3:2|0:0,0:0:0:0:
199,170,69574,5,2,0:3:0:0:
199,170,69680,1,2,0:3:0:0:
199,170,69786,2,0,L|271:160,1,58.4999973220826,2|0,1:2|0:0,0:0:0:0:
109,301,69997,2,0,L|37:291,1,58.4999973220826,2|2,0:3|0:3,0:0:0:0:
170,370,70208,6,0,P|197:325|282:315,1,121.499996292114,2|0,3:2|0:0,0:0:0:0:
265,313,70420,6,0,P|289:330|326:327,1,58.4999973220826,2|0,0:3|0:0,0:0:0:0:
404,364,70631,2,0,L|415:300,1,58.4999973220826,2|0,1:2|0:0,0:0:0:0:
311,256,70842,2,0,L|300:192,1,58.4999973220826,2|0,0:3|0:0,0:0:0:0:
391,216,71053,6,0,P|420:218|450:197,3,67.5000025749208,2|2|2|2,3:2|0:0|0:3|0:3,0:0:0:0:
509,125,71476,5,0,1:0:0:0:
464,122,71582,1,2,0:0:0:0:
427,98,71687,1,2,0:3:0:0:
406,59,71793,1,2,0:3:0:0:
349,126,71898,6,0,P|330:112|267:114,1,67.5000025749208,4|0,3:1|0:0,0:0:0:0:
130,124,72110,2,0,L|140:51,1,67.5000025749208,2|0,0:3|0:0,0:0:0:0:
216,57,72321,5,2,1:2:0:0:
216,57,72427,2,0,L|206:123,1,67.5000025749208,2|0,0:0|0:0,0:0:0:0:
86,190,72638,2,0,P|57:162|54:117,1,67.5000025749208,2|0,0:0|3:0,0:0:0:0:
267,179,72849,5,2,0:0:0:0:
267,179,72955,2,0,P|286:193|349:191,1,67.5000025749208,2|2,0:3|0:3,0:0:0:0:
167,195,73166,2,0,P|155:239|94:271,1,107.999996704102,2|2,1:2|0:3,0:0:0:0:
235,271,73483,5,2,0:3:0:0:
235,271,73589,2,0,P|238:295|266:325,3,53.9999983520508,2|2|2|0,3:2|0:0|0:3|0:0,0:0:0:0:
318,365,74011,5,2,1:2:0:0:
330,333,74117,1,2,0:0:0:0:
356,312,74222,1,2,0:3:0:0:
389,307,74328,1,2,0:0:0:0:
494,274,74434,5,2,3:2:0:0:
452,267,74539,1,2,0:0:0:0:
421,240,74645,1,2,0:3:0:0:
409,201,74751,1,2,0:3:0:0:
343,236,74856,6,0,P|283:218|206:205,1,125.999996154785,2|2,1:2|0:3,0:0:0:0:
164,34,75173,1,2,0:3:0:0:
164,34,75279,6,0,P|137:79|52:89,1,121.499996292114,2|0,3:2|0:0,0:0:0:0:
69,91,75490,6,0,P|45:74|8:77,1,53.9999983520508,2|0,0:3|0:0,0:0:0:0:
156,152,75701,2,0,P|186:135|205:113,1,53.9999983520508,2|0,1:2|0:0,0:0:0:0:
17,157,75913,2,0,P|50:173|60:223,1,67.5000025749208,2|0,0:3|0:0,0:0:0:0:
134,302,76124,6,0,P|131:268|166:237,1,58.4999973220826,2|0,3:2|0:0,0:0:0:0:
291,140,76335,1,2,0:3:0:0:
291,140,76441,1,2,0:3:0:0:
291,140,76546,2,0,P|293:173|258:204,1,58.4999973220826,2|0,1:2|0:0,0:0:0:0:
232,287,76758,6,0,P|262:292|293:301,1,58.4999973220826,2|2,0:3|0:3,0:0:0:0:
490,270,76969,2,0,P|474:270|458:313,1,58.4999973220826,2|0,3:2|0:0,0:0:0:0:
287,197,77180,6,0,P|317:192|348:183,1,58.4999973220826,2|2,0:3|0:3,0:0:0:0:
422,369,77391,2,0,P|406:369|390:326,1,58.4999973220826,2|0,1:2|0:0,0:0:0:0:
378,113,77603,6,0,P|413:137|416:201,1,80.9999975280763,2|2,0:3|0:3,0:0:0:0:
332,28,77814,5,2,3:2:0:0:
311,71,77920,1,2,3:2:0:0:
270,95,78025,1,2,3:0:0:0:
222,92,78131,1,2,3:0:0:0:
153,45,78236,6,0,P|148:23|151:0,6,45,2|2|2|2|2|2|2,1:2|0:3|0:3|0:3|0:3|0:3|0:3,0:0:0:0:
146,127,78659,5,0,3:0:0:0:
96,187,78870,1,2,0:3:0:0:
96,187,80349,5,0,3:0:0:0:
146,127,80560,1,2,0:3:0:0:
146,127,82039,5,0,3:0:0:0:
96,187,82251,1,2,0:3:0:0:
366,257,83518,6,0,L|371:223,3,22.5,2|2|2|2,0:3|0:3|0:3|0:3,0:0:0:0:
360,225,83729,1,0,3:0:0:0:
256,192,84574,5,2,0:0:0:0:
246,182,84680,1,2,0:0:0:0:
236,172,84786,2,2,L|249:76,1,90,2|0,0:0|3:0,0:2:0:0:
185,250,85208,1,2,0:0:0:0:
141,120,85420,5,0,3:0:0:0:
141,120,86053,5,2,3:0:0:0:
113,280,86476,5,2,0:3:0:0:
113,280,86582,1,2,0:3:0:0:
113,280,86687,1,2,1:2:0:0:
185,250,86898,1,2,0:3:0:0:
141,120,87110,5,0,3:0:0:0:
113,280,87321,1,2,0:3:0:0:
113,280,87743,1,2,0:3:0:0:
113,280,88166,5,2,0:3:0:0:
113,280,88272,1,2,0:3:0:0:
113,280,88377,1,0,1:0:0:0:
185,250,88589,1,2,0:3:0:0:
141,120,88800,6,0,L|90:129,1,45,0|0,3:0|0:0,0:0:0:0:
90,123,89011,1,2,0:3:0:0:
44,233,89222,2,0,L|-7:224,1,45,2|2,0:0|0:0,0:0:0:0:
119,337,89539,6,0,P|133:323|166:322,1,45,2|2,0:0|0:0,0:0:0:0:
185,250,89751,2,0,P|204:255|221:283,1,45,2|2,0:0|0:3,0:0:0:0:
296,260,89962,1,2,0:3:0:0:
296,260,90067,2,0,P|301:279|285:308,1,45,2|0,1:2|0:0,0:0:0:0:
230,350,90279,6,0,L|239:395,4,30.3750001158714,2|2|2|2|2,0:3|0:3|0:3|0:3|3:2,0:0:0:0:
476,292,91335,6,0,P|475:321|459:334,1,45,2|0,0:0|0:0,0:0:0:0:
393,304,91546,2,0,P|394:275|410:262,1,45,2|0,0:0|0:0,0:0:0:0:
471,158,91758,6,0,P|469:140|454:121,6,33.7500012874604,2|2|2|2|2|2|2,0:3|0:3|0:3|0:3|0:3|0:3|0:3,0:0:0:0:
466,163,92180,5,4,3:0:0:0:
384,102,92616,6,0,P|350:111|321:114,2,49.5000015106202,2|2|2,0:0|0:0|0:0,0:0:0:0:
277,220,93053,2,0,P|286:186|298:159,1,49.5000015106202,2|0,0:0|0:0,0:0:0:0:
229,66,93345,2,0,P|253:90|270:114,1,49.5000015106202,2|2,0:0|0:0,0:0:0:0:
210,159,93636,6,0,P|185:163|161:169,1,49.5000015106202,2|2,0:0|0:0,0:0:0:0:
97,279,93927,2,0,P|105:255|111:231,1,49.5000015106202,2|2,0:0|0:0,0:0:0:0:
56,123,94218,2,0,P|71:142|89:159,1,49.5000015106202,2|2,0:0|0:0,0:0:0:0:
49,358,94510,6,0,P|89:309|188:296,1,161.999995056153,8|2,3:0|0:0,0:0:0:0:
263,323,95092,2,0,P|271:289|255:257,1,53.9999983520508,2|2,0:0|0:0,0:0:0:0:
187,300,95383,2,0,L|171:365,1,53.9999983520508,8|2,3:0|0:0,0:0:0:0:
202,222,95675,1,4,3:0:0:0:
329,361,95966,2,0,P|349:346|379:338,1,53.9999983520508,4|4,3:0|3:0,0:0:0:0:
457,366,96257,2,0,P|460:337|469:309,1,53.9999983520508,0|0,3:0|3:0,0:0:0:0:
395,261,96548,2,0,P|392:232|383:204,1,53.9999983520508,2|2,3:1|0:1,0:0:0:0:
488,130,96840,6,0,B|429:231|520:325|520:325,1,175.499991966248,4|2,3:0|0:0,0:0:0:0:
379,203,97422,2,0,P|341:206|306:216,1,58.4999973220826,2|0,0:0|0:0,0:0:0:0:
233,307,97713,2,0,P|249:272|258:237,1,58.4999973220826,2|2,0:1|0:1,0:0:0:0:
217,132,98005,2,0,P|238:163|264:188,1,58.4999973220826,2|2,0:1|0:1,0:0:0:0:
185,222,98296,5,2,0:1:0:0:
181,218,98442,1,2,0:1:0:0:
120,277,98587,5,2,0:1:0:0:
117,268,98733,1,2,0:1:0:0:
37,281,98879,5,2,0:1:0:0:
39,270,99024,1,2,0:1:0:0:
227,311,99170,6,0,P|276:315|343:366,1,125.999996154785,8|8,3:0|3:0,0:0:0:0:
321,225,99607,1,8,3:0:0:0:
321,225,99752,2,0,P|352:217|388:195,3,62.9999980773926,4|4|4|4,3:0|3:0|3:0|3:0,0:0:0:0:
461,329,100335,5,0,3:0:0:0:
461,308,100480,1,0,3:0:0:0:
467,288,100626,1,0,3:0:0:0:
480,271,100772,1,0,3:0:0:0:
380,194,100917,5,2,0:1:0:0:
380,158,101063,1,2,0:1:0:0:
369,124,101209,1,2,0:1:0:0:
347,95,101354,1,2,0:1:0:0:
433,65,101500,6,0,P|480:19|434:66,1,202.500007724762,4|2,3:0|0:0,0:0:0:0:
343,99,102082,2,0,L|259:110,1,67.5000025749208,2|2,0:0|0:0,0:0:0:0:
209,61,102374,2,0,L|151:52,3,33.7500012874604,2|2|2|2,0:1|0:1|0:1|0:1,0:0:0:0:
170,58,102665,1,2,1:1:0:0:
46,153,102956,2,0,L|104:144,3,33.7500012874604,2|2|2|2,0:1|0:1|0:1|0:1,0:0:0:0:
85,152,103247,2,0,P|93:175|98:224,1,67.5000025749208,2|2,0:1|0:1,0:0:0:0:
179,201,103539,2,0,P|171:178|166:129,1,67.5000025749208,2|2,0:1|0:1,0:0:0:0:
15,274,103830,6,0,P|104:251|163:336,1,202.500007724762,4|2,3:0|0:0,0:0:0:0:
300,319,104413,6,0,P|324:296|333:264,1,67.5000025749208,2|2,0:0|0:0,0:0:0:0:
271,223,104704,2,0,P|246:245|237:277,1,67.5000025749208,2|2,3:1|0:1,0:0:0:0:
467,270,104995,6,0,P|490:294|497:327,1,67.5000025749208,2|2,1:1|0:0,0:0:0:0:
431,361,105286,2,0,P|407:337|400:305,1,67.5000025749208,2|2,0:1|0:1,0:0:0:0:
430,174,105578,6,0,P|422:206|398:230,1,67.5000025749208,2|2,0:1|0:1,0:0:0:0:
335,189,105869,2,0,P|342:156|366:132,1,67.5000025749208,2|2,0:1|0:1,0:0:0:0:
433,79,106160,6,0,P|371:99|277:2,1,202.500007724762,4|2,3:0|0:0,0:0:0:0:
200,64,106743,2,0,P|226:109|220:146,1,67.5000025749208,2|2,0:0|0:0,0:0:0:0:
189,191,107034,5,2,0:1:0:0:
184,186,107180,1,2,0:1:0:0:
112,216,107325,5,2,1:1:0:0:
109,207,107471,1,2,0:1:0:0:
32,204,107616,5,2,0:1:0:0:
34,190,107762,1,2,0:1:0:0:
159,282,107908,5,2,0:1:0:0:
171,271,108053,1,2,0:1:0:0:
256,369,108199,5,2,0:1:0:0:
256,363,108345,1,2,0:1:0:0:
341,271,108490,6,0,P|377:284|479:303,1,135.000005149842,4|0,3:0|0:0,0:0:0:0:
479,29,110238,6,0,P|469:44|461:64,3,33.7500012874604,2|2|2|2,0:3|0:3|0:3|0:3,0:0:0:0:
383,48,110529,2,0,P|381:65|384:87,3,33.7500012874604,2|2|2|2,0:3|0:3|0:3|0:3,0:0:0:0:
332,164,110820,6,0,P|308:129|242:110,1,99.0000030212403,2|2,3:2|0:0,0:0:0:0:
227,8,111403,2,0,P|203:43|137:62,1,99.0000030212403,2|2,0:0|0:1,0:0:0:0:
0,185,111985,2,0,B|28:129|159:158|90:195|159:240|251:195|251:195|205:233|206:285,1,377.999988464356,10|2,0:0|0:1,0:0:0:0:
360,307,113150,6,0,L|473:292,1,99.0000030212403,2|2,3:2|0:0,0:0:0:0:
319,237,113733,2,0,P|285:272|281:321,1,99.0000030212403,2|2,0:0|3:1,0:0:0:0:
462,288,114315,2,0,B|395:181|503:55|503:55|455:112|386:66,1,377.999988464356,10|2,0:0|0:1,0:0:0:0:
210,23,115480,6,0,P|189:50|116:60,1,99.0000030212403,2|2,3:2|0:0,0:0:0:0:
330,114,116063,2,0,P|317:82|344:14,1,99.0000030212403,2|2,0:0|0:1,0:0:0:0:
181,168,116646,2,0,P|214:172|260:230,1,99.0000030212403,10|2,0:0|0:1,0:0:0:0:
211,286,117228,2,0,P|177:281|131:223,1,99.0000030212403,2|2,0:1|0:1,0:0:0:0:
403,356,117811,6,0,B|408:299|474:296|474:334,1,99.0000030212403,2|2,3:2|0:0,0:0:0:0:
392,242,118393,2,0,B|368:189|423:154|442:187,1,99.0000030212403,2|2,0:0|3:1,0:0:0:0:
325,310,118976,2,0,B|308:284|244:251|234:356|136:321,1,198.000006042481,10|2,0:0|0:0,0:0:0:0:
139,317,119849,5,2,0:0:0:0:
42,179,120141,2,0,P|73:191|136:159,1,99.0000030212403,2|2,3:2|0:0,0:0:0:0:
123,88,120723,2,0,P|92:76|29:108,1,99.0000030212403,2|2,0:0|0:1,0:0:0:0:
164,245,121306,6,0,P|170:200|303:158,1,198.000006042481,10|2,0:0|0:1,0:0:0:0:
301,159,122179,1,2,0:1:0:0:
256,327,122471,6,0,P|286:321|346:363,1,99.0000030212403,2|2,3:2|0:0,0:0:0:0:
376,177,123053,2,0,P|366:205|299:236,1,99.0000030212403,2|2,0:0|3:1,0:0:0:0:
443,354,123636,2,0,B|396:313|428:266|428:266|465:227|469:162,1,198.000006042481,10|0,0:0|0:1,0:0:0:0:
465,170,124510,5,2,0:1:0:0:
452,151,124655,5,2,0:1:0:0:
379,122,124801,6,0,P|342:130|290:95,1,99.0000030212403,2|2,3:2|0:0,0:0:0:0:
191,51,125383,2,0,P|210:93|220:166,1,99.0000030212403,2|2,0:0|0:1,0:0:0:0:
214,269,125966,2,0,P|240:231|299:186,2,99.0000030212403,8|2|2,0:0|0:0|0:1,0:0:0:0:
160,201,126840,1,2,0:1:0:0:
87,328,127131,6,0,L|48:320,1,36,2|0,3:2|0:0,0:0:0:0:
472,260,128296,6,0,L|511:252,1,36,2|0,3:2|0:0,0:0:0:0:
416,319,129461,6,0,P|391:275|405:221,2,90,2|2|2,3:2|0:0|0:0,0:0:0:0:
462,171,130094,2,0,L|354:148,2,90,2|2|2,0:0|0:0|0:0,0:0:0:0:
321,207,130728,5,10,0:0:0:0:
321,207,130834,1,2,0:0:0:0:
321,207,130939,2,0,L|267:218,1,45,2|0,0:0|0:0,0:0:0:0:
207,169,131151,6,0,P|183:134|187:84,2,90,2|2|2,3:2|0:0|0:0,0:0:0:0:
157,7,131784,2,0,P|115:40|102:90,1,90,2|2,0:0|0:0,0:0:0:0:
185,88,132207,1,2,0:0:0:0:
185,88,132313,1,0,0:0:0:0:
185,88,132418,2,0,L|273:106,1,90,10|2,0:0|0:0,0:0:0:0:
109,167,132841,6,0,P|73:142|29:146,1,90,2|0,3:2|0:0,0:0:0:0:
51,220,133158,1,0,0:0:0:0:
51,220,133263,2,0,L|39:320,1,90,10|2,0:0|0:0,0:0:0:0:
114,342,133580,1,0,0:0:0:0:
114,342,133686,6,0,L|122:269,1,45,0|0,3:0|0:0,0:0:0:0:
196,284,133897,2,0,L|191:328,1,45,2|0,0:0|0:0,0:0:0:0:
259,381,134108,6,0,L|318:370,1,45,10|0,0:0|0:0,0:0:0:0:
268,305,134320,2,0,L|327:294,1,45,2|0,0:0|0:0,0:0:0:0:
378,349,134531,6,0,P|401:351|421:360,2,45,2|0|0,3:2|0:0|0:0,0:0:0:0:
460,289,134848,1,0,0:0:0:0:
460,289,134953,2,0,P|471:274|501:268,1,45,8|0,0:0|0:0,0:0:0:0:
380,268,135165,2,0,P|374:250|347:229,1,45,8|8,0:0|0:0,0:0:0:0:
438,205,135376,6,0,L|448:154,3,45,2|2|10|2,3:2|0:0|0:0|0:0,0:0:0:0:
355,232,135799,5,8,1:2:0:0:
311,235,135904,1,0,1:0:0:0:
271,213,136010,1,0,1:0:0:0:
251,173,136115,1,0,1:0:0:0:
267,133,136221,6,0,P|280:88|270:45,2,90,2|2|10,3:2|0:0|0:0,0:0:0:0:
136,154,136855,2,0,L|41:146,2,90,2|2|2,0:0|0:0|0:0,0:0:0:0:
200,87,137489,1,10,0:0:0:0:
63,227,137700,1,2,0:0:0:0:
226,292,137911,6,0,L|211:192,2,90,2|2|10,3:2|0:0|0:0,0:0:0:0:
177,364,138545,2,0,P|155:334|89:330,1,90,2|2,0:0|0:0,0:0:0:0:
233,297,138968,2,0,P|267:322|367:248,1,180,2|2,0:0|0:0,0:0:0:0:
319,196,139601,5,2,3:2:0:0:
319,196,140024,5,10,0:0:0:0:
366,257,140235,1,2,3:2:0:0:
245,217,140446,5,2,3:2:0:0:
343,125,140658,1,2,0:0:0:0:
122,49,140869,5,10,0:0:0:0:
319,196,141080,1,0,3:0:0:0:
105,295,141291,5,2,3:2:0:0:
41,208,141503,2,0,L|49:152,1,45,8|8,0:0|0:0,0:0:0:0:
53,161,141714,1,0,3:0:0:0:
105,295,141925,5,10,0:0:0:0:
41,208,142137,1,2,3:2:0:0:
158,151,142348,2,0,L|150:207,1,45,8|8,0:0|0:0,0:0:0:0:
146,198,142559,1,0,3:0:0:0:
298,346,142770,6,0,L|290:290,1,45,10|0,0:0|0:0,0:0:0:0:
286,299,142982,1,2,3:2:0:0:
256,192,143087,12,0,146362,0:0:0:0:
168,130,147418,6,2,B|167:123|167:123|169:117|169:117|161:119|161:119|165:115|165:115|152:56,1,62.9999980773926,2|0,0:3|0:0,0:2:0:0:
115,174,147630,2,0,B|163:163|163:163|174:148|174:148|178:172|178:172|186:158|186:158|244:144,1,153.000002918243,2|0,0:0|0:0,0:0:0:0:
314,29,148052,6,0,P|316:12|309:27,1,45,4|0,3:1|0:0,0:0:0:0:
363,111,148263,2,0,P|381:74|435:48,1,90,2|2,0:3|0:3,0:0:0:0:
238,53,148475,5,10,0:0:0:0:
238,53,148580,1,0,0:0:0:0:
238,53,148686,2,0,P|230:29|194:8,1,62.9999980773926,2|0,3:0|0:0,0:0:0:0:
448,156,148897,6,0,L|537:166,1,62.9999980773926,2|0,0:0|0:0,0:0:0:0:
339,269,149108,2,0,L|250:279,1,62.9999980773926,2|2,3:0|0:3,0:0:0:0:
382,340,149320,5,10,0:0:0:0:
411,311,149425,1,2,0:0:0:0:
421,270,149531,1,2,0:3:0:0:
409,231,149637,1,2,0:3:0:0:
352,173,149742,6,0,P|344:143|359:110,1,62.9999980773926,2|0,3:2|0:0,0:0:0:0:
511,45,149953,2,0,P|475:49|421:45,1,90,2|2,0:3|0:3,0:0:0:0:
231,170,150165,6,0,P|260:178|282:207,1,62.9999980773926,10|0,0:0|0:0,0:0:0:0:
291,67,150376,2,0,P|269:88|233:92,1,62.9999980773926,2|0,3:0|0:0,0:0:0:0:
70,134,150587,2,0,P|35:120|25:86,1,62.9999980773926,2|0,0:0|0:0,0:0:0:0:
168,118,150799,5,2,3:0:0:0:
168,118,150904,1,2,0:3:0:0:
168,118,151010,2,0,P|147:154|152:193,1,62.9999980773926,10|0,0:0|0:0,0:0:0:0:
204,300,151221,2,0,P|224:262|210:237,1,62.9999980773926,2|0,0:3|0:0,0:0:0:0:
46,344,151432,6,0,P|31:362|45:342,1,80.9999975280763,2|0,3:2|0:0,0:0:0:0:
299,269,151644,2,0,P|332:270|369:300,1,67.5000025749208,2|0,0:3|0:0,0:0:0:0:
27,210,151855,6,0,P|5:218|27:207,1,80.9999975280763,10|0,0:0|0:0,0:0:0:0:
367,283,152066,2,0,P|400:282|437:252,1,67.5000025749208,2|0,3:0|0:0,0:0:0:0:
142,260,152277,6,0,P|103:265|66:275,1,62.9999980773926,2|0,0:2|0:0,0:0:0:0:
309,340,152489,2,0,P|333:356|356:382,1,62.9999980773926,2|2,3:0|0:3,0:0:0:0:
218,370,152700,6,0,L|209:300,1,62.9999980773926,10|0,0:0|0:0,0:0:0:0:
274,209,152911,2,0,L|283:139,1,62.9999980773926,2|2,0:3|0:3,0:0:0:0:
16,92,153122,6,0,P|31:74|81:72,1,62.9999980773926,2|0,3:2|0:0,0:0:0:0:
93,139,153334,2,0,P|78:157|28:159,1,62.9999980773926,2|0,0:3|0:0,0:0:0:0:
222,36,153545,6,0,P|207:18|157:16,1,72,10|0,0:0|0:0,0:0:0:0:
145,83,153756,2,0,P|160:101|210:103,1,72,2|0,3:0|0:0,0:0:0:0:
315,2,153968,5,2,0:0:0:0:
300,21,154073,1,2,0:0:0:0:
296,44,154179,1,2,3:0:0:0:
302,67,154284,1,2,0:3:0:0:
276,148,154390,5,10,0:2:0:0:
322,157,154496,1,2,0:0:0:0:
364,136,154601,1,2,0:3:0:0:
386,94,154707,1,2,0:3:0:0:
441,148,154813,6,0,P|476:138|518:133,1,72,4|0,3:1|0:0,0:0:0:0:
441,36,155024,1,2,0:3:0:0:
441,36,155130,1,2,0:3:0:0:
441,36,155235,2,0,P|419:19|381:16,1,58.4999973220826,10|0,0:0|0:0,0:0:0:0:
270,152,155446,6,0,P|264:180|261:223,1,58.4999973220826,2|0,3:0|0:0,0:0:0:0:
354,324,155658,2,0,P|360:296|363:253,1,58.4999973220826,2|0,0:0|0:0,0:0:0:0:
266,215,155869,5,2,3:0:0:0:
229,201,155975,1,2,0:3:0:0:
192,207,156080,1,10,0:0:0:0:
162,233,156186,1,2,0:0:0:0:
168,313,156291,6,0,L|108:299,1,58.4999973220826,2|2,0:3|0:3,0:0:0:0:
58,84,156503,6,0,P|116:97|159:85,1,80.9999975280763,2|0,3:2|0:0,0:0:0:0:
216,90,156714,5,2,0:3:0:0:
216,90,156820,1,2,0:3:0:0:
216,90,156925,2,0,P|204:50|182:29,1,58.4999973220826,10|0,0:0|0:0,0:0:0:0:
28,298,157137,6,0,L|88:284,1,58.4999973220826,2|0,3:0|0:0,0:0:0:0:
122,168,157348,2,0,P|91:170|61:160,1,58.4999973220826,2|0,0:0|0:0,0:0:0:0:
162,233,157559,5,2,3:0:0:0:
192,207,157665,1,2,0:3:0:0:
229,201,157770,1,10,0:0:0:0:
266,215,157876,1,0,0:0:0:0:
337,261,157982,6,0,L|345:203,1,58.4999973220826,2|0,0:3|0:0,0:0:0:0:
436,56,158193,6,0,P|459:89|510:96,1,72,2|0,3:2|0:0,0:0:0:0:
291,144,158404,2,0,P|277:133|294:142,1,58.4999973220826,2|0,0:3|0:0,0:0:0:0:
493,103,158615,6,0,P|456:117|434:151,1,76.5000014591217,10|0,0:0|0:0,0:0:0:0:
349,68,158827,2,0,P|342:48|351:66,1,58.4999973220826,2|0,3:0|0:0,0:0:0:0:
510,178,159038,6,0,P|499:206|502:243,1,62.9999980773926,2|2,0:0|0:0,0:0:0:0:
352,321,159249,2,0,P|354:289|343:260,1,62.9999980773926,2|2,3:0|0:3,0:0:0:0:
486,324,159461,5,10,0:0:0:0:
453,324,159566,1,0,0:0:0:0:
426,343,159672,1,2,0:3:0:0:
414,374,159777,1,2,0:3:0:0:
347,326,159883,6,0,L|273:337,1,62.9999980773926,0|0,3:0|0:0,0:0:0:0:
342,331,160306,6,0,L|268:342,1,62.9999980773926,0|0,3:0|0:0,0:0:0:0:
337,336,160728,6,0,L|263:347,1,64.8000015820313,0|0,3:0|0:0,0:0:0:0:
193,377,161151,6,0,P|188:346|165:326,3,62.9999980773926,2|2|2|2,1:2|1:2|1:2|1:2,0:0:0:0:
152,230,161573,5,4,3:1:0:0:
134,257,161679,1,0,0:0:0:0:
106,274,161784,1,2,0:3:0:0:
73,278,161890,1,2,0:3:0:0:
15,231,161996,6,0,L|6:172,3,49.5000015106202,2|2|2|2,1:2|0:0|0:3|0:3,0:0:0:0:
59,119,162418,5,2,3:2:0:0:
106,129,162524,1,0,0:0:0:0:
150,108,162630,1,2,0:3:0:0:
171,64,162735,1,2,0:3:0:0:
225,116,162841,6,0,P|264:108|333:101,1,99.0000030212403,2|2,1:2|0:3,0:0:0:0:
400,51,163158,1,2,0:3:0:0:
400,51,163263,6,0,P|363:34|344:10,1,49.5000015106202,0|0,3:0|0:0,0:0:0:0:
261,186,163475,6,0,P|283:181|324:177,1,49.5000015106202,2|0,0:3|0:0,0:0:0:0:
481,106,163686,5,2,1:2:0:0:
481,106,163791,1,2,0:0:0:0:
481,106,163897,6,0,P|444:123|425:147,1,49.5000015106202,2|2,0:3|0:0,0:0:0:0:
485,233,164108,5,2,3:2:0:0:
440,214,164214,1,2,0:0:0:0:
393,226,164320,1,2,0:3:0:0:
363,265,164425,1,2,0:3:0:0:
382,342,164531,6,0,L|307:332,3,49.5000015106202,2|0|2|2,1:2|0:0|0:3|0:3,0:0:0:0:
230,384,164953,6,0,P|211:340|150:318,1,108,2|0,3:2|0:0,0:0:0:0:
153,320,165165,2,0,P|146:288|162:257,1,58.4999973220826,2|0,0:3|0:0,0:0:0:0:
120,180,165376,2,0,P|102:208|68:219,1,58.4999973220826,2|0,1:2|0:0,0:0:0:0:
18,286,165587,6,0,P|50:288|77:312,1,58.4999973220826,2|0,0:3|0:0,0:0:0:0:
169,119,165799,2,0,P|141:105|78:119,1,67.5000025749208,2|0,3:2|0:0,0:0:0:0:
207,203,166010,5,2,0:3:0:0:
207,203,166115,1,2,0:3:0:0:
207,203,166221,2,0,L|286:187,1,58.4999973220826,2|0,1:2|0:0,0:0:0:0:
360,306,166432,2,0,L|281:290,1,58.4999973220826,2|0,0:3|0:0,0:0:0:0:
266,68,166644,6,0,P|293:113|378:123,1,121.499996292114,2|0,3:2|0:0,0:0:0:0:
361,125,166855,2,0,P|385:108|422:111,1,58.4999973220826,2|0,0:3|0:0,0:0:0:0:
482,158,167066,6,0,L|494:96,1,58.4999973220826,2|0,1:2|0:0,0:0:0:0:
406,185,167277,2,0,L|417:242,1,58.4999973220826,2|0,0:3|0:0,0:0:0:0:
430,341,167489,6,0,P|444:318|479:318,3,58.4999973220826,2|2|2|2,3:2|0:0|0:3|0:3,0:0:0:0:
463,240,167911,5,2,1:2:0:0:
418,243,168017,1,2,0:0:0:0:
381,267,168122,1,2,0:3:0:0:
360,306,168228,1,2,0:3:0:0:
303,239,168334,6,0,P|284:253|221:251,1,67.5000025749208,4|0,3:1|0:0,0:0:0:0:
84,241,168545,2,0,L|94:314,1,67.5000025749208,2|0,0:3|0:0,0:0:0:0:
170,308,168756,5,2,1:2:0:0:
170,308,168862,2,0,L|160:242,1,67.5000025749208,2|0,0:0|0:0,0:0:0:0:
40,175,169073,2,0,P|11:203|8:248,1,67.5000025749208,2|0,0:0|3:0,0:0:0:0:
221,186,169284,5,2,0:0:0:0:
221,186,169390,2,0,P|240:172|303:174,1,67.5000025749208,2|2,0:3|0:3,0:0:0:0:
121,173,169601,6,0,P|109:129|48:97,1,107.999996704102,2|2,1:2|0:3,0:0:0:0:
189,97,169918,5,2,0:3:0:0:
189,97,170024,2,0,P|192:73|220:43,3,53.9999983520508,2|2|2|2,3:2|0:0|0:3|0:0,0:0:0:0:
268,0,170446,5,2,1:2:0:0:
288,28,170552,1,2,0:0:0:0:
321,39,170658,1,2,0:3:0:0:
354,26,170763,1,2,0:0:0:0:
460,6,170869,5,2,3:2:0:0:
437,33,170975,1,2,0:0:0:0:
425,67,171080,1,2,0:3:0:0:
423,103,171186,1,2,0:3:0:0:
463,186,171291,6,0,P|416:178|351:178,1,107.999996704102,2|2,1:2|0:3,0:0:0:0:
290,343,171608,1,2,0:3:0:0:
290,343,171714,6,0,P|263:298|178:288,1,121.499996292114,2|0,3:2|0:0,0:0:0:0:
195,286,171925,6,0,P|171:303|134:300,1,53.9999983520508,2|0,0:3|0:0,0:0:0:0:
282,225,172137,2,0,P|312:242|331:264,1,53.9999983520508,2|0,1:2|0:0,0:0:0:0:
145,227,172348,6,0,P|114:213|94:173,1,67.5000025749208,2|0,0:3|0:0,0:0:0:0:
65,276,172559,2,0,P|68:309|43:347,1,67.5000025749208,2|0,3:2|0:0,0:0:0:0:
170,158,172770,5,2,0:3:0:0:
170,158,172876,1,2,0:3:0:0:
170,158,172982,2,0,P|190:132|238:127,1,67.5000025749208,2|0,1:2|0:0,0:0:0:0:
400,275,173193,6,0,P|366:272|335:263,1,67.5000025749208,2|0,0:3|0:0,0:0:0:0:
154,293,173404,2,0,P|173:295|189:252,1,67.5000025749208,2|0,3:2|0:0,0:0:0:0:
337,360,173615,6,0,P|307:365|270:376,1,67.5000025749208,2|0,0:3|0:0,0:0:0:0:
228,194,173827,2,0,P|244:194|259:242,1,67.5000025749208,2|0,1:2|0:0,0:0:0:0:
465,331,174038,6,0,P|478:289|496:261,1,67.5000025749208,2|2,0:3|0:3,0:0:0:0:
438,204,174249,5,2,3:2:0:0:
398,185,174355,1,2,3:2:0:0:
377,145,174461,1,2,3:0:0:0:
386,102,174566,1,2,3:0:0:0:
442,37,174672,6,0,L|364:22,1,67.5000025749208,2|0,1:2|0:0,0:0:0:0:
291,62,174883,2,0,L|213:47,1,67.5000025749208,2|0,0:3|0:0,0:0:0:0:
140,74,175094,6,0,B|144:54|126:49|126:49|121:67|140:74,1,62.9999980773926,4|0,3:1|0:0,0:0:0:0:
214,129,175306,2,0,P|178:145|161:180,1,62.9999980773926,2|0,0:3|0:0,0:0:0:0:
89,136,175517,1,2,1:2:0:0:
89,136,175622,2,0,P|56:108|47:71,1,62.9999980773926,2|2,0:0|0:3,0:0:0:0:
231,205,175834,5,2,0:3:0:0:
231,205,175939,2,0,P|224:243|221:274,1,62.9999980773926,2|2,3:2|0:0,0:0:0:0:
57,359,176151,1,2,0:3:0:0:
57,359,176256,1,2,0:3:0:0:
57,359,176362,2,0,P|53:327|47:296,1,62.9999980773926,2|0,1:2|0:0,0:0:0:0:
93,233,176573,6,0,P|108:218|95:234,1,62.9999980773926,2|2,0:3|0:3,0:0:0:0:
142,312,176784,2,0,B|138:332|156:337|156:337|161:319|142:312,1,62.9999980773926,0|0,3:0|0:0,0:0:0:0:
223,381,176996,6,0,P|239:355|277:338,1,62.9999980773926,2|0,0:3|0:0,0:0:0:0:
428,352,177207,1,2,1:2:0:0:
428,352,177313,2,0,P|461:363|502:366,1,62.9999980773926,2|2,0:0|0:3,0:0:0:0:
340,305,177524,5,2,0:0:0:0:
340,305,177630,2,0,L|348:380,1,62.9999980773926,0|2,3:0|0:0,0:0:0:0:
477,272,177841,5,2,0:3:0:0:
477,272,177946,1,2,0:3:0:0:
477,272,178052,2,0,L|485:197,1,62.9999980773926,2|0,1:2|0:0,0:0:0:0:
473,125,178263,6,0,P|452:143|404:141,1,62.9999980773926,2|2,0:3|0:3,0:0:0:0:
359,204,178475,2,0,P|332:190|293:188,1,62.9999980773926,0|0,3:0|0:0,0:0:0:0:
221,162,178686,6,0,L|231:237,1,62.9999980773926,2|0,0:3|0:0,0:0:0:0:
280,114,178897,1,2,1:2:0:0:
280,114,179003,2,0,L|290:39,1,62.9999980773926,2|2,0:0|0:3,0:0:0:0:
148,195,179214,5,2,0:0:0:0:
148,195,179320,2,0,L|158:270,1,62.9999980773926,0|2,3:0|0:0,0:0:0:0:
149,116,179531,5,2,0:3:0:0:
149,116,179637,1,2,0:3:0:0:
149,116,179742,2,0,P|118:115|83:99,1,62.9999980773926,2|0,1:2|0:0,0:0:0:0:
36,253,179953,6,0,P|38:273|37:253,1,62.9999980773926,2|2,0:3|0:3,0:0:0:0:
101,317,180165,2,0,P|50:312|0:362,1,125.999996154785,0|2,3:0|0:3,0:0:0:0:
164,265,180482,5,0,0:0:0:0:
164,265,180587,2,0,P|200:316|279:307,1,125.999996154785,0|2,1:0|0:3,0:0:0:0:
340,346,180904,5,0,0:0:0:0:
340,346,181010,2,0,P|345:313|336:283,3,62.9999980773926,2|2|2|2,3:2|0:0|0:3|0:3,0:0:0:0:
239,246,181432,5,2,1:2:0:0:
228,205,181538,1,2,0:0:0:0:
235,164,181644,1,2,0:3:0:0:
259,130,181749,1,2,0:3:0:0:
321,78,181855,6,0,P|328:58|319:77,1,62.9999980773926,4|0,3:1|0:0,0:0:0:0:
366,154,182066,2,0,P|401:129|428:132,1,62.9999980773926,2|0,0:3|0:0,0:0:0:0:
255,124,182277,5,2,1:2:0:0:
255,124,182383,2,0,L|186:107,1,62.9999980773926,2|2,0:0|0:3,0:0:0:0:
408,265,182594,5,2,0:0:0:0:
408,265,182700,2,0,P|411:223|429:203,1,62.9999980773926,0|2,3:0|0:0,0:0:0:0:
424,53,182911,5,2,0:3:0:0:
424,53,183017,1,2,0:3:0:0:
424,53,183122,2,0,P|468:63|487:94,1,62.9999980773926,2|0,1:2|0:0,0:0:0:0:
369,161,183334,6,0,P|351:136|297:130,1,62.9999980773926,2|2,0:3|0:3,0:0:0:0:
232,39,183545,2,0,P|228:17|236:38,1,62.9999980773926,2|0,3:2|0:0,0:0:0:0:
302,204,183756,6,0,P|278:216|253:253,1,62.9999980773926,2|0,0:3|0:0,0:0:0:0:
127,138,183968,1,2,1:2:0:0:
127,138,184073,2,0,L|196:121,1,62.9999980773926,2|2,0:0|0:3,0:0:0:0:
255,322,184284,5,2,0:0:0:0:
255,322,184390,2,0,P|215:309|195:274,1,62.9999980773926,0|2,3:0|0:0,0:0:0:0:
50,214,184601,5,2,0:3:0:0:
50,214,184707,1,2,0:3:0:0:
50,214,184813,2,0,L|119:231,1,62.9999980773926,2|0,1:2|0:0,0:0:0:0:
330,287,185024,6,0,P|339:325|326:365,1,62.9999980773926,2|2,0:3|0:3,0:0:0:0:
193,203,185235,6,0,P|209:189|195:205,1,62.9999980773926,2|0,3:2|0:0,0:0:0:0:
262,134,185446,2,0,L|331:117,1,62.9999980773926,2|0,0:3|0:0,0:0:0:0:
109,62,185658,5,2,1:2:0:0:
109,62,185763,2,0,L|40:45,1,62.9999980773926,2|2,0:0|0:3,0:0:0:0:
183,113,185975,5,2,0:0:0:0:
183,113,186080,2,0,L|203:35,1,62.9999980773926,0|2,3:0|0:0,0:0:0:0:
103,213,186291,5,2,0:3:0:0:
103,213,186397,1,2,0:3:0:0:
103,213,186503,2,0,L|83:135,1,62.9999980773926,2|0,1:2|3:0,0:0:0:0:
202,293,186714,5,2,3:0:0:0:
202,293,186820,1,2,3:0:0:0:
202,293,186925,2,0,B|361:253|301:379|470:318,1,270,0|0,3:0|0:0,0:0:0:0:
502,241,187982,5,0,3:0:0:0:
502,241,188087,1,0,3:0:0:0:
502,241,188193,2,0,P|474:217|470:196,1,45,2|0,0:3|0:0,0:0:0:0:
492,103,188615,6,0,P|448:137|384:135,2,108,2|2|2,0:0|0:0|0:0,0:0:0:0:
420,62,189461,5,2,0:0:0:0:
319,150,189672,1,2,0:0:0:0:
319,150,189777,1,2,0:0:0:0:
319,150,189883,2,0,L|326:101,1,36,2|0,0:3|0:0,0:0:0:0:
292,26,190094,5,2,0:0:0:0:
292,26,190200,1,2,0:0:0:0:
292,26,190306,2,0,P|243:66|181:59,2,108,2|2|2,0:0|0:0|0:0,0:0:0:0:
109,38,191151,6,0,P|126:76|127:110,1,72,2|0,0:0|0:0,0:0:0:0:
197,141,191468,2,0,P|180:179|179:213,1,72,2|0,0:0|0:0,0:0:0:0:
104,194,191784,1,2,0:0:0:0:
104,194,191996,6,0,P|39:186|1:215,2,108,2|2|2,0:0|0:0|0:0,0:0:0:0:
62,261,192841,5,2,0:0:0:0:
161,348,193052,1,2,0:0:0:0:
161,348,193158,1,2,0:0:0:0:
161,348,193263,2,0,L|214:336,1,36,2|0,0:3|0:0,0:0:0:0:
244,272,193475,5,2,0:0:0:0:
244,272,193580,1,0,0:0:0:0:
244,272,193686,2,0,L|286:285,3,36,2|0|0|2,0:0|0:0|0:0|0:0,0:0:0:0:
325,350,194108,2,0,P|343:328|391:321,1,72,0|2,0:0|0:0,0:0:0:0:
470,363,194531,5,2,0:0:0:0:
464,339,194637,1,2,0:0:0:0:
462,315,194742,1,2,0:0:0:0:
464,291,194848,1,2,0:0:0:0:
474,301,194953,1,2,0:0:0:0:
325,199,195376,6,0,L|281:208,2,36,2|0|2,0:0|0:0|0:3,0:0:0:0:
366,113,195693,2,0,P|403:165|454:173,1,108,2|2,0:0|0:3,0:0:0:0:
443,96,196221,6,0,P|450:70|460:51,2,36,2|0|2,0:0|0:0|0:3,0:0:0:0:
368,0,196538,2,0,P|330:44|268:46,1,108,2|2,0:0|0:3,0:0:0:0:
205,34,197066,5,2,0:0:0:0:
205,34,197172,1,0,0:0:0:0:
205,34,197277,2,0,L|212:88,2,36,2|2|0,0:3|0:0|0:0,0:0:0:0:
131,157,197700,2,0,P|93:113|31:111,2,108,2|2|2,0:3|0:0|0:0,0:0:0:0:
219,145,198545,1,2,0:3:0:0:
72,254,198756,5,2,0:0:0:0:
72,254,198862,1,0,0:0:0:0:
72,254,198968,2,0,L|56:164,1,72,2|0,0:3|0:0,0:0:0:0:
159,231,199390,1,2,0:3:0:0:
147,314,199601,5,2,0:0:0:0:
147,314,199707,1,0,0:0:0:0:
147,314,199813,2,0,L|131:404,1,72
229,293,200235,1,2,0:0:0:0:
63,331,200446,6,0,L|26:340,1,36,2|0,0:0|0:0,0:0:0:0:
22,337,201503,5,2,0:0:0:0:
129,378,201714,1,2,0:0:0:0:
