osu file format v14

[General]
AudioFilename: audio.mp3
AudioLeadIn: 0
PreviewTime: 49874
Countdown: 0
SampleSet: Soft
StackLeniency: 0.3
Mode: 0
LetterboxInBreaks: 0
WidescreenStoryboard: 1

[Editor]
DistanceSpacing: 0.2
BeatDivisor: 8
GridSize: 16
TimelineZoom: 3.100005

[Metadata]
Title:God-ish
TitleUnicode:神っぽいな
Artist:sekai
ArtistUnicode:sekai
Creator:seros
Version:Kuse's Expert
Source:
Tags:corsace closed ro16 nm3 cc22 cover jpop j-pop japanese pop vocaloid Sankaku Zuwari ピノキオピー godish kami ppoi poi na pinocchiop hatsune miku nenneO petal matha climbx3145 climb kuse KuBsNia_ZhoYL_ irin surou setu shiratamamywife
BeatmapID:3601683
BeatmapSetID:1759764

[Difficulty]
HPDrainRate:5
CircleSize:3.5
OverallDifficulty:8.4
ApproachRate:9.4
SliderMultiplier:2.5
SliderTickRate:1

[Events]
//Background and Video events
0,0,"bg.jpg",0,0
//Break Periods
//Storyboard Layer 0 (Background)
//Storyboard Layer 1 (Fail)
//Storyboard Layer 2 (Pass)
//Storyboard Layer 3 (Foreground)
//Storyboard Layer 4 (Overlay)
//Storyboard Sound Samples

[TimingPoints]
913,422.535211267606,4,2,1,69,1,0
5983,-100,4,2,1,5,0,0
7673,-200,4,2,1,49,0,0
8624,-200,4,2,1,69,0,0
8729,-200,4,2,1,49,0,0
9574,-200,4,2,1,69,0,0
9680,-200,4,2,1,49,0,0
9891,-200,4,2,1,69,0,0
9997,-200,4,2,1,49,0,0
12004,-200,4,2,1,69,0,0
12109,-200,4,2,1,49,0,0
12954,-200,4,2,1,69,0,0
13060,-200,4,2,1,49,0,0
13271,-200,4,2,1,69,0,0
13377,-200,4,2,1,49,0,0
13482,-200,4,2,1,69,0,0
13589,-200,4,2,1,49,0,0
14327,-200,4,2,1,69,0,0
14434,-166.666666666667,4,2,1,49,0,0
19556,-166.666666666667,4,2,1,69,0,0
20560,-166.666666666667,4,2,1,49,0,0
20772,-500,4,2,14,49,0,0
21088,-500,4,2,14,69,0,0
21194,-66.6666666666667,4,2,1,69,0,0
34293,-333.333333333333,4,2,1,69,0,0
34663,-333.333333333333,4,2,1,5,0,0
34715,-83.3333333333333,4,2,1,69,0,0
44434,-333.333333333333,4,2,1,69,0,0
44856,-83.3333333333333,4,2,1,69,0,0
48236,-125,4,2,1,69,0,0
51617,-66.6666666666667,4,2,1,80,0,1
51828,-100,4,2,1,80,0,1
52039,-66.6666666666667,4,2,1,80,0,1
52884,-100,4,2,1,80,0,1
53096,-66.6666666666667,4,2,1,80,0,1
53518,-100,4,2,1,80,0,1
53729,-66.6666666666667,4,2,1,80,0,1
54786,-100,4,2,1,80,0,1
54997,-66.6666666666667,4,2,1,80,0,1
55208,-100,4,2,1,80,0,1
55420,-66.6666666666667,4,2,1,80,0,1
55631,-100,4,2,1,80,0,1
55842,-66.6666666666667,4,2,1,80,0,1
56476,-100,4,2,1,80,0,1
56687,-66.6666666666667,4,2,1,80,0,1
58589,-100,4,2,1,80,0,1
58800,-66.6666666666667,4,2,1,80,0,1
59645,-100,4,2,1,80,0,1
59856,-66.6666666666667,4,2,1,80,0,1
60279,-100,4,2,1,80,0,1
60490,-66.6666666666667,4,2,1,80,0,1
61546,-100,4,2,1,80,0,1
61758,-66.6666666666667,4,2,1,80,0,1
61969,-100,4,2,1,80,0,1
62180,-66.6666666666667,4,2,1,80,0,1
62391,-100,4,2,1,80,0,1
62603,-66.6666666666667,4,2,1,80,0,1
63501,-66.6666666666667,4,2,1,20,0,1
63870,-66.6666666666667,4,2,1,80,0,1
63923,-66.6666666666667,4,2,1,20,0,1
64293,-400,4,2,1,80,0,1
65138,-66.6666666666667,4,2,1,80,0,1
68729,-100,4,2,1,80,0,1
68941,-66.6666666666667,4,2,1,80,0,1
69786,-100,4,2,1,80,0,1
69997,-66.6666666666667,4,2,1,80,0,1
70420,-100,4,2,1,80,0,1
70631,-66.6666666666667,4,2,1,80,0,1
75490,-100,4,2,1,80,0,1
75701,-66.6666666666667,4,2,1,80,0,1
76969,-58.8235294117647,4,2,1,80,0,1
78236,-100,4,2,1,80,0,1
78659,-66.6666666666667,4,2,1,69,0,0
85155,-66.6666666666667,4,2,1,5,0,0
85208,-100,4,2,1,69,0,0
85420,-83.3333333333333,4,2,1,69,0,0
91335,-125,4,2,1,69,0,0
91758,-90.9090909090909,4,2,1,69,0,0
92127,-90.9090909090909,4,2,1,69,0,0
92180,582.52427184466,4,2,1,39,1,0
92180,-133.333333333333,4,2,1,39,0,0
94218,-133.333333333333,4,2,1,39,0,0
94510,-133.333333333333,4,2,1,44,0,0
96840,-133.333333333333,4,2,1,49,0,0
99170,-133.333333333333,4,2,1,69,0,0
101500,-133.333333333333,4,2,1,59,0,0
103830,-133.333333333333,4,2,1,64,0,0
106160,-133.333333333333,4,2,1,69,0,0
108490,-111.111111111111,4,2,1,69,0,0
108781,-83.3333333333333,4,2,1,19,0,0
109655,-166.666666666667,4,2,1,69,0,0
110092,-166.666666666667,4,2,1,69,0,0
110238,-125,4,2,1,69,0,0
110820,-125,4,2,1,39,0,0
119048,-125,4,2,1,5,0,0
119121,-125,4,2,1,39,0,0
119194,-125,4,2,1,5,0,0
119267,-125,4,2,1,39,0,0
119340,-125,4,2,1,5,0,0
119413,-125,4,2,1,39,0,0
119485,-125,4,2,1,5,0,0
119558,-125,4,2,1,39,0,0
126475,-125,4,2,1,5,0,0
126548,-125,4,2,1,39,0,0
127131,-111.111111111111,4,2,1,39,0,0
129461,422.535211267606,4,2,1,69,1,0
129461,-125,4,2,1,69,0,0
132841,-90.9090909090909,4,2,1,69,0,0
139601,-83.3333333333333,4,2,1,69,0,0
142982,-125,4,2,1,69,0,0
146098,-125,4,2,1,5,0,0
146151,-66.6666666666667,4,2,1,69,0,0
147418,-200,4,2,1,69,0,0
147577,-200,4,2,1,69,0,0
147630,-50,4,2,1,69,0,0
148052,-66.6666666666667,4,2,1,80,0,1
148263,-100,4,2,1,80,0,1
148475,-66.6666666666667,4,2,1,80,0,1
149320,-100,4,2,1,80,0,1
149531,-66.6666666666667,4,2,1,80,0,1
149742,-66.6666666666667,4,2,1,80,0,1
149953,-100,4,2,1,80,0,1
150165,-66.6666666666667,4,2,1,80,0,1
151221,-100,4,2,1,80,0,1
151432,-66.6666666666667,4,2,1,80,0,1
151644,-100,4,2,1,80,0,1
151855,-66.6666666666667,4,2,1,80,0,1
152066,-100,4,2,1,80,0,1
152277,-66.6666666666667,4,2,1,80,0,1
152911,-100,4,2,1,80,0,1
153122,-66.6666666666667,4,2,1,80,0,1
155024,-100,4,2,1,80,0,1
155235,-66.6666666666667,4,2,1,80,0,1
156080,-100,4,2,1,80,0,1
156291,-66.6666666666667,4,2,1,80,0,1
156714,-100,4,2,1,80,0,1
156925,-66.6666666666667,4,2,1,80,0,1
157982,-100,4,2,1,80,0,1
158193,-66.6666666666667,4,2,1,80,0,1
158404,-100,4,2,1,80,0,1
158615,-66.6666666666667,4,2,1,80,0,1
158827,-100,4,2,1,80,0,1
159038,-66.6666666666667,4,2,1,80,0,1
159883,-66.6666666666667,4,2,1,80,0,1
159936,-66.6666666666667,4,2,1,5,0,1
160306,-66.6666666666667,4,2,1,80,0,1
160358,-66.6666666666667,4,2,1,5,0,1
160728,-399.999999999997,4,2,1,80,0,1
161573,-66.6666666666667,4,2,1,80,0,1
165165,-100,4,2,1,80,0,1
165376,-66.6666666666667,4,2,1,80,0,1
166221,-100,4,2,1,80,0,1
166432,-66.6666666666667,4,2,1,80,0,1
166855,-100,4,2,1,80,0,1
167066,-66.6666666666667,4,2,1,80,0,1
171925,-100,4,2,1,80,0,1
172137,-66.6666666666667,4,2,1,80,0,1
173404,-58.8235294117647,4,2,1,80,0,1
174672,-100,4,2,1,80,0,1
175094,-66.6666666666667,4,2,1,80,0,1
186925,-66.6666666666667,4,2,1,80,0,0
187982,-66.6666666666667,4,2,1,80,0,0
188193,-500,4,2,1,80,0,0
188563,-500,4,2,1,5,0,0
188615,-200,4,2,1,49,0,0
195376,-166.666666666667,4,2,1,49,0,0
201503,-166.666666666667,4,2,1,49,0,0

[Colours]
Combo1 : 200,121,121
Combo2 : 118,145,165
Combo3 : 215,177,168
Combo4 : 142,146,179

[HitObjects]
59,84,7673,6,0,P|66:121|70:157,1,62.5,2|0,0:0|0:0,0:0:0:0:
186,227,7990,2,0,P|157:219|117:211,1,62.5,2|0,0:0|0:0,0:0:0:0:
0,260,8307,2,0,P|36:273|83:279,1,62.5,2|2,0:0|0:0,0:0:0:0:
120,350,8624,6,0,P|141:338|177:337,1,31.25,0|2,0:0|0:0,0:0:0:0:
226,300,8835,2,0,P|259:269|268:214,1,93.75,2|2,0:0|0:0,0:0:0:0:
269,223,9258,1,2,0:0:0:0:
234,144,9363,6,0,P|272:141|298:133,1,62.5,2|0,0:0|0:0,0:0:0:0:
405,54,9680,2,0,P|373:57|344:66,1,62.5,2|0,0:0|0:0,0:0:0:0:
382,206,9997,2,0,L|377:132,1,62.5,2|2,0:0|0:0,0:0:0:0:
458,118,10314,5,0,0:0:0:0:
491,248,10525,1,2,0:0:0:0:
491,248,10631,2,0,P|441:271|400:295,1,93.75
334,340,11053,6,0,P|307:304|282:264,1,62.5,2|0,0:0|0:0,0:0:0:0:
240,186,11370,2,0,P|225:235|208:268,1,62.5,2|0,0:0|0:0,0:0:0:0:
162,353,11687,2,0,P|199:336|235:327,1,62.5,2|2,0:0|0:0,0:0:0:0:
131,273,12004,6,0,L|90:268,1,31.25,0|2,0:0|0:0,0:0:0:0:
33,216,12215,2,0,P|52:184|56:147,1,62.5,2|0,0:0|0:0,0:0:0:0:
20,84,12532,1,2,0:0:0:0:
136,15,12743,6,0,P|122:64|136:94,1,62.5,2|0,0:0|0:0,0:0:0:0:
138,154,13060,2,0,P|171:176|212:168,1,62.5,2|0,0:0|0:0,0:0:0:0:
269,215,13377,2,0,L|288:184,1,31.25,2|0,0:0|0:0,0:0:0:0:
286,107,13589,5,2,0:0:0:0:
261,88,13694,1,2,0:0:0:0:
264,50,13800,1,2,0:0:0:0:
280,28,13905,1,2,0:0:0:0:
355,63,14011,2,0,P|406:79|466:94,1,93.75,2|0,0:0|0:0,0:0:0:0:
500,158,14434,6,0,P|461:186|446:223,1,74.9999977111817,2|2,0:0|0:1,0:0:0:0:
402,338,14751,2,0,L|383:263,1,74.9999977111817,2|0,0:0|0:0,0:0:0:0:
308,147,15067,2,0,P|357:166|371:201,1,74.9999977111817,2|2,0:1|0:0,0:0:0:0:
298,245,15384,6,0,L|262:267,1,37.4999988555908,0|2,0:0|0:1,0:0:0:0:
260,359,15596,2,0,P|214:335|168:329,1,74.9999977111817,2|0,0:0|0:0,0:0:0:0:
110,338,15913,1,2,0:1:0:0:
8,192,16124,6,0,P|46:224|84:219,1,74.9999977111817,2|2,0:0|0:1,0:0:0:0:
145,265,16441,2,0,P|187:245|205:205,1,74.9999977111817,2|0,0:0|0:0,0:0:0:0:
171,143,16758,2,0,L|143:107,1,37.4999988555908,2|0,0:1|0:0,0:0:0:0:
181,35,16969,6,0,P|217:31|260:47,1,74.9999977111817,2|2,0:0|0:1,0:0:0:0:
253,42,17286,1,2,0:1:0:0:
312,113,17391,2,0,P|348:117|391:101,1,74.9999977111817,2|2,0:0|0:1,0:0:0:0:
368,197,17814,6,0,P|360:241|354:289,1,74.9999977111817,2|2,0:0|0:1,0:0:0:0:
492,323,18131,2,0,P|430:331|390:345,1,74.9999977111817,2|2,0:0|0:0,0:0:0:0:
290,363,18448,2,0,L|282:319,1,37.4999988555908,2|0,0:1|0:0,0:0:0:0:
223,253,18659,1,2,0:0:0:0:
140,149,18870,1,2,0:1:0:0:
140,149,18976,2,0,P|189:145|237:100,1,112.499996566773,2|2,0:0|0:1,0:0:0:0:
222,22,19398,1,0,0:0:0:0:
309,10,19504,6,0,L|312:42,1,18.7499994277954,2|0,0:0|0:0,0:0:0:0:
417,313,20560,2,0,P|411:334|396:351,1,37.4999988555908,8|8,3:0|3:0,0:0:0:0:
328,315,20772,6,0,P|334:294|349:277,1,37.4999988555908,10|0,2:0|0:0,0:0:0:0:
246,349,21194,6,0,L|112:384,1,93.7500035762788,0|0,3:0|0:0,0:0:0:0:
0,302,21405,2,0,P|58:294|77:347,1,93.7500035762788,2|2,0:3|0:3,0:0:0:0:
240,244,21617,1,2,1:2:0:0:
240,244,21722,2,0,P|253:188|262:143,1,93.7500035762788,2|2,0:0|0:3,0:0:0:0:
129,183,21934,6,0,P|142:239|151:284,1,93.7500035762788,2|0,0:0|3:0,0:0:0:0:
333,210,22145,2,0,P|346:154|355:109,1,93.7500035762788,2|2,0:0|0:3,0:0:0:0:
283,0,22356,1,2,0:3:0:0:
283,0,22462,2,0,P|233:43|258:98,1,93.7500035762788,2|0,1:2|0:0,0:0:0:0:
428,185,22673,2,0,P|461:174|486:169,2,46.8750017881394,2|2|2,0:3|0:3|0:3,0:0:0:0:
399,271,22884,5,0,3:0:0:0:
399,271,23096,2,0,P|424:329|398:376,1,93.7500035762788,2|2,0:3|0:3,0:0:0:0:
266,380,23307,1,2,1:2:0:0:
266,380,23413,2,0,L|283:279,1,93.7500035762788,2|2,0:0|0:3,0:0:0:0:
90,228,23624,6,0,L|110:338,1,93.7500035762788,2|0,0:0|3:0,0:0:0:0:
194,276,23835,2,0,L|210:183,1,93.7500035762788,2|2,0:0|0:3,0:0:0:0:
86,72,24046,1,2,0:3:0:0:
86,72,24152,2,0,P|98:131|153:139,1,93.7500035762788,2|0,1:2|0:0,0:0:0:0:
268,46,24363,2,0,P|264:17|260:-8,2,46.8750017881394,2|2|2,0:3|0:3|0:3,0:0:0:0:
279,132,24574,5,0,3:0:0:0:
279,132,24786,2,0,P|333:143|392:160,1,93.7500035762788,2|2,0:3|0:3,0:0:0:0:
507,48,24997,1,2,1:2:0:0:
507,48,25103,2,0,P|438:69|440:121,1,93.7500035762788,2|2,0:0|0:3,0:0:0:0:
351,248,25314,6,0,L|443:233,1,93.7500035762788,2|0,0:0|3:0,0:0:0:0:
403,349,25525,2,0,L|310:334,1,93.7500035762788,2|2,0:0|0:3,0:0:0:0:
201,202,25736,1,2,0:3:0:0:
201,202,25842,2,0,P|240:226|240:283,1,93.7500035762788,2|0,1:2|0:0,0:0:0:0:
138,375,26053,2,0,L|78:387,2,46.8750017881394,2|2|2,0:3|0:3|0:3,0:0:0:0:
224,355,26265,5,0,3:0:0:0:
224,355,26476,2,0,P|221:307|262:259,1,93.7500035762788,2|2,0:3|0:3,0:0:0:0:
335,223,26687,2,0,L|471:247,1,93.7500035762788,0|0,1:0|0:0,0:0:0:0:
288,63,26898,6,0,P|267:123|302:165,1,93.7500035762788,2|0,0:3|0:0,0:0:0:0:
335,223,27110,2,0,L|471:247,1,93.7500035762788,2|2,3:2|0:0,0:0:0:0:
200,201,27321,2,0,L|109:220,1,93.7500035762788,2|2,0:3|0:3,0:0:0:0:
22,76,27532,1,2,1:2:0:0:
37,159,27638,1,2,0:2:0:0:
109,220,27743,1,2,0:3:0:0:
88,302,27849,1,2,0:3:0:0:
23,247,27955,5,0,3:0:0:0:
23,247,28166,6,0,P|0:292|10:343,1,93.7500035762788,2|2,0:3|0:3,0:0:0:0:
159,364,28377,1,2,1:2:0:0:
159,364,28483,2,0,L|253:339,1,93.7500035762788,2|2,0:0|0:3,0:0:0:0:
338,168,28694,6,0,L|244:143,1,93.7500035762788,2|0,0:0|3:0,0:0:0:0:
183,267,28905,2,0,L|277:242,1,93.7500035762788,2|2,0:0|0:3,0:0:0:0:
409,356,29117,1,2,0:3:0:0:
409,356,29222,2,0,P|358:347|329:297,1,93.7500035762788,2|0,1:2|0:0,0:0:0:0:
466,224,29434,2,0,L|525:213,2,46.8750017881394,2|2|2,0:3|0:3|0:3,0:0:0:0:
383,242,29645,5,0,3:0:0:0:
383,242,29856,2,0,P|391:203|407:138,1,93.7500035762788,2|2,0:3|0:3,0:0:0:0:
283,14,30067,1,2,1:2:0:0:
283,14,30173,2,0,P|332:44|329:102,1,93.7500035762788,2|2,0:0|0:3,0:0:0:0:
253,179,30384,6,0,L|160:196,1,93.7500035762788,2|0,0:0|3:0,0:0:0:0:
117,70,30596,2,0,L|209:83,1,93.7500035762788,2|2,0:0|0:3,0:0:0:0:
117,271,30807,1,2,0:3:0:0:
117,271,30913,2,0,P|80:243|77:198,1,93.7500035762788,2|0,1:2|0:0,0:0:0:0:
216,281,31124,2,0,L|286:264,2,46.8750017881394,2|2|2,0:3|0:3|0:3,0:0:0:0:
160,359,31335,5,0,3:0:0:0:
160,359,31546,2,0,P|205:367|264:379,1,93.7500035762788,2|2,0:3|0:3,0:0:0:0:
394,269,31758,1,2,1:2:0:0:
394,269,31863,2,0,P|377:317|339:333,1,93.7500035762788,2|2,0:0|0:3,0:0:0:0:
316,189,32074,6,0,L|445:171,1,93.7500035762788,2|0,0:0|3:0,0:0:0:0:
440,79,32286,2,0,L|311:97,1,93.7500035762788,2|2,0:0|0:3,0:0:0:0:
163,136,32497,1,2,0:3:0:0:
163,136,32603,2,0,P|191:190|251:185,1,93.7500035762788,2|0,1:2|0:0,0:0:0:0:
259,113,32814,2,0,L|252:56,2,46.8750017881394,2|2|2,0:3|0:3|0:3,0:0:0:0:
316,189,33025,5,2,3:2:0:0:
248,378,34082,5,0,3:0:0:0:
263,294,34187,1,0,3:0:0:0:
274,342,34293,2,0,L|344:329,1,65.624997997284,8|0,0:2|0:0,0:0:0:0:
338,330,34715,6,0,P|327:229|444:53,1,299.999990844727,0|0,3:0|0:0,0:0:0:0:
425,64,35349,2,0,P|337:182|338:330,1,299.999990844727,0|0,3:0|0:0,0:0:0:0:
145,333,35983,1,10,0:0:0:0:
145,333,36405,6,0,P|132:232|-20:86,1,299.999990844727,0|0,3:0|0:0,0:0:0:0:
0,93,37039,2,0,P|111:189|145:333,1,299.999990844727,0|2,3:0|0:0,0:0:0:0:
371,268,37673,1,10,0:0:0:0:
371,268,38096,6,0,P|413:237|316:229,1,224.999993133545,2|0,3:2|0:0,0:0:0:0:
282,288,38518,2,0,B|248:342|192:323|192:323|227:305|234:271,1,149.999995422363,10|0,0:0|0:0,0:0:0:0:
228,208,38835,1,0,0:0:0:0:
233,190,38941,5,2,3:2:0:0:
352,354,39152,1,2,0:0:0:0:
149,244,39363,1,10,0:0:0:0:
402,144,39574,1,2,0:0:0:0:
214,52,39786,6,0,B|150:77|162:139|162:139|178:116|221:105,1,149.999995422363,2|0,3:2|0:0,0:0:0:0:
233,190,40103,1,0,0:0:0:0:
290,121,40208,2,0,P|318:165|290:257,1,149.999995422363,8|8,0:0|0:0,0:0:0:0:
71,300,40631,5,0,3:0:0:0:
42,307,40736,1,0,0:0:0:0:
50,335,40842,1,8,0:0:0:0:
79,327,40948,1,0,0:0:0:0:
144,251,41053,5,8,1:2:0:0:
224,230,41159,1,0,1:0:0:0:
244,310,41265,1,0,1:0:0:0:
165,332,41370,1,0,1:0:0:0:
70,214,41476,6,0,P|160:204|287:9,1,299.999990844727,0|0,3:0|0:0,0:0:0:0:
285,50,42110,2,0,P|211:176|70:213,1,299.999990844727,0|0,3:0|0:0,0:0:0:0:
312,249,42743,1,10,0:0:0:0:
312,249,43166,6,0,P|251:140|65:134,1,299.999990844727,0|0,3:0|0:0,0:0:0:0:
88,120,43800,2,0,P|233:127|312:249,1,299.999990844727,0|2,3:0|0:0,0:0:0:0:
119,349,44434,6,0,P|88:326|61:326,1,56.2499982833863,10|0,0:0|0:0,0:0:0:0:
55,310,44856,6,0,P|120:351|258:306,1,224.999993133545,2|0,3:2|0:0,0:0:0:0:
432,364,45279,2,0,P|463:328|466:277,1,74.9999977111817,10|0,0:0|0:0,0:0:0:0:
390,257,45490,2,0,P|359:293|356:344,1,74.9999977111817,2|0,3:2|0:0,0:0:0:0:
201,243,45701,6,0,P|256:195|269:36,1,224.999993133545,2|0,3:2|0:0,0:0:0:0:
403,152,46124,2,0,P|430:177|466:186,1,74.9999977111817,10|0,0:0|0:0,0:0:0:0:
508,106,46335,2,0,P|480:80|444:71,1,74.9999977111817,2|0,3:2|0:0,0:0:0:0:
294,205,46546,5,2,3:2:0:0:
150,79,46758,1,8,0:0:0:0:
193,85,46863,1,8,0:0:0:0:
243,94,46969,1,0,3:0:0:0:
204,179,47180,1,10,0:0:0:0:
310,293,47391,5,2,3:2:0:0:
45,219,47603,1,8,0:0:0:0:
124,198,47708,1,8,0:0:0:0:
204,179,47814,1,0,3:0:0:0:
180,258,48025,1,8,0:0:0:0:
372,352,48236,6,0,B|369:184|548:267|550:32|346:11|250:143|318:296|370:352,1,600,2|0,3:2|0:0,0:0:0:0:
256,192,49927,12,0,51194,0:0:0:0:
67,107,51617,6,0,P|87:179|108:280,1,140.625005364418,2|0,3:2|0:0,0:0:0:0:
101,243,51828,2,0,P|145:250|163:299,1,62.5,2|2,0:3|0:3,0:0:0:0:
32,376,52039,6,0,P|75:365|101:316,1,93.7500035762788,10|0,0:0|0:0,0:0:0:0:
280,324,52251,2,0,L|182:345,1,93.7500035762788,2|0,3:0|0:0,0:0:0:0:
348,267,52462,2,0,P|369:325|352:371,1,93.7500035762788,2|0,0:0|0:0,0:0:0:0:
263,232,52673,1,2,3:3:0:0:
330,172,52779,1,2,0:3:0:0:
246,143,52884,6,0,P|229:101|247:45,1,93.75,10|0,0:0|0:0,0:0:0:0:
239,55,53096,2,0,B|201:80|201:80|154:69,1,93.7500035762788,2|2,0:3|0:3,0:0:0:0:
44,0,53307,6,0,P|64:72|85:173,1,140.625005364418,2|0,3:2|0:0,0:0:0:0:
78,136,53518,2,0,P|122:143|140:192,1,62.5,2|2,0:3|0:3,0:0:0:0:
111,305,53729,6,0,P|85:255|75:209,1,93.7500035762788,10|0,0:0|0:0,0:0:0:0:
220,160,53941,2,0,P|197:221|147:241,1,93.7500035762788,2|0,3:0|0:0,0:0:0:0:
0,365,54152,2,0,P|57:375|126:397,1,93.7500035762788,2|0,0:0|0:0,0:0:0:0:
272,274,54363,1,2,3:0:0:0:
292,357,54469,1,2,0:3:0:0:
211,330,54574,6,0,P|268:315|378:299,1,140.625005364418,10|0,0:0|0:0,0:0:0:0:
348,301,54786,2,0,P|375:336|414:334,1,62.5,2|0,0:3|0:0,0:0:0:0:
509,201,54997,6,0,P|442:185|379:232,1,140.625005364418,2|0,3:2|0:0,0:0:0:0:
384,221,55208,2,0,P|391:192|369:155,1,62.5,2|0,0:3|0:0,0:0:0:0:
204,73,55420,6,0,P|261:109|328:93,1,140.625005364418,10|0,0:0|0:0,0:0:0:0:
328,93,55631,2,0,P|315:64|322:34,1,62.5,2|0,3:0|0:0,0:0:0:0:
499,81,55842,6,0,P|439:66|370:56,1,93.7500035762788,2|0,0:0|0:0,0:0:0:0:
301,185,56053,1,2,3:0:0:0:
345,256,56159,1,2,0:3:0:0:
260,256,56265,6,0,P|184:240|121:219,1,140.625005364418,10|0,0:0|0:0,0:0:0:0:
124,220,56476,2,0,P|89:242|63:249,1,62.5,2|2,0:3|0:3,0:0:0:0:
0,95,56687,6,0,P|53:130|41:199,1,93.7500035762788,2|0,3:2|0:0,0:0:0:0:
150,132,56898,2,0,P|158:83|176:22,1,93.7500035762788,2|0,0:3|0:0,0:0:0:0:
341,158,57110,6,0,P|385:181|443:168,1,93.7500035762788,10|0,0:0|0:0,0:0:0:0:
444,89,57321,2,0,P|400:66|342:79,1,93.7500035762788,2|0,3:0|0:0,0:0:0:0:
289,257,57532,5,2,0:0:0:0:
333,273,57638,1,2,0:0:0:0:
382,267,57743,1,2,3:0:0:0:
410,232,57849,1,2,0:3:0:0:
421,186,57955,5,10,0:0:0:0:
341,158,58060,1,2,0:0:0:0:
257,172,58166,1,2,0:3:0:0:
201,236,58272,1,2,0:3:0:0:
186,318,58377,6,0,P|165:234|143:165,1,140.625005364418,2|0,3:2|0:0,0:0:0:0:
149,182,58589,2,0,P|102:170|81:139,1,62.5,2|2,0:3|0:3,0:0:0:0:
122,15,58800,6,0,P|152:87|159:113,1,93.7500035762788,10|0,0:0|0:0,0:0:0:0:
0,155,59011,2,0,P|37:92|88:77,1,93.7500035762788,2|0,3:0|0:0,0:0:0:0:
233,160,59222,2,0,P|286:175|359:189,1,93.7500035762788,2|0,0:0|0:0,0:0:0:0:
499,186,59434,1,2,3:0:0:0:
464,114,59539,1,2,0:3:0:0:
417,179,59645,6,0,P|410:248|436:280,1,93.75,8|0,0:0|0:0,0:0:0:0:
421,266,59856,2,0,B|372:259|372:259|332:296,1,93.7500035762788,2|2,0:3|0:3,0:0:0:0:
251,376,60067,6,0,P|230:292|208:223,1,140.625005364418,2|0,3:2|0:0,0:0:0:0:
214,240,60279,2,0,P|167:228|146:197,1,62.5,2|2,0:3|0:3,0:0:0:0:
276,95,60490,2,0,P|223:130|221:174,1,93.7500035762788,10|0,0:0|0:0,0:0:0:0:
137,133,60701,2,0,P|118:82|95:35,1,93.7500035762788,2|0,3:0|0:0,0:0:0:0:
299,5,60913,6,0,P|281:64|276:108,1,93.7500035762788,2|0,0:0|0:0,0:0:0:0:
408,192,61124,1,2,3:0:0:0:
435,117,61229,1,2,0:3:0:0:
486,177,61335,6,0,P|392:156|313:134,1,140.625005364418,10|0,0:0|0:0,0:0:0:0:
349,144,61546,2,0,P|326:169|297:177,1,62.5,2|0,0:3|0:0,0:0:0:0:
220,384,61758,6,0,P|244:303|267:249,1,140.625005364418,2|0,3:2|0:0,0:0:0:0:
265,251,61969,2,0,P|230:230|220:196,1,62.5,2|0,0:3|0:0,0:0:0:0:
301,5,62180,6,0,P|277:86|254:140,1,140.625005364418,10|0,0:0|0:0,0:0:0:0:
256,138,62391,2,0,P|290:158|300:192,1,62.5,2|0,3:0|0:0,0:0:0:0:
88,160,62603,6,0,P|62:123|71:62,1,93.7500035762788,2|0,0:0|0:0,0:0:0:0:
145,54,62814,2,0,P|171:91|162:152,1,93.7500035762788,2|2,3:0|0:3,0:0:0:0:
48,238,63025,1,10,0:0:0:0:
85,313,63131,1,2,0:0:0:0:
4,310,63236,2,0,P|86:283|145:274,1,140.625005364418,2|0,0:3|0:0,0:0:0:0:
139,274,63448,6,0,B|129:300|129:300|138:327,1,46.8750017881394,0|0,3:0|0:0,0:0:0:0:
164,290,63870,6,0,B|154:316|154:316|163:343,1,46.8750017881394,0|0,3:0|0:0,0:0:0:0:
194,306,64293,6,0,B|184:332|184:332|193:359,1,46.8750017881394,0|0,3:0|0:0,0:0:0:0:
277,343,64715,5,2,0:0:0:0:
278,329,64821,1,2,0:0:0:0:
286,248,64927,5,2,0:0:0:0:
287,234,65032,1,2,0:0:0:0:
295,150,65138,5,4,3:1:0:0:
339,163,65243,1,2,0:0:0:0:
383,177,65349,1,2,0:3:0:0:
428,189,65455,1,2,0:0:0:0:
500,140,65560,2,0,P|467:107|387:131,1,93.7500035762788,10|2,1:2|0:0,0:0:0:0:
213,70,65772,2,0,P|258:67|291:34,1,93.7500035762788,2|2,0:3|0:0,0:0:0:0:
137,12,65983,5,2,3:2:0:0:
125,95,66089,1,2,0:0:0:0:
188,149,66194,1,2,0:3:0:0:
253,202,66300,1,2,0:3:0:0:
236,284,66405,2,0,B|186:293|186:293|142:361|142:361|71:379,1,187.500007152558,10|2,1:2|0:3,0:0:0:0:
14,331,66722,1,2,0:3:0:0:
83,282,66828,6,0,L|92:183,1,93.7500035762788,2|0,3:2|0:0,0:0:0:0:
244,108,67039,2,0,L|252:201,1,93.7500035762788,2|2,0:3|0:3,0:0:0:0:
347,349,67251,5,10,1:2:0:0:
382,273,67356,1,2,0:0:0:0:
440,340,67462,1,2,0:3:0:0:
467,260,67567,2,0,P|480:212|502:152,1,93.7500035762788,2|2,0:0|3:2,0:0:0:0:
349,72,67779,1,2,0:0:0:0:
435,58,67884,2,0,P|414:132|366:150,1,93.7500035762788,2|2,0:3|0:3,0:0:0:0:
246,173,68096,2,0,P|290:178|382:226,1,93.7500035762788,10|0,1:2|0:0,0:0:0:0:
190,292,68307,2,0,L|182:230,2,46.8750017881394,2|0|0,0:3|0:0|0:0,0:0:0:0:
267,329,68518,6,0,P|222:375|143:367,1,140.625005364418,2|0,3:2|0:0,0:0:0:0:
149,371,68729,2,0,P|116:357|82:360,1,62.5,2|0,0:3|0:0,0:0:0:0:
31,214,68941,6,0,P|4:273|28:321,1,93.7500035762788,10|0,1:2|0:0,0:0:0:0:
181,238,69152,2,0,P|130:264|85:274,1,93.7500035762788,2|0,0:3|0:0,0:0:0:0:
38,133,69363,2,0,P|100:154|115:209,1,93.7500035762788,2|0,3:2|0:0,0:0:0:0:
202,150,69574,2,0,P|216:89|239:40,1,93.7500035762788,2|2,0:3|0:3,0:0:0:0:
375,16,69786,6,0,P|398:69|407:129,1,93.75,10|0,1:2|0:0,0:0:0:0:
405,104,69997,2,0,B|453:97|453:97|490:137,1,93.7500035762788,2|2,0:3|0:3,0:0:0:0:
282,233,70208,6,0,P|336:210|426:188,1,140.625005364418,2|0,3:2|0:0,0:0:0:0:
415,189,70420,2,0,P|451:220|482:222,1,62.5,2|0,0:3|0:0,0:0:0:0:
502,372,70631,6,0,P|441:350|397:341,1,93.7500035762788,10|0,1:2|0:0,0:0:0:0:
268,366,70842,2,0,P|322:337|329:298,1,93.7500035762788,2|0,0:3|0:0,0:0:0:0:
257,151,71053,5,2,3:2:0:0:
218,173,71159,1,2,0:0:0:0:
191,213,71265,1,2,0:3:0:0:
195,253,71370,1,2,0:3:0:0:
222,292,71476,5,8,1:2:0:0:
282,233,71582,1,2,0:0:0:0:
257,151,71687,1,2,0:3:0:0:
231,70,71793,1,2,0:3:0:0:
287,8,71898,6,0,P|317:37|309:91,1,93.7500035762788,4|0,3:1|0:0,0:0:0:0:
172,132,72110,2,0,P|119:119|57:99,1,93.7500035762788,2|0,0:3|0:0,0:0:0:0:
1,215,72321,1,10,1:2:0:0:
62,272,72427,1,2,0:0:0:0:
143,252,72532,1,0,0:0:0:0:
82,193,72638,2,0,P|133:209|187:223,1,93.7500035762788,2|0,0:0|3:0,0:0:0:0:
352,240,72849,5,2,0:0:0:0:
398,310,72955,1,2,0:3:0:0:
368,384,73060,1,2,0:3:0:0:
314,318,73166,2,0,P|270:329|220:351,1,93.7500035762788,10|0,1:2|0:0,0:0:0:0:
267,243,73377,1,2,0:3:0:0:
267,243,73483,1,2,0:3:0:0:
352,240,73589,5,2,3:2:0:0:
371,158,73694,1,2,0:0:0:0:
306,103,73800,1,2,0:3:0:0:
322,20,73905,1,0,0:0:0:0:
385,76,74011,2,0,P|434:78|482:40,1,93.7500035762788,10|2,1:2|0:0,0:0:0:0:
239,0,74222,2,0,L|214:104,1,93.7500035762788,2|2,0:3|0:0,0:0:0:0:
102,219,74434,5,2,3:2:0:0:
43,159,74539,1,2,0:0:0:0:
125,138,74645,2,0,P|174:175|185:213,1,93.7500035762788,2|2,0:3|0:3,0:0:0:0:
67,326,74856,2,0,P|115:306|186:289,1,93.7500035762788,10|0,1:2|0:0,0:0:0:0:
319,375,75067,2,0,L|376:381,2,46.8750017881394,2|0|2,0:3|0:0|0:3,0:0:0:0:
228,365,75279,6,0,P|246:309|276:226,1,140.625005364418,2|0,3:2|0:0,0:0:0:0:
273,232,75490,2,0,P|264:191|226:176,1,62.5,2|0,0:3|0:0,0:0:0:0:
102,219,75701,6,0,P|141:247|196:229,1,93.7500035762788,10|0,1:2|0:0,0:0:0:0:
129,65,75913,2,0,P|154:120|170:162,1,93.7500035762788,2|0,0:3|0:0,0:0:0:0:
237,96,76124,2,0,P|294:88|320:47,1,93.7500035762788,2|0,3:2|0:0,0:0:0:0:
409,254,76335,1,2,0:3:0:0:
495,262,76441,1,2,0:3:0:0:
460,184,76546,2,0,P|418:167|368:178,1,93.7500035762788,10|0,1:2|0:0,0:0:0:0:
253,301,76758,5,2,0:3:0:0:
173,277,76863,1,2,0:3:0:0:
308,241,76969,2,0,P|336:289|316:353,1,106.250002026558,2|0,3:2|0:0,0:0:0:0:
175,194,77180,5,2,0:3:0:0:
255,170,77286,1,2,0:3:0:0:
119,134,77391,2,0,P|91:182|111:246,1,106.250002026558,10|0,1:2|0:0,0:0:0:0:
177,281,77603,1,2,0:3:0:0:
177,281,77708,1,2,0:3:0:0:
113,337,77814,5,2,3:2:0:0:
193,364,77920,1,2,3:2:0:0:
253,301,78025,1,2,3:0:0:0:
333,330,78131,1,2,3:0:0:0:
405,277,78236,6,0,L|415:244,6,31.25,10|2|2|2|2|2|2,1:2|0:3|0:3|0:3|0:3|0:3|0:3,0:0:0:0:
415,363,78659,5,0,3:0:0:0:
415,363,78870,2,0,P|456:355|490:315,1,93.7500035762788,2|2,0:3|0:3,0:0:0:0:
349,196,79082,1,2,0:0:0:0:
349,196,79187,2,0,P|298:207|247:222,1,93.7500035762788,2|0,0:0|0:0,0:0:0:0:
159,85,79398,6,0,P|172:141|181:186,1,93.7500035762788,2|0,0:0|0:0,0:0:0:0:
372,111,79610,2,0,P|358:61|345:6,1,93.7500035762788,2|2,0:0|3:0,0:0:0:0:
214,0,79821,1,2,0:0:0:0:
214,0,79927,2,0,P|246:52|298:35,1,93.7500035762788,2|0,1:2|0:0,0:0:0:0:
458,81,80138,2,0,L|516:65,2,46.8750017881394,2|2|2,0:3|0:3|0:3,0:0:0:0:
372,111,80349,5,0,3:0:0:0:
372,111,80560,2,0,P|405:157|454:171,1,93.7500035762788,2|2,0:3|0:3,0:0:0:0:
357,292,80772,1,2,0:0:0:0:
357,292,80877,2,0,P|302:304|259:319,1,93.7500035762788,2|0,0:0|0:0,0:0:0:0:
411,356,81089,6,0,P|440:308|423:245,1,93.7500035762788,2|0,0:0|0:0,0:0:0:0:
293,144,81300,2,0,P|264:192|281:255,1,93.7500035762788,2|2,0:0|3:0,0:0:0:0:
184,367,81511,1,2,0:0:0:0:
184,367,81617,2,0,P|173:321|144:252,1,93.7500035762788,2|0,1:2|0:0,0:0:0:0:
46,179,81828,2,0,L|-13:171,2,46.8750017881394,2|2|2,0:3|0:3|0:3,0:0:0:0:
135,192,82039,5,0,3:0:0:0:
135,192,82251,2,0,P|182:179|230:161,1,93.7500035762788,2|2,0:3|0:3,0:0:0:0:
307,24,82462,1,2,0:0:0:0:
307,24,82567,2,0,P|253:54|263:107,1,93.7500035762788,2|0,0:0|0:0,0:0:0:0:
335,236,82779,6,0,L|305:140,1,93.7500035762788,2|0,0:0|0:0,0:0:0:0:
134,4,82990,2,0,L|161:93,1,93.7500035762788,2|2,0:0|3:0,0:0:0:0:
205,264,83201,1,2,0:0:0:0:
205,264,83307,2,0,P|256:277|244:345,1,93.7500035762788,2|0,1:2|0:0,0:0:0:0:
115,348,83518,2,0,L|47:328,2,46.8750017881394,2|2|2,0:3|0:3|0:3,0:0:0:0:
198,378,83729,5,0,3:0:0:0:
198,378,84574,5,2,0:0:0:0:
190,350,84680,1,2,0:0:0:0:
218,319,84786,5,2,0:0:0:0:
209,292,84891,1,0,0:0:0:0:
176,219,84997,6,0,P|202:249|297:202,1,140.625005364418,0|0,3:0|0:0,0:0:0:0:
289,226,85208,2,0,P|321:231|341:276,1,62.5,2|0,0:0|0:0,0:0:0:0:
418,229,85420,5,0,3:0:0:0:
418,229,85631,2,0,P|423:192|434:142,1,74.9999977111817,2|2,0:3|0:3,0:0:0:0:
481,50,85842,1,2,0:0:0:0:
481,50,85948,2,0,P|438:65|396:84,1,74.9999977111817,2|2,0:0|3:0,0:0:0:0:
224,62,86159,6,0,P|179:46|131:20,1,74.9999977111817,2|2,0:0|0:0,0:0:0:0:
334,115,86370,2,0,P|291:130|249:149,1,74.9999977111817,2|2,0:0|0:3,0:0:0:0:
133,194,86582,1,2,0:3:0:0:
133,194,86687,2,0,P|143:160|197:139,1,74.9999977111817,2|0,1:2|0:0,0:0:0:0:
275,238,86898,2,0,L|336:223,2,37.4999988555909,2|2|2,0:3|0:3|0:3,0:0:0:0:
189,267,87110,5,0,3:0:0:0:
189,267,87321,2,0,P|148:296|147:346,1,74.9999977111817,2|2,0:3|0:3,0:0:0:0:
295,384,87532,1,2,0:0:0:0:
295,384,87638,2,0,P|305:346|324:288,1,74.9999977111817,2|2,0:0|3:0,0:0:0:0:
316,163,87849,6,0,P|305:122|288:79,1,74.9999977111817,2|2,0:0|0:0,0:0:0:0:
396,260,88060,2,0,P|406:222|425:164,1,74.9999977111817,2|2,0:0|0:3,0:0:0:0:
471,322,88272,1,2,0:3:0:0:
471,322,88377,2,0,P|445:351|399:355,1,74.9999977111817,0|0,1:0|0:0,0:0:0:0:
308,247,88589,2,0,L|246:237,2,37.4999988555909,2|2|2,0:3|0:3|0:3,0:0:0:0:
396,260,88800,5,0,3:0:0:0:
396,260,89011,2,0,P|393:221|376:188,1,74.9999977111817,2|2,0:3|0:3,0:0:0:0:
293,91,89222,1,2,0:0:0:0:
293,91,89328,2,0,P|252:79|194:54,1,74.9999977111817,2|2,0:0|3:0,0:0:0:0:
47,42,89539,6,0,P|4:53|-47:84,1,74.9999977111817,2|2,0:0|0:0,0:0:0:0:
168,142,89751,2,0,P|127:130|69:105,1,74.9999977111817,2|2,0:0|0:3,0:0:0:0:
45,258,89962,1,2,0:3:0:0:
45,258,90067,2,0,P|80:245|145:234,1,74.9999977111817,2|0,1:2|0:0,0:0:0:0:
201,333,90279,2,0,L|195:384,2,37.4999988555909,2|2|2,0:3|0:3|0:3,0:0:0:0:
210,250,90490,5,2,3:2:0:0:
210,250,91335,6,0,L|166:241,2,25,2|0|0,0:0|0:0|0:0,0:0:0:0:
225,338,91546,2,0,L|195:331,2,25,2|0|0,0:0|0:0|0:0,0:0:0:0:
318,384,91758,6,0,B|312:355|312:355|314:357|314:357|308:326|308:326|309:327|309:327|304:303|304:303|306:305|306:305|300:275|300:275|301:277|301:277|297:252|297:252|298:253|298:253|294:226|294:226|295:227|295:227|289:195|289:195|291:197|291:197|287:173,1,240.625007343292,2|2,0:3|0:3,0:0:0:0:
287,173,92180,6,0,B|221:224|148:217|118:134|143:-15|8:-11|-110:30|-127:227|28:292|132:231|122:116|155:86|215:87|235:123,1,656.250025033952,4|2,3:0|0:0,0:0:0:0:
296,33,94510,6,0,P|325:90|443:88,1,187.500007152558,8|2,3:0|0:0,0:0:0:0:
381,25,95383,1,8,3:0:0:0:
325,133,95675,1,4,3:0:0:0:
389,199,95966,6,0,L|422:195,3,23.4375008940697,4|0|4|0,3:0|0:0|3:0|0:0,0:0:0:0:
417,277,96257,2,0,L|450:273,3,23.4375008940697,0|0|0|0,3:0|3:0|3:0|3:0,0:0:0:0:
447,358,96548,2,0,L|480:354,3,23.4375008940697,2|2|2|2,3:1|0:1|0:1|0:1,0:0:0:0:
356,344,96840,6,0,P|313:292|195:297,1,187.500007152558,4|2,3:0|0:0,0:0:0:0:
56,366,97713,2,0,L|47:330,3,23.4375008940697,2|2|2|2,0:1|0:1|0:1|0:1,0:0:0:0:
100,274,98005,1,2,0:1:0:0:
98,263,98150,1,2,0:1:0:0:
95,251,98296,2,0,L|89:216,3,23.4375008940697,2|2|2|2,0:1|0:1|0:1|0:1,0:0:0:0:
71,143,98587,6,0,P|26:169|12:187,1,46.8750017881394,2|0,0:1|0:0,0:0:0:0:
153,168,98879,2,0,L|191:158,3,23.4375008940697,2|2|2|2,0:1|0:1|0:1|0:1,0:0:0:0:
130,85,99170,5,8,3:0:0:0:
140,82,99315,1,8,3:0:0:0:
290,124,99461,5,8,3:0:0:0:
302,121,99607,1,8,3:0:0:0:
175,162,99752,5,4,3:0:0:0:
185,160,99898,1,4,3:0:0:0:
309,209,100044,5,4,3:0:0:0:
320,207,100189,1,4,3:0:0:0:
210,247,100335,5,0,3:0:0:0:
220,248,100480,1,0,3:0:0:0:
333,292,100626,5,0,3:0:0:0:
343,293,100772,1,0,3:0:0:0:
230,333,100917,5,2,0:1:0:0:
234,341,101063,1,2,0:1:0:0:
352,376,101209,5,2,0:1:0:0:
356,384,101354,1,2,0:1:0:0:
453,308,101500,5,4,3:0:0:0:
453,308,101791,2,0,P|444:248|433:200,1,93.7500035762788,0|2,0:0|0:0,0:0:0:0:
347,64,102374,2,0,L|352:31,3,23.4375008940697,2|2|2|2,0:1|0:1|0:1|0:1,0:0:0:0:
277,116,102665,2,0,P|252:91|204:87,1,70.3125026822091,2|0,1:1|0:0,0:0:0:0:
153,139,102956,6,0,L|111:147,3,23.4375008940697,2|2|2|2,0:1|0:1|0:1|0:1,0:0:0:0:
229,194,103247,1,2,0:1:0:0:
229,194,103393,1,2,0:1:0:0:
179,265,103539,2,0,L|137:273,3,23.4375008940697,2|2|2|2,0:1|0:1|0:1|0:1,0:0:0:0:
249,329,103830,5,4,3:0:0:0:
249,329,104121,2,0,P|264:281|305:241,1,93.7500035762788,0|2,0:0|0:0,0:0:0:0:
388,159,104704,2,0,L|381:120,3,23.4375008940697,2|0|2|0,3:1|0:0|0:1|0:0,0:0:0:0:
461,208,104995,2,0,P|482:245|479:288,1,70.3125026822091,2|0,1:1|0:0,0:0:0:0:
424,341,105286,6,0,L|431:380,3,23.4375008940697,2|2|2|2,0:1|0:1|0:1|0:1,0:0:0:0:
363,282,105578,1,2,0:1:0:0:
363,282,105723,1,2,0:1:0:0:
302,342,105869,2,0,L|309:381,3,23.4375008940697,2|2|2|2,0:1|0:1|0:1|0:1,0:0:0:0:
227,288,106160,5,4,3:0:0:0:
227,288,106451,2,0,P|233:249|249:191,1,93.7500035762788,0|2,0:0|0:0,0:0:0:0:
330,77,107034,2,0,L|367:71,3,23.4375008940697,2|2|2|2,3:1|0:1|0:1|0:1,0:0:0:0:
265,14,107325,2,0,P|229:-1|184:8,1,70.3125026822091,2|0,1:1|0:0,0:0:0:0:
140,71,107616,6,0,L|103:77,3,23.4375008940697,2|0|2|0,0:1|0:0|0:1|0:0,0:0:0:0:
212,132,107908,1,2,0:1:0:0:
212,132,108053,1,2,0:1:0:0:
170,208,108199,2,0,L|133:214,3,23.4375008940697,2|2|2|2,0:1|0:1|0:1|0:1,0:0:0:0:
241,270,108490,6,0,B|264:287|264:287|291:278|291:278|271:254|271:254|241:266,1,112.499996566773,4|0,3:0|0:0,0:0:0:0:
241,270,109655,6,2,B|268:260|268:260|288:284|288:284|261:293|261:293|238:273,1,112.499996566773,2|0,0:0|0:0,0:2:0:0:
197,196,110238,1,2,0:3:0:0:
218,182,110311,1,2,0:3:0:0:
241,175,110383,1,2,0:3:0:0:
266,172,110456,1,2,0:3:0:0:
291,176,110529,1,2,0:3:0:0:
314,185,110602,1,2,0:3:0:0:
335,199,110675,1,2,0:3:0:0:
351,218,110747,1,2,0:3:0:0:
364,239,110820,6,0,P|372:184|383:127,1,100,2|2,3:2|0:0,0:0:0:0:
473,28,111403,1,2,0:0:0:0:
308,10,111694,2,0,L|265:1,3,25,2|2|2|2,0:1|0:1|0:1|0:1,0:0:0:0:
372,70,111985,5,10,0:0:0:0:
304,123,112131,1,2,0:1:0:0:
230,71,112277,2,0,L|187:62,3,25,2|2|2|2,0:1|0:1|0:1|0:1,0:0:0:0:
304,123,112568,5,2,0:1:0:0:
293,208,112713,1,2,0:1:0:0:
355,271,112859,2,0,L|398:280,3,25,2|2|2|2,0:1|0:1|0:1|0:1,0:0:0:0:
291,331,113150,6,0,P|248:317|221:257,1,100,2|2,3:2|0:0,0:0:0:0:
152,139,113733,1,2,0:0:0:0:
75,266,114024,2,0,L|38:275,3,25,2|2|2|2,3:1|0:1|0:1|0:1,0:0:0:0:
163,248,114315,5,10,0:0:0:0:
137,333,114461,1,2,0:1:0:0:
228,310,114607,2,0,L|265:301,3,25,2|2|2|2,0:1|0:1|0:1|0:1,0:0:0:0:
137,333,114898,5,2,0:1:0:0:
163,248,115044,1,2,0:1:0:0:
75,266,115189,2,0,L|38:275,3,25,2|2|2|2,0:1|0:1|0:1|0:1,0:0:0:0:
106,184,115480,6,0,P|112:153|119:80,1,100,2|2,3:2|0:0,0:0:0:0:
244,2,116063,1,2,0:0:0:0:
235,173,116354,2,0,L|233:218,3,25,2|2|2|2,0:1|0:1|0:1|0:1,0:0:0:0:
238,89,116646,5,10,0:0:0:0:
323,96,116791,1,2,0:1:0:0:
409,102,116937,2,0,L|412:62,3,25,2|2|2|2,0:1|0:1|0:1|0:1,0:0:0:0:
403,187,117228,5,2,0:1:0:0:
397,272,117374,1,2,0:1:0:0:
392,356,117519,2,0,L|434:361,3,25,2|2|2|2,0:1|0:1|0:1|0:1,0:0:0:0:
301,349,117811,5,2,3:2:0:0:
484,239,118102,1,2,0:0:0:0:
319,132,118393,1,2,0:0:0:0:
220,268,118684,2,0,L|230:310,3,25,2|2|2|2,3:1|0:1|0:1|0:1,0:0:0:0:
163,203,118976,6,0,L|141:235,1,25,10|0,0:0|0:0,0:0:0:0:
227,103,119121,2,0,L|249:71,1,25,2|0,0:1|0:0,0:0:0:0:
144,120,119267,2,0,L|112:98,1,25,2|0,0:1|0:0,0:0:0:0:
246,186,119413,2,0,L|278:208,1,25,2|0,0:1|0:0,0:0:0:0:
194,156,119558,6,2,L|170:58,1,100,2|2,0:0|0:0,0:2:0:0:
170,58,120141,6,0,P|211:81|280:68,1,100,2|2,3:2|0:0,0:0:0:0:
429,21,120723,1,2,0:0:0:0:
340,148,121014,2,0,L|337:182,3,25,2|2|2|2,0:1|0:1|0:1|0:1,0:0:0:0:
424,108,121306,5,10,0:0:0:0:
419,189,121451,1,2,0:1:0:0:
497,247,121597,2,0,L|494:281,3,25,2|2|2|2,0:1|0:1|0:1|0:1,0:0:0:0:
419,189,121888,5,2,0:1:0:0:
414,270,122034,1,2,0:1:0:0:
347,325,122179,2,0,L|344:359,3,25,2|2|2|2,0:1|0:1|0:1|0:1,0:0:0:0:
330,242,122471,6,0,P|295:217|233:212,1,100,2|2,3:2|0:0,0:0:0:0:
64,290,123053,1,2,0:0:0:0:
160,175,123345,2,0,L|164:144,3,25,2|2|2|2,3:1|0:1|0:1|0:1,0:0:0:0:
149,258,123636,5,10,0:0:0:0:
218,316,123781,1,2,0:1:0:0:
137,348,123927,2,0,L|133:379,3,25,2|2|2|2,0:1|0:1|0:1|0:1,0:0:0:0:
218,316,124218,5,0,0:1:0:0:
299,286,124364,1,2,0:1:0:0:
228,231,124510,2,0,L|231:206,3,25,2|2|2|2,0:1|0:1|0:1|0:1,0:0:0:0:
241,121,124801,5,2,3:2:0:0:
430,74,125092,1,2,0:0:0:0:
220,8,125383,1,2,0:0:0:0:
341,192,125675,2,0,L|375:186,3,25,2|2|2|2,0:1|0:1|0:1|0:1,0:0:0:0:
258,207,125966,5,8,0:0:0:0:
275,293,126112,1,0,0:0:0:0:
359,272,126257,2,0,L|393:266,3,25,2|0|0|0,0:0|0:0|0:0|0:0,0:0:0:0:
275,293,126548,5,2,0:1:0:0:
292,379,126694,1,0,0:0:0:0:
376,358,126840,2,0,L|410:352,3,25,2|2|2|2,0:1|0:1|0:1|0:1,0:0:0:0:
486,340,127131,6,0,B|262:316|262:316|260:330|260:330|44:309,1,449.99998626709,2|2,3:2|3:2,0:0:0:0:
59,47,129461,6,0,P|54:28|49:6,1,25,2|0,3:2|0:0,0:0:0:0:
127,100,129672,1,2,0:0:0:0:
49,129,129883,1,2,0:0:0:0:
246,48,130094,2,0,L|231:-18,2,50,2|0|2,0:0|0:0|0:0,0:0:0:0:
209,128,130517,1,2,0:0:0:0:
272,189,130728,2,0,L|306:193,1,25,10|0,0:0|0:0,0:0:0:0:
272,189,131151,6,0,L|306:193,1,25,2|0,3:2|0:0,0:0:0:0:
237,277,131362,1,2,0:0:0:0:
177,207,131573,1,2,0:0:0:0:
48,365,131784,2,0,L|36:306,2,50,2|0|2,0:0|0:0|0:0,0:0:0:0:
141,365,132207,1,2,0:0:0:0:
120,281,132418,2,0,L|111:236,1,25,10|0,0:0|0:0,0:0:0:0:
120,281,132841,6,0,P|169:279|235:353,1,137.500004196167,2|0,3:2|0:0,0:0:0:0:
306,378,133158,1,0,0:0:0:0:
349,299,133263,2,0,P|360:244|381:150,1,137.500004196167,10|2,0:0|0:0,0:0:0:0:
301,15,133580,1,0,0:0:0:0:
391,8,133686,6,0,P|381:58|347:87,1,68.7500020980836,0|0,3:0|0:0,0:0:0:0:
276,192,133897,2,0,P|286:142|320:113,1,68.7500020980836,2|0,0:0|0:0,0:0:0:0:
444,149,134108,2,0,L|347:170,1,68.7500020980836,10|0,0:0|0:0,0:0:0:0:
276,313,134320,2,0,L|373:292,1,68.7500020980836,2|0,0:0|0:0,0:0:0:0:
183,251,134531,6,0,P|159:199|202:115,1,137.500004196167,2|0,3:2|0:0,0:0:0:0:
240,56,134848,1,0,0:0:0:0:
122,10,134953,2,0,P|92:1|44:-7,1,68.7500020980836,8|0,0:0|0:0,0:0:0:0:
185,127,135165,2,0,P|215:136|263:144,1,68.7500020980836,8|8,0:0|0:0,0:0:0:0:
430,36,135376,5,2,3:2:0:0:
437,7,135482,1,2,0:0:0:0:
409,0,135587,1,10,0:0:0:0:
401,29,135693,1,2,0:0:0:0:
432,122,135799,5,8,1:2:0:0:
410,202,135904,1,0,1:0:0:0:
331,179,136010,1,0,1:0:0:0:
351,100,136115,1,0,1:0:0:0:
505,191,136221,6,0,L|491:253,1,34.3750010490418,2|0,3:2|0:0,0:0:0:0:
436,287,136432,1,2,0:0:0:0:
410,202,136644,1,10,0:0:0:0:
371,365,136855,2,0,L|449:381,2,68.7500020980836,2|0|2,0:0|0:0|0:0,0:0:0:0:
304,292,137277,1,2,0:0:0:0:
253,375,137489,2,0,L|207:386,1,34.3750010490418,10|0,0:0|0:0,0:0:0:0:
253,375,137911,6,0,L|207:386,1,34.3750010490418,2|0,3:2|0:0,0:0:0:0:
139,348,138122,1,2,0:0:0:0:
209,290,138334,1,10,0:0:0:0:
57,197,138545,2,0,L|36:285,2,68.7500020980836,2|0|2,0:0|0:0|0:0,0:0:0:0:
147,220,138968,1,2,0:0:0:0:
166,131,139179,2,0,L|174:88,1,34.3750010490418,10|0,0:0|0:0,0:0:0:0:
166,131,139601,6,0,P|264:152|340:44,1,224.999993133545,2|0,3:2|0:0,0:0:0:0:
504,161,140024,2,0,P|500:208|466:246,1,74.9999977111817,10|0,0:0|0:0,0:0:0:0:
398,206,140235,2,0,P|401:158|435:120,1,74.9999977111817,2|0,3:2|0:0,0:0:0:0:
337,295,140446,6,0,P|239:316|163:208,1,224.999993133545,2|0,3:2|0:0,0:0:0:0:
0,315,140869,2,0,P|3:362|37:400,1,74.9999977111817,10|0,0:0|0:0,0:0:0:0:
106,360,141080,2,0,P|102:312|68:274,1,74.9999977111817,0|0,3:0|0:0,0:0:0:0:
0,184,141291,5,2,3:2:0:0:
164,229,141503,1,8,0:0:0:0:
168,177,141608,1,8,0:0:0:0:
173,124,141714,1,0,3:0:0:0:
82,208,141925,1,10,0:0:0:0:
62,77,142137,5,2,3:2:0:0:
282,188,142348,1,8,0:0:0:0:
268,107,142453,1,8,0:0:0:0:
256,25,142559,1,0,3:0:0:0:
173,124,142770,1,10,0:0:0:0:
475,98,142982,6,0,B|280:49|178:174|205:350|138:350|94:356|-2:343|-69:272|-66:183|-27:108|63:75|134:72|226:98|255:234|255:242|256:250|290:345|311:441|409:490|525:457|644:309|535:163|362:175|321:301,1,1475,2|0,3:2|0:0,0:0:0:0:
323,300,146151,6,0,B|327:328|327:328|307:334|307:334|300:309|300:309|321:298,2,93.7500035762788
423,59,147418,6,2,L|419:109,1,46.875,2|0,0:3|0:0,0:2:0:0:
420,106,147630,6,2,B|447:122|447:122|498:107,7,62.5,2|0|0|0|0|0|0|0,0:3|0:0|0:0|0:0|0:0|0:0|0:0|0:0,0:1:0:0:
351,180,148052,6,0,P|331:108|310:7,1,140.625005364418,4|0,3:1|0:0,0:0:0:0:
317,44,148263,2,0,P|273:37|255:-12,1,62.5,2|2,0:3|0:3,0:0:0:0:
119,23,148475,6,0,P|162:34|188:83,1,93.7500035762788,10|0,0:0|0:0,0:0:0:0:
88,205,148686,2,0,L|106:111,1,93.7500035762788,2|0,3:0|0:0,0:0:0:0:
164,242,148897,2,0,P|114:291|65:285,1,93.7500035762788,2|0,0:0|0:0,0:0:0:0:
217,379,149108,1,2,3:0:0:0:
234,293,149214,1,2,0:3:0:0:
303,347,149320,6,0,P|320:305|302:249,1,93.75,10|0,0:0|0:0,0:0:0:0:
309,259,149531,2,0,B|347:284|347:284|394:273,1,93.7500035762788,2|2,0:3|0:3,0:0:0:0:
360,189,149742,6,0,P|340:117|319:16,1,140.625005364418,2|0,3:2|0:0,0:0:0:0:
326,53,149953,2,0,P|282:46|264:-3,1,62.5,2|2,0:3|0:3,0:0:0:0:
103,39,150165,6,0,P|162:61|198:79,1,93.7500035762788,10|0,0:0|0:0,0:0:0:0:
203,214,150376,2,0,P|164:197|164:125,1,93.7500035762788,2|0,3:0|0:0,0:0:0:0:
272,274,150587,2,0,P|264:309|242:384,1,93.7500035762788,2|0,0:0|0:0,0:0:0:0:
32,336,150799,1,2,3:0:0:0:
52,252,150904,1,2,0:3:0:0:
116,313,151010,6,0,P|175:345|257:363,1,140.625005364418,10|0,0:0|0:0,0:0:0:0:
247,363,151221,2,0,P|276:352|308:355,1,62.5,2|0,0:3|0:0,0:0:0:0:
512,253,151432,6,0,L|355:290,1,140.625005364418,2|0,3:2|0:0,0:0:0:0:
375,285,151644,2,0,L|392:220,1,62.5,2|0,0:3|0:0,0:0:0:0:
202,117,151855,6,0,L|359:154,1,140.625005364418,10|0,0:0|0:0,0:0:0:0:
339,149,152066,2,0,L|322:84,1,62.5,2|0,3:0|0:0,0:0:0:0:
248,219,152277,6,0,L|220:348,1,93.7500035762788,2|0,0:2|0:0,0:0:0:0:
79,359,152489,1,2,3:0:0:0:
26,292,152594,1,2,0:3:0:0:
110,275,152700,6,0,P|154:222|131:135,1,140.625005364418,10|0,0:0|0:0,0:0:0:0:
146,154,152911,2,0,P|129:122|140:85,1,62.5,2|2,0:3|0:3,0:0:0:0:
311,88,153122,6,0,P|258:99|206:116,1,93.7500035762788,2|0,3:2|0:0,0:0:0:0:
105,19,153334,2,0,P|172:17|197:50,1,93.7500035762788,2|0,0:3|0:0,0:0:0:0:
291,179,153545,6,0,P|335:202|393:189,1,93.7500035762788,10|0,0:0|0:0,0:0:0:0:
397,106,153756,2,0,P|353:83|295:96,1,93.7500035762788,2|0,3:0|0:0,0:0:0:0:
204,321,153968,1,2,0:0:0:0:
123,299,154073,1,2,0:0:0:0:
185,237,154179,5,2,3:0:0:0:
180,217,154284,1,2,0:3:0:0:
274,262,154390,5,10,0:2:0:0:
269,242,154496,1,2,0:0:0:0:
367,277,154601,5,2,0:3:0:0:
362,257,154707,1,2,0:3:0:0:
447,309,154813,6,0,P|383:322|296:353,1,140.625005364418,4|0,3:1|0:0,0:0:0:0:
311,346,155024,2,0,P|290:376|254:384,1,62.5,2|2,0:3|0:3,0:0:0:0:
115,290,155235,6,0,P|169:305|227:333,1,93.7500035762788,10|0,0:0|0:0,0:0:0:0:
82,205,155446,2,0,P|119:142|170:127,1,93.7500035762788,2|0,3:0|0:0,0:0:0:0:
265,190,155658,2,0,P|212:205|139:219,1,93.7500035762788,2|0,0:0|0:0,0:0:0:0:
297,107,155869,1,2,3:0:0:0:
354,175,155975,1,2,0:3:0:0:
387,88,156080,6,0,P|426:59|474:60,1,93.75,10|0,0:0|0:0,0:0:0:0:
469,58,156291,2,0,B|441:100|441:100|475:151,1,93.7500035762788,2|2,0:3|0:3,0:0:0:0:
512,226,156503,6,0,P|448:239|361:270,1,140.625005364418,2|0,3:2|0:0,0:0:0:0:
376,263,156714,2,0,P|355:293|319:301,1,62.5,2|2,0:3|0:3,0:0:0:0:
198,195,156925,6,0,P|251:230|253:274,1,93.7500035762788,10|0,0:0|0:0,0:0:0:0:
133,375,157137,2,0,P|152:324|175:277,1,93.7500035762788,2|0,3:0|0:0,0:0:0:0:
78,132,157348,2,0,P|95:190|138:249,1,93.7500035762788,2|0,0:0|0:0,0:0:0:0:
256,123,157559,1,2,3:0:0:0:
205,52,157665,1,2,0:3:0:0:
292,41,157770,6,0,P|361:54|440:75,1,140.625005364418,10|0,0:0|0:0,0:0:0:0:
429,71,157982,2,0,P|449:114|487:117,1,62.5,2|0,0:3|0:0,0:0:0:0:
455,234,158193,6,0,P|374:260|321:285,1,140.625005364418,2|0,3:2|0:0,0:0:0:0:
323,283,158404,2,0,P|300:248|266:239,1,62.5,2|0,0:3|0:0,0:0:0:0:
37,205,158615,6,0,P|117:178|170:153,1,140.625005364418,10|0,0:0|0:0,0:0:0:0:
167,154,158827,2,0,P|188:187|222:196,1,62.5,2|0,3:0|0:0,0:0:0:0:
170,356,159038,5,2,0:0:0:0:
87,375,159144,1,2,0:0:0:0:
114,295,159249,2,0,P|157:276|208:281,1,93.7500035762788,2|2,3:0|0:3,0:0:0:0:
288,154,159461,2,0,P|336:163|393:125,1,93.7500035762788,10|0,0:0|0:0,0:0:0:0:
503,74,159672,2,0,P|473:146|458:217,1,140.625005364418,2|0,0:3|0:0,0:0:0:0:
459,206,159883,6,0,B|469:232|469:232|460:259,1,46.8750017881394,0|0,3:0|0:0,0:0:0:0:
434,222,160306,6,0,B|444:248|444:248|435:275,1,46.8750017881394,0|0,3:0|0:0,0:0:0:0:
404,238,160728,6,0,B|414:264|414:264|405:291,1,46.8750017881394,0|0,3:0|0:0,0:0:0:0:
318,277,161151,5,2,1:2:0:0:
317,263,161256,1,2,1:2:0:0:
309,182,161362,5,2,1:2:0:0:
308,168,161468,1,2,1:2:0:0:
300,84,161573,5,4,3:1:0:0:
254,94,161679,1,0,0:0:0:0:
207,101,161784,1,2,0:3:0:0:
160,108,161890,1,2,0:3:0:0:
86,66,161996,2,0,P|72:122|94:161,1,93.7500035762788,10|2,1:2|0:0,0:0:0:0:
171,255,162207,2,0,L|41:229,1,93.7500035762788,2|2,0:3|0:3,0:0:0:0:
239,317,162418,5,2,3:2:0:0:
266,238,162524,1,0,0:0:0:0:
214,173,162630,1,2,0:3:0:0:
160,108,162735,1,2,0:3:0:0:
192,31,162841,2,0,L|306:10,1,93.7500035762788,10|0,1:2|0:0,0:0:0:0:
471,153,163052,1,2,0:3:0:0:
485,69,163158,1,2,0:3:0:0:
404,95,163263,6,0,P|382:140|393:196,1,93.7500035762788,0|0,3:0|0:0,0:0:0:0:
512,288,163475,2,0,P|468:272|404:263,1,93.7500035762788,2|0,0:3|0:0,0:0:0:0:
243,369,163686,5,10,1:2:0:0:
184,308,163791,1,2,0:0:0:0:
219,231,163897,1,2,0:3:0:0:
275,292,164003,2,0,P|302:247|287:180,1,93.7500035762788,2|2,0:0|3:2,0:0:0:0:
142,75,164214,5,2,0:0:0:0:
157,157,164320,1,2,0:3:0:0:
238,139,164425,1,2,0:3:0:0:
322,123,164531,2,0,P|337:74|310:34,1,93.7500035762788,10|0,1:2|0:0,0:0:0:0:
142,75,164742,2,0,L|75:88,2,46.8750017881394,2|0|2,0:3|0:0|0:3,0:0:0:0:
215,0,164953,6,0,P|230:79|238:142,1,140.625005364418,2|0,3:2|0:0,0:0:0:0:
237,138,165165,2,0,P|209:167|203:199,1,62.5,2|0,0:3|0:0,0:0:0:0:
384,229,165376,6,0,P|315:213|268:209,1,93.7500035762788,10|0,1:2|0:0,0:0:0:0:
162,327,165587,2,0,P|207:314|226:254,1,93.7500035762788,2|0,0:3|0:0,0:0:0:0:
311,297,165799,2,0,P|326:343|351:400,1,93.7500035762788,2|0,3:2|0:0,0:0:0:0:
477,257,166010,2,0,P|500:201|521:149,1,93.7500035762788,2|2,0:3|0:3,0:0:0:0:
467,32,166221,6,0,P|416:51|368:62,1,93.75,10|0,1:2|0:0,0:0:0:0:
377,60,166432,2,0,B|401:97|401:97|383:142,1,93.7500035762788,2|0,0:3|0:0,0:0:0:0:
308,0,166644,6,0,P|274:61|250:127,1,140.625005364418,2|0,3:2|0:0,0:0:0:0:
250,126,166855,2,0,P|271:148|278:178,1,62.5,2|0,0:3|0:0,0:0:0:0:
98,214,167066,6,0,P|159:192|203:183,1,93.7500035762788,10|0,1:2|0:0,0:0:0:0:
331,246,167277,2,0,P|287:268|229:251,1,93.7500035762788,2|0,0:3|0:0,0:0:0:0:
167,106,167489,5,2,3:2:0:0:
187,65,167594,1,2,0:0:0:0:
225,35,167700,1,2,0:3:0:0:
265,37,167806,1,2,0:3:0:0:
305,62,167911,5,10,1:2:0:0:
250,126,168017,1,2,0:0:0:0:
167,106,168122,1,2,0:3:0:0:
112,171,168228,1,2,0:3:0:0:
37,133,168334,6,0,P|7:162|15:216,1,93.7500035762788,4|0,3:1|0:0,0:0:0:0:
136,335,168545,2,0,P|180:321|226:310,1,93.7500035762788,2|0,0:3|0:0,0:0:0:0:
422,275,168756,1,10,1:2:0:0:
395,355,168862,1,2,0:0:0:0:
314,333,168968,1,0,0:0:0:0:
342,253,169073,2,0,P|360:206|384:141,1,93.7500035762788,2|0,0:0|3:0,0:0:0:0:
428,0,169284,5,2,0:0:0:0:
484,68,169390,1,2,0:3:0:0:
455,141,169496,1,2,0:3:0:0:
395,79,169601,2,0,P|351:90|301:112,1,93.7500035762788,10|0,1:2|0:0,0:0:0:0:
236,153,169813,1,2,0:3:0:0:
236,153,169918,1,2,0:3:0:0:
222,69,170024,5,2,3:2:0:0:
153,117,170130,1,2,0:0:0:0:
160,201,170235,1,2,0:3:0:0:
235,237,170341,1,2,0:0:0:0:
310,199,170446,2,0,P|348:230|346:312,1,93.7500035762788,10|2,1:2|0:0,0:0:0:0:
208,359,170658,2,0,P|173:328|162:283,1,93.7500035762788,2|2,0:3|0:0,0:0:0:0:
308,342,170869,5,2,3:2:0:0:
390,356,170975,1,2,0:0:0:0:
359,271,171080,2,0,P|372:225|386:177,1,93.7500035762788,2|2,0:3|0:3,0:0:0:0:
245,77,171291,2,0,P|294:96|364:115,1,93.7500035762788,10|0,1:2|0:0,0:0:0:0:
235,237,171503,2,0,L|291:220,2,46.8750017881394,2|0|2,0:3|0:0|0:3,0:0:0:0:
162,283,171714,6,0,P|144:227|114:144,1,140.625005364418,2|0,3:2|0:0,0:0:0:0:
116,150,171925,2,0,P|83:142|67:111,1,62.5,2|0,0:3|0:0,0:0:0:0:
178,0,172137,6,0,P|162:65|128:73,1,93.7500035762788,10|0,1:2|0:0,0:0:0:0:
204,145,172348,2,0,P|248:128|332:103,1,93.7500035762788,2|0,0:3|0:0,0:0:0:0:
353,16,172559,2,0,P|371:63|430:75,1,93.7500035762788,2|0,3:2|0:0,0:0:0:0:
433,241,172770,1,2,0:3:0:0:
512,210,172876,1,2,0:3:0:0:
445,158,172982,2,0,P|397:166|358:196,1,93.7500035762788,10|0,1:2|0:0,0:0:0:0:
168,224,173193,5,2,0:3:0:0:
204,145,173299,1,0,0:0:0:0:
228,289,173404,2,0,P|176:310|115:283,1,106.250002026558,2|0,3:2|0:0,0:0:0:0:
290,169,173615,5,2,0:3:0:0:
304,251,173721,1,2,0:3:0:0:
363,128,173827,2,0,P|312:87|246:99,1,106.250002026558,10|0,1:2|0:0,0:0:0:0:
208,149,174038,1,2,0:3:0:0:
208,149,174144,1,2,0:3:0:0:
136,88,174249,5,2,3:2:0:0:
120,177,174355,1,2,3:2:0:0:
187,236,174461,1,2,3:0:0:0:
170,325,174566,1,2,3:0:0:0:
99,266,174672,6,0,L|40:255,2,31.25,10|0|0,1:2|0:0|0:0,0:0:0:0:
263,350,174883,2,0,L|312:339,2,31.25,2|0|0,0:3|0:0|0:0,0:0:0:0:
413,318,175094,6,0,P|420:273|436:227,1,93.7500035762788,4|0,3:1|0:0,0:0:0:0:
512,75,175306,2,0,P|492:127|422:139,1,93.7500035762788,2|0,0:3|0:0,0:0:0:0:
335,33,175517,1,10,1:2:0:0:
335,33,175622,2,0,P|382:48|431:63,1,93.7500035762788,2|2,0:0|0:3,0:0:0:0:
280,185,175834,6,0,L|264:85,1,93.7500035762788,2|2,0:3|3:2,0:0:0:0:
460,143,176045,2,0,L|480:259,1,93.7500035762788,2|2,0:0|0:3,0:0:0:0:
341,357,176256,1,2,0:3:0:0:
341,357,176362,2,0,P|296:354|272:301,1,93.7500035762788,10|0,1:2|0:0,0:0:0:0:
110,252,176573,2,0,P|77:241|52:236,2,46.8750017881394,2|0|2,0:3|0:0|0:3,0:0:0:0:
181,299,176784,6,0,P|187:212|160:181,1,93.7500035762788,0|0,3:0|0:0,0:0:0:0:
0,165,176996,2,0,L|100:142,1,93.7500035762788,2|0,0:3|0:0,0:0:0:0:
192,33,177207,1,10,1:2:0:0:
192,33,177313,2,0,L|175:134,1,93.7500035762788,2|2,0:0|0:3,0:0:0:0:
294,258,177524,6,0,L|314:368,1,93.7500035762788,2|0,0:0|3:0,0:0:0:0:
110,252,177735,2,0,L|94:159,1,93.7500035762788,2|2,0:0|0:3,0:0:0:0:
269,118,177946,1,2,0:3:0:0:
269,118,178052,2,0,P|320:149|309:203,1,93.7500035762788,10|0,1:2|0:0,0:0:0:0:
202,320,178263,2,0,P|198:343|195:366,2,46.8750017881394,2|0|2,0:3|0:0|0:3,0:0:0:0:
205,231,178475,6,0,P|260:245|304:263,1,93.7500035762788,0|0,3:0|0:0,0:0:0:0:
416,371,178686,2,0,P|369:371|344:311,1,93.7500035762788,2|0,0:3|0:0,0:0:0:0:
476,208,178897,1,10,1:2:0:0:
476,208,179003,2,0,P|459:156|444:115,1,93.7500035762788,2|2,0:0|0:3,0:0:0:0:
293,25,179214,6,0,P|281:79|270:147,1,93.7500035762788,2|0,0:0|3:0,0:0:0:0:
403,253,179425,2,0,P|383:201|363:150,1,93.7500035762788,2|2,0:0|0:3,0:0:0:0:
209,235,179637,1,2,0:3:0:0:
209,235,179742,2,0,P|252:235|291:199,1,93.7500035762788,10|0,1:2|0:0,0:0:0:0:
88,117,179953,2,0,L|28:129,2,46.8750017881394,2|0|2,0:3|0:0|0:3,0:0:0:0:
161,68,180165,6,0,P|174:113|144:177,1,93.7500035762788,0|0,3:0|0:0,0:0:0:0:
188,320,180376,2,0,P|185:272|226:224,1,93.7500035762788,2|0,0:3|0:0,0:0:0:0:
315,161,180587,2,0,L|447:137,1,93.7500035762788,8|0,1:2|0:0,0:0:0:0:
263,1,180799,6,0,P|249:45|262:89,1,93.7500035762788,2|0,0:3|0:0,0:0:0:0:
315,161,181010,2,0,L|447:137,1,93.7500035762788,2|2,3:2|0:0,0:0:0:0:
389,315,181221,2,0,L|298:334,1,93.7500035762788,2|2,0:3|0:3,0:0:0:0:
392,229,181432,1,10,1:2:0:0:
474,208,181538,1,2,0:0:0:0:
492,126,181644,1,2,0:3:0:0:
407,144,181749,1,2,0:3:0:0:
420,61,181855,5,4,3:1:0:0:
420,61,182066,6,0,P|380:39|333:36,1,93.7500035762788,2|0,0:3|0:0,0:0:0:0:
235,180,182277,1,10,1:2:0:0:
235,180,182383,2,0,L|255:84,1,93.7500035762788,2|2,0:0|0:3,0:0:0:0:
90,10,182594,6,0,L|180:34,1,93.7500035762788,2|0,0:0|3:0,0:0:0:0:
143,196,182806,2,0,L|49:171,1,93.7500035762788,2|2,0:0|0:3,0:0:0:0:
39,325,183017,1,2,0:3:0:0:
39,325,183122,2,0,P|90:316|119:266,1,93.7500035762788,10|0,1:2|0:0,0:0:0:0:
285,311,183334,2,0,L|334:297,2,46.8750017881394,2|0|2,0:3|0:0|0:3,0:0:0:0:
211,266,183545,6,0,P|197:325|216:367,1,93.7500035762788,2|0,3:2|0:0,0:0:0:0:
365,216,183756,2,0,P|318:207|261:199,1,93.7500035762788,2|0,0:3|0:0,0:0:0:0:
165,64,183968,1,10,1:2:0:0:
165,64,184073,2,0,P|214:94|220:148,1,93.7500035762788,2|2,0:0|0:3,0:0:0:0:
113,235,184284,6,0,P|124:188|139:134,1,93.7500035762788,2|0,0:0|3:0,0:0:0:0:
340,23,184496,2,0,P|329:68|317:113,1,93.7500035762788,2|2,0:0|0:3,0:0:0:0:
211,266,184707,1,2,0:3:0:0:
211,266,184813,2,0,P|258:283|278:332,1,93.7500035762788,10|0,1:2|0:0,0:0:0:0:
440,257,185024,2,0,P|468:263|509:276,2,46.8750017881394,2|0|2,0:3|0:0|0:3,0:0:0:0:
380,190,185235,6,0,P|355:230|355:276,1,93.7500035762788,2|0,3:2|0:0,0:0:0:0:
469,172,185446,2,0,P|454:123|438:76,1,93.7500035762788,2|0,0:3|0:0,0:0:0:0:
297,140,185658,1,10,1:2:0:0:
297,140,185763,2,0,P|316:76|332:33,1,93.7500035762788,2|2,0:0|0:3,0:0:0:0:
202,148,185975,6,0,L|109:160,1,93.7500035762788,2|0,0:0|3:0,0:0:0:0:
19,50,186186,2,0,L|111:37,1,93.7500035762788,2|2,0:0|0:3,0:0:0:0:
49,232,186397,1,2,0:3:0:0:
49,232,186503,2,0,P|77:286|137:281,1,93.7500035762788,10|0,1:2|3:0,0:0:0:0:
207,194,186714,2,0,L|200:137,2,46.8750017881394,2|0|2,3:0|0:0|3:0,0:0:0:0:
221,282,186925,5,0,3:0:0:0:
391,253,187982,5,0,3:0:0:0:
401,328,188087,1,0,3:0:0:0:
410,291,188193,2,0,P|442:296|456:301,1,43.75,2|0,0:3|0:0,0:0:0:0:
453,300,188615,6,0,P|446:263|442:227,1,62.5,2|0,3:2|0:0,0:0:0:0:
326,157,188932,2,0,P|355:165|395:173,1,62.5,2|0,0:0|0:0,0:0:0:0:
512,124,189249,2,0,P|476:111|429:105,1,62.5,2|2,0:0|0:0,0:0:0:0:
392,34,189566,6,0,P|366:39|350:46,1,31.25,0|2,0:0|0:0,0:0:0:0:
285,82,189777,2,0,P|252:51|243:-4,1,93.75,2|2,0:0|0:0,0:0:0:0:
241,5,190200,1,2,0:0:0:0:
162,49,190306,6,0,P|159:80|151:110,1,62.5,2|0,3:2|0:0,0:0:0:0:
109,189,190622,2,0,P|112:220|120:250,1,62.5,2|0,0:0|0:0,0:0:0:0:
252,276,190939,2,0,L|187:306,1,62.5,2|2,0:0|0:0,0:0:0:0:
119,337,191256,5,0,0:0:0:0:
315,375,191468,1,2,0:0:0:0:
315,375,191573,2,0,P|324:335|339:287,1,62.5,2|2,0:1|0:0,0:0:0:0:
280,177,191996,6,0,P|307:213|332:253,1,62.5,2|0,3:2|0:0,0:0:0:0:
343,111,192313,2,0,P|358:62|375:29,1,62.5,2|0,0:0|0:0,0:0:0:0:
251,94,192630,2,0,P|214:111|178:120,1,62.5,2|2,0:0|0:0,0:0:0:0:
89,58,192946,6,0,L|130:63,1,31.25,0|2,0:0|0:0,0:0:0:0:
113,153,193158,2,0,P|72:159|33:173,1,62.5,2|0,0:0|0:0,0:0:0:0:
0,238,193475,1,2,0:0:0:0:
135,364,193686,6,0,P|149:315|135:285,1,62.5,2|0,3:2|0:0,0:0:0:0:
220,256,194003,2,0,P|195:231|164:222,1,62.5,2|0,0:0|0:0,0:0:0:0:
112,152,194320,2,0,L|129:126,1,31.25,2|0,0:0|0:0,0:0:0:0:
196,47,194531,5,2,0:0:0:0:
222,29,194637,1,2,0:0:0:0:
256,45,194742,1,2,0:0:0:0:
271,68,194848,1,2,0:0:0:0:
218,131,194953,2,0,P|255:154|329:162,1,93.75,2|0,0:1|0:0,0:0:0:0:
432,65,195376,6,0,P|393:93|378:130,1,74.9999977111817,2|2,3:2|0:1,0:0:0:0:
399,277,195693,2,0,L|381:205,1,74.9999977111817,2|0,0:0|0:0,0:0:0:0:
296,257,196010,2,0,P|247:276|233:311,1,74.9999977111817,2|2,0:1|0:0,0:0:0:0:
254,379,196327,6,0,L|290:357,1,37.4999988555908,0|2,0:0|0:1,0:0:0:0:
168,346,196538,2,0,P|126:336|82:323,1,74.9999977111817,2|0,0:0|0:0,0:0:0:0:
13,298,196855,1,2,0:1:0:0:
44,177,197066,6,0,P|82:145|120:150,1,74.9999977111817,2|2,3:2|0:1,0:0:0:0:
181,104,197383,2,0,P|223:124|241:164,1,74.9999977111817,2|0,0:0|0:0,0:0:0:0:
327,175,197700,2,0,L|299:211,1,37.4999988555908,2|0,0:1|0:0,0:0:0:0:
257,284,197911,5,2,0:0:0:0:
257,284,198017,2,0,P|292:295|329:291,1,74.9999977111817,2|2,0:0|0:1,0:0:0:0:
467,219,198334,2,0,P|431:215|388:231,1,74.9999977111817,2|2,0:0|0:1,0:0:0:0:
399,383,198756,6,0,P|407:339|413:291,1,74.9999977111817,2|2,3:2|0:1,0:0:0:0:
479,145,199073,2,0,P|471:189|465:237,1,74.9999977111817,2|0,0:0|0:0,0:0:0:0:
388,130,199390,2,0,L|381:93,1,37.4999988555908,2|0,0:1|0:0,0:0:0:0:
361,9,199601,1,2,0:0:0:0:
296,135,199813,1,0,0:0:0:0:
296,135,199918,2,0,P|247:139|200:86,1,112.499996566773,2|2,0:0|0:0,0:0:0:0:
177,18,200341,1,0,0:0:0:0:
93,31,200446,6,0,L|96:63,1,18.7499994277954,2|0,3:2|0:0,0:0:0:0:
123,346,201503,2,0,P|125:366|127:391,2,37.4999988555909,2|0|2,0:0|0:0|0:0,0:0:0:0:
