osu file format v14

[General]
AudioFilename: audio.mp3
AudioLeadIn: 0
PreviewTime: 49874
Countdown: 0
SampleSet: Soft
StackLeniency: 0.4
Mode: 0
LetterboxInBreaks: 0
WidescreenStoryboard: 1

[Editor]
Bookmarks: 7655,21176,34697,51599,65120,78641,92162,110802,129443,148034,161555,175076,188597,202119
DistanceSpacing: 0.2
BeatDivisor: 8
GridSize: 32
TimelineZoom: 2.900005

[Metadata]
Title:God-ish
TitleUnicode:神っぽいな
Artist:sekai
ArtistUnicode:sekai
Creator:seros
Version:!
Source:
Tags:corsace closed ro16 nm3 cc22 cover jpop j-pop japanese pop vocaloid Sankaku Zuwari ピノキオピー godish kami ppoi poi na pinocchiop hatsune miku nenneO petal matha climbx3145 climb kuse KuBsNia_ZhoYL_ irin surou setu shiratamamywife
BeatmapID:3601680
BeatmapSetID:1759764

[Difficulty]
HPDrainRate:4
CircleSize:4
OverallDifficulty:8.5
ApproachRate:9.6
SliderMultiplier:2.4
SliderTickRate:1

[Events]
//Background and Video events
0,0,"bg.jpg",0,0
//Break Periods
//Storyboard Layer 0 (Background)
//Storyboard Layer 1 (Fail)
//Storyboard Layer 2 (Pass)
//Storyboard Layer 3 (Foreground)
//Storyboard Layer 4 (Overlay)
//Storyboard Sound Samples

[TimingPoints]
913,422.535211267606,4,2,13,20,1,0
913,-1000,4,2,13,20,0,0
3236,-1000,4,2,13,5,0,0
3307,-200,4,2,13,20,0,0
4222,-200,4,2,13,5,0,0
6828,-666.666666666667,4,2,13,20,0,0
7673,-66.6666666666667,4,2,10,30,0,0
7990,-100,4,2,10,30,0,0
8254,-100,4,2,10,5,0,0
8307,-100,4,2,10,30,0,0
9363,-83.3333333333333,4,2,10,30,0,0
9680,-100,4,2,10,30,0,0
9997,-55.5555555555556,4,2,10,30,0,0
10155,-55.5555555555556,4,2,10,5,0,0
10208,-100,4,2,10,30,0,0
10842,-166.666666666667,4,2,10,30,0,0
11053,-66.6666666666667,4,2,10,30,0,0
11370,-100,4,2,10,30,0,0
12215,-83.3333333333333,4,2,10,30,0,0
13166,-100,4,2,10,30,0,0
14011,-250,4,2,10,30,0,0
14434,-83.3333333333333,4,2,10,40,0,0
15015,-83.3333333333333,4,2,10,5,0,0
15067,-100,4,2,10,40,0,0
15596,-83.3333333333333,4,2,10,40,0,0
16441,-71.4285714285714,4,2,10,40,0,0
16758,-100,4,2,10,40,0,0
16969,-83.3333333333333,4,2,10,40,0,0
17391,-100,4,2,10,40,0,0
17603,-62.5,4,2,10,40,0,0
17761,-62.5,4,2,10,5,0,0
17814,-83.3333333333333,4,2,10,40,0,0
18448,-62.5,4,2,10,40,0,0
18606,-62.5,4,2,10,5,0,0
18659,-100,4,2,10,40,0,0
18976,-83.3333333333333,4,2,10,40,0,0
20560,-83.3333333333333,4,2,10,20,0,0
20772,-83.3333333333333,4,2,14,40,0,0
20824,-83.3333333333333,4,2,14,5,0,0
21194,-125,4,2,11,50,0,0
21405,-71.4285714285714,4,2,12,50,0,0
21722,-125,4,2,12,50,0,0
21827,-125,4,2,11,50,0,0
21934,-71.4285714285714,4,2,11,50,0,0
22462,-125,4,2,11,50,0,0
22673,-125,4,2,12,50,0,0
22699,-62.5,4,2,12,50,0,0
22831,-62.5,4,2,12,5,0,0
22884,-125,4,2,12,50,0,0
23096,-71.4285714285714,4,2,12,50,0,0
23413,-125,4,2,12,50,0,0
23518,-125,4,2,11,50,0,0
23624,-71.4285714285714,4,2,11,50,0,0
24152,-125,4,2,11,50,0,0
24363,-125,4,2,12,50,0,0
24390,-62.5,4,2,12,50,0,0
24522,-62.5,4,2,12,5,0,0
24574,-125,4,2,12,50,0,0
24786,-71.4285714285714,4,2,12,50,0,0
25103,-125,4,2,12,50,0,0
25208,-125,4,2,11,50,0,0
25314,-71.4285714285714,4,2,11,50,0,0
25842,-125,4,2,11,50,0,0
26053,-125,4,2,12,50,0,0
26080,-62.5,4,2,12,50,0,0
26212,-62.5,4,2,12,5,0,0
26265,-125,4,2,12,50,0,0
26476,-71.4285714285714,4,2,12,50,0,0
26898,-100,4,2,12,50,0,0
26950,-100,4,2,11,50,0,0
27532,-83.3333333333333,4,2,11,50,0,0
27955,-125,4,2,11,50,0,0
28166,-71.4285714285714,4,2,12,50,0,0
28483,-125,4,2,12,50,0,0
28588,-125,4,2,11,50,0,0
28694,-71.4285714285714,4,2,11,50,0,0
29222,-125,4,2,11,50,0,0
29433,-125,4,2,12,50,0,0
29460,-62.5,4,2,12,50,0,0
29592,-62.5,4,2,12,5,0,0
29645,-125,4,2,12,50,0,0
29856,-71.4285714285714,4,2,12,50,0,0
30067,-71.4285714285714,4,2,12,50,0,0
30173,-125,4,2,12,50,0,0
30278,-125,4,2,11,50,0,0
30384,-71.4285714285714,4,2,11,50,0,0
30913,-125,4,2,11,50,0,0
31123,-125,4,2,12,50,0,0
31150,-62.5,4,2,12,50,0,0
31282,-62.5,4,2,12,5,0,0
31335,-125,4,2,12,50,0,0
31546,-71.4285714285714,4,2,12,50,0,0
31863,-125,4,2,12,50,0,0
31968,-125,4,2,11,50,0,0
32074,-71.4285714285714,4,2,11,50,0,0
32603,-125,4,2,11,50,0,0
32814,-83.3333333333333,4,2,12,50,0,0
32866,-83.3333333333333,4,2,11,50,0,0
33342,-83.3333333333333,4,2,11,20,0,0
34082,-83.3333333333333,4,2,10,30,0,0
34134,-83.3333333333333,4,2,10,5,0,0
34187,-83.3333333333333,4,2,10,30,0,0
34239,-83.3333333333333,4,2,10,5,0,0
34293,-83.3333333333333,4,2,10,30,0,0
34715,-166.666666666667,4,2,10,30,0,0
35349,-100,4,2,10,30,0,0
35983,-50,4,2,10,30,0,0
36035,-50,4,2,10,5,0,0
36089,-50,4,2,10,30,0,0
36405,-166.666666666667,4,2,10,30,0,0
37673,-55.5555555555556,4,2,10,30,0,0
38096,-83.3333333333333,4,2,10,40,0,0
38518,-66.6666666666667,4,2,10,40,0,0
38941,-83.3333333333333,4,2,10,40,0,0
39363,-66.6666666666667,4,2,10,40,0,0
39574,-100,4,2,10,40,0,0
39786,-71.4285714285714,4,2,10,40,0,0
40208,-52.6315789473684,4,2,10,40,0,0
40366,-52.6315789473684,4,2,10,5,0,0
40420,-83.3333333333333,4,2,10,40,0,0
41687,-166.666666666667,4,2,10,30,0,0
42110,-83.3333333333333,4,2,10,30,0,0
42743,-50,4,2,10,30,0,0
42795,-50,4,2,10,5,0,0
42849,-50,4,2,10,30,0,0
43166,-166.666666666667,4,2,10,30,0,0
44222,-50,4,2,10,40,0,0
44856,-83.3333333333333,4,2,10,40,0,0
45279,-71.4285714285714,4,2,10,40,0,0
45490,-125,4,2,10,40,0,0
45701,-83.3333333333333,4,2,10,40,0,0
45913,-125,4,2,10,40,0,0
46124,-50,4,2,10,40,0,0
46282,-50,4,2,10,5,0,0
46335,-100,4,2,10,40,0,0
48236,-1000,4,2,10,40,0,0
49503,-1000,4,2,10,10,0,0
50138,-1000,4,2,10,30,0,0
51194,-33.3333333333333,4,2,10,55,0,0
51246,-33.3333333333333,4,2,10,5,0,0
51405,-83.3333333333333,4,2,10,40,0,0
51617,-66.6666666666667,4,2,10,65,0,1
51828,-66.6666666666667,4,2,12,65,0,1
52039,-50,4,2,11,65,0,1
52197,-50,4,2,11,5,0,1
52251,-83.3333333333333,4,2,12,65,0,1
52462,-125,4,2,12,65,0,1
52779,-125,4,2,11,65,0,1
52884,-66.6666666666667,4,2,11,65,0,1
53096,-66.6666666666667,4,2,12,65,0,1
53148,-66.6666666666667,4,2,11,65,0,1
53518,-66.6666666666667,4,2,12,65,0,1
53729,-50,4,2,11,65,0,1
53887,-50,4,2,11,5,0,1
53941,-83.3333333333333,4,2,12,65,0,1
54152,-125,4,2,12,65,0,1
54469,-66.6666666666667,4,2,11,65,0,1
54786,-66.6666666666667,4,2,12,65,0,1
54838,-66.6666666666667,4,2,11,65,0,1
55208,-83.3333333333333,4,2,12,65,0,1
55420,-66.6666666666667,4,2,11,65,0,1
55631,-66.6666666666667,4,2,12,65,0,1
56159,-66.6666666666667,4,2,11,65,0,1
56476,-83.3333333333333,4,2,12,65,0,1
56528,-83.3333333333333,4,2,11,65,0,1
56687,-66.6666666666667,4,2,11,65,0,1
56898,-66.6666666666667,4,2,12,65,0,1
57110,-66.6666666666667,4,2,11,65,0,1
57321,-66.6666666666667,4,2,12,65,0,1
57955,-66.6666666666667,4,2,11,65,0,1
58166,-66.6666666666667,4,2,12,65,0,1
58192,-66.6666666666667,4,2,11,65,0,1
58589,-66.6666666666667,4,2,12,65,0,1
58800,-50,4,2,11,65,0,1
58958,-50,4,2,11,5,0,1
59011,-83.3333333333333,4,2,12,65,0,1
59222,-125,4,2,12,65,0,1
59540,-125,4,2,11,65,0,1
59645,-66.6666666666667,4,2,11,65,0,1
59856,-66.6666666666667,4,2,12,65,0,1
59908,-66.6666666666667,4,2,11,65,0,1
60279,-66.6666666666667,4,2,12,65,0,1
60490,-50,4,2,11,65,0,1
60648,-50,4,2,11,5,0,1
60701,-83.3333333333333,4,2,12,65,0,1
60913,-125,4,2,12,65,0,1
61230,-125,4,2,11,65,0,1
61335,-66.6666666666667,4,2,11,65,0,1
61546,-66.6666666666667,4,2,12,65,0,1
61598,-66.6666666666667,4,2,11,65,0,1
61969,-83.3333333333333,4,2,12,65,0,1
62180,-66.6666666666667,4,2,11,65,0,1
62391,-83.3333333333333,4,2,12,65,0,1
62603,-66.6666666666667,4,2,12,65,0,1
62814,-83.3333333333333,4,2,12,65,0,1
62919,-83.3333333333333,4,2,11,65,0,1
63025,-66.6666666666667,4,2,11,65,0,1
63236,-66.6666666666667,4,2,12,65,0,1
63288,-66.6666666666667,4,2,11,65,0,1
63448,-66.6666666666667,4,2,11,65,0,0
64293,-250,4,2,11,55,0,0
64609,-250,4,2,11,35,0,0
64715,-250,4,2,11,50,0,0
65138,-250,4,2,12,70,0,1
65560,-250,4,2,11,70,0,1
65771,-250,4,2,12,70,0,1
66405,-66.6666666666667,4,2,11,70,0,1
66617,-66.6666666666667,4,2,12,70,0,1
67251,-66.6666666666667,4,2,11,70,0,1
67462,-66.6666666666667,4,2,12,70,0,1
67725,-66.6666666666667,4,2,12,5,0,1
67779,-66.6666666666667,4,2,12,70,0,1
67831,-66.6666666666667,4,2,12,5,0,1
67884,-66.6666666666667,4,2,12,70,0,1
67936,-66.6666666666667,4,2,11,70,0,1
68096,-50,4,2,11,70,0,1
68254,-50,4,2,11,5,0,1
68307,-66.6666666666667,4,2,12,70,0,1
68359,-66.6666666666667,4,2,11,70,0,1
68729,-66.6666666666667,4,2,12,70,0,1
68941,-50,4,2,11,70,0,1
69099,-50,4,2,11,5,0,1
69152,-66.6666666666667,4,2,12,70,0,1
69680,-66.6666666666667,4,2,11,70,0,1
69997,-66.6666666666667,4,2,12,70,0,1
70049,-66.6666666666667,4,2,11,70,0,1
70420,-66.6666666666667,4,2,12,70,0,1
70631,-50,4,2,11,70,0,1
70789,-50,4,2,11,5,0,1
70842,-66.6666666666667,4,2,12,70,0,1
71476,-66.6666666666667,4,2,11,70,0,1
71898,-43.4782608695652,4,2,12,70,0,1
72056,-43.4782608695652,4,2,12,5,0,1
72110,-66.6666666666667,4,2,12,70,0,1
72321,-66.6666666666667,4,2,11,70,0,1
72955,-66.6666666666667,4,2,12,70,0,1
73166,-50,4,2,11,70,0,1
73324,-50,4,2,11,5,0,1
73377,-66.6666666666667,4,2,12,70,0,1
73429,-66.6666666666667,4,2,11,70,0,1
73800,-66.6666666666667,4,2,12,70,0,1
74011,-66.6666666666667,4,2,11,70,0,1
74222,-66.6666666666667,4,2,12,70,0,1
74750,-66.6666666666667,4,2,11,70,0,1
74856,-40,4,2,11,70,0,1
75014,-40,4,2,11,5,0,1
75067,-66.6666666666667,4,2,12,70,0,1
75119,-66.6666666666667,4,2,11,70,0,1
75490,-66.6666666666667,4,2,12,70,0,1
75701,-50,4,2,11,70,0,1
75859,-50,4,2,11,5,0,1
75913,-66.6666666666667,4,2,12,70,0,1
76440,-66.6666666666667,4,2,11,70,0,1
76546,-50,4,2,11,70,0,1
76704,-50,4,2,11,5,0,1
76758,-66.6666666666667,4,2,12,70,0,1
76810,-66.6666666666667,4,2,11,70,0,1
77180,-66.6666666666667,4,2,12,70,0,1
77391,-66.6666666666667,4,2,11,70,0,1
77603,-66.6666666666667,4,2,12,70,0,1
77708,-66.6666666666667,4,2,11,70,0,1
78262,-66.6666666666667,4,2,11,40,0,1
78553,-66.6666666666667,4,2,11,40,0,0
78659,-125,4,2,11,50,0,0
78870,-71.4285714285714,4,2,12,50,0,0
79187,-125,4,2,12,50,0,0
79292,-125,4,2,11,50,0,0
79398,-71.4285714285714,4,2,11,50,0,0
80138,-71.4285714285714,4,2,12,50,0,0
80216,-71.4285714285714,4,2,11,50,0,0
80349,-125,4,2,11,50,0,0
80560,-71.4285714285714,4,2,12,50,0,0
80877,-125,4,2,12,50,0,0
80982,-125,4,2,11,50,0,0
81089,-71.4285714285714,4,2,11,50,0,0
81828,-71.4285714285714,4,2,12,50,0,0
81906,-71.4285714285714,4,2,11,50,0,0
82039,-125,4,2,11,50,0,0
82251,-71.4285714285714,4,2,12,50,0,0
82567,-125,4,2,12,50,0,0
82672,-125,4,2,11,50,0,0
82779,-71.4285714285714,4,2,11,50,0,0
83518,-71.4285714285714,4,2,12,50,0,0
83596,-71.4285714285714,4,2,11,50,0,0
84574,-71.4285714285714,4,2,11,35,0,0
84997,-71.4285714285714,4,2,11,50,0,0
85208,-100,4,2,11,50,0,0
85420,-125,4,2,11,50,0,0
85631,-71.4285714285714,4,2,12,50,0,0
85948,-125,4,2,12,50,0,0
86053,-125,4,2,11,50,0,0
86159,-71.4285714285714,4,2,11,50,0,0
86898,-71.4285714285714,4,2,12,50,0,0
86976,-71.4285714285714,4,2,11,50,0,0
87110,-125,4,2,11,50,0,0
87321,-71.4285714285714,4,2,12,50,0,0
87638,-125,4,2,12,50,0,0
87743,-125,4,2,11,50,0,0
87849,-71.4285714285714,4,2,11,50,0,0
88589,-71.4285714285714,4,2,12,50,0,0
88667,-71.4285714285714,4,2,11,50,0,0
88800,-125,4,2,11,50,0,0
89011,-71.4285714285714,4,2,12,50,0,0
89328,-125,4,2,12,50,0,0
89433,-125,4,2,11,50,0,0
89539,-71.4285714285714,4,2,11,50,0,0
90279,-71.4285714285714,4,2,12,50,0,0
90331,-71.4285714285714,4,2,11,50,0,0
91335,-250,4,2,11,35,0,0
91758,-33.3333333333333,4,2,10,40,0,0
92180,582.52427184466,4,2,10,40,1,0
93053,-166.666666666667,4,2,10,40,0,0
94582,-166.666666666667,4,2,10,5,0,0
94655,-125,4,2,10,40,0,0
96548,-71.4285714285714,4,2,12,40,0,0
96620,-71.4285714285714,4,2,11,40,0,0
96693,-71.4285714285714,4,2,12,40,0,0
96766,-71.4285714285714,4,2,11,40,0,0
96912,-71.4285714285714,4,2,11,5,0,0
96985,-71.4285714285714,4,2,11,40,0,0
97713,-100,4,2,12,40,0,0
97785,-100,4,2,11,40,0,0
97858,-100,4,2,12,40,0,0
97931,-100,4,2,11,40,0,0
98005,-100,4,2,12,40,0,0
98368,-100,4,2,11,40,0,0
98441,-100,4,2,12,40,0,0
98514,-100,4,2,11,40,0,0
98587,-100,4,2,12,40,0,0
98951,-100,4,2,11,40,0,0
99024,-100,4,2,12,40,0,0
99097,-100,4,2,11,40,0,0
99170,-71.4285714285714,4,2,11,40,0,0
99242,-71.4285714285714,4,2,11,5,0,0
99315,-71.4285714285714,4,2,11,40,0,0
100044,-71.4285714285714,4,2,12,40,0,0
100116,-71.4285714285714,4,2,11,40,0,0
100189,-71.4285714285714,4,2,12,40,0,0
100262,-71.4285714285714,4,2,11,40,0,0
100626,-100,4,2,11,40,0,0
100917,-71.4285714285714,4,2,12,40,0,0
100965,-71.4285714285714,4,2,11,40,0,0
101062,-71.4285714285714,4,2,12,40,0,0
101111,-71.4285714285714,4,2,11,40,0,0
101209,-50,4,2,12,40,0,0
101245,-50,4,2,11,40,0,0
101354,-50,4,2,12,40,0,0
101391,-50,4,2,11,40,0,0
101572,-50,4,2,11,5,0,0
101646,-62.5,4,2,11,40,0,0
102374,-62.5,4,2,12,40,0,0
102665,-62.5,4,2,11,40,0,0
102956,-71.4285714285714,4,2,12,40,0,0
103028,-71.4285714285714,4,2,11,40,0,0
103101,-71.4285714285714,4,2,12,40,0,0
103174,-71.4285714285714,4,2,11,40,0,0
103247,-71.4285714285714,4,2,12,40,0,0
103612,-71.4285714285714,4,2,11,40,0,0
103684,-71.4285714285714,4,2,12,40,0,0
103757,-71.4285714285714,4,2,11,40,0,0
103830,-50,4,2,11,40,0,0
103902,-50,4,2,11,5,0,0
103976,-50,4,2,11,40,0,0
104705,-50,4,2,12,40,0,0
104996,-50,4,2,11,40,0,0
105286,-100,4,2,11,40,0,0
105431,-100,4,2,12,40,0,0
105504,-100,4,2,11,40,0,0
105578,-100,4,2,12,40,0,0
105869,-71.4285714285714,4,2,11,40,0,0
106014,-71.4285714285714,4,2,12,40,0,0
106087,-71.4285714285714,4,2,11,40,0,0
106160,-50,4,2,11,40,0,0
106232,-50,4,2,11,5,0,0
106306,-50,4,2,11,40,0,0
107034,-100,4,2,12,40,0,0
107106,-100,4,2,11,40,0,0
107179,-100,4,2,12,40,0,0
107252,-100,4,2,11,40,0,0
107616,-100,4,2,12,40,0,0
108272,-100,4,2,11,40,0,0
108344,-100,4,2,12,40,0,0
108417,-100,4,2,11,40,0,0
108490,-50,4,2,11,40,0,0
108562,-50,4,2,11,5,0,0
108636,-71.4285714285714,4,2,11,40,0,0
108781,-71.4285714285714,4,2,11,5,0,0
109655,-71.4285714285714,4,2,11,20,0,0
110238,-71.4285714285714,4,2,10,35,0,0
110820,-71.4285714285714,4,2,13,35,0,0
111111,-71.4285714285714,4,2,12,35,0,0
111694,-100,4,2,12,40,0,0
111766,-100,4,2,11,40,0,0
111985,-83.3333333333333,4,2,11,40,0,0
112277,-100,4,2,12,40,0,0
112349,-100,4,2,11,40,0,0
112568,-100,4,2,12,40,0,0
112713,-100,4,2,11,40,0,0
112859,-100,4,2,12,40,0,0
112932,-100,4,2,11,40,0,0
113150,-71.4285714285714,4,2,11,40,0,0
113441,-71.4285714285714,4,2,12,40,0,0
114024,-100,4,2,12,40,0,0
114096,-100,4,2,11,40,0,0
114315,-83.3333333333333,4,2,11,40,0,0
114607,-100,4,2,11,40,0,0
115189,-100,4,2,12,40,0,0
115262,-100,4,2,11,40,0,0
115335,-100,4,2,12,40,0,0
115408,-100,4,2,11,40,0,0
115480,-71.4285714285714,4,2,11,40,0,0
115771,-71.4285714285714,4,2,12,40,0,0
116354,-100,4,2,12,40,0,0
116426,-100,4,2,11,40,0,0
116937,-100,4,2,12,40,0,0
117009,-100,4,2,11,40,0,0
117228,-100,4,2,12,40,0,0
117374,-100,4,2,11,40,0,0
117519,-100,4,2,12,40,0,0
117592,-100,4,2,11,40,0,0
117811,-125,4,2,11,40,0,0
118102,-166.666666666667,4,2,12,40,0,0
118393,-100,4,2,12,40,0,0
118684,-83.3333333333333,4,2,12,40,0,0
118756,-83.3333333333333,4,2,11,40,0,0
118976,-25,4,2,11,40,0,0
119849,-125,4,2,12,40,0,0
120141,-71.4285714285714,4,2,11,40,0,0
120432,-71.4285714285714,4,2,12,40,0,0
121014,-100,4,2,12,40,0,0
121086,-100,4,2,11,40,0,0
121597,-100,4,2,12,40,0,0
121669,-100,4,2,11,40,0,0
121888,-100,4,2,12,40,0,0
122034,-100,4,2,11,40,0,0
122179,-100,4,2,12,40,0,0
122252,-100,4,2,11,40,0,0
122471,-71.4285714285714,4,2,11,40,0,0
122762,-71.4285714285714,4,2,12,40,0,0
123345,-100,4,2,12,40,0,0
123417,-100,4,2,11,40,0,0
123636,-83.3333333333333,4,2,11,40,0,0
123927,-100,4,2,11,40,0,0
124510,-100,4,2,12,40,0,0
124583,-100,4,2,11,40,0,0
124656,-100,4,2,12,40,0,0
124729,-100,4,2,11,40,0,0
124801,-71.4285714285714,4,2,11,40,0,0
125092,-71.4285714285714,4,2,12,40,0,0
125675,-100,4,2,12,40,0,0
125747,-100,4,2,11,40,0,0
126257,-100,4,2,12,40,0,0
126329,-100,4,2,11,40,0,0
126548,-100,4,2,12,40,0,0
126694,-100,4,2,11,40,0,0
126840,-100,4,2,12,40,0,0
126913,-100,4,2,11,40,0,0
127131,-500,4,2,11,40,0,0
127713,-500,4,2,11,10,0,0
128296,-166.666666666667,4,2,11,30,0,0
129461,422.535211267606,4,2,11,30,1,0
129461,-66.6666666666667,4,2,11,30,0,0
130094,-125,4,2,11,30,0,0
130728,-50,4,2,11,30,0,0
130780,-50,4,2,11,5,0,0
130834,-50,4,2,11,30,0,0
131151,-83.3333333333333,4,2,11,30,0,0
131573,-125,4,2,11,30,0,0
132207,-50,4,2,11,30,0,0
132841,-83.3333333333333,4,2,11,40,0,0
133263,-58.8235294117647,4,2,11,40,0,0
133475,-100,4,2,11,40,0,0
133897,-71.4285714285714,4,2,11,40,0,0
134320,-125,4,2,11,40,0,0
134531,-62.5,4,2,11,40,0,0
134953,-55.5555555555556,4,2,11,40,0,0
135111,-55.5555555555556,4,2,11,5,0,0
135165,-83.3333333333333,4,2,11,40,0,0
136432,-166.666666666667,4,2,11,40,0,0
136855,-83.3333333333333,4,2,11,40,0,0
137489,-50,4,2,11,40,0,0
137541,-50,4,2,11,5,0,0
137595,-50,4,2,11,40,0,0
137911,-83.3333333333333,4,2,11,40,0,0
138122,-125,4,2,11,40,0,0
138968,-50,4,2,11,40,0,0
139601,-71.4285714285714,4,2,11,50,0,0
140024,-62.5,4,2,11,50,0,0
140869,-83.3333333333333,4,2,11,50,0,0
141080,-62.5,4,2,11,50,0,0
142770,-100,4,2,11,50,0,0
142982,-1000,4,2,12,50,0,0
144460,-1000,4,2,12,5,0,0
144884,-1000,4,2,12,35,0,0
146151,-50,4,2,12,40,0,0
147418,-35.7142857142857,4,2,12,40,0,0
147576,-35.7142857142857,4,2,12,5,0,0
147630,-28.5714285714286,4,2,12,50,0,0
148052,-66.6666666666667,4,2,12,70,0,1
148475,-50,4,2,11,70,0,1
148633,-50,4,2,11,5,0,1
148686,-83.3333333333333,4,2,12,70,0,1
148897,-125,4,2,12,70,0,1
149214,-125,4,2,11,70,0,1
149320,-66.6666666666667,4,2,11,70,0,1
149531,-66.6666666666667,4,2,12,70,0,1
149583,-66.6666666666667,4,2,11,70,0,1
149953,-66.6666666666667,4,2,12,70,0,1
150165,-50,4,2,11,70,0,1
150323,-50,4,2,11,5,0,1
150376,-83.3333333333333,4,2,12,70,0,1
150587,-125,4,2,12,70,0,1
150904,-66.6666666666667,4,2,12,70,0,1
151009,-66.6666666666667,4,2,11,70,0,1
151221,-66.6666666666667,4,2,12,70,0,1
151273,-66.6666666666667,4,2,11,70,0,1
151644,-83.3333333333333,4,2,12,70,0,1
151855,-66.6666666666667,4,2,11,70,0,1
152066,-66.6666666666667,4,2,12,70,0,1
152595,-66.6666666666667,4,2,11,70,0,1
152911,-83.3333333333333,4,2,12,70,0,1
152963,-83.3333333333333,4,2,11,70,0,1
153122,-66.6666666666667,4,2,11,70,0,1
153334,-66.6666666666667,4,2,12,70,0,1
153545,-66.6666666666667,4,2,11,70,0,1
153756,-66.6666666666667,4,2,12,70,0,1
154391,-66.6666666666667,4,2,11,70,0,1
154601,-66.6666666666667,4,2,12,70,0,1
154627,-66.6666666666667,4,2,11,70,0,1
155024,-66.6666666666667,4,2,12,70,0,1
155235,-50,4,2,11,70,0,1
155393,-50,4,2,11,5,0,1
155446,-83.3333333333333,4,2,12,70,0,1
155658,-125,4,2,12,70,0,1
155975,-125,4,2,11,70,0,1
156081,-66.6666666666667,4,2,11,70,0,1
156291,-66.6666666666667,4,2,12,70,0,1
156343,-66.6666666666667,4,2,11,70,0,1
156714,-66.6666666666667,4,2,12,70,0,1
156925,-50,4,2,11,70,0,1
157083,-50,4,2,11,5,0,1
157137,-83.3333333333333,4,2,12,70,0,1
157348,-125,4,2,12,70,0,1
157665,-66.6666666666667,4,2,12,70,0,1
157770,-66.6666666666667,4,2,11,70,0,1
157982,-66.6666666666667,4,2,12,70,0,1
158034,-66.6666666666667,4,2,11,70,0,1
158404,-66.6666666666667,4,2,12,70,0,1
158615,-66.6666666666667,4,2,11,70,0,1
158827,-66.6666666666667,4,2,12,70,0,1
159461,-50,4,2,11,70,0,1
159619,-50,4,2,11,5,0,1
159672,-66.6666666666667,4,2,12,70,0,1
159724,-66.6666666666667,4,2,11,70,0,1
159883,-66.6666666666667,4,2,11,70,0,0
160728,-250,4,2,11,60,0,0
161573,-66.6666666666667,4,2,12,70,0,1
161996,-66.6666666666667,4,2,11,70,0,1
162207,-66.6666666666667,4,2,12,70,0,1
162841,-50,4,2,11,70,0,1
162999,-50,4,2,11,5,0,1
163052,-66.6666666666667,4,2,12,70,0,1
163104,-66.6666666666667,4,2,11,70,0,1
163157,-66.6666666666667,4,2,12,70,0,1
163527,-66.6666666666667,4,2,11,70,0,1
163897,-66.6666666666667,4,2,12,70,0,1
164160,-66.6666666666667,4,2,12,5,0,1
164214,-66.6666666666667,4,2,12,70,0,1
164266,-66.6666666666667,4,2,12,5,0,1
164320,-66.6666666666667,4,2,12,70,0,1
164425,-66.6666666666667,4,2,11,70,0,1
164531,-50,4,2,11,70,0,1
164689,-50,4,2,11,5,0,1
164742,-66.6666666666667,4,2,12,70,0,1
164794,-66.6666666666667,4,2,11,70,0,1
165165,-66.6666666666667,4,2,12,70,0,1
165376,-50,4,2,11,70,0,1
165534,-50,4,2,11,5,0,1
165587,-66.6666666666667,4,2,12,70,0,1
166116,-66.6666666666667,4,2,11,70,0,1
166432,-66.6666666666667,4,2,12,70,0,1
166484,-66.6666666666667,4,2,11,70,0,1
166855,-66.6666666666667,4,2,12,70,0,1
167066,-50,4,2,11,70,0,1
167224,-50,4,2,11,5,0,1
167277,-66.6666666666667,4,2,12,70,0,1
167911,-66.6666666666667,4,2,11,70,0,1
168334,-43.4782608695652,4,2,12,70,0,1
168492,-43.4782608695652,4,2,12,5,0,1
168545,-66.6666666666667,4,2,12,70,0,1
168756,-66.6666666666667,4,2,11,70,0,1
169390,-66.6666666666667,4,2,12,70,0,1
169601,-50,4,2,11,70,0,1
169759,-50,4,2,11,5,0,1
169813,-66.6666666666667,4,2,12,70,0,1
169865,-66.6666666666667,4,2,11,70,0,1
169918,-66.6666666666667,4,2,12,70,0,1
170446,-66.6666666666667,4,2,11,70,0,1
170658,-66.6666666666667,4,2,12,70,0,1
171185,-66.6666666666667,4,2,11,70,0,1
171291,-40,4,2,11,70,0,1
171449,-40,4,2,11,5,0,1
171503,-66.6666666666667,4,2,12,70,0,1
171556,-66.6666666666667,4,2,11,70,0,1
171925,-66.6666666666667,4,2,12,70,0,1
172137,-50,4,2,11,70,0,1
172295,-50,4,2,11,5,0,1
172348,-66.6666666666667,4,2,12,70,0,1
172875,-66.6666666666667,4,2,11,70,0,1
172982,-50,4,2,11,70,0,1
173140,-50,4,2,11,5,0,1
173193,-66.6666666666667,4,2,12,70,0,1
173245,-66.6666666666667,4,2,11,70,0,1
173615,-66.6666666666667,4,2,12,70,0,1
173667,-66.6666666666667,4,2,12,5,0,1
173721,-66.6666666666667,4,2,12,70,0,1
173773,-66.6666666666667,4,2,12,5,0,1
173827,-66.6666666666667,4,2,11,70,0,1
174038,-66.6666666666667,4,2,12,70,0,1
174090,-66.6666666666667,4,2,12,5,0,1
174144,-66.6666666666667,4,2,12,70,0,1
174196,-66.6666666666667,4,2,12,5,0,1
174249,-66.6666666666667,4,2,11,70,0,1
174883,-66.6666666666667,4,2,11,70,0,0
174909,-66.6666666666667,4,2,11,50,0,0
175094,-41.6666666666667,4,2,13,80,0,1
175252,-41.6666666666667,4,2,13,5,0,1
175306,-66.6666666666667,4,2,12,80,0,1
175517,-66.6666666666667,4,2,11,80,0,1
175622,-83.3333333333333,4,2,11,80,0,1
175834,-66.6666666666667,4,2,11,80,0,1
176573,-66.6666666666667,4,2,12,80,0,1
176600,-45.4545454545455,4,2,12,80,0,1
176732,-45.4545454545455,4,2,12,5,0,1
176784,-100,4,2,12,80,0,1
176996,-66.6666666666667,4,2,12,80,0,1
177207,-66.6666666666667,4,2,11,80,0,1
177313,-83.3333333333333,4,2,11,80,0,1
177524,-66.6666666666667,4,2,11,80,0,1
178263,-66.6666666666667,4,2,12,80,0,1
178290,-45.4545454545455,4,2,12,80,0,1
178422,-45.4545454545455,4,2,12,5,0,1
178475,-100,4,2,12,80,0,1
178686,-66.6666666666667,4,2,12,80,0,1
178897,-66.6666666666667,4,2,11,80,0,1
179003,-83.3333333333333,4,2,11,80,0,1
179214,-66.6666666666667,4,2,11,80,0,1
179953,-66.6666666666667,4,2,12,80,0,1
179980,-45.4545454545455,4,2,12,80,0,1
180112,-45.4545454545455,4,2,12,5,0,1
180165,-100,4,2,12,80,0,1
180376,-66.6666666666667,4,2,12,80,0,1
180587,-66.6666666666667,4,2,11,80,0,1
180799,-83.3333333333333,4,2,12,80,0,1
181432,-83.3333333333333,4,2,11,80,0,1
181855,-41.6666666666667,4,2,12,80,0,1
182013,-41.6666666666667,4,2,12,5,0,1
182066,-66.6666666666667,4,2,12,80,0,1
182277,-66.6666666666667,4,2,11,80,0,1
182383,-83.3333333333333,4,2,11,80,0,1
182594,-66.6666666666667,4,2,11,80,0,1
183334,-66.6666666666667,4,2,12,80,0,1
183360,-33.3333333333333,4,2,12,80,0,1
183412,-33.3333333333333,4,2,11,80,0,1
183545,-100,4,2,11,80,0,1
183756,-66.6666666666667,4,2,12,80,0,1
183968,-66.6666666666667,4,2,11,80,0,1
184073,-83.3333333333333,4,2,11,80,0,1
184284,-66.6666666666667,4,2,11,80,0,1
185024,-66.6666666666667,4,2,12,80,0,1
185050,-33.3333333333333,4,2,12,80,0,1
185102,-33.3333333333333,4,2,11,80,0,1
185235,-100,4,2,11,80,0,1
185446,-66.6666666666667,4,2,12,80,0,1
185658,-66.6666666666667,4,2,11,80,0,1
185763,-83.3333333333333,4,2,11,80,0,1
185975,-66.6666666666667,4,2,11,80,0,1
186714,-66.6666666666667,4,2,12,80,0,1
186925,-66.6666666666667,4,2,11,80,0,0
187982,-66.6666666666667,4,2,10,35,0,0
188193,-83.3333333333333,4,2,10,35,0,0
188245,-83.3333333333333,4,2,10,5,0,0
188615,-83.3333333333333,4,2,10,30,0,0
189777,-125,4,2,10,30,0,0
191151,-83.3333333333333,4,2,10,30,0,0
191203,-83.3333333333333,4,2,10,5,0,0
191468,-83.3333333333333,4,2,10,30,0,0
191520,-83.3333333333333,4,2,10,5,0,0
191784,-83.3333333333333,4,2,10,30,0,0
191836,-83.3333333333333,4,2,10,5,0,0
191996,-83.3333333333333,4,2,10,30,0,0
192841,-125,4,2,10,30,0,0
193686,-83.3333333333333,4,2,10,30,0,0
195376,-83.3333333333333,4,2,10,40,0,0
195693,-66.6666666666667,4,2,10,40,0,0
196221,-100,4,2,10,40,0,0
197383,-83.3333333333333,4,2,10,40,0,0
197963,-83.3333333333333,4,2,10,5,0,0
198228,-83.3333333333333,4,2,10,40,0,0
198280,-83.3333333333333,4,2,10,5,0,0
198545,-83.3333333333333,4,2,10,40,0,0
198756,-100,4,2,10,40,0,0
199073,-83.3333333333333,4,2,10,40,0,0
199601,-100,4,2,10,40,0,0
200235,-71.4285714285714,4,2,10,40,0,0
200446,-333.333333333333,4,2,10,40,0,0
200762,-333.333333333333,4,2,10,20,0,0
201503,-166.666666666667,4,2,10,30,0,0
201925,-166.666666666667,4,2,10,5,0,0

[Colours]
Combo1 : 200,121,121
Combo2 : 118,145,165
Combo3 : 215,177,168
Combo4 : 142,146,179

[HitObjects]
458,182,913,6,0,B|465:190|460:199|460:199|434:205|422:226|422:226|418:202|397:188|397:188|395:177|405:172,1,132,10|0,2:0|2:0,2:0:0:0:
494,114,3307,6,0,B|513:104|509:83|509:83|469:55|460:8|460:8|437:49|387:62|387:62|376:80|391:96,1,260,10|0,2:0|2:0,2:0:0:0:
256,192,4293,12,0,6089,2:0:0:0:
256,192,6828,6,0,L|252:178,2,13.4999995880127,0|0|0,2:0|2:0|2:0,2:0:0:0:
274,265,7251,5,0,3:0:0:0:
512,321,7673,6,0,B|517:310|517:310|398:343|398:343|441:378,1,180.000006866455,10|0,2:0|2:0,2:0:0:0:
445,379,7990,6,0,B|456:337|418:311|415:313|412:315|377:291|388:239,1,150,2|0,2:0|2:0,2:0:0:0:
378,244,8307,2,0,B|373:228|388:218|389:219|390:220|403:211|399:191,1,60,2|0,2:0|2:0,2:0:0:0:
349,136,8518,5,2,2:0:0:0:
505,64,8729,1,2,2:0:0:0:
512,75,8835,2,0,P|484:117|414:96,1,120,2|0,2:0|2:0,2:0:0:0:
324,24,9152,5,2,2:0:0:0:
326,39,9258,1,2,2:0:0:0:
413,100,9363,6,0,L|256:129,1,143.999995605469,2|0,2:0|2:0,2:0:0:0:
96,4,9680,6,0,P|105:26|148:44,1,60,2|0,2:0|2:0,2:0:0:0:
193,134,9891,5,0,2:0:0:0:
100,122,9997,2,0,P|165:116|244:22,1,161.999995056153,2|0,2:0|2:0,2:0:0:0:
228,41,10208,6,0,P|225:103|289:122,1,120,2|0,2:0|2:0,2:0:0:0:
114,209,10525,5,2,2:0:0:0:
36,197,10631,2,0,B|12:179|12:179|52:179,1,60,0|0,2:0|2:0,2:0:0:0:
125,211,10842,6,0,L|168:219,1,35.9999989013672,2|0,2:0|2:0,2:0:0:0:
267,381,11053,6,0,B|244:306|159:312|159:312|179:329|181:354,1,180.000006866455,2|0,2:0|2:0,2:0:0:0:
172,355,11370,6,0,P|218:363|272:256,1,180,2|2,2:0|2:0,2:0:0:0:
269,254,11898,6,0,B|265:238|281:230|281:230|296:223|290:204,1,60,2|0,2:0|2:0,2:0:0:0:
417,327,12110,5,2,2:0:0:0:
496,306,12215,2,0,L|336:275,1,143.999995605469,2|0,2:0|2:0,2:0:0:0:
275,262,12532,5,2,2:0:0:0:
483,78,12743,6,0,P|496:57|459:87,1,215.999993408203,2|2,3:2|2:0,2:0:0:0:
504,218,13166,6,0,L|488:143,1,60,2|0,2:0|2:0,2:0:0:0:
310,37,13377,2,0,L|348:45,3,30,2|0|0|0,2:0|2:0|2:0|2:0,2:0:0:0:
301,42,13589,5,2,2:0:0:0:
195,63,13694,1,2,2:0:0:0:
260,106,13800,1,2,2:0:0:0:
237,1,13905,1,2,2:0:0:0:
263,118,14011,6,0,L|274:172,1,48,2|2,3:2|2:0,2:0:0:0:
264,171,14434,6,0,L|185:156,1,71.9999978027344,2|0,3:2|2:0,2:0:0:0:
68,34,14645,5,2,2:0:0:0:
16,91,14751,2,0,B|26:155|103:193|134:174|114:121|106:149|94:157|61:136,1,179.999994506836,2|0,2:0|2:0,2:0:0:0:
78,135,15067,6,0,P|92:112|137:117,1,60,2|0,2:0|2:0,2:0:0:0:
193,157,15279,1,2,2:0:0:0:
86,344,15490,5,2,2:0:0:0:
150,384,15596,2,0,B|160:343|124:320|121:322|119:323|81:299|93:251,1,143.999995605469,2|0,2:0|2:0,2:0:0:0:
101,252,15913,2,0,B|96:232|115:222|115:222|134:213|126:190,1,71.9999978027344,2|0,2:0|2:0,2:0:0:0:
243,355,16124,6,0,L|313:368,1,71.9999978027344,2|0,3:2|2:0,2:0:0:0:
512,262,16335,5,2,2:0:0:0:
452,308,16441,2,0,B|484:250|484:250|422:205|422:205|436:250,1,167.999994873047,2|0,2:0|2:0,2:0:0:0:
440,310,16758,2,0,L|453:377,1,60,2|0,2:0|2:0,2:0:0:0:
238,255,16969,6,0,P|302:265|342:204,1,143.999995605469,2|0,2:0|2:0,2:0:0:0:
512,138,17286,5,2,2:0:0:0:
505,150,17391,2,0,P|472:149|458:115,1,60,0|0,2:0|2:0,2:0:0:0:
316,11,17603,6,0,B|314:-4|293:-14|293:-14|336:-17|345:12|341:15|353:43|408:40,1,144,2|0,2:0|2:0,2:0:0:0:
392,27,17814,6,0,L|237:57,1,143.999995605469,2|0,3:2|2:0,2:0:0:0:
246,67,18131,6,0,B|243:46|221:43|221:43|200:41|199:16,1,71.9999978027344,2|0,2:0|2:0,2:0:0:0:
27,153,18342,5,0,2:0:0:0:
0,81,18448,2,0,B|-2:65|-2:65|55:43|97:91|97:91|77:111,1,144,2|0,2:0|2:0,2:0:0:0:
22,163,18659,2,0,P|30:192|36:221,1,60,2|0,2:0|2:0,2:0:0:0:
177,193,18870,5,2,2:0:0:0:
29,233,18976,2,0,B|42:290|114:296|157:256|120:228|102:267,1,143.999995605469,2|0,2:0|2:0,2:0:0:0:
65,371,19293,6,0,P|47:347|56:300,1,71.9999978027344,2|0,2:0|2:0,2:0:0:0:
256,192,19504,5,2,3:2:0:0:
256,192,20560,5,8,3:0:0:0:
256,180,20666,1,8,3:0:0:0:
256,266,20772,6,0,L|256:306,1,35.9999989013672,10|0,2:0|2:0,2:0:0:0:
4,131,21194,6,0,L|64:114,1,48,0|0,3:0|2:0,2:0:0:0:
59,122,21405,6,0,L|77:30,1,83.9999974365235,2|0,2:3|2:0,2:0:0:0:
271,60,21617,5,2,3:2:0:0:
196,80,21722,2,0,L|142:95,1,48,2|2,2:0|2:3,2:0:0:0:
50,117,21934,6,0,L|68:25,1,83.9999974365235,2|0,2:0|3:0,2:0:0:0:
41,112,22145,2,0,L|59:20,1,83.9999974365235,2|2,2:0|2:3,2:0:0:0:
202,258,22356,5,2,2:0:0:0:
127,173,22462,2,0,L|181:188,1,48,2|0,3:2|2:0,2:0:0:0:
239,332,22673,5,2,2:3:0:0:
244,328,22699,6,0,L|366:361,1,120,2|0,2:0|2:0,2:0:0:0:
432,322,22884,6,0,L|447:373,1,48,0|0,3:0|2:0,2:0:0:0:
458,381,23096,6,0,L|430:281,1,83.9999974365235,2|0,2:3|2:0,2:0:0:0:
289,161,23307,5,2,3:2:0:0:
327,229,23413,2,0,L|383:246,1,48,2|2,2:0|2:3,2:0:0:0:
464,372,23624,6,0,L|436:272,1,83.9999974365235,2|0,2:0|3:0,2:0:0:0:
470,363,23835,2,0,L|442:263,1,83.9999974365235,2|2,2:0|2:3,2:0:0:0:
392,100,24046,5,2,2:0:0:0:
495,220,24152,2,0,L|512:156,1,48,2|0,3:2|2:0,2:0:0:0:
474,4,24363,5,2,2:3:0:0:
469,0,24390,6,0,L|347:33,1,120,2|0,2:0|2:0,2:0:0:0:
212,72,24574,6,0,L|275:89,1,48,0|0,3:0|2:0,2:0:0:0:
267,79,24786,6,0,L|290:166,1,83.9999974365235,2|0,2:3|2:0,2:0:0:0:
121,194,24998,5,2,3:2:0:0:
196,214,25103,2,0,L|250:229,1,48,2|2,2:0|2:3,2:0:0:0:
274,72,25314,6,0,L|297:159,1,83.9999974365235,2|0,2:0|3:0,2:0:0:0:
281,65,25525,2,0,L|304:152,1,83.9999974365235,2|2,2:0|2:3,2:0:0:0:
338,295,25736,5,2,2:0:0:0:
373,176,25842,2,0,L|358:230,1,48,2|0,3:2|2:0,2:0:0:0:
376,379,26053,5,2,2:3:0:0:
371,383,26080,6,0,L|249:350,1,120,2|0,2:0|2:0,2:0:0:0:
202,293,26265,6,0,L|148:308,1,48,0|0,3:0|2:0,2:0:0:0:
0,164,26476,6,0,B|-16:149|-16:149|4:69,1,83.9999974365235,2|0,2:3|2:0,2:0:0:0:
140,112,26687,2,0,L|117:207,1,83.9999974365235,0|0,3:0|2:0,2:0:0:0:
196,303,26898,6,0,L|142:318,2,30,2|2|2,2:3|2:3|2:3,2:0:0:0:
16,384,27110,5,2,3:2:0:0:
81,288,27215,1,2,2:0:0:0:
0,304,27321,1,2,2:0:0:0:
96,369,27427,1,2,2:0:0:0:
202,293,27532,6,0,L|192:247,3,35.9999989013672,2|2|2|2,3:0|2:3|2:3|2:3,2:0:0:0:
282,367,27743,2,0,L|276:392,6,17.9999994506836,2|2|2|2|2|2|2,2:3|2:3|2:3|2:3|2:3|2:3|2:3,2:0:0:0:
396,289,27955,6,0,L|342:304,1,48,0|0,3:0|2:0,2:0:0:0:
331,298,28166,6,0,L|411:275,1,83.9999974365235,2|0,2:3|2:0,2:0:0:0:
455,68,28377,5,2,3:2:0:0:
431,142,28483,2,0,L|413:202,1,48,2|2,2:0|2:3,2:0:0:0:
318,293,28694,6,0,L|398:270,1,83.9999974365235,2|0,2:0|3:0,2:0:0:0:
305,288,28905,2,0,L|385:265,1,83.9999974365235,2|2,2:0|2:3,2:0:0:0:
506,245,29117,5,2,2:0:0:0:
471,384,29222,2,0,L|457:337,1,48,2|0,3:2|2:0,2:0:0:0:
336,183,29433,5,2,2:3:0:0:
331,187,29460,6,0,L|209:154,1,120,2|0,2:0|2:0,2:0:0:0:
114,91,29645,6,0,L|165:76,1,48,0|0,3:0|2:0,2:0:0:0:
168,86,29856,6,0,L|186:0,1,83.9999974365235,2|0,2:3|2:0,2:0:0:0:
376,38,30067,5,2,3:2:0:0:
258,80,30173,2,0,L|311:62,1,48,2|2,2:0|2:3,2:0:0:0:
157,91,30384,6,0,L|175:5,1,83.9999974365235,2|0,2:0|3:0,2:0:0:0:
146,96,30596,2,0,L|164:10,1,83.9999974365235,2|2,2:0|2:3,2:0:0:0:
9,61,30807,5,2,2:0:0:0:
117,180,30913,2,0,L|64:165,1,48,2|0,3:2|2:0,2:0:0:0:
223,353,31123,5,2,2:3:0:0:
217,350,31150,6,0,L|184:227,1,120,2|0,2:0|2:0,2:0:0:0:
292,220,31335,6,0,L|282:266,1,48,0|0,3:0|2:0,2:0:0:0:
291,274,31546,6,0,L|384:255,1,83.9999974365235,2|0,2:3|2:0,2:0:0:0:
512,384,31758,5,2,3:2:0:0:
434,368,31863,2,0,L|421:313,1,48,2|2,2:0|2:3,2:0:0:0:
282,266,32074,6,0,L|375:247,1,83.9999974365235,2|0,2:0|3:0,2:0:0:0:
273,258,32286,2,0,L|366:239,1,83.9999974365235,2|2,2:0|2:3,2:0:0:0:
512,212,32497,5,2,2:0:0:0:
394,115,32603,2,0,L|382:161,1,48,2|0,3:2|2:0,2:0:0:0:
282,378,32814,6,0,L|235:365,3,35.9999989013672,2|2|0|2,2:3|2:3|2:3|2:3,2:0:0:0:
172,349,33025,5,2,3:2:0:0:
34,150,33342,5,2,2:3:0:0:
82,203,33448,1,2,2:3:0:0:
9,221,33553,1,2,2:3:0:0:
74,161,33659,5,2,2:3:0:0:
52,233,33765,1,2,2:3:0:0:
0,177,33870,1,2,2:3:0:0:
10,181,34082,6,0,L|66:198,1,35.9999989013672,2|0,2:3|2:0,2:0:0:0:
124,216,34187,2,0,L|180:233,1,35.9999989013672,2|0,2:3|2:0,2:0:0:0:
245,251,34293,5,8,2:0:0:0:
246,241,34715,6,0,L|331:267,1,71.9999978027344,2|2,3:2|2:0,2:0:0:0:
394,284,35138,1,2,2:0:0:0:
369,6,35349,6,0,B|345:21|345:21|322:36|342:63|346:57|366:82|345:111,2,120,2|2|2,3:2|2:0|2:0,2:0:0:0:
511,76,35983,6,0,B|518:84|531:84|537:75|537:75|534:66|524:61|514:64|508:70,1,60,10|0,2:0|2:0,2:0:0:0:
430,60,36089,1,2,2:0:0:0:
502,72,36194,1,2,2:0:0:0:
127,151,36405,6,0,L|170:143,1,35.9999989013672,2|0,3:2|2:0,2:0:0:0:
349,104,36617,2,0,L|313:110,1,35.9999989013672,2|0,2:0|2:0,2:0:0:0:
238,129,36828,1,2,2:0:0:0:
215,18,37039,6,0,L|223:61,1,35.9999989013672,2|0,3:2|2:0,2:0:0:0:
262,240,37251,2,0,L|255:204,1,35.9999989013672,2|0,2:0|2:0,2:0:0:0:
238,129,37462,1,2,2:0:0:0:
195,339,37673,6,0,B|194:378|241:400|280:383|262:355|243:356|240:377,1,107.999996704102,10|0,2:0|2:0,2:0:0:0:
446,272,37884,1,2,2:0:0:0:
455,281,38096,6,0,P|425:330|333:302,1,143.999995605469,2|0,3:2|2:0,2:0:0:0:
262,240,38413,1,0,2:0:0:0:
338,328,38518,6,0,P|304:265|390:184,1,180.000006866455,10|0,2:0|2:0,2:0:0:0:
443,103,38835,1,0,2:0:0:0:
364,175,38941,6,0,P|399:176|413:233,1,71.9999978027344,2|0,3:2|2:0,2:0:0:0:
270,0,39152,2,0,P|235:1|221:58,1,71.9999978027344,2|0,2:0|2:0,2:0:0:0:
403,16,39363,6,0,B|415:15|425:7|428:-6|426:-16|426:-16|414:-17|401:-10|396:0|398:12,1,90.0000034332277,10|0,2:0|2:0,2:0:0:0:
297,128,39574,2,0,P|273:127|264:89,1,60,2|0,2:0|2:0,2:0:0:0:
11,65,39786,6,0,P|34:119|142:110,1,167.999994873047,2|0,3:2|2:0,2:0:0:0:
67,4,40103,1,0,2:0:0:0:
139,108,40208,6,0,P|89:91|15:186,1,170.999995433807,8|0,2:0|2:0,2:0:0:0:
5,175,40420,2,0,B|0:195|19:205|19:205|38:214|30:237,1,71.9999978027344,0|0,2:0|2:0,2:0:0:0:
162,354,40631,5,2,3:2:0:0:
127,344,40736,1,2,2:0:0:0:
94,356,40842,1,10,2:0:0:0:
72,384,40947,1,2,2:0:0:0:
25,245,41053,5,10,2:0:0:0:
102,259,41158,1,10,2:0:0:0:
180,274,41264,1,10,2:0:0:0:
258,289,41369,1,10,2:0:0:0:
324,209,41476,5,2,3:2:0:0:
359,384,41687,2,0,L|344:311,1,71.9999978027344,2|2,2:0|2:0,2:0:0:0:
268,98,42110,6,0,B|280:92|286:76|286:76|293:119|269:129|266:124|233:143|239:182,2,143.999995605469,2|2|2,3:2|2:0|2:0,2:0:0:0:
432,241,42743,6,0,B|425:249|412:249|405:240|405:240|408:231|418:226|428:229|434:234,1,60,10|0,2:0|2:0,2:0:0:0:
512,222,42849,1,2,2:0:0:0:
440,236,42954,1,2,2:0:0:0:
420,34,43166,6,0,P|416:13|399:-9,1,35.9999989013672,2|0,3:2|2:0,2:0:0:0:
473,94,43377,2,0,P|493:101|520:97,1,35.9999989013672,2|0,2:0|2:0,2:0:0:0:
397,108,43589,2,0,P|380:121|370:147,1,35.9999989013672,2|0,2:0|2:0,2:0:0:0:
269,347,43800,6,0,L|262:308,1,35.9999989013672,2|0,3:2|2:0,2:0:0:0:
239,174,44011,2,0,L|245:209,1,35.9999989013672,2|0,2:0|2:0,2:0:0:0:
156,212,44222,6,0,B|248:235|248:235|259:254|259:254|256:261|256:261|270:279|270:279|382:305,2,240,2|10|2,2:0|2:0|2:0,2:0:0:0:
65,59,44856,6,0,P|35:22|92:56,1,215.999993408203,2|0,3:2|2:0,2:0:0:0:
184,116,45279,6,0,P|196:80|245:65,1,83.9999974365235,10|0,2:0|2:0,2:0:0:0:
101,148,45490,2,0,L|54:137,1,48,2|0,3:2|2:0,2:0:0:0:
244,54,45701,6,0,L|320:72,1,71.9999978027344,2|0,3:2|2:0,2:0:0:0:
403,0,45913,2,0,L|390:59,1,48,2|0,2:0|2:0,2:0:0:0:
449,227,46124,6,0,B|501:179|471:146|461:106|423:95|396:114|416:158|469:133|461:179,1,180,10|0,2:0|2:0,2:0:0:0:
457,144,46335,2,0,P|485:145|508:176,1,60,2|0,2:0|2:0,2:0:0:0:
373,247,46546,5,2,3:2:0:0:
395,368,46758,5,8,2:0:0:0:
354,350,46863,1,8,2:0:0:0:
398,363,46969,1,0,3:0:0:0:
110,254,47180,5,8,2:0:0:0:
177,223,47285,1,8,2:0:0:0:
105,244,47391,1,0,3:0:0:0:
381,132,47603,5,8,2:0:0:0:
304,97,47708,1,8,2:0:0:0:
386,121,47814,1,0,3:0:0:0:
256,0,48025,5,8,2:0:0:0:
256,384,48236,6,0,L|256:311,1,72,2|0,3:2|2:0,2:0:0:0:
41,0,50138,5,2,2:3:0:0:
43,6,50243,1,2,2:3:0:0:
45,12,50349,1,2,2:3:0:0:
116,51,50560,5,2,2:3:0:0:
113,56,50665,1,2,2:3:0:0:
111,62,50771,1,2,2:3:0:0:
148,127,50982,5,2,2:3:0:0:
145,132,51089,1,2,2:3:0:0:
143,138,51194,2,0,L|127:230,1,90.0000034332277,8|0,2:0|2:0,2:0:0:0:
128,236,51405,6,0,P|145:256|135:232,1,71.9999978027344,2|0,2:0|2:0,2:0:0:0:
0,348,51617,6,0,P|57:341|70:303,1,90.0000034332277,2|0,3:2|2:0,2:0:0:0:
221,192,51828,2,0,P|252:240|231:274,1,90.0000034332277,2|0,2:3|2:0,2:0:0:0:
73,306,52039,2,0,P|180:319|204:389,1,180,10|0,2:0|2:0,2:0:0:0:
341,351,52251,6,0,B|369:331|369:331|321:336,1,71.9999978027344,2|0,3:0|2:0,2:0:0:0:
214,384,52462,2,0,L|259:370,1,48,2|0,2:0|2:0,2:0:0:0:
489,185,52673,5,2,3:0:0:0:
427,140,52779,1,2,2:3:0:0:
396,208,52884,2,0,B|378:215|378:215|301:197,1,90.0000034332277,10|0,2:0|2:0,2:0:0:0:
174,44,53096,6,0,L|165:-1,2,45.0000017166138,2|2|2,2:3|2:3|2:3,2:0:0:0:
325,119,53307,6,0,L|345:18,1,90.0000034332277,2|0,3:2|2:0,2:0:0:0:
69,100,53518,2,0,B|52:80|52:80|128:98,1,90.0000034332277,2|0,2:3|2:0,2:0:0:0:
316,110,53729,2,0,P|245:97|180:195,1,180,10|0,2:0|2:0,2:0:0:0:
12,228,53941,6,0,B|-20:211|-20:211|27:208,1,71.9999978027344,2|0,3:0|2:0,2:0:0:0:
140,242,54152,2,0,L|78:230,1,48,2|0,2:0|2:0,2:0:0:0:
179,171,54363,5,2,3:2:0:0:
223,384,54469,2,0,L|204:297,1,90.0000034332277,2|8,2:3|2:0,2:0:0:0:
131,355,54680,5,2,2:0:0:0:
292,241,54786,2,0,L|336:249,2,45.0000017166138,2|2|2,2:3|2:3|2:3,2:0:0:0:
299,251,54997,6,0,L|404:272,1,90.0000034332277,2|0,3:2|2:0,2:0:0:0:
363,86,55208,2,0,B|368:65|347:55|347:55|328:46|335:21,1,71.9999978027344,2|0,2:3|2:0,2:0:0:0:
452,314,55420,6,0,P|470:269|449:226,1,90.0000034332277,10|0,2:0|2:0,2:0:0:0:
374,74,55631,2,0,B|367:48|393:35|393:35|417:24|407:-5,1,90.0000034332277,2|0,3:0|2:0,2:0:0:0:
230,100,55842,6,0,B|209:82|209:82|284:100,1,90.0000034332277,2|0,2:0|2:0,2:0:0:0:
223,384,56053,5,2,3:0:0:0:
274,327,56159,1,2,2:3:0:0:
203,296,56264,2,0,B|196:278|196:278|214:201,1,90.0000034332277,10|0,2:0|2:0,2:0:0:0:
375,162,56476,6,0,L|419:171,2,35.9999989013672,2|2|2,2:3|2:3|2:3,2:0:0:0:
153,22,56687,6,0,P|125:59|135:108,1,90.0000034332277,2|0,3:2|2:0,2:0:0:0:
300,193,56898,2,0,L|204:210,1,90.0000034332277,2|0,2:3|2:0,2:0:0:0:
254,11,57110,6,0,P|249:-1|268:16,1,90.0000034332277,10|0,2:0|2:0,2:0:0:0:
130,100,57321,2,0,L|34:117,1,90.0000034332277,2|0,3:0|2:0,2:0:0:0:
155,384,57532,5,2,3:2:0:0:
174,310,57638,1,0,1:0:0:0:
121,250,57743,1,0,1:0:0:0:
141,177,57849,1,0,1:0:0:0:
45,275,57955,6,0,L|-12:289,3,45.0000017166138,10|2|2|0,2:0|2:3|2:3|2:3,2:0:0:0:
207,125,58166,6,0,L|242:133,6,22.5000008583069,2|2|2|2|2|2|2,2:3|2:3|2:3|2:3|2:3|2:3|2:3,2:0:0:0:
130,100,58377,6,0,L|34:117,1,90.0000034332277,2|0,3:2|2:0,2:0:0:0:
300,193,58589,2,0,B|318:170|318:170|306:105,1,90.0000034332277,2|0,2:3|2:0,2:0:0:0:
120,0,58800,2,0,P|161:70|251:54,1,180,10|0,2:0|2:0,2:0:0:0:
458,9,59011,6,0,P|466:-10|443:6,1,71.9999978027344,2|0,3:0|2:0,2:0:0:0:
414,128,59222,2,0,L|427:78,1,48,2|0,2:0|2:0,2:0:0:0:
211,208,59434,5,2,3:0:0:0:
266,260,59540,1,2,2:3:0:0:
300,193,59645,2,0,B|318:186|318:186|395:204,1,90.0000034332277,10|0,2:0|2:0,2:0:0:0:
501,378,59856,6,0,L|514:328,2,45.0000017166138,2|2|2,2:3|2:3|2:3,2:0:0:0:
450,253,60067,6,0,P|403:249|373:285,1,90.0000034332277,2|0,3:2|2:0,2:0:0:0:
196,365,60279,2,0,L|181:277,1,90.0000034332277,2|0,2:3|2:0,2:0:0:0:
228,130,60490,2,0,B|263:161|263:161|122:135,1,180,10|0,2:0|2:0,2:0:0:0:
22,42,60701,6,0,P|14:22|37:39,1,71.9999978027344,2|0,3:0|2:0,2:0:0:0:
52,163,60913,2,0,L|42:108,1,48,2|0,2:0|2:0,2:0:0:0:
241,39,61124,5,2,3:0:0:0:
297,92,61230,1,2,2:3:0:0:
228,130,61335,2,0,B|221:148|221:148|239:225,1,90.0000034332277,10|0,2:0|2:0,2:0:0:0:
32,357,61546,6,0,L|82:370,2,45.0000017166138,2|2|2,2:3|2:3|2:3,2:0:0:0:
14,338,61758,6,0,L|103:361,1,90.0000034332277,2|0,3:2|2:0,2:0:0:0:
310,269,61969,2,0,B|331:264|341:285|341:285|350:304|375:297,1,71.9999978027344,2|0,2:3|2:0,2:0:0:0:
73,266,62180,6,0,L|162:242,1,90.0000034332277,10|0,2:0|2:0,2:0:0:0:
373,308,62391,2,0,B|391:313|400:294|400:294|410:273|431:278,1,71.9999978027344,2|0,3:0|2:0,2:0:0:0:
220,384,62603,6,0,B|204:363|204:363|223:291,1,90.0000034332277,2|0,2:0|2:0,2:0:0:0:
451,202,62814,2,0,B|469:197|478:216|478:216|488:237|509:232,1,71.9999978027344,2|2,3:0|2:3,2:0:0:0:
334,80,63025,6,0,L|314:169,1,90.0000034332277,10|0,2:0|2:0,2:0:0:0:
462,354,63236,2,0,L|508:342,2,45.0000017166138,2|2|2,2:3|2:3|2:3,2:0:0:0:
251,220,63448,5,10,2:0:0:0:
239,218,63870,1,8,2:0:0:0:
188,0,64293,6,2,B|190:12|190:12|195:12|195:12|190:12|190:12|203:65,1,72,2|0,3:2|2:0,2:1:0:0:
123,123,64715,5,2,2:0:0:0:
138,126,64820,1,2,2:0:0:0:
154,129,64926,1,2,2:0:0:0:
168,132,65031,1,2,2:0:0:0:
314,167,65138,5,6,3:2:0:0:
256,116,65243,1,2,2:0:0:0:
182,135,65349,1,2,2:3:0:0:
157,207,65454,1,2,2:0:0:0:
0,267,65560,5,10,2:0:0:0:
35,235,65665,1,2,2:0:0:0:
81,247,65771,1,2,2:3:0:0:
96,291,65876,1,2,2:0:0:0:
160,349,65983,5,2,3:2:0:0:
250,253,66089,1,2,2:0:0:0:
297,379,66194,1,2,2:3:0:0:
237,327,66300,1,2,2:3:0:0:
374,297,66405,6,0,L|472:322,1,90.0000034332277,10|0,2:0|2:0,2:0:0:0:
358,151,66617,5,2,2:3:0:0:
355,169,66722,1,2,2:3:0:0:
421,217,66828,6,0,B|439:221|439:221|512:186,1,90.0000034332277,2|0,3:2|2:0,2:0:0:0:
416,25,67039,2,0,P|415:5|399:34,1,90.0000034332277,2|0,2:3|2:0,2:0:0:0:
206,104,67251,5,10,2:0:0:0:
268,9,67356,1,2,2:0:0:0:
190,24,67462,1,2,2:3:0:0:
284,88,67567,1,2,2:0:0:0:
42,158,67673,6,0,L|-15:137,1,45.0000017166138,2|0,3:2|2:0,2:0:0:0:
125,277,67779,2,0,L|132:321,1,45.0000017166138,2|0,2:0|2:0,2:0:0:0:
173,135,67884,2,0,L|206:105,1,45.0000017166138,2|2,2:3|2:3,2:0:0:0:
116,183,67990,5,2,2:3:0:0:
117,191,68043,1,2,2:3:0:0:
118,199,68096,6,0,B|183:211|183:211|212:256|212:256|292:268,1,180,10|0,2:0|2:0,2:0:0:0:
325,325,68307,6,0,L|381:333,2,45.0000017166138,2|2|2,2:3|2:3|2:3,2:0:0:0:
285,176,68518,6,0,L|271:264,1,90.0000034332277,2|0,3:2|2:0,2:0:0:0:
435,375,68729,2,0,P|450:333|421:280,1,90.0000034332277,2|0,2:3|2:0,2:0:0:0:
281,89,68941,2,0,P|317:154|431:138,1,180,10|0,2:0|2:0,2:0:0:0:
494,25,69152,6,0,P|505:4|480:24,1,90.0000034332277,2|0,2:3|2:0,2:0:0:0:
424,160,69363,2,0,P|444:125|412:74,1,90.0000034332277,2|0,3:2|2:0,2:0:0:0:
179,15,69574,5,2,2:3:0:0:
128,71,69680,1,2,2:3:0:0:
197,103,69785,2,0,B|204:120|204:120|189:198,1,90.0000034332277,10|0,2:0|2:0,2:0:0:0:
61,337,69997,6,0,L|9:354,2,45.0000017166138,2|2|0,2:3|2:3|2:0,2:0:0:0:
186,367,70208,6,0,P|197:330|166:278,1,90.0000034332277,2|0,3:2|2:0,2:0:0:0:
6,236,70420,2,0,L|104:209,1,90.0000034332277,2|0,2:3|2:0,2:0:0:0:
278,184,70631,2,0,B|316:219|316:219|186:190,1,180,10|0,2:0|2:0,2:0:0:0:
92,212,70842,6,0,P|79:191|105:210,1,90.0000034332277,2|0,2:3|2:0,2:0:0:0:
317,317,71053,5,2,3:2:0:0:
333,242,71159,1,2,2:0:0:0:
278,184,71264,1,2,2:3:0:0:
295,110,71370,1,2,2:0:0:0:
357,166,71476,6,0,L|412:154,1,45.0000017166138,10|2,1:2|2:3,2:0:0:0:
231,44,71582,2,0,L|187:53,1,45.0000017166138,10|2,1:2|2:3,2:0:0:0:
370,83,71687,2,0,L|360:39,1,45.0000017166138,10|2,1:2|2:3,2:0:0:0:
269,193,71793,2,0,L|279:236,1,45.0000017166138,10|2,1:2|2:3,2:0:0:0:
295,110,71898,6,0,B|366:126|366:126|382:170|382:170|486:198,1,207.000003948212,6|0,3:2|2:0,2:0:0:0:
465,174,72110,2,0,B|477:152|477:152|407:169,1,90.0000034332277,2|0,2:3|2:0,2:0:0:0:
275,347,72321,5,10,2:0:0:0:
483,316,72427,2,0,L|372:290,1,90.0000034332277,2|2,2:0|2:3,2:0:0:0:
154,152,72638,6,0,B|142:130|142:130|212:147,1,90.0000034332277,2|0,2:0|3:0,2:0:0:0:
266,358,72849,5,2,2:0:0:0:
125,329,72955,1,2,2:3:0:0:
212,266,73060,1,2,2:3:0:0:
190,372,73166,6,0,P|119:373|45:275,1,180,10|0,2:0|2:0,2:0:0:0:
109,254,73377,2,0,P|118:236|153:232,2,45.0000017166138,2|2|2,2:3|2:3|2:0,2:0:0:0:
18,25,73589,5,2,3:2:0:0:
74,77,73694,1,2,2:0:0:0:
0,98,73800,1,2,2:3:0:0:
92,2,73905,1,2,2:0:0:0:
131,129,74011,5,10,2:0:0:0:
205,145,74117,1,2,2:0:0:0:
328,9,74222,1,2,2:3:0:0:
254,25,74328,1,2,2:0:0:0:
337,180,74434,5,2,3:2:0:0:
315,105,74539,1,2,2:0:0:0:
412,45,74645,6,0,L|505:67,1,90.0000034332277,2|2,2:3|2:3,2:0:0:0:
342,297,74856,6,0,P|333:218|376:291,1,225,10|0,2:0|2:0,2:0:0:0:
444,374,75067,2,0,L|456:331,2,45.0000017166138,2|2|2,2:3|2:3|2:3,2:0:0:0:
244,312,75279,6,0,L|331:291,1,90.0000034332277,2|0,3:2|2:0,2:0:0:0:
512,205,75490,2,0,B|499:178|499:178|479:254,1,90.0000034332277,2|0,2:3|2:0,2:0:0:0:
217,384,75701,2,0,L|182:183,1,180,10|0,2:0|2:0,2:0:0:0:
94,92,75913,6,0,B|71:78|71:78|147:93,1,90.0000034332277,2|0,2:3|2:0,2:0:0:0:
276,218,76124,2,0,L|291:130,1,90.0000034332277,2|0,3:2|2:0,2:0:0:0:
238,1,76335,6,0,P|184:-4|159:34,1,90.0000034332277,2|2,2:3|2:3,2:0:0:0:
80,205,76546,2,0,B|50:177|50:177|209:211,1,180,10|0,2:0|2:0,2:0:0:0:
301,122,76758,6,0,L|310:65,2,45.0000017166138,2|2|2,2:3|2:3|2:3,2:0:0:0:
260,314,76969,5,2,3:2:0:0:
488,218,77180,5,2,2:3:0:0:
379,244,77286,1,2,2:3:0:0:
423,181,77391,1,10,2:0:0:0:
472,374,77603,6,0,L|445:273,1,90.0000034332277,2|2,2:3|2:3,2:0:0:0:
199,35,77814,5,10,2:0:0:0:
340,68,77920,1,10,2:0:0:0:
206,125,78025,1,10,1:2:0:0:
282,0,78131,1,10,1:2:0:0:
295,146,78236,6,0,L|302:183,12,22.5000008583069,6|2|2|2|2|2|2|2|2|2|2|2|2,3:2|2:0|2:0|2:0|2:0|2:0|2:0|2:0|2:0|2:0|2:0|2:0|2:0,2:0:0:0:
98,178,78659,6,0,L|157:188,1,48,0|0,3:0|2:0,2:0:0:0:
163,200,78870,6,0,L|61:182,1,83.9999974365235,2|0,2:3|2:0,2:0:0:0:
43,384,79082,5,2,2:0:0:0:
30,308,79187,2,0,L|20:249,1,48,2|2,2:0|2:3,2:0:0:0:
172,209,79398,6,0,L|70:191,1,83.9999974365235,2|0,2:0|2:0,2:0:0:0:
181,218,79610,2,0,L|79:200,1,83.9999974365235,2|2,2:0|3:0,2:0:0:0:
36,66,79821,5,2,2:0:0:0:
90,195,79927,2,0,L|104:112,1,83.9999974365235,10|0,2:0|2:0,2:0:0:0:
257,7,80138,5,2,2:3:0:0:
262,11,80164,6,0,L|316:-4,2,41.9999987182618,2|2|2,2:3|2:3|2:3,2:0:0:0:
197,62,80349,6,0,L|211:109,1,48,0|0,3:0|2:0,2:0:0:0:
205,116,80560,6,0,L|287:130,1,83.9999974365235,2|0,2:3|2:0,2:0:0:0:
444,88,80772,5,2,2:0:0:0:
371,44,80877,2,0,L|361:91,1,48,2|2,2:0|2:3,2:0:0:0:
199,124,81089,6,0,L|281:138,1,83.9999974365235,2|0,2:0|2:0,2:0:0:0:
193,132,81300,2,0,L|275:146,1,83.9999974365235,2|2,2:0|3:0,2:0:0:0:
375,234,81511,5,2,2:0:0:0:
281,138,81617,2,0,L|295:220,1,83.9999974365235,10|0,2:0|2:0,2:0:0:0:
449,377,81828,5,2,2:3:0:0:
454,373,81854,6,0,L|508:388,2,41.9999987182618,2|2|2,2:3|2:3|2:3,2:0:0:0:
293,320,82039,6,0,L|343:305,1,48,0|0,3:0|2:0,2:0:0:0:
358,312,82251,6,0,L|277:333,1,83.9999974365235,2|0,2:3|2:0,2:0:0:0:
127,288,82462,5,2,2:0:0:0:
190,365,82567,2,0,L|200:313,1,48,2|2,2:0|2:3,2:0:0:0:
366,318,82779,6,0,L|285:339,1,83.9999974365235,2|0,2:0|2:0,2:0:0:0:
374,324,82990,2,0,L|293:345,1,83.9999974365235,2|2,2:0|3:0,2:0:0:0:
108,130,83201,5,2,2:0:0:0:
214,224,83307,2,0,L|132:210,1,83.9999974365235,10|0,2:0|2:0,2:0:0:0:
8,90,83518,5,2,2:3:0:0:
12,85,83544,6,0,L|-1:31,2,41.9999987182618,2|2|2,2:3|2:3|2:3,2:0:0:0:
48,260,83729,5,0,3:0:0:0:
250,0,84574,5,2,2:0:0:0:
253,14,84680,1,2,2:0:0:0:
256,28,84786,1,2,2:0:0:0:
259,42,84891,1,2,2:0:0:0:
218,106,84997,5,10,2:0:0:0:
421,52,85208,6,0,B|422:53|432:54|441:48|443:38|443:38|434:31|421:33|416:42,1,60,2|0,2:0|2:0,2:0:0:0:
223,116,85420,6,0,L|280:127,1,48,0|0,3:0|2:0,2:0:0:0:
265,134,85631,6,0,L|284:225,1,83.9999974365235,2|0,2:3|2:0,2:0:0:0:
487,270,85842,5,2,2:0:0:0:
361,244,85948,2,0,L|418:255,1,48,2|2,2:0|3:0,2:0:0:0:
270,125,86159,6,0,L|289:216,1,83.9999974365235,2|0,2:0|2:0,2:0:0:0:
275,116,86370,2,0,L|294:207,1,83.9999974365235,2|2,2:0|2:3,2:0:0:0:
316,372,86582,5,2,2:0:0:0:
230,267,86687,2,0,L|211:358,1,83.9999974365235,10|0,2:0|2:0,2:0:0:0:
160,218,86898,5,2,2:3:0:0:
164,213,86924,6,0,L|149:158,2,41.9999987182618,2|2|2,2:3|2:3|2:3,2:0:0:0:
45,302,87110,6,0,L|95:313,1,48,0|0,3:0|2:0,2:0:0:0:
113,307,87321,6,0,L|30:288,1,83.9999974365235,2|0,2:3|2:0,2:0:0:0:
0,135,87532,5,2,2:0:0:0:
68,93,87638,2,0,L|80:139,1,48,2|2,2:0|3:0,2:0:0:0:
124,301,87849,6,0,L|41:282,1,83.9999974365235,2|0,2:0|2:0,2:0:0:0:
135,295,88060,2,0,L|52:276,1,83.9999974365235,2|2,2:0|2:3,2:0:0:0:
164,213,88272,5,2,2:0:0:0:
212,349,88377,2,0,L|230:267,1,83.9999974365235,10|0,2:0|2:0,2:0:0:0:
352,92,88589,5,2,2:3:0:0:
346,87,88615,6,0,L|359:31,2,41.9999987182618,2|2|2,2:3|2:3|2:3,2:0:0:0:
259,171,88800,6,0,L|307:159,1,48,0|0,3:0|2:0,2:0:0:0:
312,168,89011,6,0,L|407:188,1,83.9999974365235,2|0,2:3|2:0,2:0:0:0:
502,14,89222,5,2,2:0:0:0:
450,70,89328,2,0,L|462:116,1,48,2|2,2:0|3:0,2:0:0:0:
319,178,89539,6,0,L|414:198,1,83.9999974365235,2|0,2:0|2:0,2:0:0:0:
326,188,89751,2,0,L|421:208,1,83.9999974365235,2|2,2:0|2:3,2:0:0:0:
512,225,89962,5,2,2:0:0:0:
431,365,90067,2,0,L|451:270,1,83.9999974365235,10|0,2:0|2:0,2:0:0:0:
352,92,90279,6,0,L|303:80,3,41.9999987182618,2|2|2|2,2:3|2:3|2:3|2:3,2:0:0:0:
233,60,90490,5,0,3:0:0:0:
228,72,91335,6,0,L|196:77,1,24,2|2,2:0|2:0,2:0:0:0:
194,78,91546,2,0,L|163:83,1,24,2|2,2:0|2:0,2:0:0:0:
55,20,91758,6,0,P|52:-10|62:20,7,90.0000034332277,2|2|2|2|2|2|2|2,3:0|2:3|2:3|2:3|2:3|2:3|2:3|2:3,2:0:0:0:
65,29,92180,6,0,B|81:71|38:97|35:95|33:93|-9:113|13:169,1,150,6|0,3:0|2:0,2:0:0:0:
18,162,92616,5,2,2:0:0:0:
94,177,92762,1,2,2:0:0:0:
170,192,92908,1,2,2:0:0:0:
119,252,93053,6,0,L|75:263,1,35.9999989013672,2|2,2:0|2:0,2:0:0:0:
127,259,93345,2,0,L|138:303,1,35.9999989013672,2|2,2:0|2:0,2:0:0:0:
346,384,93636,5,2,2:0:0:0:
305,228,93781,1,2,2:0:0:0:
206,341,93927,1,2,2:0:0:0:
288,321,94073,5,2,2:0:0:0:
294,311,94218,2,0,L|361:298,1,53.9999983520508,2|0,2:0|2:0,2:0:0:0:
500,220,94510,6,0,L|509:188,1,17.9999994506836,2|0,3:2|2:0,2:0:0:0:
354,292,94655,2,0,L|464:321,1,96,2|2,2:0|2:0,2:0:0:0:
438,151,95092,5,2,2:0:0:0:
420,224,95238,1,2,2:0:0:0:
345,86,95383,5,10,2:0:0:0:
327,13,95529,1,2,2:0:0:0:
424,59,95675,5,2,3:2:0:0:
440,64,95820,1,2,2:0:0:0:
304,154,95966,5,4,3:0:0:0:
288,159,96111,1,4,3:0:0:0:
396,217,96257,6,0,L|432:227,3,24,8|8|8|8,3:0|3:0|3:0|3:0,2:0:0:0:
347,300,96548,6,0,L|332:255,3,41.9999987182618,2|2|2|2,2:3|2:3|2:3|2:3,2:0:0:0:
414,384,96840,6,0,L|374:374,1,41.9999987182618,6|0,3:2|2:0,2:0:0:0:
255,237,96985,2,0,P|201:216|118:286,1,167.999994873047,2|2,2:0|2:0,2:0:0:0:
102,374,97422,5,2,2:0:0:0:
54,315,97568,1,2,2:0:0:0:
172,335,97713,6,0,L|201:342,3,30,2|2|2|2,2:3|2:3|2:3|2:3,2:0:0:0:
209,348,98005,5,2,2:3:0:0:
217,342,98150,1,2,2:3:0:0:
73,199,98296,6,0,L|87:170,3,30,2|2|2|2,2:3|2:3|2:3|2:3,2:0:0:0:
83,159,98587,5,2,2:3:0:0:
53,90,98733,1,2,2:3:0:0:
269,0,98879,5,2,2:3:0:0:
266,9,98951,1,2,2:3:0:0:
264,19,99024,1,2,2:3:0:0:
262,29,99097,1,2,2:3:0:0:
236,54,99170,6,0,L|250:103,1,41.9999987182618,2|0,3:2|2:0,2:0:0:0:
318,177,99315,5,8,3:0:0:0:
311,197,99461,1,8,3:0:0:0:
305,217,99607,1,8,3:0:0:0:
205,269,99752,5,8,3:0:0:0:
226,344,99898,1,8,3:0:0:0:
236,344,100044,2,0,L|246:388,3,41.9999987182618,2|2|2|2,3:0|2:3|2:3|2:3,2:0:0:0:
321,357,100335,5,8,3:0:0:0:
402,371,100480,1,8,3:0:0:0:
181,189,100626,6,0,L|131:202,1,30,4|0,3:0|2:0,2:0:0:0:
137,201,100772,2,0,L|87:214,1,30,4|0,3:0|2:0,2:0:0:0:
24,66,100917,6,0,L|37:25,4,27.9999991455078,2|2|2|2|2,2:3|2:3|2:3|2:3|2:3,2:0:0:0:
246,129,101209,6,0,L|295:140,6,30,2|2|2|2|2|2|2,2:3|2:3|2:3|2:3|2:3|2:3|2:3,2:0:0:0:
177,33,101500,6,0,B|171:4|171:4|146:48,1,60,2|0,3:2|2:0,2:0:0:0:
104,113,101646,2,0,B|171:94|171:94|186:55|186:55|292:22,1,192,2|2,2:0|2:0,2:0:0:0:
437,165,102082,5,2,2:0:0:0:
346,67,102228,1,2,2:0:0:0:
475,37,102374,5,2,2:3:0:0:
363,142,102519,1,2,2:3:0:0:
402,15,102665,5,10,2:0:0:0:
493,112,102811,1,2,2:0:0:0:
363,142,102956,6,0,L|342:178,3,41.9999987182618,2|2|2|2,2:3|2:3|2:3|2:3,2:0:0:0:
334,185,103247,5,2,2:3:0:0:
343,223,103393,1,2,2:3:0:0:
443,382,103539,5,2,2:3:0:0:
448,370,103612,1,2,2:3:0:0:
453,359,103684,1,2,2:3:0:0:
460,347,103757,1,2,2:3:0:0:
394,298,103830,6,0,L|335:311,1,60,2|0,3:2|2:0,2:0:0:0:
209,383,103976,2,0,B|176:359|176:359|191:284|191:284|198:280|198:280|211:208|211:208|175:184,1,240,2|2,2:0|2:0,2:0:0:0:
89,212,104413,5,2,2:0:0:0:
196,95,104559,1,2,2:0:0:0:
43,60,104705,5,2,3:0:0:0:
176,184,104850,1,2,2:3:0:0:
130,34,104996,5,10,2:0:0:0:
22,149,105142,1,2,2:0:0:0:
114,109,105286,6,0,L|106:147,3,30,2|2|2|2,2:3|2:3|2:3|2:3,2:0:0:0:
89,212,105578,5,2,2:3:0:0:
85,229,105723,1,2,2:3:0:0:
209,383,105869,6,0,L|267:368,3,41.9999987182618,2|2|2|2,2:3|2:3|2:3|2:3,2:0:0:0:
278,293,106160,6,0,L|339:276,1,60,2|0,3:2|2:0,2:0:0:0:
489,189,106306,2,0,B|438:144|438:144|489:331,1,240,2|2,2:0|2:0,2:0:0:0:
505,384,106743,5,2,2:0:0:0:
385,344,106888,1,2,2:0:0:0:
489,189,107034,6,0,L|482:218,3,30,2|2|2|2,2:3|2:3|2:3|2:3,2:0:0:0:
412,251,107325,5,10,2:0:0:0:
417,267,107471,1,2,2:0:0:0:
244,78,107616,5,2,2:3:0:0:
267,0,107762,1,2,2:3:0:0:
342,186,107908,5,2,2:3:0:0:
196,211,108054,1,2,2:3:0:0:
23,78,108199,5,2,2:3:0:0:
35,80,108272,1,2,2:3:0:0:
47,83,108344,1,2,2:3:0:0:
58,86,108417,1,2,2:3:0:0:
129,150,108490,6,0,L|59:166,1,60,2|0,3:2|2:0,2:0:0:0:
11,261,108636,2,0,B|19:295|19:295|21:297|21:297|19:299|19:299|33:354,1,83.9999974365235,2|0,2:0|2:0,2:0:0:0:
303,107,109655,6,2,B|317:68|295:22|254:8|254:8|254:2|254:2|254:7|254:7|212:23|193:70|209:111,1,251.999992309571,2|0,2:0|2:0,2:0:0:0:
256,192,110238,5,2,2:3:0:0:
256,200,110311,5,2,2:3:0:0:
256,208,110383,5,2,2:3:0:0:
256,216,110456,5,2,2:3:0:0:
256,224,110529,5,2,2:3:0:0:
256,232,110602,5,2,2:3:0:0:
256,240,110675,5,2,2:3:0:0:
256,248,110747,5,2,2:3:0:0:
184,283,110820,6,0,P|250:327|328:280,2,167.999994873047,14|2|2,3:2|2:3|2:0,2:0:0:0:
34,81,111694,6,0,L|-8:89,3,30,2|2|2|2,2:3|2:3|2:3|2:3,2:0:0:0:
94,132,111985,6,0,L|71:240,1,107.999996704102,10|0,2:0|2:0,2:0:0:0:
61,245,112277,2,0,L|19:253,3,30,2|2|2|2,2:3|2:3|2:3|2:3,2:0:0:0:
0,324,112568,5,2,2:3:0:0:
4,340,112713,1,2,2:3:0:0:
158,277,112859,5,2,2:3:0:0:
167,279,112932,1,2,2:3:0:0:
175,281,113005,1,2,2:3:0:0:
184,283,113078,1,2,2:3:0:0:
253,328,113150,6,0,P|191:315|122:385,2,167.999994873047,2|2|2,3:2|2:3|2:0,2:0:0:0:
471,224,114024,6,0,L|462:178,3,30,2|2|2|2,3:0|2:3|2:3|2:3,2:0:0:0:
382,281,114315,6,0,L|360:154,1,107.999996704102,10|0,2:0|2:0,2:0:0:0:
367,166,114607,2,0,L|358:120,3,30,2|2|2|2,2:3|2:3|2:3|2:3,2:0:0:0:
484,212,114898,5,2,2:3:0:0:
500,208,115043,1,2,2:3:0:0:
436,0,115189,5,2,2:3:0:0:
434,8,115262,1,2,2:3:0:0:
432,16,115335,1,2,2:3:0:0:
430,25,115408,1,2,2:3:0:0:
343,33,115480,6,0,B|406:51|406:51|420:82|420:82|507:106,2,167.999994873047,2|2|2,3:2|2:3|2:0,2:0:0:0:
135,187,116354,6,0,L|94:194,3,30,2|2|2|2,2:3|2:3|2:3|2:3,2:0:0:0:
41,122,116646,5,10,2:0:0:0:
59,126,116791,1,2,2:3:0:0:
264,5,116937,6,0,L|256:39,1,30,2|2,2:3|2:3,2:0:0:0:
247,79,117082,2,0,L|239:113,1,30,2|2,2:3|2:3,2:0:0:0:
225,192,117228,5,2,2:3:0:0:
143,85,117374,1,2,2:3:0:0:
225,192,117519,5,2,2:3:0:0:
233,190,117592,1,2,2:3:0:0:
241,188,117665,1,2,2:3:0:0:
250,186,117738,1,2,2:3:0:0:
303,245,117811,6,0,L|364:257,1,48,2|0,3:2|2:0,2:0:0:0:
216,384,118102,2,0,L|205:341,1,35.9999989013672,2|0,2:3|2:0,2:0:0:0:
355,265,118393,6,0,L|290:252,1,60,2|0,2:0|2:0,2:0:0:0:
108,286,118684,2,0,L|154:295,2,35.9999989013672,2|2|0,3:0|2:3|2:3,2:0:0:0:
345,170,118976,6,0,L|329:107,15,60,10|2|2|2|2|2|2|2|2|2|2|2|2|2|2|2,2:0|2:3|2:3|2:3|2:3|2:3|2:3|2:3|2:3|2:3|2:3|2:3|2:3|2:3|2:3|2:3,2:0:0:0:
357,167,119849,6,0,L|411:179,1,48,2|0,3:0|2:0,2:0:0:0:
174,26,120141,6,0,P|107:9|47:88,2,167.999994873047,6|2|2,3:2|2:3|2:0,2:0:0:0:
410,89,121014,6,0,L|446:79,3,30,2|2|2|2,2:3|2:3|2:3|2:3,2:0:0:0:
358,10,121306,5,10,2:0:0:0:
354,29,121451,1,2,2:3:0:0:
208,122,121597,6,0,L|172:112,3,30,2|2|2|2,2:3|2:3|2:3|2:3,2:0:0:0:
109,152,121888,5,2,2:3:0:0:
264,67,122034,1,2,2:3:0:0:
321,124,122179,5,2,2:3:0:0:
319,133,122252,1,2,2:3:0:0:
317,141,122325,1,2,2:3:0:0:
315,150,122398,1,2,2:3:0:0:
252,200,122471,6,0,B|367:173|367:173|413:207,2,167.999994873047,2|2|2,3:2|2:3|2:0,2:0:0:0:
43,336,123345,6,0,L|7:326,3,30,2|2|2|2,3:0|2:3|2:3|2:3,2:0:0:0:
111,263,123636,6,0,L|132:377,1,107.999996704102,10|0,2:0|2:0,2:0:0:0:
139,379,123927,2,0,L|175:369,3,30,2|2|2|2,2:3|2:3|2:3|2:3,2:0:0:0:
221,314,124218,5,2,2:3:0:0:
240,318,124363,1,2,2:3:0:0:
385,384,124510,5,2,2:3:0:0:
387,375,124583,1,2,2:3:0:0:
389,367,124656,1,2,2:3:0:0:
391,358,124729,1,2,2:3:0:0:
342,293,124801,6,0,P|381:320|469:257,2,167.999994873047,2|2|2,3:2|2:3|2:0,2:0:0:0:
227,119,125675,6,0,L|234:81,3,30,2|2|2|2,2:3|2:3|2:3|2:3,2:0:0:0:
300,154,125966,5,10,2:0:0:0:
317,150,126112,1,2,2:3:0:0:
164,27,126257,6,0,L|158:56,1,30,2|2,2:3|2:3,2:0:0:0:
147,101,126403,2,0,L|141:130,1,30,2|2,2:3|2:3,2:0:0:0:
125,211,126548,5,2,2:3:0:0:
27,79,126694,1,2,2:3:0:0:
125,211,126840,5,2,2:3:0:0:
134,209,126913,1,2,2:3:0:0:
142,207,126986,1,2,2:3:0:0:
151,205,127059,1,2,2:3:0:0:
212,257,127131,6,0,L|261:265,1,48,10|0,2:0|2:0,2:0:0:0:
23,372,128296,6,0,L|17:346,5,17.9999994506836,2|2|2|2|2|2,3:2|2:3|2:3|2:3|2:3|2:3,2:0:0:0:
509,78,129461,6,0,B|526:61|526:61|438:83,1,90.0000034332277,6|0,3:2|2:0,2:0:0:0:
321,99,129672,1,2,2:0:0:0:
325,115,129883,1,2,2:0:0:0:
374,0,130094,6,0,L|384:51,1,48,2|0,2:0|2:0,2:0:0:0:
407,146,130306,1,2,2:0:0:0:
409,154,130517,1,2,2:0:0:0:
126,357,130728,6,0,B|125:360|115:363|105:358|102:349|102:349|108:340|121:340|128:348,1,60,10|0,2:0|2:0,2:0:0:0:
209,364,130834,1,2,2:0:0:0:
137,352,130939,1,2,2:0:0:0:
158,108,131151,6,0,L|173:185,1,71.9999978027344,6|0,3:2|2:0,2:0:0:0:
209,364,131362,1,2,2:0:0:0:
40,236,131573,6,0,L|92:248,1,48,2|0,2:0|2:0,2:0:0:0:
354,311,131784,2,0,L|302:299,1,48,2|0,2:0|2:0,2:0:0:0:
192,272,131996,1,2,2:0:0:0:
201,260,132207,6,0,B|109:284|109:284|92:341|92:341|-11:368,2,240,2|10|2,2:0|2:0|2:0,2:0:0:0:
507,73,132841,6,0,P|455:80|410:-12,1,143.999995605469,6|0,3:2|2:0,2:0:0:0:
287,7,133158,1,0,2:0:0:0:
414,24,133263,6,0,P|402:60|336:56,1,102.000001945496,10|0,2:0|2:0,2:0:0:0:
179,123,133475,2,0,P|186:144|224:141,1,60,2|0,2:0|2:0,2:0:0:0:
417,191,133686,5,0,3:0:0:0:
430,187,133897,6,0,L|535:166,1,83.9999974365235,2|0,2:0|2:0,2:0:0:0:
287,7,134108,2,0,P|262:39|272:88,1,83.9999974365235,10|0,2:0|2:0,2:0:0:0:
299,267,134320,2,0,L|308:219,1,48,2|0,2:0|2:0,2:0:0:0:
387,263,134531,6,0,B|309:280|309:280|294:316|294:316|202:336,1,192,2|0,3:2|2:0,2:0:0:0:
45,290,134848,1,0,2:0:0:0:
121,378,134953,6,0,B|147:271|147:271|110:222,1,161.999995056153,8|0,2:0|2:0,2:0:0:0:
105,219,135165,2,0,L|122:147,1,71.9999978027344,0|0,2:0|2:0,2:0:0:0:
80,24,135376,5,2,3:2:0:0:
66,56,135481,1,2,2:0:0:0:
35,73,135587,1,2,2:0:0:0:
0,67,135692,1,2,2:0:0:0:
113,141,135799,5,10,2:0:0:0:
191,130,135904,1,10,2:0:0:0:
270,120,136010,1,10,2:0:0:0:
348,109,136115,1,10,2:0:0:0:
455,176,136221,5,6,3:2:0:0:
430,34,136432,2,0,B|441:51|441:51|428:107,1,71.9999978027344,2|2,2:0|2:0,2:0:0:0:
373,319,136855,6,0,B|349:282|349:282|377:161,2,143.999995605469,2|2|2,2:0|2:0|2:0,2:0:0:0:
83,363,137489,6,0,B|82:366|72:369|62:364|59:355|59:355|65:346|78:346|85:354,1,60,10|0,2:0|2:0,2:0:0:0:
166,370,137595,1,2,2:0:0:0:
94,358,137700,1,2,2:0:0:0:
372,184,137911,6,0,L|267:199,1,71.9999978027344,6|0,3:2|2:0,2:0:0:0:
100,228,138122,2,0,L|151:220,1,48,2|0,2:0|2:0,2:0:0:0:
225,208,138334,1,2,2:0:0:0:
208,85,138545,6,0,L|215:132,1,48,2|0,2:0|2:0,2:0:0:0:
244,333,138756,2,0,L|236:282,1,48,2|0,2:0|2:0,2:0:0:0:
96,106,138968,6,0,B|188:129|188:129|199:148|199:148|196:155|196:155|210:173|210:173|322:199,2,240,2|10|2,2:0|2:0|2:0,2:0:0:0:
436,9,139601,6,0,P|432:101|399:14,1,251.999992309571,6|0,3:2|2:0,2:0:0:0:
301,105,140024,6,0,B|282:84|282:84|369:103,1,96,10|0,2:0|2:0,2:0:0:0:
472,224,140235,2,0,L|490:117,1,96,6|0,3:2|2:0,2:0:0:0:
490,117,140446,5,6,3:2:0:0:
461,236,140658,1,2,2:0:0:0:
438,379,140869,6,0,B|486:365|486:365|450:357,1,71.9999978027344,10|0,2:0|2:0,2:0:0:0:
319,228,141080,2,0,L|303:322,1,96,6|0,3:2|2:0,2:0:0:0:
256,384,141291,5,6,3:2:0:0:
126,317,141503,5,8,2:0:0:0:
177,294,141608,1,8,2:0:0:0:
122,310,141714,1,6,3:2:0:0:
393,262,141925,5,8,2:0:0:0:
319,228,142030,1,8,2:0:0:0:
398,251,142136,1,6,3:2:0:0:
97,127,142348,5,8,2:0:0:0:
180,88,142453,1,8,2:0:0:0:
91,114,142559,1,6,3:2:0:0:
256,0,142770,6,0,L|256:64,1,60,10|0,2:0|2:0,2:0:0:0:
256,384,142982,6,0,L|256:299,1,84,6|0,3:2|2:0,2:0:0:0:
508,21,144884,5,2,2:3:0:0:
510,27,144989,1,2,2:3:0:0:
512,33,145095,1,2,2:3:0:0:
449,80,145306,5,2,2:3:0:0:
447,86,145411,1,2,2:3:0:0:
445,92,145517,1,2,2:3:0:0:
366,87,145728,5,2,2:3:0:0:
360,90,145833,1,2,2:3:0:0:
355,94,145939,1,2,2:3:0:0:
293,46,146151,6,0,L|208:31,1,60,2|0,2:1|2:0,2:0:0:0:
222,38,146256,2,0,L|137:23,1,60,2|0,2:1|2:0,2:0:0:0:
4,4,146362,5,2,2:0:0:0:
214,384,147418,6,2,B|201:345|201:345|318:230|318:230|303:179,1,251.999992309571,2|0,2:0|2:0,2:0:0:0:
247,261,147630,6,0,L|265:320,14,52.500000500679,2|2|2|2|2|2|2|2|2|2|2|2|2|2|2,1:0|2:0|2:0|2:0|2:0|2:0|2:0|2:0|2:0|2:0|2:0|2:0|2:0|2:0|2:0,2:0:0:0:
76,252,148052,6,0,L|181:270,1,90.0000034332277,14|0,3:2|2:0,2:0:0:0:
285,103,148263,2,0,P|278:78|268:112,1,90.0000034332277,2|0,2:3|2:0,2:0:0:0:
64,258,148475,2,0,P|22:191|89:115,1,180,10|0,2:0|2:0,2:0:0:0:
157,0,148686,6,0,B|175:-10|175:-10|161:38,1,71.9999978027344,2|0,3:0|2:0,2:0:0:0:
90,119,148897,2,0,L|78:72,1,48,2|0,2:0|2:0,2:0:0:0:
400,0,149108,5,2,3:0:0:0:
446,62,149214,1,2,2:3:0:0:
377,93,149320,2,0,B|370:111|370:111|388:188,1,90.0000034332277,10|0,2:0|2:0,2:0:0:0:
468,277,149531,6,0,L|512:285,2,45.0000017166138,2|2|2,2:3|2:3|2:3,2:0:0:0:
355,378,149742,6,0,P|331:333|362:285,1,90.0000034332277,2|0,3:2|2:0,2:0:0:0:
475,195,149953,2,0,L|369:177,1,90.0000034332277,2|0,2:3|2:0,2:0:0:0:
207,241,150165,2,0,B|169:208|169:208|310:236,1,180,10|0,2:0|2:0,2:0:0:0:
293,100,150376,6,0,B|275:90|275:90|289:138,1,71.9999978027344,2|0,3:0|2:0,2:0:0:0:
376,226,150587,2,0,L|386:177,1,48,2|0,2:0|2:0,2:0:0:0:
332,19,150799,5,2,3:2:0:0:
465,108,150904,2,0,L|359:90,1,90.0000034332277,2|8,2:0|2:0,2:0:0:0:
171,164,151115,5,2,2:0:0:0:
202,6,151221,2,0,L|192:53,2,45.0000017166138,2|2|2,2:3|2:3|2:3,2:0:0:0:
213,0,151432,6,0,L|189:104,1,90.0000034332277,2|0,3:2|2:0,2:0:0:0:
148,259,151644,2,0,B|143:280|164:290|164:290|183:299|176:324,1,71.9999978027344,2|0,2:3|2:0,2:0:0:0:
18,103,151855,6,0,P|61:66|105:82,1,90.0000034332277,10|0,2:0|2:0,2:0:0:0:
137,271,152066,2,0,B|144:297|118:310|118:310|94:321|104:350,1,90.0000034332277,2|0,3:0|2:0,2:0:0:0:
283,224,152277,6,0,B|296:200|296:200|220:220,1,90.0000034332277,2|0,2:0|2:0,2:0:0:0:
0,184,152489,5,2,3:0:0:0:
63,227,152595,1,2,2:3:0:0:
84,154,152701,2,0,B|102:147|102:147|179:165,1,90.0000034332277,10|0,2:0|2:0,2:0:0:0:
354,304,152911,6,0,L|365:257,2,35.9999989013672,2|2|2,2:3|2:3|2:3,2:0:0:0:
277,384,153122,6,0,P|253:334|286:292,1,90.0000034332277,2|0,3:2|2:0,2:0:0:0:
425,211,153334,2,0,L|525:236,1,90.0000034332277,2|0,2:3|2:0,2:0:0:0:
407,20,153545,6,0,P|393:-7|391:28,1,90.0000034332277,10|0,2:0|2:0,2:0:0:0:
438,203,153756,2,0,L|462:103,1,90.0000034332277,2|0,3:0|2:0,2:0:0:0:
170,163,153968,5,0,1:0:0:0:
244,180,154074,1,0,1:0:0:0:
300,125,154179,1,2,3:2:0:0:
373,141,154285,1,0,1:0:0:0:
285,51,154391,6,0,L|271:-6,3,45.0000017166138,10|2|2|2,2:0|2:3|2:3|2:3,2:0:0:0:
160,170,154601,6,0,L|154:191,6,22.5000008583069,2|2|2|2|2|2|2,2:3|2:3|2:3|2:3|2:3|2:3|2:3,2:0:0:0:
102,110,154813,6,0,L|14:88,1,90.0000034332277,6|0,3:2|2:0,2:0:0:0:
177,2,155024,2,0,B|199:-14|199:-14|177:59,1,90.0000034332277,2|0,2:3|2:0,2:0:0:0:
26,211,155235,2,0,P|99:194|164:279,1,180,10|0,2:0|2:0,2:0:0:0:
343,204,155446,6,0,P|351:185|328:201,1,71.9999978027344,2|0,3:0|2:0,2:0:0:0:
302,332,155658,2,0,L|315:279,1,48,2|0,2:0|2:0,2:0:0:0:
129,338,155869,5,2,3:0:0:0:
191,384,155975,1,2,2:3:0:0:
222,315,156081,2,0,B|240:308|240:308|317:326,1,90.0000034332277,10|0,2:0|2:0,2:0:0:0:
499,182,156291,6,0,L|488:138,2,45.0000017166138,2|2|2,2:3|2:3|2:3,2:0:0:0:
462,370,156503,6,0,P|418:355|404:311,1,90.0000034332277,2|0,3:2|2:0,2:0:0:0:
233,144,156714,2,0,L|257:252,1,90.0000034332277,2|0,2:3|2:0,2:0:0:0:
458,252,156925,2,0,B|386:270|386:270|374:306|374:306|285:330,1,180,10|0,2:0|2:0,2:0:0:0:
240,243,157137,6,0,P|232:262|255:246,1,71.9999978027344,2|0,3:0|2:0,2:0:0:0:
353,158,157348,2,0,L|343:205,1,48,2|0,2:0|2:0,2:0:0:0:
207,39,157559,5,2,3:0:0:0:
405,73,157665,2,0,L|300:51,1,90.0000034332277,2|8,2:0|2:0,2:0:0:0:
233,144,157876,5,2,2:0:0:0:
313,0,157982,2,0,L|323:47,2,45.0000017166138,2|2|2,2:3|2:3|2:3,2:0:0:0:
505,146,158193,6,0,P|455:147|429:182,1,90.0000034332277,2|0,3:2|2:0,2:0:0:0:
352,291,158404,2,0,B|345:317|371:330|371:330|395:341|388:370,1,90.0000034332277,2|0,2:3|2:0,2:0:0:0:
233,144,158615,6,0,B|216:124|216:124|294:142,1,90.0000034332277,10|0,2:0|2:0,2:0:0:0:
365,297,158827,2,0,B|372:323|346:336|346:336|322:347|332:376,1,90.0000034332277,2|0,3:0|2:0,2:0:0:0:
0,199,159038,5,2,2:0:0:0:
126,166,159144,1,2,2:0:0:0:
43,268,159249,1,2,3:0:0:0:
52,137,159355,1,2,3:0:0:0:
121,248,159461,6,0,P|173:234|253:321,1,180,10|0,2:0|2:0,2:0:0:0:
181,350,159672,2,0,P|173:377|149:384,2,45.0000017166138,2|2|2,2:3|2:3|2:3,2:0:0:0:
353,158,159883,5,10,3:2:0:0:
355,145,160305,1,10,3:2:0:0:
264,0,160728,6,2,B|266:12|266:12|271:12|271:12|266:12|266:12|279:65,1,72,2|0,3:2|2:0,2:1:0:0:
399,68,161151,5,10,2:0:0:0:
384,65,161256,1,10,2:0:0:0:
368,62,161362,1,10,2:0:0:0:
354,59,161467,1,10,2:0:0:0:
190,117,161573,6,0,L|297:142,1,90.0000034332277,6|0,3:2|2:0,2:0:0:0:
433,331,161784,5,2,2:3:0:0:
428,347,161890,1,2,2:0:0:0:
355,303,161996,5,10,2:0:0:0:
413,252,162101,1,2,2:0:0:0:
487,271,162207,1,2,2:3:0:0:
512,343,162312,1,2,2:0:0:0:
403,240,162418,6,0,L|428:132,1,90.0000034332277,2|0,3:2|2:0,2:0:0:0:
225,250,162630,2,0,B|206:234|206:234|287:256,1,90.0000034332277,2|0,2:3|2:0,2:0:0:0:
467,51,162841,2,0,P|417:114|321:68,1,180,10|0,2:0|2:0,2:0:0:0:
296,16,163052,6,0,L|241:29,2,45.0000017166138,2|2|2,2:3|2:3|2:3,2:0:0:0:
268,251,163263,6,0,B|290:244|290:244|306:163,1,90.0000034332277,2|0,3:2|2:0,2:0:0:0:
171,52,163475,2,0,L|160:8,2,45.0000017166138,2|2|2,2:3|2:3|2:3,2:0:0:0:
0,121,163686,5,10,2:0:0:0:
126,156,163791,1,2,2:0:0:0:
75,94,163897,5,2,2:3:0:0:
50,182,164002,1,2,2:0:0:0:
224,261,164108,6,0,L|276:248,1,45.0000017166138,2|0,3:2|2:0,2:0:0:0:
119,340,164214,2,0,L|104:391,1,45.0000017166138,2|0,2:0|2:0,2:0:0:0:
81,214,164320,2,0,L|43:175,1,45.0000017166138,2|2,2:3|2:0,2:0:0:0:
146,253,164425,5,2,2:3:0:0:
145,260,164478,1,2,2:3:0:0:
144,268,164531,6,0,B|205:291|205:291|226:340|226:340|303:366,1,180,10|0,2:0|2:0,2:0:0:0:
441,260,164742,6,0,L|500:243,2,45.0000017166138,2|2|2,2:3|2:3|2:3,2:0:0:0:
381,365,164953,6,0,P|355:326|378:272,1,90.0000034332277,2|0,3:2|2:0,2:0:0:0:
512,167,165165,2,0,L|412:147,1,90.0000034332277,2|0,2:3|2:0,2:0:0:0:
215,36,165376,2,0,P|248:108|347:86,1,180,10|0,2:0|2:0,2:0:0:0:
483,14,165587,6,0,P|467:-16|465:17,1,90.0000034332277,2|0,2:3|2:0,2:0:0:0:
349,105,165799,2,0,P|369:70|337:19,1,90.0000034332277,2|0,3:2|2:0,2:0:0:0:
87,0,166010,5,2,2:3:0:0:
41,62,166116,1,2,2:3:0:0:
110,93,166222,2,0,B|117:111|117:111|99:188,1,90.0000034332277,10|0,2:0|2:0,2:0:0:0:
203,384,166432,6,0,L|263:373,2,45.0000017166138,2|2|2,2:3|2:3|2:3,2:0:0:0:
124,263,166644,6,0,L|35:247,1,90.0000034332277,2|0,3:2|2:0,2:0:0:0:
208,132,166855,2,0,B|230:112|230:112|218:183,1,90.0000034332277,2|0,2:3|2:0,2:0:0:0:
138,339,167066,2,0,P|184:282|290:328,1,180,10|0,2:0|2:0,2:0:0:0:
502,207,167277,6,0,P|498:173|484:203,1,90.0000034332277,2|0,2:3|2:0,2:0:0:0:
371,384,167489,5,2,3:2:0:0:
355,309,167595,1,2,2:0:0:0:
410,251,167700,1,2,2:3:0:0:
393,177,167806,1,2,2:0:0:0:
469,59,167911,6,0,L|524:71,1,45.0000017166138,10|2,1:2|2:3,2:0:0:0:
332,124,168017,2,0,L|288:133,1,45.0000017166138,10|2,1:2|2:3,2:0:0:0:
285,0,168122,2,0,L|294:43,1,45.0000017166138,10|2,1:2|2:3,2:0:0:0:
405,173,168228,2,0,L|414:129,1,45.0000017166138,10|2,1:2|2:3,2:0:0:0:
381,60,168334,6,0,B|304:73|304:73|288:117|288:117|185:136,1,207.000003948212,6|0,3:2|2:0,2:0:0:0:
35,40,168545,2,0,B|13:19|13:19|92:41,1,90.0000034332277,2|0,2:3|2:0,2:0:0:0:
160,192,168756,5,10,2:0:0:0:
178,36,168862,2,0,L|200:148,1,90.0000034332277,2|2,2:0|2:3,2:0:0:0:
85,265,169073,6,0,B|63:244|63:244|142:266,1,90.0000034332277,2|0,2:0|3:0,2:0:0:0:
356,285,169284,5,2,2:0:0:0:
220,358,169390,1,2,2:3:0:0:
314,373,169496,1,2,2:3:0:0:
271,274,169601,6,0,B|202:291|202:291|187:323|187:323|100:348,1,180,10|0,2:0|2:0,2:0:0:0:
325,375,169813,2,0,L|392:386,2,45.0000017166138,2|2|2,2:3|2:3|2:3,2:0:0:0:
160,192,170024,5,2,3:2:0:0:
195,124,170130,1,2,2:0:0:0:
244,188,170235,1,2,2:3:0:0:
117,127,170341,1,2,2:0:0:0:
231,56,170446,5,10,2:0:0:0:
306,33,170552,1,2,2:0:0:0:
387,167,170658,1,2,2:3:0:0:
314,148,170764,1,2,2:0:0:0:
389,13,170869,5,2,3:2:0:0:
370,86,170975,1,2,2:0:0:0:
425,241,171080,6,0,L|520:217,1,90.0000034332277,2|2,2:3|2:3,2:0:0:0:
180,364,171291,6,0,P|177:284|214:360,1,225,10|0,2:0|2:0,2:0:0:0:
361,374,171503,2,0,L|426:389,2,45.0000017166138,2|2|2,2:3|2:3|2:3,2:0:0:0:
333,224,171714,6,0,L|308:326,1,90.0000034332277,2|0,3:2|2:0,2:0:0:0:
153,132,171925,2,0,P|159:97|163:129,1,90.0000034332277,2|0,2:3|2:0,2:0:0:0:
339,234,172137,2,0,P|258:207|196:282,1,180,10|0,2:0|2:0,2:0:0:0:
71,306,172348,6,0,B|55:286|55:286|139:306,1,90.0000034332277,2|0,2:3|2:0,2:0:0:0:
255,167,172559,2,0,L|276:79,1,90.0000034332277,2|0,3:2|2:0,2:0:0:0:
23,190,172770,6,0,L|110:211,1,90.0000034332277,2|2,2:3|2:3,2:0:0:0:
387,36,172982,2,0,B|355:9|355:9|386:166,1,180,10|0,2:0|2:0,2:0:0:0:
282,289,173193,6,0,L|290:333,2,45.0000017166138,2|2|2,2:3|2:3|2:3,2:0:0:0:
255,167,173404,5,2,3:2:0:0:
396,242,173615,6,0,L|343:230,1,45.0000017166138,2|0,2:3|2:0,2:0:0:0:
443,259,173721,2,0,L|390:247,1,45.0000017166138,2|0,2:3|2:0,2:0:0:0:
498,309,173827,5,10,2:0:0:0:
106,101,174038,6,0,L|159:90,1,45.0000017166138,2|0,2:3|2:0,2:0:0:0:
58,116,174144,2,0,L|111:105,1,45.0000017166138,2|0,2:3|2:0,2:0:0:0:
23,190,174249,5,10,2:0:0:0:
109,211,174354,1,10,2:0:0:0:
255,167,174461,5,10,2:0:0:0:
224,347,174566,1,10,2:0:0:0:
194,224,174672,6,0,L|205:268,3,45.0000017166138,10|0|0|0,3:2|2:0|2:0|2:0,2:0:0:0:
366,362,174883,6,0,L|360:394,6,22.5000008583069,10|2|2|2|2|2|2,2:0|2:3|2:3|2:3|2:3|2:3|2:3,2:0:0:0:
209,342,175094,6,0,L|436:297,1,215.999993408203,6|0,3:2|2:0,2:0:0:0:
414,136,175306,6,0,L|388:239,1,90.0000034332277,2|0,2:3|2:0,2:0:0:0:
498,352,175517,5,10,2:0:0:0:
310,232,175622,2,0,L|390:218,1,71.9999978027344,2|2,2:0|2:3,2:0:0:0:
380,46,175834,6,0,L|406:149,1,90.0000034332277,2|0,2:0|3:0,2:0:0:0:
512,258,176045,2,0,L|486:361,1,90.0000034332277,2|2,2:0|2:3,2:0:0:0:
303,66,176256,5,2,2:0:0:0:
502,120,176362,2,0,L|413:135,1,90.0000034332277,10|0,2:0|2:0,2:0:0:0:
228,6,176573,5,2,2:3:0:0:
221,3,176600,6,0,B|205:31|205:31|243:178,1,165.000005035401,2|0,2:0|2:0,2:0:0:0:
122,188,176784,6,0,L|140:130,1,60,0|0,3:0|2:0,2:0:0:0:
130,198,176996,6,0,L|41:213,1,90.0000034332277,2|0,2:3|2:0,2:0:0:0:
198,374,177207,5,10,2:0:0:0:
105,282,177313,2,0,L|119:355,1,71.9999978027344,2|0,2:0|2:0,2:0:0:0:
33,203,177524,6,0,L|59:100,1,90.0000034332277,2|0,2:0|3:0,2:0:0:0:
198,374,177735,2,0,L|224:271,1,90.0000034332277,2|2,2:0|2:3,2:0:0:0:
397,238,177946,5,2,2:0:0:0:
255,148,178052,2,0,L|277:235,1,90.0000034332277,10|0,2:0|2:0,2:0:0:0:
500,331,178263,5,2,2:3:0:0:
503,338,178290,6,0,B|475:354|475:354|328:316,1,165.000005035401,2|0,2:0|2:0,2:0:0:0:
407,228,178475,6,0,L|465:218,1,60,0|0,3:0|2:0,2:0:0:0:
397,238,178686,6,0,L|423:135,1,90.0000034332277,2|0,2:3|2:0,2:0:0:0:
338,25,178897,5,10,2:0:0:0:
501,63,179003,2,0,L|425:43,1,71.9999978027344,2|2,2:0|2:3,2:0:0:0:
238,159,179214,6,0,L|339:133,1,90.0000034332277,2|0,2:0|3:0,2:0:0:0:
425,34,179425,2,0,L|526:8,1,90.0000034332277,2|2,2:0|2:3,2:0:0:0:
419,150,179637,5,2,2:0:0:0:
220,0,179742,2,0,L|197:87,1,90.0000034332277,10|0,2:0|2:0,2:0:0:0:
123,245,179953,5,2,2:3:0:0:
120,252,179980,6,0,B|148:268|148:268|295:230,1,165.000005035401,2|0,2:0|2:0,2:0:0:0:
296,381,180165,6,0,L|280:323,1,60,0|0,3:0|2:0,2:0:0:0:
305,374,180376,6,0,B|289:365|289:365|208:386,1,90.0000034332277,2|0,2:3|2:0,2:0:0:0:
6,197,180587,2,0,L|29:110,1,90.0000034332277,8|0,2:0|2:0,2:0:0:0:
189,232,180799,6,0,L|116:252,1,71.9999978027344,2|0,2:3|2:0,2:0:0:0:
290,27,181010,5,2,3:2:0:0:
309,101,181116,1,2,2:0:0:0:
256,161,181221,1,2,2:3:0:0:
276,234,181327,1,2,2:0:0:0:
380,340,181432,5,10,2:0:0:0:
506,252,181538,1,10,2:0:0:0:
398,232,181644,1,10,2:0:0:0:
485,358,181749,1,10,2:0:0:0:
442,295,181855,6,0,L|211:353,1,215.999993408203,6|0,3:2|2:0,2:0:0:0:
67,361,182066,6,0,L|158:381,1,90.0000034332277,2|0,2:3|2:0,2:0:0:0:
114,174,182277,5,10,2:0:0:0:
155,367,182383,2,0,L|137:286,1,71.9999978027344,2|2,2:0|2:3,2:0:0:0:
17,164,182594,6,0,L|108:184,1,90.0000034332277,2|0,2:0|3:0,2:0:0:0:
232,347,182806,2,0,L|323:367,1,90.0000034332277,2|2,2:0|2:3,2:0:0:0:
346,162,183017,5,2,2:0:0:0:
217,268,183122,2,0,L|193:163,1,90.0000034332277,10|0,2:0|2:0,2:0:0:0:
371,10,183334,5,2,2:3:0:0:
377,15,183360,6,0,B|401:1|401:1|480:16,2,90.0000034332277,2|2|2,2:0|2:3|2:3,2:0:0:0:
243,38,183545,6,0,L|306:52,1,60,0|0,3:0|2:0,2:0:0:0:
236,29,183756,6,0,L|139:49,1,90.0000034332277,2|0,2:3|2:0,2:0:0:0:
346,162,183968,5,10,2:0:0:0:
247,20,184073,2,0,L|231:96,1,71.9999978027344,2|2,2:0|2:3,2:0:0:0:
128,286,184284,6,0,L|216:267,1,90.0000034332277,2|0,2:0|3:0,2:0:0:0:
348,148,184496,2,0,L|436:129,1,90.0000034332277,2|2,2:0|2:3,2:0:0:0:
471,324,184707,5,2,2:0:0:0:
328,242,184813,2,0,L|309:333,1,90.0000034332277,10|0,2:0|2:0,2:0:0:0:
102,376,185024,5,2,2:3:0:0:
96,371,185050,6,0,B|72:385|72:385|-7:370,2,90.0000034332277,2|2|2,2:0|2:3|2:3,2:0:0:0:
128,286,185235,6,0,L|112:216,1,60,0|0,3:0|2:0,2:0:0:0:
229,273,185446,6,0,L|141:292,1,90.0000034332277,2|0,2:3|2:0,2:0:0:0:
147,47,185658,5,10,2:0:0:0:
15,118,185763,2,0,L|93:135,1,71.9999978027344,2|2,2:0|2:3,2:0:0:0:
347,148,185975,6,0,L|325:54,1,90.0000034332277,2|0,2:0|3:0,2:0:0:0:
243,369,186186,2,0,L|222:281,1,90.0000034332277,2|2,2:0|2:3,2:0:0:0:
184,126,186397,5,2,2:0:0:0:
406,251,186503,2,0,L|307:230,1,90.0000034332277,10|0,2:0|2:0,2:0:0:0:
238,13,186714,5,2,2:3:0:0:
255,0,186820,1,2,2:3:0:0:
272,12,186925,1,10,3:2:0:0:
240,192,187982,5,2,3:0:0:0:
272,192,188087,1,2,3:0:0:0:
256,266,188193,6,0,L|256:306,1,35.9999989013672,10|0,2:3|2:0,2:0:0:0:
33,158,188615,6,0,P|26:113|40:164,2,215.999993408203,2|2|2,3:2|2:0|2:0,2:0:0:0:
102,17,189461,5,2,2:0:0:0:
274,66,189672,1,2,2:0:0:0:
268,73,189777,2,0,P|216:75|185:108,1,96,2|0,2:0|2:0,2:0:0:0:
240,192,190094,5,2,2:0:0:0:
237,181,190200,5,2,2:0:0:0:
270,189,190306,1,2,3:2:0:0:
302,261,190517,5,2,2:0:0:0:
331,243,190622,1,2,2:0:0:0:
404,291,190834,5,2,2:0:0:0:
417,259,190939,1,2,2:0:0:0:
336,339,191151,6,0,L|344:383,1,35.9999989013672,2|0,2:0|2:0,2:0:0:0:
214,264,191468,6,0,L|195:304,1,35.9999989013672,2|0,2:0|2:0,2:0:0:0:
186,104,191784,6,0,L|147:126,1,35.9999989013672,2|0,2:0|2:0,2:0:0:0:
418,169,191996,6,0,P|425:124|411:175,2,215.999993408203,2|2|2,3:2|2:0|2:0,2:0:0:0:
359,365,192841,6,0,L|349:317,1,48,2|0,2:0|2:0,2:0:0:0:
430,321,193052,5,2,2:0:0:0:
352,383,193158,2,0,L|330:282,1,96,2|0,2:0|2:0,2:0:0:0:
304,119,193475,5,2,2:0:0:0:
122,244,193686,6,0,B|93:215|93:215|209:240,1,143.999995605469,2|0,3:2|2:0,2:0:0:0:
223,99,194003,5,2,2:0:0:0:
208,90,194108,2,0,L|227:180,1,71.9999978027344,2|0,2:0|2:0,2:0:0:0:
161,315,194320,5,2,2:0:0:0:
23,75,194531,5,2,2:0:0:0:
95,95,194636,1,2,2:0:0:0:
24,120,194743,1,2,2:0:0:0:
66,58,194848,1,2,2:0:0:0:
69,134,194953,1,2,3:0:0:0:
256,0,195165,5,2,2:0:0:0:
497,103,195376,6,0,L|419:88,1,71.9999978027344,2|0,3:2|2:0,2:0:0:0:
348,2,195587,5,2,2:0:0:0:
467,21,195693,2,0,B|403:31|365:108|384:139|437:119|409:111|401:99|422:66,1,179.999994506836,2|0,2:0|2:0,2:0:0:0:
312,72,196010,5,2,2:0:0:0:
466,194,196221,6,0,P|436:192|415:230,1,60,2|0,2:0|2:0,2:0:0:0:
243,239,196432,1,2,2:0:0:0:
233,229,196538,2,0,L|358:252,1,120,2|0,2:0|2:0,2:0:0:0:
468,274,196855,5,2,2:0:0:0:
303,382,197066,6,0,L|291:315,1,60,2|0,3:2|2:0,2:0:0:0:
99,146,197277,5,2,2:3:0:0:
175,174,197383,2,0,P|121:167|57:236,1,143.999995605469,2|0,2:0|2:0,2:0:0:0:
0,274,197700,5,2,2:0:0:0:
139,360,197911,6,0,L|121:300,1,35.9999989013672,2|0,2:0|2:0,2:0:0:0:
224,285,198228,6,0,L|232:230,1,35.9999989013672,2|0,2:0|2:0,2:0:0:0:
351,250,198545,5,2,2:0:0:0:
446,352,198756,6,0,P|426:369|387:365,1,60,2|0,3:2|2:0,2:0:0:0:
429,231,198968,5,2,2:3:0:0:
380,375,199073,2,0,P|335:340|337:253,1,143.999995605469,2|0,2:0|2:0,2:0:0:0:
493,285,199390,5,2,2:0:0:0:
294,190,199601,6,0,P|310:144|382:122,1,120,2|0,2:0|2:0,2:0:0:0:
415,56,199918,2,0,P|463:57|506:118,1,120,2|0,2:0|2:0,2:0:0:0:
290,27,200235,6,0,P|287:7|299:32,1,83.9999974365235,2|0,2:0|2:0,2:0:0:0:
217,234,200446,6,0,P|204:207|184:191,2,53.9999983520508,2|0|0,3:2|2:0|2:0,2:0:0:0:
256,384,201503,6,0,L|256:341,1,35.9999989013672,2|0,2:0|2:0,2:0:0:0:
271,39,201714,6,0,B|276:60|255:70|255:70|236:79|243:104,1,71.9999978027344,2|0,2:0|2:0,2:0:0:0:
