osu file format v14

[General]
AudioFilename: audio.mp3
AudioLeadIn: 0
PreviewTime: 49874
Countdown: 0
SampleSet: Soft
StackLeniency: 0.7
Mode: 0
LetterboxInBreaks: 0
WidescreenStoryboard: 1

[Editor]
Bookmarks: 7673,21194,34715,49927,51617,65138,78659,92180,110820,129461,146362,148052,161573,175094,188615,202137
DistanceSpacing: 0.2
BeatDivisor: 8
GridSize: 16
TimelineZoom: 3.100005

[Metadata]
Title:God-ish
TitleUnicode:神っぽいな
Artist:sekai
ArtistUnicode:sekai
Creator:seros
Version:?
Source:
Tags:corsace closed ro16 nm3 cc22 cover jpop j-pop japanese pop vocaloid Sankaku Zuwari ピノキオピー godish kami ppoi poi na pinocchiop hatsune miku nenneO petal matha climbx3145 climb kuse KuBsNia_ZhoYL_ irin surou setu shiratamamywife
BeatmapID:3601681
BeatmapSetID:1759764

[Difficulty]
HPDrainRate:5
CircleSize:4
OverallDifficulty:9
ApproachRate:9.7
SliderMultiplier:3
SliderTickRate:1

[Events]
//Background and Video events
0,0,"bg.jpg",0,0
//Break Periods
//Storyboard Layer 0 (Background)
//Storyboard Layer 1 (Fail)
//Storyboard Layer 2 (Pass)
//Storyboard Layer 3 (Foreground)
//Storyboard Layer 4 (Overlay)
//Storyboard Sound Samples

[TimingPoints]
913,422.535211267606,4,2,1,49,1,0
5983,-100,4,2,1,5,0,0
7673,-133.333333333333,4,2,1,49,0,0
8307,-100,4,2,1,49,0,0
8941,-133.333333333333,4,2,1,49,0,0
11898,-100,4,2,1,49,0,0
12532,-133.333333333333,4,2,1,49,0,0
14011,-200,4,2,1,49,0,0
14434,-133.333333333333,4,2,1,49,0,0
14751,-100,4,2,1,49,0,0
15279,-133.333333333333,4,2,1,49,0,0
15596,-100,4,2,1,49,0,0
16124,-133.333333333333,4,2,1,49,0,0
16441,-100,4,2,1,49,0,0
16969,-133.333333333333,4,2,1,49,0,0
18659,-100,4,2,1,49,0,0
18976,-90.9090909090909,4,2,1,49,0,0
19293,-133.333333333333,4,2,1,49,0,0
20772,-133.333333333333,4,2,14,49,0,0
20824,-133.333333333333,4,2,1,49,0,0
21194,-90.9090909090909,4,2,1,69,0,0
33342,-333.333333333333,4,2,1,69,0,0
34715,-133.333333333333,4,2,1,69,0,0
37462,-100,4,2,1,69,0,0
37884,-133.333333333333,4,2,1,69,0,0
38096,-83.3333333333333,4,2,1,69,0,0
38518,-100,4,2,1,69,0,0
38941,-133.333333333333,4,2,1,69,0,0
39786,-83.3333333333333,4,2,1,69,0,0
41476,-133.333333333333,4,2,1,69,0,0
44222,-100,4,2,1,69,0,0
44856,-200,4,2,1,69,0,0
46758,-133.333333333333,4,2,1,69,0,0
51405,-133.333333333333,4,2,1,69,0,0
51617,-55.5555555555556,4,2,1,80,0,1
51828,-83.3333333333333,4,2,1,80,0,1
52251,-100,4,2,1,80,0,1
52673,-100,4,2,1,80,0,1
53307,-55.5555555555556,4,2,1,80,0,1
53518,-83.3333333333333,4,2,1,80,0,1
53941,-100,4,2,1,80,0,1
54363,-133.333333333333,4,2,1,80,0,1
54786,-100,4,2,1,80,0,1
55208,-133.333333333333,4,2,1,80,0,1
55420,-100,4,2,1,80,0,1
55631,-133.333333333333,4,2,1,80,0,1
55842,-100,4,2,1,80,0,1
56053,-133.333333333333,4,2,1,80,0,1
56265,-100,4,2,1,80,0,1
56687,-133.333333333333,4,2,1,80,0,1
57110,-100,4,2,1,80,0,1
57955,-133.333333333333,4,2,1,80,0,1
58377,-55.5555555555556,4,2,1,80,0,1
58589,-83.3333333333333,4,2,1,80,0,1
59011,-100,4,2,1,80,0,1
59434,-100,4,2,1,80,0,1
60067,-55.5555555555556,4,2,1,80,0,1
60279,-83.3333333333333,4,2,1,80,0,1
60701,-100,4,2,1,80,0,1
61124,-133.333333333333,4,2,1,80,0,1
61546,-100,4,2,1,80,0,1
61969,-133.333333333333,4,2,1,80,0,1
62180,-100,4,2,1,80,0,1
62391,-133.333333333333,4,2,1,80,0,1
62603,-100,4,2,1,80,0,1
63448,-200,4,2,1,80,0,1
66405,-83.3333333333333,4,2,1,80,0,1
66828,-133.333333333333,4,2,1,80,0,1
67356,-100,4,2,1,80,0,1
68518,-55.5555555555556,4,2,1,80,0,1
68729,-100,4,2,1,80,0,1
69152,-100,4,2,1,80,0,1
69363,-66.6666666666667,4,2,1,80,0,1
69574,-100,4,2,1,80,0,1
70208,-55.5555555555556,4,2,1,80,0,1
70420,-100,4,2,1,80,0,1
70842,-100,4,2,1,80,0,1
71898,-133.333333333333,4,2,1,80,0,1
72427,-100,4,2,1,80,0,1
72638,-133.333333333333,4,2,1,80,0,1
73166,-83.3333333333333,4,2,1,80,0,1
75279,-55.5555555555556,4,2,1,80,0,1
75490,-83.3333333333333,4,2,1,80,0,1
75701,-100,4,2,1,80,0,1
76124,-66.6666666666667,4,2,1,80,0,1
76335,-100,4,2,1,80,0,1
76758,-83.3333333333333,4,2,1,80,0,1
76969,-133.333333333333,4,2,1,80,0,1
77180,-83.3333333333333,4,2,1,80,0,1
77391,-133.333333333333,4,2,1,80,0,1
77603,-40,4,2,1,80,0,1
78236,-100,4,2,1,80,0,1
78659,-133.333333333333,4,2,1,69,0,0
84786,-83.3333333333333,4,2,1,69,0,0
85208,-133.333333333333,4,2,1,69,0,0
91335,-100,4,2,1,69,0,0
91758,-133.333333333333,4,2,1,69,0,0
92180,582.52427184466,4,2,1,39,1,0
92180,-133.333333333333,4,2,1,39,0,0
94510,-117.647058823529,4,2,1,44,0,0
96840,-105.263157894737,4,2,1,49,0,0
99170,-105.263157894737,4,2,1,69,0,0
101500,-95.2380952380954,4,2,1,59,0,0
103830,-86.9565217391304,4,2,1,64,0,0
106160,-80,4,2,1,69,0,0
108490,-90.9090909090909,4,2,1,69,0,0
109073,-90.9090909090909,4,2,1,5,0,0
109655,-133.333333333333,4,2,1,69,0,0
110820,-200,4,2,1,39,0,0
125966,-133.333333333333,4,2,1,39,0,0
126184,-133.333333333333,4,2,1,5,0,0
126257,-133.333333333333,4,2,1,39,0,0
126476,-133.333333333333,4,2,1,5,0,0
126548,-133.333333333333,4,2,1,39,0,0
126767,-133.333333333333,4,2,1,5,0,0
126840,-133.333333333333,4,2,1,39,0,0
127131,-133.333333333333,4,2,1,39,0,0
128150,-133.333333333333,4,2,1,5,0,0
128296,-133.333333333333,4,2,1,39,0,0
128879,-133.333333333333,4,2,1,5,0,0
129461,422.535211267606,4,2,1,69,1,0
129461,-133.333333333333,4,2,1,69,0,0
132207,-100,4,2,1,69,0,0
132630,-133.333333333333,4,2,1,69,0,0
132841,-83.3333333333333,4,2,1,69,0,0
134531,-66.6666666666667,4,2,1,69,0,0
134953,-83.3333333333333,4,2,1,69,0,0
136221,-133.333333333333,4,2,1,69,0,0
138968,-100,4,2,1,69,0,0
139601,-200,4,2,1,69,0,0
144672,-200,4,2,1,80,0,0
145517,-200,4,2,1,90,0,0
146362,-200,4,2,1,69,0,0
147418,-66.6666666666667,4,2,1,69,0,0
147630,-66.6666666666667,4,2,1,69,0,1
147999,-66.6666666666667,4,2,1,69,0,0
148052,-55.5555555555556,4,2,1,80,0,1
148475,-83.3333333333333,4,2,1,80,0,1
148686,-100,4,2,1,80,0,1
149742,-55.5555555555556,4,2,1,80,0,1
150165,-83.3333333333333,4,2,1,80,0,1
150376,-100,4,2,1,80,0,1
150799,-133.333333333333,4,2,1,80,0,1
151221,-100,4,2,1,80,0,1
151644,-133.333333333333,4,2,1,80,0,1
151855,-100,4,2,1,80,0,1
152066,-133.333333333333,4,2,1,80,0,1
152277,-100,4,2,1,80,0,1
152700,-83.3333333333333,4,2,1,80,0,1
153122,-133.333333333333,4,2,1,80,0,1
153545,-100,4,2,1,80,0,1
154813,-55.5555555555556,4,2,1,80,0,1
155235,-83.3333333333333,4,2,1,80,0,1
155446,-100,4,2,1,80,0,1
156503,-55.5555555555556,4,2,1,80,0,1
156925,-83.3333333333333,4,2,1,80,0,1
157137,-100,4,2,1,80,0,1
157559,-133.333333333333,4,2,1,80,0,1
157982,-100,4,2,1,80,0,1
158404,-133.333333333333,4,2,1,80,0,1
158615,-100,4,2,1,80,0,1
158827,-133.333333333333,4,2,1,80,0,1
159461,-100,4,2,1,80,0,1
159883,-200,4,2,1,80,0,1
161573,-133.333333333333,4,2,1,80,0,1
162101,-100,4,2,1,80,0,1
162418,-83.3333333333333,4,2,1,80,0,1
163263,-133.333333333333,4,2,1,80,0,1
163791,-100,4,2,1,80,0,1
164953,-55.5555555555556,4,2,1,80,0,1
165165,-100,4,2,1,80,0,1
165799,-66.6666666666667,4,2,1,80,0,1
166010,-100,4,2,1,80,0,1
166644,-55.5555555555556,4,2,1,80,0,1
166855,-100,4,2,1,80,0,1
168334,-133.333333333333,4,2,1,80,0,1
168862,-100,4,2,1,80,0,1
169073,-133.333333333333,4,2,1,80,0,1
169601,-83.3333333333333,4,2,1,80,0,1
171291,-66.6666666666667,4,2,1,80,0,1
171714,-55.5555555555556,4,2,1,80,0,1
171925,-100,4,2,1,80,0,1
172559,-66.6666666666667,4,2,1,80,0,1
172770,-100,4,2,1,80,0,1
173193,-83.3333333333333,4,2,1,80,0,1
173404,-133.333333333333,4,2,1,80,0,1
173615,-83.3333333333333,4,2,1,80,0,1
173827,-133.333333333333,4,2,1,80,0,1
174038,-40,4,2,1,80,0,1
174672,-100,4,2,1,80,0,1
174883,-66.6666666666667,4,2,1,80,0,1
175094,-83.3333333333333,4,2,1,80,0,1
176362,-100,4,2,1,80,0,1
176784,-83.3333333333333,4,2,1,80,0,1
178052,-100,4,2,1,80,0,1
178475,-83.3333333333333,4,2,1,80,0,1
179742,-100,4,2,1,80,0,1
180165,-83.3333333333333,4,2,1,80,0,1
180376,-100,4,2,1,80,0,1
180587,-83.3333333333333,4,2,1,80,0,1
180799,-100,4,2,1,80,0,1
181010,-83.3333333333333,4,2,1,80,0,1
183122,-100,4,2,1,80,0,1
183545,-83.3333333333333,4,2,1,80,0,1
184813,-100,4,2,1,80,0,1
185235,-83.3333333333333,4,2,1,80,0,1
186925,-83.3333333333333,4,2,1,80,0,0
188615,-133.333333333333,4,2,1,49,0,0
189249,-100,4,2,1,49,0,0
189883,-133.333333333333,4,2,1,49,0,0
192841,-100,4,2,1,49,0,0
193475,-133.333333333333,4,2,1,49,0,0
194953,-200,4,2,1,49,0,0
195376,-133.333333333333,4,2,1,49,0,0
195693,-100,4,2,1,49,0,0
196221,-133.333333333333,4,2,1,49,0,0
196538,-100,4,2,1,49,0,0
197066,-133.333333333333,4,2,1,49,0,0
197383,-100,4,2,1,49,0,0
198017,-133.333333333333,4,2,1,49,0,0
199073,-100,4,2,1,49,0,0
199390,-133.333333333333,4,2,1,49,0,0
199601,-100,4,2,1,49,0,0
201503,-200,4,2,1,49,0,0

[Colours]
Combo1 : 200,121,121
Combo2 : 118,145,165
Combo3 : 215,177,168
Combo4 : 142,146,179

[HitObjects]
256,192,4293,12,0,5983,0:0:0:0:
41,86,7673,6,0,B|96:93|96:93|99:99|99:99|152:106,1,112.500004291535,2|0,0:0|0:0,0:0:0:0:
216,52,7990,2,0,B|232:30|232:30|209:48,1,56.2500021457673,2|0,0:0|0:0,0:0:0:0:
155,110,8201,1,0,0:0:0:0:
241,167,8307,2,0,P|205:178|180:223,1,75,2|0,0:0|0:0,0:0:0:0:
90,192,8518,6,0,P|107:268|119:347,1,150,2|2,0:0|0:0,0:0:0:0:
184,216,8835,1,2,0:0:0:0:
112,346,8941,6,0,L|53:362,1,56.2500021457673
24,284,9152,1,2,0:0:0:0:
24,284,9258,1,2,0:0:0:0:
127,345,9363,6,0,B|158:351|185:335|193:304|188:296|180:288|186:258|209:237|244:245,2,168.750006437302,2|2|2,0:0|0:0|0:0,0:0:0:0:
102,252,10208,6,0,L|94:194,1,56.2500021457673,2|0,0:0|0:0,0:0:0:0:
352,116,10525,1,2,0:0:0:0:
352,116,10631,2,0,L|360:174,1,56.2500021457673
265,316,10842,6,0,P|276:334|273:314,1,56.2500021457673,2|0,0:0|0:0,0:0:0:0:
244,229,11053,6,0,B|299:236|299:236|304:243|304:243|364:250,1,112.500004291535,2|0,0:0|0:0,0:0:0:0:
477,180,11370,2,0,P|462:157|426:152,1,56.2500021457673,2|0,0:0|0:0,0:0:0:0:
358,255,11582,1,0,0:0:0:0:
438,308,11687,2,0,P|441:271|445:240,1,56.2500021457673,2|0,0:0|0:0,0:0:0:0:
346,113,11898,6,0,P|357:188|363:266,1,150,2|2,0:0|0:0,0:0:0:0:
439,158,12215,1,2,0:0:0:0:
286,295,12321,2,0,P|255:279|243:243,1,75
339,105,12532,2,0,P|336:72|329:40,1,56.2500021457673,2|0,0:0|0:0,0:0:0:0:
128,179,12743,6,0,B|164:184|183:168|187:141|184:134|180:126|193:96|218:87|252:95,2,168.750006437302,2|2|2,0:0|0:0|0:0,0:0:0:0:
243,87,13589,5,2,0:0:0:0:
203,23,13694,1,2,0:0:0:0:
128,7,13800,1,2,0:0:0:0:
65,50,13905,1,2,0:0:0:0:
118,134,14011,6,0,L|122:171,1,37.5,2|0,0:0|0:0,0:0:0:0:
42,124,14222,1,2,0:0:0:0:
110,261,14434,6,0,P|142:254|172:246,1,56.2500021457673,2|0,0:0|0:0,0:0:0:0:
51,203,14645,1,2,0:1:0:0:
21,285,14751,2,0,P|96:294|139:361,1,150,2|0,0:0|0:0,0:0:0:0:
248,228,15067,2,0,P|233:190|200:174,1,75,2|0,0:1|0:0,0:0:0:0:
136,362,15279,6,0,P|104:369|74:377,1,56.2500021457673,2|0,0:0|0:0,0:0:0:0:
208,314,15490,1,2,0:1:0:0:
108,265,15596,2,0,P|191:271|242:232,1,150,2|0,0:0|0:0,0:0:0:0:
196,169,15913,2,0,P|187:130|205:100,1,75,2|0,0:1|0:0,0:0:0:0:
376,245,16124,6,0,L|316:257,1,56.2500021457673,2|0,0:0|0:0,0:0:0:0:
334,172,16335,1,2,0:1:0:0:
432,370,16441,2,0,B|416:275|474:320|457:219,1,150,2|0,0:0|0:0,0:0:0:0:
454,214,16758,2,0,P|471:184|517:177,1,75,2|0,0:1|0:0,0:0:0:0:
333,325,16969,5,2,0:0:0:0:
328,320,17074,2,0,L|318:263,1,56.2500021457673,2|2,0:0|0:1,0:0:0:0:
407,137,17286,1,2,0:1:0:0:
412,131,17391,2,0,L|402:74,1,56.2500021457673,2|0,0:0|0:0,0:0:0:0:
216,63,17603,6,0,P|215:42|224:61,1,56.2500021457673,2|0,0:1|0:0,0:0:0:0:
327,119,17814,6,0,B|273:129|273:129|269:134|269:134|208:145,1,112.500004291535,2|2,0:0|0:1,0:0:0:0:
79,57,18131,2,0,P|101:39|131:38,1,56.2500021457673,2|0,0:0|0:0,0:0:0:0:
223,150,18342,1,2,0:0:0:0:
165,210,18448,2,0,P|132:204|98:199,1,56.2500021457673,2|0,0:1|0:0,0:0:0:0:
48,135,18659,6,0,B|13:157|13:157|53:143,1,75,2|0,0:0|0:0,0:0:0:0:
210,65,18870,1,2,0:1:0:0:
134,124,18976,2,0,P|149:200|158:291,1,165.000005035401,2|0,0:0|0:0,0:0:0:0:
81,351,19293,2,0,P|114:357|148:362,1,56.2500021457673,2|0,0:1|0:0,0:0:0:0:
35,238,19504,5,2,0:0:0:0:
296,163,20560,5,8,3:0:0:0:
211,150,20666,1,8,3:0:0:0:
257,135,20772,1,10,2:0:0:0:
244,231,20983,5,2,0:3:0:0:
444,105,21194,6,0,B|462:102|457:58|438:60|419:62|425:107|444:105,1,82.5000025177003,0|0,3:0|0:0,0:0:0:0:
512,169,21405,6,0,P|470:180|441:228,1,82.5000025177003,2|2,0:3|0:3,0:0:0:0:
372,161,21617,1,2,1:2:0:0:
478,297,21722,2,0,P|436:289|386:287,1,82.5000025177003,2|2,0:0|0:3,0:0:0:0:
109,368,21934,6,0,L|94:282,1,82.5000025177003,2|0,0:0|3:0,0:0:0:0:
66,118,22145,2,0,L|51:32,1,82.5000025177003,2|2,0:0|0:3,0:0:0:0:
173,146,22356,1,2,0:3:0:0:
122,211,22462,2,0,L|36:196,1,82.5000025177003,2|0,1:2|0:0,0:0:0:0:
178,283,22673,6,0,L|219:275,3,41.2500012588501,2|2|2|2,0:3|0:3|0:3|0:3,0:0:0:0:
280,333,22884,6,0,B|298:330|304:375|285:377|266:379|261:335|280:333,1,82.5000025177003,0|0,3:0|0:0,0:0:0:0:
217,263,23096,6,0,P|224:221|254:196,1,82.5000025177003,2|2,0:3|0:3,0:0:0:0:
395,232,23307,1,2,1:2:0:0:
309,257,23413,2,0,P|351:249|401:247,1,82.5000025177003,2|2,0:0|0:3,0:0:0:0:
512,66,23624,6,0,L|426:51,1,82.5000025177003,2|0,0:0|3:0,0:0:0:0:
257,21,23835,2,0,L|171:6,1,82.5000025177003,2|2,0:0|0:3,0:0:0:0:
282,128,24046,1,2,0:3:0:0:
350,81,24152,2,0,L|335:-5,1,82.5000025177003,2|0,1:2|0:0,0:0:0:0:
420,132,24363,6,0,L|410:174,3,41.2500012588501,2|2|2|2,0:3|0:3|0:3|0:3,0:0:0:0:
510,203,24574,6,0,B|528:200|523:156|504:158|485:160|491:205|510:203,1,82.5000025177003,0|0,3:0|0:0,0:0:0:0:
379,250,24786,6,0,P|418:270|432:311,1,82.5000025177003,2|2,0:3|0:3,0:0:0:0:
512,285,24997,1,2,1:2:0:0:
415,384,25103,2,0,P|374:372|329:366,1,82.5000025177003,2|2,0:0|0:3,0:0:0:0:
74,231,25314,6,0,L|160:216,1,82.5000025177003,2|0,0:0|3:0,0:0:0:0:
329,186,25525,2,0,L|415:171,1,82.5000025177003,2|2,0:0|0:3,0:0:0:0:
304,293,25736,1,2,0:3:0:0:
236,246,25842,2,0,L|251:160,1,82.5000025177003,2|0,1:2|0:0,0:0:0:0:
166,297,26053,6,0,L|176:339,3,41.2500012588501,2|2|2|2,0:3|0:3|0:3|0:3,0:0:0:0:
85,224,26265,6,0,B|103:227|109:182|90:180|71:178|66:222|85:224,1,82.5000025177003,0|0,3:0|0:0,0:0:0:0:
3,287,26476,6,0,P|39:303|56:343,1,82.5000025177003,2|2,0:3|0:3,0:0:0:0:
244,241,26687,2,0,L|335:226,1,82.5000025177003,0|0,1:0|0:0,0:0:0:0:
25,111,26898,6,0,P|64:110|95:80,1,82.5000025177003,2|0,0:3|0:0,0:0:0:0:
304,15,27110,5,2,3:2:0:0:
360,75,27215,1,2,0:0:0:0:
320,147,27321,1,2,0:3:0:0:
240,132,27427,1,2,0:3:0:0:
229,50,27532,2,0,L|221:9,2,41.2500012588501,2|2|2,1:2|0:2|0:2,0:0:0:0:
147,75,27743,6,0,L|106:84,3,41.2500012588501,2|2|2|2,0:3|0:3|0:3|0:3,0:0:0:0:
80,160,27955,6,0,B|98:157|104:202|85:204|66:206|61:162|80:160,1,82.5000025177003,0|0,3:0|0:0,0:0:0:0:
199,207,28166,6,0,P|165:230|151:278,1,82.5000025177003,2|2,0:3|0:3,0:0:0:0:
68,275,28377,1,2,1:2:0:0:
143,357,28483,2,0,P|186:346|226:341,1,82.5000025177003,2|2,0:0|0:3,0:0:0:0:
438,344,28694,6,0,L|423:262,1,82.5000025177003,2|0,0:0|3:0,0:0:0:0:
395,94,28905,2,0,L|380:12,1,82.5000025177003,2|2,0:0|0:3,0:0:0:0:
312,135,29117,1,2,0:3:0:0:
371,190,29222,2,0,L|449:163,1,82.5000025177003,2|0,1:2|0:0,0:0:0:0:
350,311,29434,6,0,L|309:319,3,41.2500012588501,2|2|2|2,0:3|0:3|0:3|0:3,0:0:0:0:
215,323,29645,6,0,B|197:320|191:365|210:367|229:369|234:325|215:323,1,82.5000025177003,0|0,3:0|0:0,0:0:0:0:
152,260,29856,6,0,P|188:238|204:196,1,82.5000025177003,2|2,0:3|0:3,0:0:0:0:
279,243,30067,1,2,1:2:0:0:
199,118,30173,2,0,P|193:76|185:35,1,82.5000025177003,2|2,0:0|0:3,0:0:0:0:
34,204,30384,6,0,L|118:183,1,82.5000025177003,2|0,0:0|3:0,0:0:0:0:
285,141,30596,2,0,L|369:120,1,82.5000025177003,2|2,0:0|0:3,0:0:0:0:
275,252,30807,1,2,0:3:0:0:
196,207,30913,2,0,L|204:120,1,82.5000025177003,2|0,1:2|0:0,0:0:0:0:
30,154,31124,6,0,L|40:196,3,41.2500012588501,2|2|2|2,0:3|0:3|0:3|0:3,0:0:0:0:
97,264,31335,6,0,B|116:266|111:310|92:308|73:306|79:261|97:264,1,82.5000025177003,0|0,3:0|0:0,0:0:0:0:
186,208,31546,6,0,P|144:190|127:147,1,82.5000025177003,2|2,0:3|0:3,0:0:0:0:
83,93,31758,1,2,1:2:0:0:
203,124,31863,2,0,B|245:113|288:109,1,82.5000025177003,2|2,0:0|0:3,0:0:0:0:
499,256,32074,6,0,L|413:271,1,82.5000025177003,2|0,0:0|3:0,0:0:0:0:
244,301,32286,2,0,L|158:316,1,82.5000025177003,2|2,0:0|0:3,0:0:0:0:
269,194,32497,1,2,0:3:0:0:
337,241,32603,2,0,L|322:327,1,82.5000025177003,2|0,1:2|0:0,0:0:0:0:
407,190,32814,6,0,L|397:148,3,41.2500012588501,2|2|2|2,0:3|0:3|0:3|0:3,0:0:0:0:
426,266,33025,5,2,3:2:0:0:
432,275,33342,6,0,L|437:297,5,22.4999993133545,2|0|0|2|0|0,0:0|0:0|0:0|0:0|0:0|0:0,0:0:0:0:
216,221,34082,5,0,3:0:0:0:
301,234,34187,1,0,3:0:0:0:
255,249,34293,1,8,0:2:0:0:
271,150,34715,6,0,L|278:91,1,56.2500021457673,0|0,3:0|0:0,0:0:0:0:
282,80,35349,2,0,L|273:17,1,56.2500021457673,0|0,3:0|0:0,0:0:0:0:
358,121,35983,5,10,0:0:0:0:
370,124,36089,1,2,0:0:0:0:
383,127,36194,1,2,0:0:0:0:
265,14,36405,6,0,L|204:-2,1,56.2500021457673,0|0,3:0|0:0,0:0:0:0:
196,2,37039,2,0,L|142:29,1,56.2500021457673,0|0,3:0|0:0,0:0:0:0:
338,94,37462,6,0,P|348:56|363:15,1,75,2|0,0:0|0:0,0:0:0:0:
207,169,37673,2,0,P|197:131|182:90,1,75,10|0,0:0|0:0,0:0:0:0:
309,182,37884,6,0,P|340:185|367:193,1,56.2500021457673,2|0,0:0|0:0,0:0:0:0:
269,28,38096,6,0,P|223:190|203:293,1,269.999991760254,2|0,3:2|0:0,0:0:0:0:
263,344,38518,2,0,P|342:339|372:281,1,150,10|0,0:0|0:0,0:0:0:0:
368,268,38835,1,0,0:0:0:0:
206,282,38941,6,0,L|137:299,1,56.2500021457673,2|0,3:2|0:0,0:0:0:0:
314,190,39152,2,0,L|245:207,1,56.2500021457673,2|0,0:0|0:0,0:0:0:0:
49,180,39363,6,0,L|32:111,1,56.2500021457673,10|0,0:0|0:0,0:0:0:0:
267,210,39574,2,0,L|284:279,1,56.2500021457673,2|0,0:0|0:0,0:0:0:0:
115,381,39786,6,0,P|129:250|153:100,1,269.999991760254,2|0,3:2|0:0,0:0:0:0:
262,204,40208,6,0,P|213:200|181:221,1,89.9999972534181,8|0,0:0|0:0,0:0:0:0:
107,261,40420,1,8,0:0:0:0:
107,261,40525,1,8,0:0:0:0:
174,302,40631,5,0,3:0:0:0:
426,172,40842,2,0,P|413:134|410:84,1,89.9999972534181,8|0,0:0|0:0,0:0:0:0:
296,33,41053,5,8,1:2:0:0:
267,119,41159,1,0,1:0:0:0:
341,172,41265,1,0,1:0:0:0:
318,261,41370,1,0,1:0:0:0:
308,270,41476,6,0,L|254:285,1,56.2500021457673,0|0,3:0|0:0,0:0:0:0:
249,295,42110,2,0,L|281:345,1,56.2500021457673,0|0,3:0|0:0,0:0:0:0:
226,199,42743,5,10,0:0:0:0:
214,196,42849,1,2,0:0:0:0:
201,193,42955,1,2,0:0:0:0:
289,350,43166,6,0,L|352:337,1,56.2500021457673,0|0,3:0|0:0,0:0:0:0:
353,331,43800,2,0,L|409:351,1,56.2500021457673,0|0,3:0|0:0,0:0:0:0:
195,373,44222,6,0,P|146:277|101:253,1,150,2|10,0:0|0:0,0:0:0:0:
218,117,44645,1,2,0:0:0:0:
60,329,44856,6,0,L|-18:350,1,75,2|0,3:2|0:0,0:0:0:0:
116,248,45279,1,10,0:0:0:0:
35,99,45490,1,2,3:2:0:0:
245,250,45701,6,0,L|324:261,1,75,2|2,3:2|0:0,0:0:0:0:
187,320,46124,1,10,0:0:0:0:
122,152,46335,1,2,3:2:0:0:
104,366,46546,5,2,3:2:0:0:
219,111,46758,2,0,L|277:93,1,56.2500021457673,8|8,0:0|0:0,0:0:0:0:
141,73,46969,1,0,3:0:0:0:
364,192,47180,1,10,0:0:0:0:
57,204,47391,5,2,3:2:0:0:
371,322,47603,2,0,L|384:380,1,56.2500021457673,8|8,0:0|0:0,0:0:0:0:
425,253,47814,1,0,3:0:0:0:
231,384,48025,1,8,0:0:0:0:
256,192,48236,5,2,3:2:0:0:
256,192,48342,12,0,49927,0:0:0:0:
49,231,51405,6,0,P|21:213|-9:218,1,56.2500021457673,2|0,0:0|0:0,0:0:0:0:
37,106,51617,6,0,P|48:156|63:258,1,134.999995880127,2|0,3:2|0:0,0:0:0:0:
283,175,51828,5,2,0:3:0:0:
252,102,51934,1,2,0:3:0:0:
179,136,52039,2,0,B|134:155|134:155|175:128,1,89.999997253418,10|0,0:0|0:0,0:0:0:0:
381,8,52251,6,0,P|371:44|367:81,1,75,2|0,3:0|0:0,0:0:0:0:
239,223,52462,2,0,P|257:191|293:183,1,75,2|0,0:0|0:0,0:0:0:0:
454,211,52673,5,2,3:3:0:0:
380,214,52779,1,2,0:3:0:0:
325,263,52884,1,10,0:0:0:0:
311,335,52990,1,0,0:0:0:0:
137,364,53096,5,2,0:3:0:0:
123,292,53201,1,2,0:3:0:0:
200,311,53307,6,0,P|266:294|330:260,1,134.999995880127,2|0,3:2|0:0,0:0:0:0:
459,54,53518,5,2,0:3:0:0:
495,125,53624,1,2,0:3:0:0:
423,162,53729,2,0,B|383:180|383:180|418:151,1,89.9999972534181,10|0,0:0|0:0,0:0:0:0:
509,304,53941,6,0,P|476:286|465:250,1,75,2|0,3:0|0:0,0:0:0:0:
272,56,54152,2,0,P|315:73|325:106,1,75,2|0,0:0|0:0,0:0:0:0:
380,384,54363,6,0,L|387:319,1,56.2500021457673,2|2,3:0|0:3,0:0:0:0:
415,143,54574,2,0,L|422:78,1,56.2500021457673,10|0,0:0|0:0,0:0:0:0:
281,279,54786,6,0,P|316:266|332:232,1,75,2|0,0:3|0:0,0:0:0:0:
66,123,54997,6,0,P|103:136|143:143,1,75,2|0,3:2|0:0,0:0:0:0:
344,235,55208,2,0,L|330:180,1,56.2500021457673,2|0,0:3|0:0,0:0:0:0:
104,343,55420,6,0,P|135:318|171:299,1,75,10|0,0:0|0:0,0:0:0:0:
414,140,55631,2,0,L|417:196,1,56.2500021457673,2|0,3:0|0:0,0:0:0:0:
49,240,55842,6,0,L|125:227,1,75,2|0,0:0|0:0,0:0:0:0:
510,218,56053,2,0,L|496:163,1,56.2500021457673,2|2,3:0|0:3,0:0:0:0:
217,200,56265,5,10,0:0:0:0:
240,216,56370,1,2,0:0:0:0:
236,196,56476,1,2,0:3:0:0:
221,220,56582,1,2,0:3:0:0:
190,351,56687,6,0,L|178:284,1,56.2500021457673,2|0,3:2|0:0,0:0:0:0:
147,142,56898,2,0,L|135:75,1,56.2500021457673,2|0,0:3|0:0,0:0:0:0:
297,341,57110,6,0,L|311:266,1,75,10|0,0:0|0:0,0:0:0:0:
349,73,57321,2,0,L|363:-2,1,75,2|0,3:0|0:0,0:0:0:0:
465,257,57532,5,2,0:0:0:0:
429,191,57638,1,2,0:0:0:0:
360,167,57743,1,2,3:0:0:0:
292,194,57849,1,2,0:3:0:0:
216,166,57955,5,10,0:0:0:0:
279,117,58060,1,2,0:0:0:0:
229,242,58166,1,2,0:3:0:0:
137,145,58272,1,2,0:3:0:0:
217,56,58377,6,0,P|266:83|345:77,1,134.999995880127,2|0,3:2|0:0,0:0:0:0:
466,263,58589,5,2,0:3:0:0:
392,290,58694,1,2,0:3:0:0:
363,215,58800,2,0,B|356:170|356:170|372:213,1,89.9999972534181,10|0,0:0|0:0,0:0:0:0:
437,382,59011,6,0,P|400:369|360:372,1,75,2|0,3:0|0:0,0:0:0:0:
174,277,59222,2,0,P|218:270|236:245,1,75,2|0,0:0|0:0,0:0:0:0:
291,52,59434,5,2,3:0:0:0:
358,82,59539,1,2,0:3:0:0:
391,148,59645,1,8,0:0:0:0:
376,220,59751,1,0,0:0:0:0:
242,250,59856,5,2,0:3:0:0:
229,172,59962,1,2,0:3:0:0:
303,205,60067,6,0,P|265:266|273:327,1,134.999995880127,2|0,3:2|0:0,0:0:0:0:
43,333,60279,5,2,0:3:0:0:
7,262,60384,1,2,0:3:0:0:
79,225,60490,2,0,B|119:207|119:207|84:236,1,89.9999972534181,10|0,0:0|0:0,0:0:0:0:
0,75,60701,6,0,P|33:93|44:129,1,75,2|0,3:0|0:0,0:0:0:0:
221,326,60913,2,0,P|178:309|168:276,1,75,2|0,0:0|0:0,0:0:0:0:
122,3,61124,6,0,L|115:68,1,56.2500021457673,2|2,3:0|0:3,0:0:0:0:
87,244,61335,2,0,L|80:309,1,56.2500021457673,10|0,0:0|0:0,0:0:0:0:
224,102,61546,6,0,P|188:114|172:148,1,75,2|0,0:3|0:0,0:0:0:0:
422,195,61758,6,0,L|350:217,1,75,2|0,3:2|0:0,0:0:0:0:
161,278,61969,2,0,L|88:301,1,56.2500021457673,2|0,0:3|0:0,0:0:0:0:
512,329,62180,6,0,L|443:302,1,75,10|0,0:0|0:0,0:0:0:0:
263,234,62391,2,0,L|191:205,1,56.2500021457673,2|0,3:0|0:0,0:0:0:0:
461,122,62603,6,0,B|494:139|494:139|503:177,1,75,2|0,0:0|0:0,0:0:0:0:
241,325,62814,1,2,3:0:0:0:
241,325,62920,1,2,0:3:0:0:
355,366,63025,5,10,0:0:0:0:
321,294,63131,1,2,0:0:0:0:
358,223,63236,1,2,0:3:0:0:
324,151,63342,1,2,0:3:0:0:
440,292,63448,6,0,L|398:298,1,37.5,0|0,3:0|0:0,0:0:0:0:
403,297,63870,6,0,L|441:292,1,37.5,0|0,3:0|0:0,0:0:0:0:
267,229,64293,6,0,B|187:219|187:219|181:234|167:245,1,112.5,0|0,3:0|0:0,0:0:0:0:
35,202,64715,5,2,0:0:0:0:
91,107,64821,1,2,0:0:0:0:
110,182,64927,1,2,0:0:0:0:
15,128,65032,1,2,0:0:0:0:
141,35,65138,5,4,3:1:0:0:
215,44,65243,1,2,0:0:0:0:
289,54,65349,1,2,0:3:0:0:
364,64,65455,1,2,0:0:0:0:
493,109,65560,5,10,1:2:0:0:
418,123,65666,1,2,0:0:0:0:
345,140,65772,1,2,0:3:0:0:
272,156,65877,1,2,0:0:0:0:
285,326,65983,5,2,3:2:0:0:
177,296,66089,1,2,0:0:0:0:
204,189,66194,1,2,0:3:0:0:
312,219,66300,1,2,0:3:0:0:
248,257,66405,6,0,B|200:251|177:296|179:305|185:317|161:363|100:345,1,179.999994506836,10|2,1:2|0:3,0:0:0:0:
59,212,66722,1,2,0:3:0:0:
292,331,66828,6,0,B|317:320|317:320|333:286,1,56.2500021457673,2|0,3:2|0:0,0:0:0:0:
68,218,67039,2,0,L|74:281,1,56.2500021457673,2|2,0:3|0:3,0:0:0:0:
197,163,67251,5,10,1:2:0:0:
106,361,67356,2,0,P|59:356|4:352,1,75,2|2,0:0|0:3,0:0:0:0:
75,226,67567,1,2,0:0:0:0:
192,368,67673,5,2,3:2:0:0:
221,291,67779,1,2,0:0:0:0:
161,232,67884,1,2,0:3:0:0:
198,153,67990,1,2,0:3:0:0:
323,222,68096,6,0,L|315:296,1,75,10|0,1:2|0:0,0:0:0:0:
465,383,68307,2,0,B|498:366|498:366|505:327,1,75,2|0,0:3|0:0,0:0:0:0:
275,364,68518,6,0,B|299:369|299:369|342:283|432:243|432:243,1,202.499993820191,2|0,3:2|0:0,0:0:0:0:
441,244,68729,2,0,P|448:202|422:169,1,75,2|0,0:3|0:0,0:0:0:0:
326,295,68941,2,0,P|354:322|359:359,1,75,10|0,1:2|0:0,0:0:0:0:
164,269,69152,2,0,B|151:235|151:235|175:265,1,75,2|0,0:3|0:0,0:0:0:0:
269,356,69363,2,0,B|212:352|212:352|206:356|206:356|156:352,1,112.500004291535,2|0,3:2|0:0,0:0:0:0:
42,167,69574,5,2,0:3:0:0:
42,167,69680,1,2,0:3:0:0:
74,93,69786,2,0,P|115:88|154:74,1,75,10|0,1:2|0:0,0:0:0:0:
326,215,69997,2,0,P|285:220|246:234,1,75,2|2,0:3|0:3,0:0:0:0:
275,364,70208,6,0,B|299:369|299:369|342:283|432:243|432:243,1,202.499993820191,2|0,3:2|0:0,0:0:0:0:
441,244,70420,2,0,P|448:202|422:169,1,75,2|0,0:3|0:0,0:0:0:0:
326,295,70631,2,0,P|354:322|359:359,1,75,10|0,1:2|0:0,0:0:0:0:
164,269,70842,2,0,B|151:235|151:235|175:265,1,75,2|0,0:3|0:0,0:0:0:0:
267,367,71053,5,2,3:2:0:0:
247,289,71159,1,2,0:0:0:0:
289,221,71265,1,2,0:3:0:0:
269,143,71370,1,2,0:3:0:0:
87,176,71476,5,8,1:2:0:0:
175,80,71582,1,2,0:0:0:0:
70,100,71687,1,2,0:3:0:0:
190,155,71793,1,2,0:3:0:0:
356,25,71898,6,0,B|330:10|330:10|302:18,1,56.2500021457673,4|0,3:1|0:0,0:0:0:0:
423,148,72110,2,0,L|429:91,1,56.2500021457673,2|0,0:3|0:0,0:0:0:0:
266,135,72321,1,10,1:2:0:0:
494,176,72427,2,0,P|428:190|396:236,1,112.5,2|0,0:0|0:0,0:0:0:0:
401,236,72638,2,0,L|409:293,1,56.2500021457673,2|0,0:0|3:0,0:0:0:0:
396,378,72849,5,2,0:0:0:0:
475,349,72955,1,2,0:3:0:0:
316,212,73060,1,2,0:3:0:0:
480,258,73166,6,0,B|474:265|474:265|392:261|326:313|326:313|315:309,1,179.999994506836,10|2,1:2|0:3,0:0:0:0:
319,221,73483,1,2,0:3:0:0:
262,361,73589,5,2,3:2:0:0:
190,340,73694,1,2,0:0:0:0:
118,319,73800,1,2,0:3:0:0:
46,297,73905,1,0,0:0:0:0:
173,261,74011,5,10,1:2:0:0:
248,247,74117,1,2,0:0:0:0:
321,230,74222,1,2,0:3:0:0:
394,214,74328,1,2,0:0:0:0:
290,65,74434,5,2,3:2:0:0:
177,42,74539,1,2,0:0:0:0:
157,152,74645,1,2,0:3:0:0:
269,174,74751,1,2,0:3:0:0:
222,112,74856,6,0,B|174:102|148:145|149:155|154:167|127:211|68:189,1,179.999994506836,10|2,1:2|0:3,0:0:0:0:
105,86,75173,1,2,0:3:0:0:
0,173,75279,6,0,B|9:194|9:194|103:193|174:261|174:261,1,202.499993820191,2|0,3:2|0:0,0:0:0:0:
178,271,75490,2,0,P|220:292|260:278,1,89.9999972534181,2|0,0:3|0:0,0:0:0:0:
27,278,75701,2,0,P|56:315|55:356,1,75,10|0,1:2|0:0,0:0:0:0:
227,207,75913,2,0,B|246:172|246:172|221:203,1,75,2|0,0:3|0:0,0:0:0:0:
67,339,76124,2,0,B|120:349|120:349|124:355|124:355|179:364,1,112.500004291535,2|0,3:2|0:0,0:0:0:0:
338,291,76335,6,0,B|342:253|342:253|319:224,1,75,2|2,0:3|0:3,0:0:0:0:
24,269,76546,2,0,L|99:252,1,75,10|0,1:2|0:0,0:0:0:0:
438,100,76758,6,0,P|395:118|384:171,1,89.9999972534181,2|2,0:3|0:3,0:0:0:0:
310,368,76969,2,0,L|255:379,1,56.2500021457673,2|0,3:2|0:0,0:0:0:0:
56,93,77180,6,0,P|101:100|124:150,1,89.9999972534181,2|2,0:3|0:3,0:0:0:0:
197,288,77391,2,0,L|259:295,1,56.2500021457673,10|0,1:2|0:0,0:0:0:0:
296,94,77603,6,0,P|240:36|228:115,1,187.5,2|2,0:3|0:3,0:0:0:0:
396,235,77814,5,2,3:2:0:0:
319,224,77920,1,2,3:2:0:0:
243,213,78025,1,2,3:0:0:0:
167,203,78131,1,2,3:0:0:0:
299,140,78236,6,0,L|302:98,6,37.5,10|2|2|2|2|2|2,1:2|0:3|0:3|0:3|0:3|0:3|0:3,0:0:0:0:
376,150,78659,5,0,3:0:0:0:
488,94,78870,2,0,P|481:73|478:40,1,56.2500021457673,2|2,0:3|0:3,0:0:0:0:
395,65,79082,5,2,0:0:0:0:
395,65,79187,1,2,0:0:0:0:
512,259,79398,6,0,L|457:271,1,56.2500021457673,2|0,0:0|0:0,0:0:0:0:
379,287,79610,2,0,L|324:299,1,56.2500021457673,2|2,0:0|3:0,0:0:0:0:
404,213,79821,5,2,0:0:0:0:
311,300,79927,1,2,1:2:0:0:
409,207,80138,6,0,L|412:174,3,28.1250010728836,2|2|2|2,0:3|0:3|0:3|0:3,0:0:0:0:
457,270,80349,5,0,3:0:0:0:
325,214,80560,2,0,P|317:180|304:161,1,56.2500021457673,2|2,0:3|0:3,0:0:0:0:
246,226,80772,5,2,0:0:0:0:
246,226,80877,1,2,0:0:0:0:
127,384,81089,6,0,L|139:329,1,56.2500021457673,2|0,0:0|0:0,0:0:0:0:
155,251,81300,2,0,L|167:196,1,56.2500021457673,2|2,0:0|3:0,0:0:0:0:
81,276,81511,5,2,0:0:0:0:
168,183,81617,1,2,1:2:0:0:
75,281,81828,6,0,L|42:284,3,28.1250010728836,2|2|2|2,0:3|0:3|0:3|0:3,0:0:0:0:
138,329,82039,5,0,3:0:0:0:
246,226,82251,2,0,P|260:262|277:275,1,56.2500021457673,2|2,0:3|0:3,0:0:0:0:
222,338,82462,5,2,0:0:0:0:
222,338,82567,1,2,0:0:0:0:
67,125,82779,6,0,L|123:119,1,56.2500021457673,2|0,0:0|0:0,0:0:0:0:
202,113,82990,2,0,L|258:107,1,56.2500021457673,2|2,0:0|3:0,0:0:0:0:
168,183,83201,5,2,0:0:0:0:
271,108,83307,1,2,1:2:0:0:
173,191,83518,6,0,L|166:223,3,28.1250010728836,2|2|2|2,0:3|0:3|0:3|0:3,0:0:0:0:
246,226,83729,5,0,3:0:0:0:
466,76,84574,5,2,0:0:0:0:
461,58,84680,1,2,0:0:0:0:
472,42,84786,2,2,P|447:99|433:175,1,134.999995880127,2|0,0:0|0:0,0:2:0:0:
438,177,84997,5,0,3:0:0:0:
264,97,85208,2,0,L|253:41,1,56.2500021457673,2|0,0:0|0:0,0:0:0:0:
331,178,85420,5,0,3:0:0:0:
393,11,85631,2,0,P|359:4|329:-11,1,56.2500021457673,2|2,0:3|0:3,0:0:0:0:
354,93,85842,5,2,0:0:0:0:
354,93,85948,1,2,0:0:0:0:
415,147,86053,2,0,P|452:138|479:137,1,56.2500021457673,2|2,3:0|0:0,0:0:0:0:
501,233,86265,5,2,0:0:0:0:
484,276,86370,1,2,0:0:0:0:
444,301,86476,1,2,0:3:0:0:
396,295,86582,1,2,0:3:0:0:
337,241,86687,6,0,P|341:215|339:183,1,56.2500021457673,2|0,1:2|0:0,0:0:0:0:
275,136,86898,6,0,L|248:139,3,28.1250010728836,2|2|2|2,0:3|0:3|0:3|0:3,0:0:0:0:
259,216,87110,5,0,3:0:0:0:
103,109,87321,2,0,P|120:81|125:52,1,56.2500021457673,2|2,0:3|0:3,0:0:0:0:
169,170,87532,5,2,0:0:0:0:
169,170,87638,1,2,0:0:0:0:
107,231,87743,2,0,P|76:231|46:240,1,56.2500021457673,2|2,3:0|0:0,0:0:0:0:
33,323,87955,5,2,0:0:0:0:
54,363,88060,1,2,0:0:0:0:
96,384,88166,1,2,0:3:0:0:
143,373,88272,1,2,0:3:0:0:
196,313,88377,6,0,P|189:287|187:255,1,56.2500021457673,0|0,1:0|0:0,0:0:0:0:
248,204,88589,6,0,L|275:207,3,28.1250010728836,2|2|2|2,0:3|0:3|0:3|0:3,0:0:0:0:
270,285,88800,5,0,3:0:0:0:
363,176,89011,2,0,P|345:156|328:123,1,56.2500021457673,2|2,0:3|0:3,0:0:0:0:
355,267,89222,5,2,0:0:0:0:
355,267,89328,1,2,0:0:0:0:
424,319,89434,2,0,P|456:312|482:312,1,56.2500021457673,2|2,3:0|0:0,0:0:0:0:
359,367,89645,5,2,0:0:0:0:
340,324,89751,1,2,0:0:0:0:
352,279,89856,1,2,0:3:0:0:
391,249,89962,1,2,0:3:0:0:
472,231,90067,6,0,P|462:205|456:173,1,56.2500021457673,2|0,1:2|0:0,0:0:0:0:
500,110,90279,6,0,L|506:80,3,28.1250010728836,2|2|2|2,0:3|0:3|0:3|0:3,0:0:0:0:
451,169,90490,5,2,3:2:0:0:
302,126,91335,6,0,B|339:113|339:113|311:134,1,75,2|0,0:0|0:0,0:0:0:0:
201,250,91546,2,0,B|173:271|173:271|210:258,1,75,2|0,0:0|0:0,0:0:0:0:
265,202,91758,6,0,L|244:178,7,28.1250010728836,2|2|2|2|2|2|2|2,0:3|0:3|0:3|0:3|0:3|0:3|0:3|0:3,0:0:0:0:
290,280,92180,5,4,3:0:0:0:
53,379,92616,2,0,P|46:351|37:322,1,56.2500021457673,2|2,0:0|0:0,0:0:0:0:
82,259,92908,1,2,0:0:0:0:
118,360,93053,2,0,P|88:368|59:383,1,56.2500021457673,2|0,0:0|0:0,0:0:0:0:
169,288,93345,6,0,L|177:229,1,56.2500021457673,2|2,0:0|0:0,0:0:0:0:
252,187,93636,2,0,L|260:246,1,56.2500021457673,2|2,0:0|0:0,0:0:0:0:
229,316,93927,2,0,L|172:296,1,56.2500021457673,2|2,0:0|0:0,0:0:0:0:
256,177,94218,2,0,P|280:159|310:159,1,56.2500021457673,2|2,0:0|0:0,0:0:0:0:
306,298,94510,6,0,P|246:225|176:155,1,191.250003647804,8|2,3:0|0:0,0:0:0:0:
302,167,95092,6,0,P|280:141|264:116,1,63.7500012159348,2|2,0:0|0:0,0:0:0:0:
399,270,95383,2,0,P|392:306|393:339,1,63.7500012159348,8|2,3:0|0:0,0:0:0:0:
252,248,95675,5,4,3:0:0:0:
447,197,95966,1,4,3:0:0:0:
384,141,96112,1,4,3:0:0:0:
314,301,96257,5,0,3:0:0:0:
313,311,96330,1,0,3:0:0:0:
312,322,96403,1,0,3:0:0:0:
311,332,96476,1,0,3:0:0:0:
311,343,96548,2,0,L|309:376,3,31.8750006079674,2|2|2|2,3:1|0:1|0:1|0:1,0:0:0:0:
231,354,96840,6,0,P|339:328|452:310,1,213.749994292259,4|2,3:0|0:0,0:0:0:0:
503,361,97422,1,2,0:0:0:0:
367,243,97713,6,0,L|405:233,3,35.6249990487099,2|2|2|2,0:1|0:1|0:1|0:1,0:0:0:0:
358,242,98005,1,2,0:1:0:0:
285,207,98150,1,2,0:1:0:0:
225,149,98296,5,2,0:1:0:0:
223,140,98369,1,2,0:1:0:0:
221,131,98442,1,2,0:1:0:0:
219,122,98514,1,2,0:1:0:0:
218,114,98587,1,2,0:1:0:0:
156,182,98879,6,0,L|164:217,3,35.6249990487099,2|2|2|2,0:1|0:1|0:1|0:1,0:0:0:0:
232,265,99170,5,8,3:0:0:0:
76,259,99315,1,8,3:0:0:0:
155,302,99461,1,8,3:0:0:0:
76,173,99607,1,8,3:0:0:0:
0,301,99752,5,4,3:0:0:0:
81,346,99898,1,4,3:0:0:0:
2,216,100044,1,4,3:0:0:0:
153,216,100189,1,4,3:0:0:0:
84,266,100335,5,0,3:0:0:0:
84,266,100480,1,0,3:0:0:0:
84,266,100626,1,0,3:0:0:0:
84,266,100772,1,0,3:0:0:0:
161,301,100917,6,0,L|172:336,3,35.6249990487099,2|2|2|2,0:1|0:1|0:1|0:1,0:0:0:0:
233,274,101209,2,0,L|244:309,3,35.6249990487099,2|2|2|2,0:1|0:1|0:1|0:1,0:0:0:0:
270,382,101500,6,0,P|284:261|307:142,1,236.249992790222,4|2,3:0|0:0,0:0:0:0:
365,278,102082,6,0,P|358:321|353:363,1,78.7499975967408,2|2,0:0|0:0,0:0:0:0:
213,195,102374,2,0,P|210:174|205:154,3,39.3749987983704,2|2|2|2,0:1|0:1|0:1|0:1,0:0:0:0:
298,136,102665,5,2,1:1:0:0:
236,82,102811,1,2,0:1:0:0:
286,14,102956,2,0,P|308:10|329:3,3,39.3749987983704,2|2|2|2,0:1|0:1|0:1|0:1,0:0:0:0:
204,8,103247,5,2,0:1:0:0:
358,76,103393,1,2,0:1:0:0:
211,160,103539,2,0,P|191:164|172:172,3,39.3749987983704,2|2|2|2,0:1|0:1|0:1|0:1,0:0:0:0:
298,148,103830,6,0,P|191:117|49:79,1,258.750004935265,4|2,3:0|0:0,0:0:0:0:
118,10,104413,6,0,P|162:19|206:21,1,86.2500016450882,2|2,0:0|0:0,0:0:0:0:
78,171,104704,1,2,3:1:0:0:
41,70,104849,1,2,0:1:0:0:
254,120,104995,2,0,P|223:155|197:197,1,86.2500016450882,2|2,1:1|0:0,0:0:0:0:
146,116,105286,5,2,0:1:0:0:
143,109,105359,1,2,0:1:0:0:
141,103,105432,1,2,0:1:0:0:
139,97,105505,1,2,0:1:0:0:
138,91,105578,1,2,0:1:0:0:
66,169,105723,1,2,0:1:0:0:
158,207,105869,6,0,L|207:195,3,43.1250008225441,2|2|2|2,0:1|0:1|0:1|0:1,0:0:0:0:
78,271,106160,6,0,P|169:168|279:61,1,281.25,4|2,3:0|0:0,0:0:0:0:
185,284,106743,6,0,P|234:285|287:301,1,93.75,2|2,0:0|0:0,0:0:0:0:
297,215,107034,2,0,L|284:168,3,46.875,2|2|2|2,3:1|0:1|0:1|0:1,0:0:0:0:
209,202,107325,5,2,1:1:0:0:
285,159,107471,1,2,0:1:0:0:
384,230,107616,5,2,0:1:0:0:
473,241,107762,1,2,0:1:0:0:
276,296,107908,5,2,0:1:0:0:
311,368,108053,1,2,0:1:0:0:
371,283,108199,6,0,L|381:234,3,46.875,2|2|2|2,0:1|0:1|0:1|0:1,0:0:0:0:
304,218,108490,6,0,B|340:160|577:317|504:425|418:364|446:324,1,330.000010070801,4|0,3:0|0:0,0:0:0:0:
297,362,109655,6,2,B|282:327|239:348|269:411|382:357|353:296,1,168.750006437302,2|0,0:0|0:0,0:2:0:0:
264,269,110238,5,2,0:3:0:0:
195,286,110311,1,2,0:3:0:0:
142,305,110383,1,2,0:3:0:0:
103,328,110456,1,2,0:3:0:0:
76,345,110529,1,2,0:3:0:0:
59,357,110602,1,2,0:3:0:0:
48,367,110675,1,2,0:3:0:0:
41,375,110747,1,2,0:3:0:0:
37,382,110820,6,0,P|26:342|7:308,1,75,2|2,3:2|0:0,0:0:0:0:
178,376,111403,1,2,0:0:0:0:
75,255,111694,2,0,L|97:239,3,18.75,2|2|2|2,0:1|0:1|0:1|0:1,0:0:0:0:
113,322,111985,5,10,0:0:0:0:
167,265,112131,1,2,0:1:0:0:
95,233,112277,2,0,L|88:207,3,18.75,2|2|2|2,0:1|0:1|0:1|0:1,0:0:0:0:
88,201,112568,5,2,0:1:0:0:
133,130,112713,1,2,0:1:0:0:
205,175,112859,2,0,L|221:164,3,18.75,2|2|2|2,0:1|0:1|0:1|0:1,0:0:0:0:
247,244,113150,6,0,P|283:233|324:233,1,75,2|2,3:2|0:0,0:0:0:0:
180,361,113733,1,2,0:0:0:0:
294,328,114024,2,0,L|286:305,3,18.75,2|2|2|2,3:1|0:1|0:1|0:1,0:0:0:0:
172,272,114315,5,10,0:0:0:0:
289,338,114461,1,2,0:1:0:0:
320,232,114607,2,0,L|321:209,3,18.75,2|2|2|2,0:1|0:1|0:1|0:1,0:0:0:0:
370,294,114898,5,2,0:1:0:0:
437,251,115044,1,2,0:1:0:0:
494,307,115189,2,0,L|493:330,3,18.75,2|2|2|2,0:1|0:1|0:1|0:1,0:0:0:0:
405,371,115480,6,0,P|391:323|367:291,1,75,2|2,3:2|0:0,0:0:0:0:
507,209,116063,1,2,0:0:0:0:
463,144,116354,2,0,L|451:127,3,18.75,2|2|2|2,0:1|0:1|0:1|0:1,0:0:0:0:
512,81,116646,5,10,0:0:0:0:
444,121,116791,1,2,0:1:0:0:
508,72,116937,2,0,L|514:47,3,18.75,2|2|2|2,0:1|0:1|0:1|0:1,0:0:0:0:
436,44,117228,5,2,0:1:0:0:
359,21,117374,1,2,0:1:0:0:
290,62,117519,2,0,L|295:83,3,18.75,2|2|2|2,0:1|0:1|0:1|0:1,0:0:0:0:
369,105,117811,6,0,P|358:143|354:192,1,75,2|2,3:2|0:0,0:0:0:0:
285,54,118393,1,2,0:0:0:0:
402,244,118684,2,0,L|429:231,3,18.75,2|2|2|2,3:1|0:1|0:1|0:1,0:0:0:0:
361,318,118976,5,10,0:0:0:0:
229,244,119121,1,2,0:1:0:0:
278,317,119267,1,2,0:1:0:0:
276,175,119413,1,2,0:1:0:0:
312,241,119558,6,2,P|315:250|314:238,1,37.5,2|0,0:0|0:0,0:2:0:0:
365,172,119849,2,0,P|377:146|379:125,1,37.5,2|0,0:0|0:0,0:0:0:0:
226,253,120141,6,0,P|187:265|151:263,1,75,2|2,3:2|0:0,0:0:0:0:
285,324,120723,1,2,0:0:0:0:
108,342,121014,2,0,L|99:322,3,18.75,2|2|2|2,0:1|0:1|0:1|0:1,0:0:0:0:
199,341,121306,5,10,0:0:0:0:
227,265,121451,1,2,0:1:0:0:
148,255,121597,2,0,L|139:235,3,18.75,2|2|2|2,0:1|0:1|0:1|0:1,0:0:0:0:
97,316,121888,5,2,0:1:0:0:
207,189,122034,1,2,0:1:0:0:
56,249,122179,2,0,L|35:258,3,18.75,2|2|2|2,0:1|0:1|0:1|0:1,0:0:0:0:
133,229,122471,6,0,P|109:182|77:165,1,75,2|2,3:2|0:0,0:0:0:0:
143,55,123053,1,2,0:0:0:0:
11,171,123345,2,0,L|1:154,3,18.75,2|2|2|2,3:1|0:1|0:1|0:1,0:0:0:0:
30,79,123636,5,10,0:0:0:0:
91,170,123781,1,2,0:1:0:0:
133,78,123927,2,0,L|136:55,3,18.75,2|2|2|2,0:1|0:1|0:1|0:1,0:0:0:0:
177,141,124218,5,0,0:1:0:0:
74,8,124364,1,2,0:1:0:0:
227,72,124510,2,0,L|248:65,3,18.75,2|2|2|2,0:1|0:1|0:1|0:1,0:0:0:0:
184,147,124801,6,0,P|227:159|252:186,1,75,2|2,3:2|0:0,0:0:0:0:
196,0,125383,1,2,0:0:0:0:
303,119,125675,2,0,L|325:113,3,18.75,2|2|2|2,0:1|0:1|0:1|0:1,0:0:0:0:
326,194,125966,6,0,P|333:237|305:276,1,84.3750032186509,8|0,0:0|0:0,0:0:0:0:
235,256,126257,2,0,P|227:212|255:173,1,84.3750032186509,2|0,0:0|0:0,0:0:0:0:
226,106,126548,6,0,P|233:65|213:29,1,84.3750032186509,2|0,0:1|0:0,0:0:0:0:
148,79,126840,2,0,L|118:84,3,28.1250010728836,2|2|2|2,0:1|0:1|0:1|0:1,0:0:0:0:
113,201,127131,6,0,B|134:207|134:207|268:83|465:45,1,393.750015020371,2|0,3:2|0:0,0:0:0:0:
266,202,128296,6,0,B|252:212|252:212|182:175|86:176|86:176|103:187|114:202,1,225.000008583069,2|0,3:2|0:0,0:0:0:0:
386,308,129461,6,0,L|392:248,1,56.2500021457673,2|0,3:2|0:0,0:0:0:0:
374,176,129672,1,2,0:0:0:0:
424,113,129883,1,2,0:0:0:0:
389,315,130094,5,2,0:0:0:0:
377,183,130306,1,2,0:0:0:0:
427,120,130517,1,2,0:0:0:0:
493,350,130728,5,10,0:0:0:0:
479,353,130834,1,2,0:0:0:0:
465,357,130939,1,2,0:0:0:0:
141,311,131151,6,0,L|198:297,1,56.2500021457673,2|0,3:2|0:0,0:0:0:0:
273,311,131362,1,2,0:0:0:0:
145,317,131573,5,2,0:0:0:0:
203,211,131784,1,2,0:0:0:0:
277,317,131996,1,2,0:0:0:0:
73,248,132207,6,0,P|63:213|44:180,1,75,2|0,0:0|0:0,0:0:0:0:
228,136,132418,2,0,P|209:168|198:204,1,75,10|0,0:0|0:0,0:0:0:0:
145,317,132630,6,0,P|113:322|82:339,1,56.2500021457673,2|0,0:0|0:0,0:0:0:0:
108,121,132841,6,0,P|152:219|203:386,1,269.999991760254,2|0,3:2|0:0,0:0:0:0:
191,210,133263,1,10,0:0:0:0:
37,384,133475,2,0,P|0:369|-3:316,1,89.9999972534181,2|0,0:0|0:0,0:0:0:0:
299,250,133686,6,0,P|298:303|265:325,1,89.9999972534181,0|0,3:0|0:0,0:0:0:0:
50,257,133897,2,0,P|59:211|103:198,1,89.9999972534181,2|0,0:0|0:0,0:0:0:0:
195,367,134108,6,0,P|155:342|104:361,1,89.9999972534181,10|0,0:0|0:0,0:0:0:0:
166,149,134320,2,0,P|214:176|221:216,1,89.9999972534181,2|0,0:0|0:0,0:0:0:0:
2,327,134531,6,0,P|148:240|301:170,1,337.500012874604,2|0,3:2|0:0,0:0:0:0:
378,193,134953,2,0,P|398:246|378:276,1,89.9999972534181,8|0,0:0|0:0,0:0:0:0:
307,256,135165,5,8,0:0:0:0:
307,256,135270,1,8,0:0:0:0:
251,315,135376,5,2,3:2:0:0:
263,357,135482,1,2,0:0:0:0:
301,379,135587,1,10,0:0:0:0:
343,369,135693,1,2,0:0:0:0:
423,363,135799,5,8,1:2:0:0:
394,277,135904,1,0,1:0:0:0:
468,224,136010,1,0,1:0:0:0:
445,135,136115,1,0,1:0:0:0:
438,124,136221,6,0,L|370:116,1,56.2500021457673,2|0,3:2|0:0,0:0:0:0:
303,110,136432,1,2,0:0:0:0:
382,198,136644,1,10,0:0:0:0:
442,117,136855,5,2,0:0:0:0:
307,103,137066,1,2,0:0:0:0:
386,191,137277,1,2,0:0:0:0:
500,54,137489,5,10,0:0:0:0:
496,40,137594,1,2,0:0:0:0:
492,26,137700,1,2,0:0:0:0:
293,187,137911,6,0,L|236:197,1,56.2500021457673,2|0,3:2|0:0,0:0:0:0:
151,168,138122,1,2,0:0:0:0:
288,178,138334,5,10,0:0:0:0:
109,282,138545,1,2,0:0:0:0:
146,159,138756,1,2,0:0:0:0:
244,338,138968,6,0,B|174:360|174:360|173:364|173:364|104:384,1,150,2|10,0:0|0:0,0:0:0:0:
177,243,139390,1,2,0:0:0:0:
35,335,139601,6,0,L|17:258,1,75,2|0,3:2|0:0,0:0:0:0:
105,375,140024,1,10,0:0:0:0:
152,152,140235,1,2,3:2:0:0:
319,308,140446,6,0,L|245:328,1,75,2|2,3:2|0:0,0:0:0:0:
371,365,140869,1,10,0:0:0:0:
98,232,141080,1,0,3:0:0:0:
164,321,141291,5,2,3:2:0:0:
282,114,141503,5,8,0:0:0:0:
354,95,141608,1,8,0:0:0:0:
312,86,141714,1,0,3:0:0:0:
340,184,141925,1,10,0:0:0:0:
411,13,142137,5,2,3:2:0:0:
130,67,142348,5,8,0:0:0:0:
202,86,142453,1,8,0:0:0:0:
160,95,142559,1,0,3:0:0:0:
186,2,142770,1,10,0:0:0:0:
256,192,142982,5,2,3:2:0:0:
256,192,143087,12,0,146362,0:0:0:0:
476,125,147418,6,2,P|405:108|344:174,1,168.750006437302,2|0,0:3|0:0,0:2:0:0:
343,182,147630,6,2,P|322:191|305:184,14,28.1250010728836,2|0|0|0|0|0|0|0|0|0|0|0|0|0|0,0:3|0:0|0:0|0:0|0:0|0:0|0:0|0:0|0:0|0:0|0:0|0:0|0:0|0:0|0:0,0:1:0:0:
253,139,148052,6,0,P|280:218|295:289,1,134.999995880127,4|0,3:1|0:0,0:0:0:0:
471,373,148263,5,2,0:3:0:0:
493,296,148369,1,2,0:3:0:0:
421,261,148475,2,0,B|373:259|373:259|416:273,1,89.9999972534181,10|0,0:0|0:0,0:0:0:0:
479,131,148686,6,0,P|437:131|398:119,1,75,2|0,3:0|0:0,0:0:0:0:
288,277,148897,2,0,P|297:313|296:350,1,75,2|0,0:0|0:0,0:0:0:0:
389,349,149108,5,2,3:0:0:0:
408,278,149214,1,2,0:3:0:0:
376,212,149320,1,10,0:0:0:0:
308,185,149425,1,2,0:0:0:0:
151,222,149531,5,2,0:3:0:0:
120,153,149637,1,2,0:3:0:0:
230,217,149742,6,0,P|159:255|138:316,1,134.999995880127,2|0,3:2|0:0,0:0:0:0:
6,198,149953,5,2,0:3:0:0:
41,121,150059,1,2,0:3:0:0:
122,139,150165,2,0,B|163:160|163:160|120:153,1,89.9999972534181,10|0,0:0|0:0,0:0:0:0:
4,38,150376,6,0,P|43:35|85:20,1,75,2|0,3:0|0:0,0:0:0:0:
127,302,150587,2,0,P|91:290|54:287,1,75,2|0,0:0|0:0,0:0:0:0:
149,60,150799,6,0,L|204:50,1,56.2500021457673,2|2,3:0|0:3,0:0:0:0:
4,210,151010,2,0,L|59:200,1,56.2500021457673,10|0,0:0|0:0,0:0:0:0:
272,1,151221,6,0,B|290:35|290:35|283:75,1,75,2|0,0:3|0:0,0:0:0:0:
255,363,151432,6,0,P|244:326|204:305,1,75,2|0,3:2|0:0,0:0:0:0:
64,192,151644,2,0,L|121:197,1,56.2500021457673,2|0,0:3|0:0,0:0:0:0:
380,55,151855,6,0,P|366:106|336:120,1,75,10|0,0:0|0:0,0:0:0:0:
130,203,152066,2,0,L|189:192,1,56.2500021457673,2|0,3:0|0:0,0:0:0:0:
460,269,152277,6,0,P|448:317|444:360,1,75,2|0,0:2|0:0,0:0:0:0:
258,242,152489,5,2,3:0:0:0:
279,165,152594,1,2,0:3:0:0:
353,197,152700,2,0,B|391:220|391:220|349:205,1,89.9999972534181,10|0,0:0|0:0,0:0:0:0:
213,119,152911,5,2,0:3:0:0:
213,119,153017,1,2,0:3:0:0:
264,251,153122,6,0,L|256:316,1,56.2500021457673,2|0,3:2|0:0,0:0:0:0:
287,80,153334,2,0,L|294:17,1,56.2500021457673,2|0,0:3|0:0,0:0:0:0:
132,236,153545,6,0,L|198:201,1,75,10|0,0:0|0:0,0:0:0:0:
360,116,153756,2,0,L|427:81,1,75,2|0,3:0|0:0,0:0:0:0:
504,308,153968,5,2,0:0:0:0:
481,236,154073,1,2,0:0:0:0:
418,199,154179,1,2,3:0:0:0:
346,213,154284,1,2,0:3:0:0:
304,279,154390,5,10,0:2:0:0:
267,209,154496,1,2,0:0:0:0:
383,282,154601,1,2,0:3:0:0:
256,342,154707,1,2,0:3:0:0:
183,210,154813,6,0,P|251:179|267:122,1,134.999995880127,4|0,3:1|0:0,0:0:0:0:
59,12,155024,5,2,0:3:0:0:
10,76,155130,1,2,0:3:0:0:
69,130,155235,2,0,B|109:151|109:151|75:119,1,89.9999972534181,10|0,0:0|0:0,0:0:0:0:
37,261,155446,6,0,P|72:259|102:232,1,75,2|0,3:0|0:0,0:0:0:0:
181,94,155658,2,0,P|168:56|181:16,1,75,2|0,0:0|0:0,0:0:0:0:
365,68,155869,5,2,3:0:0:0:
381,138,155975,1,2,0:3:0:0:
338,197,156080,1,10,0:0:0:0:
265,202,156186,1,2,0:0:0:0:
105,239,156291,5,2,0:3:0:0:
87,163,156397,1,2,0:3:0:0:
176,185,156503,6,0,P|145:254|165:310,1,134.999995880127,2|0,3:2|0:0,0:0:0:0:
401,384,156714,5,2,0:3:0:0:
419,306,156820,1,2,0:3:0:0:
343,280,156925,2,0,B|297:277|297:277|340:293,1,89.9999972534181,10|0,0:0|0:0,0:0:0:0:
484,242,157137,6,0,P|467:208|459:164,1,75,2|0,3:0|0:0,0:0:0:0:
156,314,157348,2,0,P|173:348|181:392,1,75,2|0,0:0|0:0,0:0:0:0:
381,185,157559,6,0,L|325:195,1,56.2500021457673,2|2,3:0|0:3,0:0:0:0:
264,380,157770,2,0,L|319:369,1,56.2500021457673,10|0,0:0|0:0,0:0:0:0:
188,233,157982,6,0,B|150:220|150:220|111:238,1,75,2|0,0:3|0:0,0:0:0:0:
5,370,158193,6,0,L|84:348,1,75,2|0,3:2|0:0,0:0:0:0:
248,300,158404,2,0,L|309:282,1,56.2500021457673,2|0,0:3|0:0,0:0:0:0:
241,61,158615,6,0,L|219:140,1,75,10|0,0:0|0:0,0:0:0:0:
171,312,158827,2,0,L|152:384,1,56.2500021457673,2|0,3:0|0:0,0:0:0:0:
38,261,159038,5,2,0:0:0:0:
22,190,159144,1,2,0:0:0:0:
67,133,159249,1,2,3:0:0:0:
140,132,159355,1,2,0:3:0:0:
179,201,159461,6,0,B|194:235|194:235|167:207,1,75,10|0,0:0|0:0,0:0:0:0:
163,307,159672,1,2,0:3:0:0:
163,307,159777,1,2,0:3:0:0:
47,261,159883,6,0,L|89:255,1,37.5,0|0,3:0|0:0,0:0:0:0:
84,255,160306,6,0,L|46:260,1,37.5,0|0,3:0|0:0,0:0:0:0:
256,293,160728,6,0,B|266:283|270:265|270:265|356:255,1,112.5,0|0,3:0|0:0,0:0:0:0:
477,379,161151,5,2,1:2:0:0:
438,298,161256,1,2,1:2:0:0:
480,218,161362,1,2,1:2:0:0:
442,138,161468,1,2,1:2:0:0:
344,250,161573,6,0,B|326:225|326:225|331:197,1,56.2500021457673,4|0,3:1|0:0,0:0:0:0:
450,128,161784,5,2,0:3:0:0:
460,54,161890,1,2,0:3:0:0:
311,114,161996,5,10,1:2:0:0:
333,188,162101,2,0,B|364:192|364:192|375:205|375:205|407:211,1,75,2|2,0:0|0:3,0:0:0:0:
473,54,162313,1,2,0:3:0:0:
497,209,162418,6,0,P|433:232|412:298,1,134.999995880127,2|0,3:2|0:0,0:0:0:0:
483,325,162630,1,2,0:3:0:0:
412,214,162735,1,2,0:3:0:0:
490,335,162841,6,0,B|445:305|403:330|404:337|406:348|376:384|322:353,1,179.999994506836,10|2,1:2|0:3,0:0:0:0:
323,195,163158,1,2,0:3:0:0:
102,364,163263,6,0,B|79:346|79:346|82:312,1,56.2500021457673,0|0,3:0|0:0,0:0:0:0:
316,206,163475,2,0,L|325:270,1,56.2500021457673,2|0,0:3|0:0,0:0:0:0:
174,164,163686,5,10,1:2:0:0:
327,344,163791,2,0,P|286:339|239:336,1,75,2|2,0:0|0:3,0:0:0:0:
117,232,164003,1,2,0:0:0:0:
188,384,164108,5,2,3:2:0:0:
159,307,164214,1,2,0:0:0:0:
219,248,164320,1,2,0:3:0:0:
182,169,164425,1,2,0:3:0:0:
77,314,164531,6,0,P|36:318|-9:325,1,75,10|0,1:2|0:0,0:0:0:0:
39,93,164742,2,0,B|79:86|79:86|100:114,1,75,2|2,0:3|0:3,0:0:0:0:
12,189,164953,6,0,B|39:195|39:195|89:121|182:85,1,202.499993820191,2|0,3:2|0:0,0:0:0:0:
187,85,165165,2,0,P|196:47|178:18,1,75,2|0,0:3|0:0,0:0:0:0:
109,240,165376,2,0,P|143:258|155:294,1,75,10|0,1:2|0:0,0:0:0:0:
284,118,165587,2,0,B|303:90|303:90|268:114,1,75,2|0,0:3|0:0,0:0:0:0:
175,178,165799,2,0,B|228:187|228:187|232:191|232:191|287:199,1,112.500004291535,2|0,3:2|0:0,0:0:0:0:
512,313,166010,5,2,0:3:0:0:
512,313,166115,1,2,0:3:0:0:
455,371,166221,2,0,P|417:376|370:388,1,75,10|0,1:2|0:0,0:0:0:0:
279,206,166432,2,0,P|317:201|364:189,1,75,2|0,0:3|0:0,0:0:0:0:
12,189,166644,6,0,B|39:195|39:195|89:121|182:85,1,202.499993820191,2|0,3:2|0:0,0:0:0:0:
187,85,166855,2,0,P|196:47|178:18,1,75,2|0,0:3|0:0,0:0:0:0:
109,240,167066,2,0,P|143:258|155:294,1,75,10|0,1:2|0:0,0:0:0:0:
284,118,167277,2,0,B|303:90|303:90|268:114,1,75,2|0,0:3|0:0,0:0:0:0:
175,178,167489,5,2,3:2:0:0:
257,197,167594,1,2,0:0:0:0:
301,270,167700,1,2,0:3:0:0:
277,352,167806,1,2,0:3:0:0:
56,384,167911,5,10,1:2:0:0:
154,290,168017,1,2,0:0:0:0:
46,307,168122,1,2,0:3:0:0:
168,367,168228,1,2,0:3:0:0:
258,204,168334,6,0,B|284:190|284:190|317:193,1,56.2500021457673,4|0,3:1|0:0,0:0:0:0:
218,300,168545,2,0,L|156:293,1,56.2500021457673,2|0,0:3|0:0,0:0:0:0:
355,330,168756,1,10,1:2:0:0:
160,199,168862,2,0,P|171:148|227:128,1,112.5,2|0,0:0|0:0,0:0:0:0:
236,128,169073,2,0,L|227:68,1,56.2500021457673,2|0,0:0|3:0,0:0:0:0:
292,19,169284,5,2,0:0:0:0:
185,0,169390,1,2,0:3:0:0:
403,110,169496,1,2,0:3:0:0:
474,40,169601,6,0,B|428:17|394:59|396:67|401:73|376:124|317:97,1,179.999994506836,10|2,1:2|0:3,0:0:0:0:
298,13,169918,1,2,0:3:0:0:
147,116,170024,5,2,3:2:0:0:
158,190,170130,1,2,0:0:0:0:
170,266,170235,1,2,0:3:0:0:
182,341,170341,1,2,0:0:0:0:
361,339,170446,5,10,1:2:0:0:
348,263,170552,1,2,0:0:0:0:
336,187,170658,1,2,0:3:0:0:
324,111,170763,1,2,0:0:0:0:
80,178,170869,5,2,3:2:0:0:
215,141,170975,1,2,0:0:0:0:
250,276,171080,1,2,0:3:0:0:
113,314,171186,1,2,0:3:0:0:
166,235,171291,6,0,B|190:198|240:204|262:241|257:251|252:258|277:296|331:302|359:261,1,225.000008583069,10|2,1:2|0:3,0:0:0:0:
222,131,171608,1,2,0:3:0:0:
189,326,171714,6,0,B|212:327|212:327|243:238|329:194,1,202.499993820191,2|0,3:2|0:0,0:0:0:0:
336,187,171925,2,0,P|345:147|325:118,1,75,2|0,0:3|0:0,0:0:0:0:
69,259,172137,2,0,P|101:280|111:330,1,75,10|0,1:2|0:0,0:0:0:0:
362,275,172348,2,0,B|398:257|398:257|351:267,1,75,2|0,0:3|0:0,0:0:0:0:
59,253,172559,2,0,B|48:203|48:203|45:200|45:200|32:144,1,112.500004291535,2|0,3:2|0:0,0:0:0:0:
299,331,172770,6,0,B|291:368|291:368|257:385,1,75,2|2,0:3|0:3,0:0:0:0:
44,149,172982,2,0,L|123:161,1,75,10|0,1:2|0:0,0:0:0:0:
421,194,173193,6,0,P|455:167|452:117,1,89.9999972534181,2|0,0:3|0:0,0:0:0:0:
125,170,173404,2,0,L|138:238,1,56.2500021457673,2|0,3:2|0:0,0:0:0:0:
454,39,173615,6,0,P|427:5|377:8,1,89.9999972534181,2|2,0:3|0:3,0:0:0:0:
145,235,173827,2,0,L|215:246,1,56.2500021457673,10|0,1:2|0:0,0:0:0:0:
300,31,174038,6,0,P|216:11|235:87,1,187.5,2|2,0:3|0:3,0:0:0:0:
409,197,174249,5,2,3:2:0:0:
309,180,174355,1,2,3:2:0:0:
212,165,174461,1,2,3:0:0:0:
113,151,174566,1,2,3:0:0:0:
371,112,174672,6,0,B|385:102|379:80|379:80|371:96|351:107,1,75,10|0,1:2|0:0,0:0:0:0:
204,167,174883,2,0,B|181:123|230:77|271:104|271:104|267:125|280:144,1,168.750006437302,2|0,0:3|0:0,0:0:0:0:
345,233,175094,6,0,B|362:234|368:184|350:182|334:180|329:230|345:233,1,89.9999972534181,4|0,3:1|0:0,0:0:0:0:
254,251,175306,6,0,P|325:265|347:342,1,134.999995880127,2|0,0:3|0:0,0:0:0:0:
344,330,175517,1,10,1:2:0:0:
207,384,175622,2,0,P|198:344|181:291,1,89.9999972534181,2|2,0:0|0:3,0:0:0:0:
211,175,175834,1,2,0:3:0:0:
174,302,175939,6,0,P|129:299|106:257,1,89.9999972534181,2|2,3:2|0:0,0:0:0:0:
129,185,176151,1,2,0:3:0:0:
129,185,176256,1,2,0:3:0:0:
52,138,176362,2,0,P|13:150|-20:154,1,75,10|0,1:2|0:0,0:0:0:0:
37,384,176573,6,0,B|49:347|49:347|46:385,1,75,2|2,0:3|0:3,0:0:0:0:
21,273,176784,6,0,B|4:276|-9:228|8:223|23:218|36:267|21:273,1,89.9999972534181,0|0,3:0|0:0,0:0:0:0:
120,175,176996,6,0,P|77:137|83:56,1,134.999995880127,2|0,0:3|0:0,0:0:0:0:
90,56,177207,1,10,1:2:0:0:
201,242,177313,2,0,P|161:251|108:268,1,89.9999972534181,2|2,0:0|0:3,0:0:0:0:
203,155,177524,1,2,0:0:0:0:
192,324,177630,6,0,P|209:356|273:357,1,89.9999972534181,0|2,3:0|0:0,0:0:0:0:
286,281,177841,1,2,0:3:0:0:
286,281,177946,1,2,0:3:0:0:
368,309,178052,2,0,P|403:295|440:290,1,75,10|0,1:2|0:0,0:0:0:0:
294,143,178263,6,0,B|277:110|277:110|286:147,1,75,2|2,0:3|0:3,0:0:0:0:
290,272,178475,6,0,B|307:273|313:223|295:221|279:219|274:269|290:272,1,89.9999972534181,0|0,3:0|0:0,0:0:0:0:
258,365,178686,6,0,P|300:316|368:321,1,134.999995880127,2|0,0:3|0:0,0:0:0:0:
375,331,178897,1,10,1:2:0:0:
485,219,179003,2,0,P|471:176|461:132,1,89.9999972534181,2|2,0:0|0:3,0:0:0:0:
495,6,179214,1,2,0:0:0:0:
453,140,179320,6,0,P|406:142|374:103,1,89.9999972534181,0|2,3:0|0:0,0:0:0:0:
415,43,179531,1,2,0:3:0:0:
415,43,179637,1,2,0:3:0:0:
340,0,179742,2,0,P|301:12|268:16,1,75,10|0,1:2|0:0,0:0:0:0:
373,238,179953,6,0,B|356:205|356:205|365:242,1,75,2|2,0:3|0:3,0:0:0:0:
390,332,180165,6,0,P|425:302|478:306,1,89.9999972534181,0|0,3:0|0:0,0:0:0:0:
280,105,180376,2,0,L|205:88,1,75,2|0,0:3|0:0,0:0:0:0:
479,304,180587,6,0,P|505:267|492:224,1,89.9999972534181,8|0,1:2|0:0,0:0:0:0:
183,172,180799,2,0,L|98:187,1,75,2|0,0:3|0:0,0:0:0:0:
330,384,181010,5,2,3:2:0:0:
311,304,181115,1,2,0:0:0:0:
364,236,181221,1,2,0:3:0:0:
346,157,181327,1,2,0:3:0:0:
161,256,181432,5,10,1:2:0:0:
265,192,181538,1,2,0:0:0:0:
183,172,181644,1,2,0:3:0:0:
244,275,181749,1,2,0:3:0:0:
285,92,181855,6,0,B|301:89|296:39|280:41|262:43|268:93|285:92,1,89.9999972534181,4|0,3:1|0:0,0:0:0:0:
183,172,182066,6,0,P|194:112|140:59,1,134.999995880127,2|0,0:3|0:0,0:0:0:0:
133,60,182277,1,10,1:2:0:0:
56,269,182383,2,0,P|99:257|146:251,1,89.9999972534181,2|2,0:0|0:3,0:0:0:0:
30,184,182594,1,2,0:0:0:0:
173,342,182700,6,0,P|215:321|224:279,1,89.9999972534181,0|2,3:0|0:0,0:0:0:0:
146,246,182911,1,2,0:3:0:0:
146,246,183017,1,2,0:3:0:0:
183,172,183122,2,0,P|220:167|255:155,1,75,10|0,1:2|0:0,0:0:0:0:
59,98,183334,6,0,B|26:75|26:75|53:106,1,75,2|2,0:3|0:3,0:0:0:0:
190,163,183545,6,0,B|206:160|201:110|185:112|167:114|173:164|190:163,1,89.9999972534181,2|0,3:2|0:0,0:0:0:0:
40,179,183756,6,0,P|98:188|135:253,1,134.999995880127,2|0,0:3|0:0,0:0:0:0:
129,262,183968,1,10,1:2:0:0:
218,382,184073,2,0,P|263:370|313:364,1,89.9999972534181,2|2,0:0|0:3,0:0:0:0:
128,350,184284,1,2,0:0:0:0:
334,220,184390,6,0,P|306:176|253:175,1,89.9999972534181,0|2,3:0|0:0,0:0:0:0:
224,244,184601,1,2,0:3:0:0:
224,244,184707,1,2,0:3:0:0:
299,293,184813,2,0,P|303:330|315:365,1,75,10|0,1:2|0:0,0:0:0:0:
37,345,185024,6,0,B|9:319|9:319|45:334,1,75,2|2,0:3|0:3,0:0:0:0:
214,370,185235,6,0,B|231:371|237:321|219:319|203:317|197:369|214:370,1,89.9999972534181,2|0,3:2|0:0,0:0:0:0:
112,288,185446,6,0,P|176:296|225:249,1,134.999995880127,2|0,0:3|0:0,0:0:0:0:
223,234,185658,1,10,1:2:0:0:
379,272,185763,2,0,P|420:261|473:260,1,89.9999972534181,2|2,0:0|0:3,0:0:0:0:
310,209,185975,1,2,0:0:0:0:
482,262,186080,6,0,P|501:217|480:175,1,89.9999972534181,0|2,3:0|0:0,0:0:0:0:
399,179,186291,1,2,0:3:0:0:
399,179,186397,1,2,0:3:0:0:
284,333,186503,5,10,1:2:0:0:
357,345,186608,1,0,3:0:0:0:
431,358,186714,1,2,3:0:0:0:
505,371,186820,1,2,3:0:0:0:
512,383,186925,5,0,3:0:0:0:
216,163,187982,5,0,3:0:0:0:
301,150,188087,1,0,3:0:0:0:
255,135,188193,1,2,0:3:0:0:
113,58,188615,6,0,B|123:113|123:113|121:120|121:120|130:169,1,112.500004291535,2|0,3:2|0:0,0:0:0:0:
54,222,188932,2,0,B|28:233|28:233|52:214,1,56.2500021457673,2|2,0:0|0:1,0:0:0:0:
132,180,189144,1,0,0:0:0:0:
203,242,189249,2,0,P|167:253|142:298,1,75,2|0,0:0|0:0,0:0:0:0:
58,309,189461,6,0,P|132:320|205:337,1,150,2|2,0:0|0:0,0:0:0:0:
117,365,189777,1,2,0:0:0:0:
296,366,189883,6,0,L|286:306,1,56.2500021457673,2|0,0:1|0:0,0:0:0:0:
198,236,190094,1,2,0:0:0:0:
198,236,190200,1,2,0:0:0:0:
212,344,190306,6,0,B|243:349|269:332|277:301|272:293|263:286|269:255|292:234|327:241,2,168.750006437302,2|2|2,3:2|0:0|0:0,0:0:0:0:
126,270,191151,6,0,L|118:212,1,56.2500021457673,2|0,0:0|0:0,0:0:0:0:
397,187,191468,1,2,0:0:0:0:
397,187,191573,2,0,L|405:245,1,56.2500021457673,2|0,0:1|0:0,0:0:0:0:
218,168,191784,6,0,P|207:150|210:170,1,56.2500021457673,2|0,0:0|0:0,0:0:0:0:
207,251,191996,6,0,B|262:244|262:244|267:237|267:237|327:230,1,112.500004291535,2|0,3:2|0:0,0:0:0:0:
458,132,192313,2,0,P|443:109|407:104,1,56.2500021457673,2|2,0:0|0:1,0:0:0:0:
317,243,192524,1,0,0:0:0:0:
398,307,192630,2,0,P|401:270|405:239,1,56.2500021457673,2|0,0:0|0:0,0:0:0:0:
297,73,192841,6,0,P|308:148|314:226,1,150,2|2,0:0|0:0,0:0:0:0:
389,174,193158,1,2,0:0:0:0:
275,315,193263,2,0,P|244:299|232:263,1,75,2|0,0:1|0:0,0:0:0:0:
291,78,193475,2,0,P|258:78|225:71,1,56.2500021457673,2|0,0:0|0:0,0:0:0:0:
95,265,193686,6,0,B|90:229|106:210|133:206|140:209|148:213|178:200|187:175|179:141,2,168.750006437302,2|2|2,3:2|0:0|0:0,0:0:0:0:
34,126,194531,5,2,0:0:0:0:
46,51,194637,1,2,0:0:0:0:
110,8,194742,1,2,0:0:0:0:
184,24,194848,1,2,0:0:0:0:
173,136,194953,6,0,L|179:174,1,37.5,2|0,0:1|0:0,0:0:0:0:
234,85,195165,1,2,0:0:0:0:
103,270,195376,6,0,P|135:263|165:255,1,56.2500021457673,2|0,3:2|0:0,0:0:0:0:
55,202,195587,1,2,0:1:0:0:
13,286,195693,2,0,P|88:295|131:362,1,150,2|0,0:0|0:0,0:0:0:0:
237,240,196010,2,0,P|222:202|189:186,1,75,2|0,0:1|0:0,0:0:0:0:
52,372,196221,6,0,P|17:376|-10:383,1,56.2500021457673,2|0,0:0|0:0,0:0:0:0:
139,356,196432,1,2,0:1:0:0:
100,278,196538,2,0,P|92:209|79:123,1,150,2|0,0:0|0:0,0:0:0:0:
168,22,196855,2,0,P|207:13|237:31,1,75,2|0,0:1|0:0,0:0:0:0:
244,171,197066,6,0,L|184:183,1,56.2500021457673,2|0,3:2|0:0,0:0:0:0:
193,101,197277,1,2,0:1:0:0:
276,253,197383,6,0,P|274:180|324:127,1,150,2|0,0:0|0:0,0:0:0:0:
503,176,197700,2,0,P|484:207|448:215,1,75,2|0,0:1|0:0,0:0:0:0:
429,136,197911,5,2,0:0:0:0:
424,131,198017,2,0,L|414:74,1,56.2500021457673,2|2,0:0|0:1,0:0:0:0:
369,283,198228,1,2,0:1:0:0:
374,277,198334,2,0,L|364:220,1,56.2500021457673,2|0,0:0|0:0,0:0:0:0:
206,85,198545,6,0,P|205:64|214:83,1,56.2500021457673,2|0,0:1|0:0,0:0:0:0:
326,137,198756,6,0,P|289:145|253:155,1,56.2500021457673,2|0,3:2|0:0,0:0:0:0:
294,64,198968,1,2,0:1:0:0:
158,160,199073,6,0,P|186:238|205:305,1,150,2|0,0:0|0:0,0:0:0:0:
264,209,199390,2,0,P|261:182|264:142,1,56.2500021457673,2|0,0:1|0:0,0:0:0:0:
76,225,199601,6,0,B|220:239|131:278|292:296,2,225,2|2|2,0:0|0:0|0:0,0:0:0:0:
21,284,200446,5,2,3:2:0:0:
254,149,201503,6,0,L|242:96,1,37.5,2|0,0:0|0:0,0:0:0:0:
321,98,201714,2,0,L|333:151,1,37.5,2|0,0:0|0:0,0:0:0:0:
