osu file format v14

[General]
AudioFilename: seiya-murai feat.ALT - Sumidagawa Karenka.mp3
AudioLeadIn: 0
PreviewTime: 46550
Countdown: 0
SampleSet: Normal
StackLeniency: 0.7
Mode: 1
LetterboxInBreaks: 0
WidescreenStoryboard: 1

[Editor]
Bookmarks: 4217,14883,25550,46883,68217,78883,108217
DistanceSpacing: 0.6
BeatDivisor: 4
GridSize: 8
TimelineZoom: 2.199999

[Metadata]
Title:Sumidagawa Karenka
TitleUnicode:隅田川夏恋歌
Artist:seiya-murai feat.ALT
ArtistUnicode:seiya-murai feat.ALT
Creator:octagonal
Version:Kantan
Source:jubeat ripples
Tags:vocaloid
BeatmapID:1379235
BeatmapSetID:646645

[Difficulty]
HPDrainRate:8
CircleSize:4
OverallDifficulty:3
ApproachRate:5
SliderMultiplier:1.4
SliderTickRate:1

[Events]
//Background and Video events
0,0,"bg.jpg",0,0
//Break Periods
//Storyboard Layer 0 (Background)
//Storyboard Layer 1 (Fail)
//Storyboard Layer 2 (Pass)
//Storyboard Layer 3 (Foreground)
//Storyboard Sound Samples

[TimingPoints]
1564,337.078651685393,4,1,0,90,1,0
2884,333.333333333333,4,1,0,90,1,0

[Colours]
Combo1 : 245,126,130
Combo2 : 242,210,102
Combo3 : 39,216,66

[HitObjects]
256,192,2884,5,4,0:0:0:0:
256,192,3383,1,0,0:0:0:0:
248,192,3883,1,0,0:0:0:0:
248,192,4217,1,12,0:0:0:0:
256,184,4883,1,8,0:0:0:0:
248,208,5550,1,0,0:0:0:0:
264,200,6217,1,8,0:0:0:0:
264,208,6550,1,8,0:0:0:0:
248,200,6883,1,0,0:0:0:0:
240,224,7550,1,0,0:0:0:0:
224,216,8217,1,0,0:0:0:0:
224,216,8883,1,8,0:0:0:0:
224,216,9217,1,0,0:0:0:0:
224,216,9550,1,8,0:0:0:0:
256,192,10217,1,8,0:0:0:0:
248,200,10883,1,0,0:0:0:0:
264,192,11550,1,0,0:0:0:0:
264,192,11883,1,8,0:0:0:0:
264,192,12217,1,0,0:0:0:0:
256,176,12883,1,0,0:0:0:0:
256,184,13550,1,0,0:0:0:0:
256,192,13883,1,0,0:0:0:0:
264,200,14217,1,8,0:0:0:0:
256,192,14883,1,0,0:0:0:0:
256,184,15550,1,0,0:0:0:0:
256,192,15883,1,8,0:0:0:0:
248,176,16217,1,0,0:0:0:0:
256,176,16883,1,8,0:0:0:0:
240,184,17550,1,0,0:0:0:0:
256,184,18217,1,0,0:0:0:0:
256,192,18550,1,8,0:0:0:0:
256,184,18883,1,0,0:0:0:0:
240,192,19550,1,8,0:0:0:0:
240,192,19883,1,8,0:0:0:0:
240,192,20217,1,0,0:0:0:0:
256,192,20883,1,8,0:0:0:0:
248,184,21550,1,0,0:0:0:0:
240,176,22217,1,8,0:0:0:0:
224,184,22550,1,0,0:0:0:0:
224,176,22883,1,8,0:0:0:0:
216,176,23550,1,8,0:0:0:0:
216,176,24217,1,8,0:0:0:0:
256,208,24550,1,4,0:0:0:0:
256,208,24883,1,4,0:0:0:0:
256,184,25550,1,12,0:0:0:0:
256,184,26217,1,8,0:0:0:0:
248,192,26883,1,0,0:0:0:0:
248,192,27217,1,0,0:0:0:0:
256,192,27550,1,8,0:0:0:0:
256,192,28217,1,0,0:0:0:0:
248,192,28883,1,8,0:0:0:0:
232,176,29550,1,8,0:0:0:0:
232,176,29883,1,0,0:0:0:0:
232,184,30217,1,8,0:0:0:0:
224,184,30883,1,0,0:0:0:0:
264,208,31550,1,8,0:0:0:0:
256,184,32217,1,0,0:0:0:0:
256,192,32550,1,0,0:0:0:0:
248,192,32883,1,8,0:0:0:0:
248,184,33550,1,0,0:0:0:0:
248,192,34217,1,8,0:0:0:0:
224,168,34883,1,0,0:0:0:0:
224,168,35550,1,8,0:0:0:0:
224,168,35883,1,8,0:0:0:0:
256,200,36217,1,0,0:0:0:0:
256,184,36883,1,8,0:0:0:0:
240,192,37550,1,0,0:0:0:0:
240,192,38217,1,8,0:0:0:0:
240,192,38550,1,0,0:0:0:0:
240,192,38883,1,0,0:0:0:0:
240,184,39550,1,8,0:0:0:0:
232,176,40217,1,0,0:0:0:0:
240,184,40883,1,8,0:0:0:0:
232,176,41217,1,8,0:0:0:0:
232,160,41550,1,0,0:0:0:0:
248,184,42217,1,8,0:0:0:0:
264,192,42883,1,0,0:0:0:0:
256,192,43217,1,0,0:0:0:0:
256,200,43550,1,8,0:0:0:0:
256,184,44217,1,8,0:0:0:0:
256,192,44550,1,8,0:0:0:0:
264,184,44883,1,8,0:0:0:0:
272,176,45550,1,8,0:0:0:0:
248,176,45883,1,8,0:0:0:0:
240,176,46217,1,8,0:0:0:0:
248,184,46550,1,0,0:0:0:0:
256,192,46883,1,4,0:0:0:0:
256,192,47550,1,8,0:0:0:0:
256,192,48217,1,0,0:0:0:0:
256,192,48550,1,8,0:0:0:0:
256,192,48883,1,0,0:0:0:0:
256,192,49550,1,8,0:0:0:0:
240,208,50217,1,8,0:0:0:0:
240,208,50883,1,8,0:0:0:0:
240,208,51217,1,0,0:0:0:0:
232,208,51550,1,8,0:0:0:0:
248,184,52217,1,0,0:0:0:0:
248,184,52883,1,8,0:0:0:0:
248,192,53550,1,0,0:0:0:0:
256,192,53883,1,8,0:0:0:0:
256,184,54217,1,8,0:0:0:0:
256,184,54883,1,12,0:0:0:0:
248,168,55550,1,8,0:0:0:0:
248,168,56217,1,8,0:0:0:0:
248,168,56550,1,0,0:0:0:0:
248,168,56883,1,8,0:0:0:0:
264,192,57550,1,0,0:0:0:0:
256,184,58217,1,8,0:0:0:0:
256,184,58883,1,0,0:0:0:0:
256,184,59217,1,0,0:0:0:0:
256,184,59550,1,8,0:0:0:0:
256,184,60217,1,0,0:0:0:0:
256,184,60883,1,8,0:0:0:0:
256,184,61550,1,8,0:0:0:0:
256,184,61883,1,0,0:0:0:0:
256,176,62217,1,8,0:0:0:0:
256,192,62883,1,0,0:0:0:0:
248,176,63550,1,8,0:0:0:0:
256,176,64217,1,0,0:0:0:0:
256,176,64550,1,8,0:0:0:0:
256,176,64883,1,8,0:0:0:0:
256,192,65550,1,12,0:0:0:0:
248,192,66217,1,8,0:0:0:0:
224,192,66883,1,8,0:0:0:0:
248,192,67217,1,8,0:0:0:0:
248,192,67550,1,8,0:0:0:0:
256,176,68217,1,0,0:0:0:0:
240,176,68883,1,8,0:0:0:0:
224,176,69550,1,0,0:0:0:0:
224,176,69883,1,8,0:0:0:0:
224,176,70217,1,0,0:0:0:0:
248,192,70883,1,0,0:0:0:0:
248,192,71550,1,8,0:0:0:0:
232,184,72217,1,8,0:0:0:0:
240,184,72550,1,0,0:0:0:0:
240,184,72883,1,8,0:0:0:0:
232,176,73550,1,0,0:0:0:0:
232,176,74217,1,8,0:0:0:0:
256,184,74883,1,8,0:0:0:0:
256,184,75217,1,8,0:0:0:0:
256,184,75550,1,0,0:0:0:0:
240,160,76217,1,12,0:0:0:0:
240,160,76883,1,8,0:0:0:0:
256,184,77550,1,8,0:0:0:0:
256,184,77883,1,0,0:0:0:0:
256,184,78217,1,8,0:0:0:0:
264,192,78550,1,0,0:0:0:0:
264,184,78883,1,4,0:0:0:0:
264,184,79550,1,8,0:0:0:0:
240,184,80217,1,8,0:0:0:0:
240,184,80550,1,0,0:0:0:0:
240,184,80883,1,0,0:0:0:0:
256,192,81550,1,8,0:0:0:0:
256,192,82217,1,8,0:0:0:0:
256,192,82883,1,8,0:0:0:0:
248,200,83217,1,0,0:0:0:0:
248,200,83550,1,8,0:0:0:0:
256,192,84217,1,0,0:0:0:0:
256,200,84883,1,8,0:0:0:0:
256,200,85550,1,0,0:0:0:0:
256,200,85883,1,8,0:0:0:0:
256,200,86217,1,8,0:0:0:0:
248,184,86883,1,12,0:0:0:0:
248,184,87550,1,8,0:0:0:0:
248,184,88217,1,8,0:0:0:0:
256,192,88550,1,8,0:0:0:0:
264,192,88883,1,8,0:0:0:0:
256,192,89550,1,4,0:0:0:0:
256,192,90217,1,8,0:0:0:0:
248,192,90883,1,0,0:0:0:0:
256,192,91217,1,8,0:0:0:0:
256,200,91550,1,0,0:0:0:0:
248,208,92217,1,8,0:0:0:0:
256,192,92883,1,8,0:0:0:0:
256,168,93550,1,8,0:0:0:0:
256,168,93883,1,0,0:0:0:0:
256,168,94217,1,8,0:0:0:0:
256,192,94883,1,0,0:0:0:0:
248,184,95550,1,8,0:0:0:0:
256,184,96217,1,0,0:0:0:0:
256,184,96550,1,8,0:0:0:0:
256,184,96883,1,8,0:0:0:0:
256,192,97550,1,12,0:0:0:0:
232,192,98217,1,8,0:0:0:0:
256,184,98883,1,8,0:0:0:0:
256,184,99217,1,8,0:0:0:0:
248,184,99550,1,8,0:0:0:0:
256,184,100217,1,12,0:0:0:0:
256,184,100883,1,8,0:0:0:0:
256,168,101550,1,8,0:0:0:0:
256,168,101883,1,8,0:0:0:0:
256,168,102217,1,8,0:0:0:0:
256,184,102883,1,0,0:0:0:0:
240,176,103217,1,0,0:0:0:0:
256,184,103550,1,8,0:0:0:0:
256,176,104217,1,0,0:0:0:0:
256,176,104550,1,8,0:0:0:0:
232,176,104883,1,8,0:0:0:0:
232,168,105550,1,8,0:0:0:0:
240,168,105883,1,0,0:0:0:0:
240,168,106217,1,0,0:0:0:0:
248,192,106883,1,0,0:0:0:0:
256,200,107217,1,8,0:0:0:0:
272,200,107550,1,0,0:0:0:0:
256,192,108217,1,12,0:0:0:0:
264,184,108883,1,8,0:0:0:0:
256,192,109550,1,8,0:0:0:0:
248,184,109883,1,8,0:0:0:0:
240,192,110217,1,8,0:0:0:0:
