osu file format v14

[General]
AudioFilename: seiya-murai feat.ALT - Sumidagawa Karenka.mp3
AudioLeadIn: 982
PreviewTime: 46552
Countdown: 0
SampleSet: Soft
StackLeniency: 0.6
Mode: 0
LetterboxInBreaks: 1
WidescreenStoryboard: 1

[Editor]
Bookmarks: 22885,24552,25552,47219,58219,60219,78552,112219
DistanceSpacing: 1.2
BeatDivisor: 16
GridSize: 4
TimelineZoom: 3.399999

[Metadata]
Title:Sumidagawa Karenka
TitleUnicode:隅田川夏恋歌
Artist:seiya-murai feat.ALT
ArtistUnicode:seiya-murai feat.ALT
Creator:Nao
Version:Expert
Source:Jubeat Ripples
Tags:
BeatmapID:1419595
BeatmapSetID:671399

[Difficulty]
HPDrainRate:7
CircleSize:5
OverallDifficulty:9
ApproachRate:9
SliderMultiplier:1.6
SliderTickRate:1

[Events]
//Background and Video events
0,0,"__natsukoi_hanabi_vocaloid_and_original_drawn_by_mizutame_tori__412f2efb4b9264f22da7c09f244e1a50.jpg",0,0
//Break Periods
//Storyboard Layer 0 (Background)
//Storyboard Layer 1 (Fail)
//Storyboard Layer 2 (Pass)
//Storyboard Layer 3 (Foreground)
//Storyboard Layer 4 (Overlay)
//Storyboard Sound Samples

[TimingPoints]
1564,337.078651685393,4,2,1,70,1,0
1564,-133.333333333333,4,2,1,70,0,0
1901,-133.333333333333,4,2,2,5,0,0
2069,-200,4,2,2,70,0,0
2406,-200,4,2,2,5,0,0
2575,-200,4,2,2,70,0,0
2743,-200,4,2,2,5,0,0
2886,333.333333333333,4,2,1,70,1,0
2886,-100,4,2,1,70,0,0
3885,-100,4,2,2,70,0,0
4219,-133.333333333333,4,2,1,70,0,0
5219,-133.333333333333,4,2,1,70,0,0
6885,-133.333333333333,4,2,8,70,0,0
9219,-133.333333333333,4,2,2,70,0,0
9552,-133.333333333333,4,2,6,70,0,0
9885,-133.333333333333,4,2,2,70,0,0
10552,-133.333333333333,4,2,1,70,0,0
11885,-200,4,2,2,70,0,0
12219,-133.333333333333,4,2,6,70,0,0
13219,-133.333333333333,4,2,2,70,0,0
14552,-133.333333333333,4,2,1,70,0,0
14885,-100,4,2,6,70,0,0
15219,-100,4,2,2,70,0,0
15385,-100,4,2,3,70,0,0
15885,-100,4,2,2,70,0,0
17219,-100,4,2,2,70,0,0
20219,-100,4,2,3,70,0,0
20552,-100,4,2,2,70,0,0
20719,-100,4,2,3,70,0,0
21219,-100,4,2,2,70,0,0
22552,-133.333333333333,4,2,1,70,0,0
22885,-100,4,2,5,70,0,1
23219,-100,4,2,2,70,0,1
23552,-100,4,2,5,70,0,1
23885,-100,4,2,2,70,0,1
24219,-100,4,2,3,70,0,0
24552,-80,4,2,2,70,0,1
24635,-80,4,2,2,5,0,0
24719,-80,4,2,2,70,0,1
24802,-80,4,2,2,5,0,0
24885,-80,4,2,2,70,0,1
25219,-200,4,2,1,70,0,0
25469,-200,4,2,1,5,0,0
25552,-100,4,2,1,70,0,0
25885,-100,4,2,2,70,0,0
28219,-100,4,2,2,70,0,0
30885,-100,4,2,2,70,0,0
35885,-100,4,2,1,70,0,0
36219,-100,4,2,6,70,0,0
36552,-100,4,2,2,70,0,0
36719,-100,4,2,3,70,0,0
37219,-100,4,2,2,70,0,0
40219,-100,4,2,2,70,0,0
40719,-100,4,2,2,70,0,0
41552,-100,4,2,6,70,0,0
41885,-100,4,2,2,70,0,0
42052,-100,4,2,3,70,0,0
42552,-100,4,2,2,70,0,0
44219,-100,4,2,2,70,0,0
44885,-100,4,2,2,70,0,0
45552,-100,4,2,2,70,0,0
45885,-100,4,2,6,70,0,0
46219,-100,4,2,3,70,0,0
46552,-100,4,2,2,70,0,1
49552,-80,4,2,2,70,0,1
51885,-80,4,2,2,70,0,0
52219,-80,4,2,2,70,0,1
54885,-80,4,2,6,70,0,1
54927,-80,4,2,8,70,0,1
55552,-80,4,2,6,70,0,1
55594,-80,4,2,8,70,0,1
56219,-80,4,2,6,70,0,1
56260,-80,4,2,8,70,0,1
56885,-80,4,2,6,70,0,1
56927,-80,4,2,8,70,0,1
57219,-200,4,2,1,70,0,0
57469,-200,4,2,1,5,0,0
57552,-80,4,2,3,70,0,1
57635,-80,4,2,3,70,0,0
57885,-80,4,2,2,70,0,1
62552,-80,4,2,8,70,0,0
62885,-80,4,2,8,70,0,1
65469,-80,4,2,6,70,0,0
65552,-80,4,2,6,70,0,1
65635,-80,4,2,8,70,0,1
66135,-80,4,2,6,70,0,0
66219,-80,4,2,6,70,0,1
66302,-80,4,2,8,70,0,1
66802,-80,4,2,6,70,0,0
66885,-80,4,2,6,70,0,1
66969,-80,4,2,8,70,0,1
67219,-80,4,2,6,70,0,1
67385,-80,4,2,6,70,0,0
67552,-80,4,2,3,70,0,1
67594,-80,4,2,8,70,0,1
68219,-66.6666666666667,4,2,3,70,0,0
69552,-66.6666666666667,4,2,3,70,0,1
69620,-66.6666666666667,4,2,6,70,0,1
70552,-66.6666666666667,4,2,3,70,0,1
70885,-66.6666666666667,4,2,3,70,0,0
72219,-66.6666666666667,4,2,7,70,0,1
72302,-66.6666666666667,4,2,8,70,0,1
73552,-66.6666666666667,4,2,3,70,0,0
74885,-66.6666666666667,4,2,3,70,0,1
74969,-66.6666666666667,4,2,6,70,0,1
75885,-66.6666666666667,4,2,3,70,0,1
76135,-66.6666666666667,4,2,3,70,0,0
76219,-66.6666666666667,4,2,7,70,0,1
76802,-66.6666666666667,4,2,6,70,0,0
76885,-66.6666666666667,4,2,7,70,0,1
77469,-66.6666666666667,4,2,6,70,0,0
77552,-66.6666666666667,4,2,7,70,0,1
77719,-66.6666666666667,4,2,6,70,0,1
77802,-66.6666666666667,4,2,6,70,0,0
77885,-66.6666666666667,4,2,7,70,0,1
78052,-66.6666666666667,4,2,6,70,0,1
78135,-66.6666666666667,4,2,6,70,0,0
78219,-66.6666666666667,4,2,3,70,0,1
78552,-100,4,2,1,70,0,0
78885,-80,4,2,3,70,0,1
78927,-80,4,2,8,70,0,1
86885,-80,4,2,6,70,0,1
86927,-80,4,2,8,70,0,1
87552,-80,4,2,6,70,0,1
87594,-80,4,2,8,70,0,1
88222,-80,4,2,6,70,0,1
88260,-80,4,2,6,70,0,1
88927,-80,4,2,8,70,0,1
89219,-200,4,2,2,70,0,0
89552,-66.6666666666667,4,2,3,70,0,1
89885,-66.6666666666667,4,2,2,70,0,1
97385,-66.6666666666667,4,2,2,70,0,0
97552,-66.6666666666667,4,2,7,70,0,1
97635,-66.6666666666667,4,2,7,70,0,0
97885,-66.6666666666667,4,2,8,70,0,0
98219,-66.6666666666667,4,2,7,70,0,1
98302,-66.6666666666667,4,2,8,70,0,0
98885,-66.6666666666667,4,2,7,70,0,1
98969,-66.6666666666667,4,2,7,70,0,0
99219,-66.6666666666667,4,2,8,70,0,0
99552,-66.6666666666667,4,2,4,70,0,1
100219,-66.6666666666667,4,2,3,70,0,1
100302,-66.6666666666667,4,2,3,70,0,0
100885,-66.6666666666667,4,2,3,70,0,1
100969,-66.6666666666667,4,2,3,70,0,0
101552,-66.6666666666667,4,2,3,70,0,1
102219,-66.6666666666667,4,2,3,70,0,0
102302,-66.6666666666667,4,2,2,70,0,0
102885,-66.6666666666667,4,2,3,70,0,1
102927,-66.6666666666667,4,2,6,70,0,1
103219,-66.6666666666667,4,2,6,70,0,0
103385,-66.6666666666667,4,2,8,70,0,0
105885,-66.6666666666667,4,2,3,70,0,0
106052,-66.6666666666667,4,2,8,70,0,0

[Colours]
Combo1 : 255,128,255
Combo2 : 157,240,4
Combo3 : 32,170,244
Combo4 : 235,132,75

[HitObjects]
305,131,1564,6,0,P|350:167|369:232,1,120.000004577637,2|0,0:0|0:0,0:0:0:0:
340,258,2069,6,0,P|347:220|334:183,1,80,2|0,0:0|0:0,0:0:0:0:
328,234,2575,6,0,P|325:256|310:272,1,40,10|0,0:0|0:0,0:0:0:0:
166,178,2886,5,12,0:0:0:0:
166,178,3385,5,12,0:0:0:0:
166,178,3885,5,4,0:0:0:0:
257,209,4052,1,4,0:0:0:0:
238,114,4219,2,0,B|297:132|297:132|364:113,1,120.000004577637,4|0,0:0|0:0,0:0:0:0:
440,73,4719,1,0,0:0:0:0:
450,88,4802,1,0,0:0:0:0:
459,103,4885,1,0,0:0:0:0:
361,125,5052,1,0,0:0:0:0:
432,202,5219,2,0,L|492:208,1,60.0000022888184,8|0,0:0|0:0,0:0:0:0:
297,234,5552,5,0,0:0:0:0:
182,246,5719,1,0,0:0:0:0:
84,192,5885,1,0,0:0:0:0:
119,297,6052,2,0,B|136:339|125:385|125:385|115:369|98:359,1,120.000004577637,0|0,0:0|0:0,0:0:0:0:
29,319,6552,1,8,0:0:0:0:
123,301,6719,1,8,0:0:0:0:
218,283,6885,6,0,B|217:315|217:315|213:347,2,60.0000022888184,2|0|0,0:0|0:0|0:0,0:0:0:0:
273,208,7385,2,0,B|301:192|301:192|332:180,2,60.0000022888184,2|0|0,0:0|0:0|0:0,0:0:0:0:
181,197,7885,2,0,B|153:180|153:180|127:159,1,60.0000022888184,10|0,0:0|0:0,0:0:0:0:
49,168,8135,1,0,0:0:0:0:
49,168,8219,2,0,P|56:195|47:228,2,60.0000022888184,2|0|0,0:0|0:0|0:0,0:0:0:0:
117,281,8719,2,0,P|96:300|64:310,2,60.0000022888184,2|0|0,0:0|0:0|0:0,0:0:0:0:
232,151,9219,5,8,0:0:0:0:
247,262,9386,1,8,0:0:0:0:
340,333,9552,2,0,B|373:278|373:278|382:223,1,120.000004577637,6|0,0:0|0:0,0:0:0:0:
321,105,10052,1,0,0:0:0:0:
321,105,10135,1,0,0:0:0:0:
321,105,10219,1,0,0:0:0:0:
448,50,10385,1,0,0:0:0:0:
444,192,10552,2,0,L|381:203,1,60.0000022888184,8|0,0:0|0:0,0:0:0:0:
325,109,10885,1,0,0:0:0:0:
254,199,11052,5,0,0:0:0:0:
237,201,11135,1,0,0:0:0:0:
221,204,11219,1,0,0:0:0:0:
80,233,11385,2,0,P|87:260|165:308,1,120.000004577637,0|0,0:0|0:0,0:0:0:0:
306,271,11885,1,8,0:0:0:0:
182,317,12052,1,8,0:0:0:0:
220,212,12219,2,0,L|162:225,2,60.0000022888184,6|0|0,0:0|0:0|0:0,0:0:0:0:
196,82,12719,2,0,P|253:92|315:66,1,120.000004577637,2|0,0:0|0:0,0:0:0:0:
414,19,13219,1,10,0:0:0:0:
414,132,13385,5,0,0:0:0:0:
393,122,13469,1,0,0:0:0:0:
367,109,13552,2,0,L|381:166,1,60.0000022888184,2|0,0:0|0:0,0:0:0:0:
329,216,13802,1,0,0:0:0:0:
313,203,13885,2,0,L|299:137,1,60.0000022888184,0|2,0:0|0:0,0:0:0:0:
196,82,14219,2,0,L|218:177,1,90.0000034332277,0|0,0:0|0:0,0:0:0:0:
236,233,14552,5,8,0:0:0:0:
176,18,14719,1,8,0:0:0:0:
370,88,14885,2,0,L|371:181,2,80,6|0|8,0:0|0:0|0:0,0:0:0:0:
398,17,15385,2,0,L|399:185,1,160,10|0,0:0|0:0,0:0:0:0:
372,148,15885,2,0,L|370:68,2,80,8|0|2,0:0|0:0|0:0,0:0:0:0:
372,229,16385,5,0,0:0:0:0:
300,228,16552,1,8,0:0:0:0:
169,214,16719,1,0,0:0:0:0:
240,198,16885,1,0,0:0:0:0:
227,300,17052,1,0,0:0:0:0:
97,213,17219,1,8,0:0:0:0:
131,310,17386,1,0,0:0:0:0:
169,214,17552,6,0,L|148:128,2,80,2|0|8,0:0|0:0|0:0,0:0:0:0:
205,327,18052,1,0,0:0:0:0:
205,327,18135,1,0,0:0:0:0:
205,327,18219,2,0,L|288:310,1,80,0|0,0:0|0:0,0:0:0:0:
453,342,18552,1,8,0:0:0:0:
345,313,18719,1,0,0:0:0:0:
423,233,18885,2,0,L|507:250,2,80,2|0|8,0:0|0:0|0:0,0:0:0:0:
296,156,19385,2,0,P|254:181|243:299,1,160,2|0,0:0|0:0,0:0:0:0:
361,359,19885,5,10,0:0:0:0:
199,339,20052,1,8,0:0:0:0:
135,189,20219,2,0,L|132:278,2,80,6|0|8,0:0|0:0|0:0,0:0:0:0:
108,124,20719,2,0,L|101:295,1,160,10|0,0:0|0:0,0:0:0:0:
95,390,21219,1,8,0:0:0:0:
27,233,21385,1,0,0:0:0:0:
197,251,21552,6,0,L|284:230,1,80,2|0,0:0|0:0,0:0:0:0:
420,183,21885,1,8,0:0:0:0:
313,283,22052,1,0,0:0:0:0:
214,177,22219,1,0,0:0:0:0:
320,77,22385,1,0,0:0:0:0:
320,77,22469,1,0,0:0:0:0:
320,77,22552,2,0,P|319:110|331:145,1,60.0000022888184,8|0,0:0|0:0,0:0:0:0:
389,270,22885,6,0,B|351:286|351:286|310:282,1,80,10|0,0:0|0:0,0:0:0:0:
134,262,23219,1,8,0:0:0:0:
285,282,23385,1,0,0:0:0:0:
228,141,23552,6,0,B|200:172|200:172|191:212,1,80,10|0,0:0|0:0,0:0:0:0:
156,386,23886,1,8,0:0:0:0:
184,236,24052,1,0,0:0:0:0:
301,334,24219,1,10,0:0:0:0:
318,327,24302,1,0,0:0:0:0:
335,320,24385,1,0,0:0:0:0:
443,294,24552,6,0,L|432:222,1,50,4|0,0:0|0:0,0:0:0:0:
176,187,24719,2,0,L|183:236,1,50,4|0,0:0|0:0,0:0:0:0:
456,304,24885,2,0,P|455:256|437:190,1,100,14|8,0:0|0:0,0:0:0:0:
407,64,25219,2,0,P|390:90|375:67,1,60,2|0,0:0|0:0,0:0:0:0:
394,57,25552,6,0,B|321:85|321:85|232:87,1,160,4|10,0:0|0:0,0:0:0:0:
99,80,26052,1,0,0:0:0:0:
108,92,26135,1,0,0:0:0:0:
117,103,26219,2,0,L|115:195,2,80,0|0|8,0:0|0:0|0:0,0:0:0:0:
212,29,26719,5,0,0:0:0:0:
196,159,26885,2,0,L|275:146,1,80,0|0,0:0|0:0,0:0:0:0:
298,140,27135,1,0,0:0:0:0:
298,140,27219,1,8,0:0:0:0:
123,199,27385,2,0,L|282:174,1,160,2|0,0:0|0:0,0:0:0:0:
436,146,27885,1,10,0:0:0:0:
303,184,28052,1,0,0:0:0:0:
452,325,28219,6,0,P|374:350|284:335,1,160,2|8,0:0|0:0,0:0:0:0:
184,280,28719,1,2,0:0:0:0:
166,290,28802,1,0,0:0:0:0:
149,300,28885,2,0,L|66:315,2,80,0|0|10,0:0|0:0|0:0,0:0:0:0:
349,235,29385,5,0,0:0:0:0:
365,224,29468,1,0,0:0:0:0:
383,215,29552,2,0,L|469:196,1,80,2|0,0:0|0:0,0:0:0:0:
489,192,29802,1,0,0:0:0:0:
489,192,29885,5,8,0:0:0:0:
455,70,30052,1,2,0:0:0:0:
436,80,30135,1,0,0:0:0:0:
413,91,30219,2,0,L|334:107,1,80,0|0,0:0|0:0,0:0:0:0:
168,100,30552,1,10,0:0:0:0:
318,108,30719,1,8,0:0:0:0:
168,260,30885,6,0,P|208:282|315:254,1,160,2|8,0:0|0:0,0:0:0:0:
395,178,31385,1,0,0:0:0:0:
395,178,31469,1,0,0:0:0:0:
395,178,31552,5,0,0:0:0:0:
463,292,31719,1,0,0:0:0:0:
323,298,31885,1,8,0:0:0:0:
457,276,32052,5,0,0:0:0:0:
317,283,32219,2,0,B|211:302,2,80,2|0|10,0:0|0:0|0:0,0:0:0:0:
413,236,32719,2,0,B|238:267,1,160,2|0,0:0|0:0,0:0:0:0:
83,313,33219,2,0,P|67:273|67:219,1,80,10|0,0:0|0:0,0:0:0:0:
203,307,33552,6,0,L|157:400,2,80,2|0|8,0:0|0:0|0:0,0:0:0:0:
154,223,34052,2,0,L|50:229,2,80,2|0|0,0:0|0:0|0:0,0:0:0:0:
202,139,34552,2,0,L|143:52,1,80,10|0,0:0|0:0,0:0:0:0:
149,59,34802,1,0,0:0:0:0:
139,44,34885,1,0,0:0:0:0:
343,31,35052,1,2,0:0:0:0:
337,47,35135,1,0,0:0:0:0:
332,60,35219,2,0,L|296:131,1,80,8|0,0:0|0:0,0:0:0:0:
166,210,35552,2,0,L|201:138,1,80,2|0,0:0|0:0,0:0:0:0:
214,145,35885,5,8,0:0:0:0:
420,147,36052,1,8,0:0:0:0:
315,323,36219,2,0,L|269:248,2,80,6|0|8,0:0|0:0|0:0,0:0:0:0:
315,375,36719,2,0,L|213:204,1,160,10|0,0:0|0:0,0:0:0:0:
174,109,37219,2,0,P|219:116|261:96,1,80,8|0,0:0|0:0,0:0:0:0:
277,86,37469,1,0,0:0:0:0:
277,86,37552,1,2,0:0:0:0:
207,37,37719,5,0,0:0:0:0:
160,199,37885,1,8,0:0:0:0:
324,159,38052,1,2,0:0:0:0:
133,173,38219,1,0,0:0:0:0:
343,178,38386,1,0,0:0:0:0:
230,146,38552,1,8,0:0:0:0:
311,295,38719,1,0,0:0:0:0:
316,307,38802,1,0,0:0:0:0:
321,319,38885,6,0,P|281:319|242:308,1,80,2|0,0:0|0:0,0:0:0:0:
124,239,39219,1,8,0:0:0:0:
230,146,39385,1,2,0:0:0:0:
230,146,39469,1,0,0:0:0:0:
230,146,39552,1,0,0:0:0:0:
61,177,39719,1,0,0:0:0:0:
172,308,39885,2,0,L|196:392,1,80,8|0,0:0|0:0,0:0:0:0:
184,236,40219,2,8,P|229:248|319:186,1,160,2|8,0:0|0:0,0:0:0:0:
332,67,40719,1,2,0:0:0:0:
438,54,40885,6,0,P|447:93|442:162,1,80,0|0,0:0|0:0,0:0:0:0:
184,236,41219,2,8,P|176:197|175:157,1,80,10|8,0:0|0:0,0:0:0:0:
374,172,41552,2,0,L|377:280,2,80,6|0|8,0:0|0:0|0:0,0:0:0:0:
345,83,42052,2,0,L|350:275,1,160,10|0,0:0|0:0,0:0:0:0:
335,337,42552,1,10,0:0:0:0:
260,236,42719,1,0,0:0:0:0:
260,236,42802,1,0,0:0:0:0:
260,236,42885,1,2,0:0:0:0:
208,351,43052,6,0,P|204:311|193:272,1,80,0|8,0:0|0:0,0:0:0:0:
95,161,43385,1,0,0:0:0:0:
259,236,43552,2,0,P|298:236|338:232,1,80,0|0,2:0|2:0,0:0:0:0:
368,225,43802,1,0,0:0:0:0:
397,226,43885,2,0,P|436:222|475:212,1,80,10|0,2:0|2:0,0:0:0:0:
195,126,44219,5,10,0:0:0:0:
259,236,44385,1,0,0:0:0:0:
224,249,44552,5,8,0:0:0:0:
224,90,44718,1,0,0:0:0:0:
276,70,44885,5,10,0:0:0:0:
177,242,45051,1,0,0:0:0:0:
130,205,45219,5,8,0:0:0:0:
344,80,45385,1,0,0:0:0:0:
411,133,45552,5,6,0:0:0:0:
411,133,45635,1,4,0:0:0:0:
411,133,45719,1,4,0:0:0:0:
101,134,45885,1,6,0:0:0:0:
281,359,46052,1,4,0:0:0:0:
281,48,46219,1,6,0:0:0:0:
281,48,46552,5,8,0:0:0:0:
328,245,46719,1,0,0:0:0:0:
179,162,46885,2,0,L|269:157,1,80,2|0,0:0|0:0,0:0:0:0:
441,153,47219,1,8,0:0:0:0:
281,48,47385,1,0,0:0:0:0:
294,281,47552,2,0,L|303:191,1,80,2|0,0:0|0:0,0:0:0:0:
188,292,47886,1,8,0:0:0:0:
292,197,48052,1,0,0:0:0:0:
281,48,48219,6,0,P|246:25|205:20,1,80,2|0,0:0|0:0,0:0:0:0:
7,52,48552,1,8,0:0:0:0:
178,136,48719,1,0,0:0:0:0:
43,220,48885,6,0,P|19:174|23:142,1,80,0|0,0:0|0:0,0:0:0:0:
193,26,49219,1,8,0:0:0:0:
95,167,49385,1,0,0:0:0:0:
159,295,49552,2,0,B|212:279|269:280,1,100,2|0,0:0|0:0,0:0:0:0:
413,318,49885,1,8,0:0:0:0:
266,286,50052,1,0,0:0:0:0:
355,147,50219,6,0,L|359:254,1,100,2|0,0:0|0:0,0:0:0:0:
439,116,50552,1,8,0:0:0:0:
292,85,50719,1,0,0:0:0:0:
212,213,50885,6,0,B|157:191|145:143,1,100,2|0,0:0|0:0,0:0:0:0:
204,11,51218,1,8,0:0:0:0:
55,138,51385,1,0,0:0:0:0:
55,138,51469,1,0,0:0:0:0:
55,138,51552,1,0,0:0:0:0:
147,305,51719,1,8,0:0:0:0:
222,176,51885,6,0,P|170:199|113:182,1,100,8|0,0:0|0:0,0:0:0:0:
101,34,52219,2,0,P|148:65|165:122,1,100,2|0,0:0|0:0,0:0:0:0:
151,344,52552,1,8,0:0:0:0:
68,164,52719,1,0,0:0:0:0:
293,109,52885,6,0,P|289:165|247:209,1,100,2|0,0:0|0:0,0:0:0:0:
61,286,53218,1,8,0:0:0:0:
175,125,53385,1,0,0:0:0:0:
243,313,53552,6,0,P|293:316|337:294,1,100,2|0,0:0|0:0,0:0:0:0:
293,109,53885,1,8,0:0:0:0:
167,230,54052,1,0,0:0:0:0:
412,225,54219,1,0,0:0:0:0:
175,125,54386,1,0,0:0:0:0:
175,125,54469,1,0,0:0:0:0:
175,125,54552,6,0,P|200:158|255:185,1,100,10|0,0:0|0:0,0:0:0:0:
357,166,54885,1,10,0:0:0:0:
295,261,55052,1,0,0:0:0:0:
257,249,55219,5,8,0:0:0:0:
385,185,55386,1,0,0:0:0:0:
401,222,55552,5,10,0:0:0:0:
224,212,55719,1,0,0:0:0:0:
211,151,55885,5,8,0:0:0:0:
396,273,56052,1,0,0:0:0:0:
357,326,56219,5,10,0:0:0:0:
233,77,56385,1,0,0:0:0:0:
290,42,56552,5,8,0:0:0:0:
278,251,56718,1,8,0:0:0:0:
172,71,56885,1,10,0:0:0:0:
172,71,56969,1,0,0:0:0:0:
172,71,57052,1,0,0:0:0:0:
172,71,57219,6,0,P|170:101|189:99,1,60,4|0,0:0|0:0,0:0:0:0:
208,81,57552,2,0,P|252:79|307:111,1,100,6|0,0:0|0:0,0:0:0:0:
153,248,57885,1,8,0:0:0:0:
327,185,58052,1,0,0:0:0:0:
107,313,58219,6,0,P|83:275|83:211,1,100,2|0,0:0|0:0,0:0:0:0:
278,277,58552,1,8,0:0:0:0:
137,157,58719,1,0,0:0:0:0:
339,301,58885,6,0,P|318:340|263:373,1,100,2|0,0:0|0:0,0:0:0:0:
261,128,59218,1,8,0:0:0:0:
207,336,59385,1,0,0:0:0:0:
148,158,59552,1,0,0:0:0:0:
320,283,59719,1,0,0:0:0:0:
320,283,59802,1,0,0:0:0:0:
320,283,59885,1,8,0:0:0:0:
107,313,60052,1,0,0:0:0:0:
261,128,60219,6,0,L|163:151,1,100,2|0,0:0|0:0,0:0:0:0:
136,354,60552,2,0,L|234:332,1,100,8|0,0:0|0:0,0:0:0:0:
272,155,60885,2,0,L|157:182,1,100,2|0,0:0|0:0,0:0:0:0:
136,354,61219,5,8,0:0:0:0:
223,269,61385,1,0,0:0:0:0:
107,237,61552,2,0,L|-8:264,2,100,2|0|8,0:0|0:0|0:0,0:0:0:0:
332,207,62052,5,0,0:0:0:0:
332,207,62136,1,0,0:0:0:0:
332,207,62219,1,0,0:0:0:0:
280,39,62386,1,8,0:0:0:0:
332,207,62552,6,0,L|361:311,1,100,14|0,0:0|0:0,0:0:0:0:
416,162,62885,2,0,L|388:57,1,100,6|0,0:0|0:0,0:0:0:0:
203,78,63219,1,8,0:0:0:0:
351,174,63385,1,0,0:0:0:0:
280,311,63552,6,0,L|356:233,1,100,2|0,0:0|0:0,0:0:0:0:
246,84,63886,1,8,0:0:0:0:
236,256,64052,1,0,0:0:0:0:
83,267,64219,6,0,L|188:294,1,100,2|0,0:0|0:0,0:0:0:0:
263,125,64552,1,8,0:0:0:0:
93,201,64718,1,0,0:0:0:0:
230,175,64885,1,0,0:0:0:0:
419,251,65052,1,0,0:0:0:0:
282,225,65219,1,8,0:0:0:0:
154,279,65385,1,0,0:0:0:0:
298,365,65552,5,14,0:0:0:0:
383,221,65719,1,0,0:0:0:0:
240,135,65885,1,8,0:0:0:0:
154,279,66052,1,0,0:0:0:0:
218,297,66218,5,14,0:0:0:0:
281,15,66385,1,0,0:0:0:0:
212,6,66552,5,8,0:0:0:0:
297,283,66719,1,0,0:0:0:0:
349,247,66885,5,14,0:0:0:0:
137,51,67052,1,0,0:0:0:0:
154,279,67219,1,4,0:0:0:0:
401,76,67386,1,0,0:0:0:0:
397,93,67469,1,0,0:0:0:0:
393,111,67552,5,14,0:0:0:0:
201,94,67719,1,12,0:0:0:0:
154,279,67885,1,12,0:0:0:0:
349,247,68052,1,12,0:0:0:0:
237,171,68219,6,0,L|117:164,1,120.000004577637,8|0,0:0|0:0,0:0:0:0:
201,94,68552,2,0,L|320:100,1,120.000004577637,8|0,0:0|0:0,0:0:0:0:
504,250,68885,2,0,L|384:243,1,120.000004577637,8|0,0:0|0:0,0:0:0:0:
300,173,69218,2,0,L|419:179,1,120.000004577637,8|0,0:0|0:0,0:0:0:0:
496,111,69552,5,10,0:0:0:0:
265,91,69719,1,0,0:0:0:0:
241,109,69802,1,0,0:0:0:0:
226,135,69885,1,0,0:0:0:0:
420,173,70052,1,0,0:0:0:0:
416,144,70135,1,0,0:0:0:0:
401,119,70219,1,2,0:0:0:0:
271,267,70385,1,0,0:0:0:0:
299,279,70468,1,0,0:0:0:0:
328,278,70552,5,8,0:0:0:0:
265,91,70719,1,8,0:0:0:0:
72,52,70885,2,0,L|81:172,1,120.000004577637,8|0,0:0|0:0,0:0:0:0:
184,353,71219,2,0,L|175:227,1,120.000004577637,8|0,0:0|0:0,0:0:0:0:
282,73,71551,2,0,L|291:193,1,120.000004577637,8|0,0:0|0:0,0:0:0:0:
394,374,71885,2,0,L|385:248,1,120.000004577637,8|0,0:0|0:0,0:0:0:0:
354,57,72219,5,10,0:0:0:0:
389,73,72302,1,0,0:0:0:0:
411,105,72385,1,0,0:0:0:0:
412,145,72468,1,0,0:0:0:0:
337,132,72552,5,10,0:0:0:0:
306,156,72635,1,0,0:0:0:0:
291,193,72718,1,0,0:0:0:0:
298,231,72801,1,0,0:0:0:0:
371,201,72885,5,10,0:0:0:0:
378,240,72968,1,8,0:0:0:0:
364,278,73051,1,0,0:0:0:0:
335,303,73134,1,0,0:0:0:0:
261,294,73219,5,10,0:0:0:0:
223,283,73302,1,0,0:0:0:0:
185,284,73385,1,0,0:0:0:0:
150,295,73468,1,0,0:0:0:0:
118,316,73552,6,0,L|246:322,1,120.000004577637,8|0,0:0|0:0,0:0:0:0:
377,234,73885,2,0,L|249:246,1,120.000004577637,8|0,0:0|0:0,0:0:0:0:
89,155,74219,2,0,L|217:161,1,120.000004577637,8|0,0:0|0:0,0:0:0:0:
348,73,74552,2,0,L|220:85,1,120.000004577637,8|0,0:0|0:0,0:0:0:0:
89,155,74885,5,10,0:0:0:0:
441,93,75052,1,0,2:0:0:0:
416,61,75135,1,0,2:0:0:0:
379,49,75218,1,0,2:0:0:0:
388,261,75385,1,0,2:0:0:0:
429,257,75468,1,0,2:0:0:0:
457,230,75551,1,2,2:0:0:0:
269,134,75718,1,0,2:0:0:0:
252,170,75801,1,0,2:0:0:0:
261,209,75884,1,8,2:0:0:0:
481,160,76052,1,8,2:0:0:0:
321,1,76219,5,14,2:0:0:0:
383,183,76386,1,0,0:0:0:0:
201,246,76552,1,0,0:0:0:0:
138,63,76719,1,0,2:0:0:0:
265,127,76885,5,14,2:0:0:0:
242,319,77051,1,0,0:0:0:0:
433,342,77218,1,0,0:0:0:0:
456,150,77385,1,0,2:0:0:0:
242,319,77552,5,14,0:0:0:0:
138,63,77719,1,0,2:0:0:0:
211,36,77885,5,14,2:0:0:0:
169,366,78052,1,0,0:0:0:0:
476,238,78219,1,14,2:0:0:0:
476,238,78552,6,0,B|490:297|490:297|472:278,1,80,4|0,0:0|0:0,0:0:0:0:
352,231,78885,2,0,P|360:179|393:138,1,100,6|0,0:0|0:0,0:0:0:0:
478,85,79219,1,8,0:0:0:0:
428,306,79385,1,0,0:0:0:0:
413,316,79469,1,0,0:0:0:0:
401,325,79552,2,0,P|351:339|300:320,1,100,2|0,0:0|0:0,0:0:0:0:
218,181,79886,1,8,0:0:0:0:
198,372,80052,1,0,0:0:0:0:
123,186,80219,6,0,P|170:170|219:180,1,100,2|0,0:0|0:0,0:0:0:0:
313,356,80553,1,8,0:0:0:0:
173,246,80719,1,0,0:0:0:0:
182,257,80802,1,0,0:0:0:0:
191,264,80885,2,0,P|243:266|288:237,1,100,0|0,0:0|0:0,0:0:0:0:
398,129,81219,1,8,0:0:0:0:
397,162,81302,1,0,0:0:0:0:
396,194,81385,1,0,0:0:0:0:
478,365,81552,6,0,P|492:317|474:271,1,100,2|0,0:0|0:0,0:0:0:0:
314,150,81885,1,8,0:0:0:0:
361,329,82052,1,0,0:0:0:0:
361,329,82135,1,0,0:0:0:0:
361,329,82219,6,0,P|317:348|258:347,1,100,2|0,0:0|0:0,0:0:0:0:
98,287,82552,1,8,0:0:0:0:
245,346,82719,1,0,0:0:0:0:
111,139,82886,6,0,P|157:149|203:184,1,100,2|0,0:0|0:0,0:0:0:0:
233,364,83219,1,8,0:0:0:0:
353,311,83385,1,0,0:0:0:0:
353,311,83469,1,0,0:0:0:0:
353,311,83552,1,2,0:0:0:0:
248,234,83719,1,8,0:0:0:0:
428,263,83885,1,10,0:0:0:0:
184,281,84052,1,0,0:0:0:0:
382,208,84219,6,0,P|416:192|474:206,1,100,2|0,0:0|0:0,0:0:0:0:
276,302,84552,1,8,0:0:0:0:
146,222,84719,1,0,0:0:0:0:
146,222,84802,1,0,0:0:0:0:
146,222,84885,2,0,P|136:184|160:131,1,100,2|0,0:0|0:0,0:0:0:0:
208,187,85218,1,8,0:0:0:0:
382,208,85385,1,0,0:0:0:0:
283,150,85552,6,0,P|252:127|235:70,1,100,2|0,0:0|0:0,0:0:0:0:
388,123,85885,1,8,0:0:0:0:
297,287,86052,1,0,0:0:0:0:
297,287,86135,1,0,0:0:0:0:
297,287,86219,5,2,0:0:0:0:
351,64,86385,1,0,0:0:0:0:
163,108,86552,2,0,L|186:178,1,50,10|0,0:0|0:0,0:0:0:0:
241,323,86718,1,0,0:0:0:0:
263,211,86885,5,10,0:0:0:0:
99,184,87052,1,0,0:0:0:0:
107,131,87219,5,8,0:0:0:0:
268,263,87386,1,0,0:0:0:0:
241,323,87552,5,10,0:0:0:0:
150,79,87719,1,0,0:0:0:0:
219,40,87885,5,8,0:0:0:0:
166,361,88052,1,0,0:0:0:0:
126,299,88219,5,10,0:0:0:0:
286,61,88386,1,0,0:0:0:0:
341,111,88552,5,8,0:0:0:0:
139,229,88719,1,0,0:0:0:0:
441,146,88885,1,8,0:0:0:0:
439,163,88968,1,0,0:0:0:0:
439,181,89052,1,10,0:0:0:0:
439,52,89219,6,0,P|440:69|408:61,1,60,4|0,0:0|0:0,0:0:0:0:
445,41,89552,2,0,P|411:50|324:45,1,120.000004577637,6|0,0:0|0:0,0:0:0:0:
166,121,89885,1,8,0:0:0:0:
56,9,90052,1,0,0:0:0:0:
41,19,90135,1,0,0:0:0:0:
30,26,90219,2,0,P|-3:75|-11:135,1,120.000004577637,2|0,2:0|2:0,0:0:0:0:
28,313,90552,1,8,2:0:0:0:
209,344,90719,1,0,2:0:0:0:
139,185,90885,6,0,P|121:235|136:289,1,105.000004005432,2|0,0:0|0:0,0:0:0:0:
309,356,91219,1,8,0:0:0:0:
318,161,91385,1,0,0:0:0:0:
316,174,91468,1,0,0:0:0:0:
314,189,91551,1,0,0:0:0:0:
207,343,91719,1,0,0:0:0:0:
421,261,91885,1,8,0:0:0:0:
434,253,91968,1,0,0:0:0:0:
447,248,92051,1,0,0:0:0:0:
246,254,92219,6,0,P|198:259|133:214,1,120.000004577637,2|0,0:0|0:0,0:0:0:0:
235,80,92552,1,8,0:0:0:0:
67,120,92719,1,0,0:0:0:0:
51,122,92802,1,0,0:0:0:0:
39,123,92885,2,0,L|64:249,1,120.000004577637,2|0,0:0|0:0,0:0:0:0:
46,363,93219,5,8,0:0:0:0:
195,300,93385,1,0,0:0:0:0:
225,132,93552,2,0,L|247:262,2,120.000004577637,2|0|8,0:0|0:0|0:0,0:0:0:0:
205,21,94052,1,0,0:0:0:0:
205,21,94135,1,0,0:0:0:0:
205,21,94219,1,2,0:0:0:0:
295,185,94385,1,8,0:0:0:0:
199,344,94552,1,10,0:0:0:0:
351,298,94719,1,0,0:0:0:0:
199,227,94885,6,0,P|186:274|203:352,1,120.000004577637,2|0,0:0|0:0,0:0:0:0:
291,230,95219,1,8,0:0:0:0:
436,262,95385,1,0,0:0:0:0:
436,262,95469,1,0,0:0:0:0:
435,261,95552,2,0,P|435:202|411:148,1,120.000004577637,2|0,0:0|0:0,0:0:0:0:
312,38,95885,1,8,0:0:0:0:
293,232,96052,1,0,0:0:0:0:
168,162,96219,6,0,P|156:104|169:46,1,120.000004577637,2|0,0:0|0:0,0:0:0:0:
368,56,96553,1,8,0:0:0:0:
226,107,96719,1,8,0:0:0:0:
230,121,96802,1,0,0:0:0:0:
234,134,96885,1,0,0:0:0:0:
339,162,97051,1,0,0:0:0:0:
450,191,97219,1,8,0:0:0:0:
446,205,97302,1,0,0:0:0:0:
442,218,97385,1,0,0:0:0:0:
237,297,97552,6,0,L|243:156,1,120.000004577637,14|0,0:0|0:0,0:0:0:0:
280,45,97885,1,8,0:0:0:0:
423,66,98052,1,0,0:0:0:0:
363,334,98219,6,0,L|328:197,1,120.000004577637,14|0,0:0|0:0,0:0:0:0:
269,97,98552,1,8,0:0:0:0:
125,148,98719,1,8,0:0:0:0:
286,254,98885,5,14,0:0:0:0:
174,24,99052,1,2,0:0:0:0:
32,237,99219,1,14,0:0:0:0:
181,176,99385,1,0,0:0:0:0:
181,176,99469,1,0,0:0:0:0:
181,176,99552,5,14,0:0:0:0:
393,348,99719,1,4,0:0:0:0:
322,85,99885,1,4,0:0:0:0:
224,339,100052,1,4,0:0:0:0:
452,191,100219,5,10,0:0:0:0:
164,302,100385,1,0,0:0:0:0:
127,230,100552,5,0,0:0:0:0:
432,278,100718,1,0,0:0:0:0:
372,343,100885,5,14,0:0:0:0:
132,149,101052,1,0,0:0:0:0:
176,81,101219,5,0,0:0:0:0:
287,369,101385,1,0,0:0:0:0:
380,139,101552,6,0,L|320:143,1,60.0000022888184,14|0,0:0|0:0,0:0:0:0:
256,280,101719,1,0,0:0:0:0:
132,149,101885,2,0,L|191:153,1,60.0000022888184,14|0,0:0|0:0,0:0:0:0:
254,290,102052,1,0,0:0:0:0:
208,61,102219,5,14,0:0:0:0:
149,47,102302,1,0,0:0:0:0:
90,54,102385,1,0,0:0:0:0:
37,82,102468,1,0,0:0:0:0:
79,122,102552,1,10,0:0:0:0:
115,106,102636,1,0,0:0:0:0:
155,103,102719,1,0,0:0:0:0:
193,112,102802,1,0,0:0:0:0:
132,149,102885,6,0,P|131:210|145:278,2,120.000004577637,4|0|8,0:0|0:0|0:0,0:0:0:0:
158,13,103385,1,0,0:0:0:0:
182,20,103469,1,0,0:0:0:0:
198,26,103552,5,0,0:0:0:0:
348,119,103719,1,0,0:0:0:0:
185,176,103885,2,0,P|130:195|65:186,1,120.000004577637,10|0,0:0|0:0,0:0:0:0:
232,83,104219,2,0,P|263:111|200:275,1,240.000009155274,2|8,0:0|0:0,0:0:0:0:
67,277,104719,1,2,0:0:0:0:
67,277,104802,1,0,0:0:0:0:
67,277,104885,5,0,0:0:0:0:
185,176,105052,1,0,0:0:0:0:
333,228,105219,1,8,0:0:0:0:
320,255,105302,1,0,0:0:0:0:
309,283,105385,1,0,0:0:0:0:
169,337,105552,6,0,P|114:311|66:276,2,120.000004577637,2|0|8,0:0|0:0|0:0,0:0:0:0:
387,341,106052,1,0,0:0:0:0:
407,335,106135,1,0,0:0:0:0:
423,331,106219,1,0,0:0:0:0:
474,171,106385,1,0,0:0:0:0:
343,72,106552,2,0,L|211:118,1,120.000004577637,10|0,0:0|0:0,0:0:0:0:
28,168,106885,6,0,B|31:236|31:236|63:309,2,120.000004577637,6|0|8,0:0|0:0|0:0,0:0:0:0:
159,231,107385,1,0,0:0:0:0:
168,248,107468,1,0,0:0:0:0:
178,265,107552,2,0,L|304:248,1,120.000004577637,6|0,0:0|0:0,0:0:0:0:
440,145,107885,2,0,L|321:165,1,120.000004577637,8|0,0:0|0:0,0:0:0:0:
166,331,108219,5,0,0:0:0:0:
201,251,108552,1,0,0:0:0:0:
190,147,108885,1,0,0:0:0:0:
139,76,109219,1,0,0:0:0:0:
373,76,109552,5,0,0:0:0:0:
322,147,109886,1,0,0:0:0:0:
311,251,110219,1,0,0:0:0:0:
346,331,110552,1,0,0:0:0:0:
