osu file format v14

[General]
AudioFilename: seiya-murai feat.ALT - Sumidagawa Karenka.mp3
AudioLeadIn: 0
PreviewTime: 76219
Countdown: 0
SampleSet: Soft
StackLeniency: 0.7
Mode: 0
LetterboxInBreaks: 0
StoryFireInFront: 0
WidescreenStoryboard: 1

[Editor]
DistanceSpacing: 0.5
BeatDivisor: 4
GridSize: 4
TimelineZoom: 3.299998

[Metadata]
Title:Sumidagawa Karenka
TitleUnicode:隅田川夏恋歌
Artist:seiya-murai feat. ALT
ArtistUnicode:seiya-murai feat. ALT
Creator:Nevo
Version:Remembrance
Source:jubeat ripples
Tags:Murai Seiya Video Game Japanese bemani donjuan wenect djulus walaowey affirmation greenhue kowari zhu Unranked Mapper
BeatmapID:1964460
BeatmapSetID:940601

[Difficulty]
HPDrainRate:6
CircleSize:4
OverallDifficulty:9
ApproachRate:9.3
SliderMultiplier:1.8
SliderTickRate:1

[Events]
//Background and Video events
0,0,"seiya-murai - Sumidagawa Karenka.jpg",0,0
//Break Periods
//Storyboard Layer 0 (Background)
//Storyboard Layer 1 (Fail)
//Storyboard Layer 2 (Pass)
//Storyboard Layer 3 (Foreground)
//Storyboard Sound Samples

[TimingPoints]
1564,337.0786516854,4,2,1,40,1,0
2881,333.3333333333,4,2,1,40,1,0
14880,-100,4,2,1,50,0,0
17214,-100,4,2,1,50,0,0
25547,-100,4,2,1,40,0,0
36214,-100,4,2,1,50,0,0
46880,-100,4,2,1,70,0,1
68214,-100,4,2,1,75,0,0
78214,-100,4,2,1,60,0,0
78880,-100,4,2,1,80,0,1
81547,-83.33333333333,4,2,1,80,0,1
89214,-100,4,2,1,80,0,0
89547,-83.33333333333,4,2,1,80,0,1
102880,-83.33333333333,4,2,1,60,0,0

[Colours]
Combo1 : 245,126,130
Combo2 : 242,210,102
Combo3 : 43,72,213

[HitObjects]
97,30,1564,5,2,0:2:0:0:
395,88,2069,1,2,0:2:0:0:
93,311,2575,1,2,0:2:0:0:
254,133,2881,5,4,0:2:0:0:
351,362,3380,1,4,0:2:0:0:
153,162,3880,1,0,3:2:0:0:
181,248,4047,1,0,3:2:0:0:
417,174,4214,6,0,B|340:170|340:170|319:186|319:186|224:181,1,180,6|0,0:2|0:0,0:0:0:0:
251,14,4714,1,2,1:2:0:0:
251,14,4797,1,2,0:2:0:0:
251,14,4880,2,0,P|279:59|285:112,1,90,2|0,0:2|0:0,0:0:0:0:
101,91,5214,2,0,L|222:80,1,90,8|2,0:2|1:2,0:0:0:0:
176,303,5547,1,2,1:2:0:0:
87,267,5714,1,2,1:2:0:0:
56,178,5880,1,2,0:2:0:0:
264,273,6047,6,0,L|456:256,1,180,2|2,1:2|1:2,0:0:0:0:
224,94,6547,1,10,0:2:0:0:
197,193,6714,1,0,0:2:0:0:
319,63,6880,6,0,L|531:48,1,180,2|0,1:2|0:0,0:0:0:0:
328,249,7380,1,2,1:2:0:0:
328,249,7464,1,2,0:2:0:0:
328,249,7547,2,0,B|297:238|239:249|270:285|204:294|144:267,1,180,2|8,0:2|0:2,0:0:0:0:
54,111,8047,1,2,0:0:0:0:
54,111,8130,1,0,0:0:0:0:
54,111,8214,6,0,P|67:152|76:214,1,90,2|2,1:2|0:0,0:0:0:0:
157,272,8464,1,0,0:0:0:0:
157,272,8547,2,0,P|170:231|179:169,1,90,2|2,0:0|1:2,0:0:0:0:
298,13,8880,1,2,0:0:0:0:
351,80,9047,1,0,0:0:0:0:
241,220,9214,1,10,0:2:0:0:
258,93,9380,1,10,0:2:0:0:
439,208,9547,6,0,P|370:195|267:277,1,180,2|0,1:2|0:0,0:0:0:0:
373,384,10047,1,2,1:2:0:0:
373,384,10130,1,2,0:2:0:0:
373,384,10214,2,0,L|379:277,1,90,2|0,0:2|0:0,0:0:0:0:
151,194,10547,2,0,L|157:301,1,90,8|2,0:2|1:2,0:0:0:0:
362,103,10880,1,2,1:2:0:0:
251,158,11047,1,2,1:2:0:0:
424,205,11214,1,2,0:2:0:0:
275,65,11380,6,0,B|150:44|150:44|99:61,1,180,2|2,1:2|1:2,0:0:0:0:
23,135,11880,1,10,0:2:0:0:
107,225,12047,1,8,0:2:0:0:
242,215,12214,6,0,P|289:187|427:183,1,180,2|0,1:2|0:0,0:0:0:0:
244,354,12714,1,2,1:2:0:0:
244,354,12797,1,2,0:2:0:0:
244,354,12880,2,0,L|124:346,1,90,2|0,0:2|0:0,0:0:0:0:
133,176,13214,2,0,P|155:223|157:269,1,90,8|2,0:2|0:0,0:0:0:0:
86,307,13464,1,0,0:0:0:0:
86,307,13547,5,2,1:2:0:0:
23,135,13714,1,2,0:0:0:0:
23,135,13797,1,0,0:0:0:0:
23,135,13880,1,2,0:0:0:0:
236,232,14047,1,2,1:2:0:0:
46,219,14214,1,2,0:0:0:0:
133,176,14380,1,0,0:0:0:0:
231,335,14547,1,10,0:2:0:0:
263,109,14714,1,10,0:2:0:0:
24,35,14880,6,0,B|86:7|139:27|120:44|166:62|221:29,1,180,2|10,1:2|0:2,0:0:0:0:
412,57,15380,2,0,P|339:44|257:131,1,180,2|0,1:2|0:2,0:0:0:0:
360,238,15880,2,0,L|364:118,1,90,10|0,0:2|1:2,0:0:0:0:
212,308,16214,6,0,B|245:281|295:289|295:289|318:315|357:321,1,135,2|0,1:2|0:0,0:0:0:0:
360,238,16547,1,10,0:2:0:0:
197,335,16714,2,0,B|236:302|295:312|295:312|322:343|368:350,1,180,2|0,1:2|1:2,0:0:0:0:
88,183,17214,2,0,B|-17:167|-17:167,1,90,10|0,0:2|0:0,0:0:0:0:
188,226,17547,6,0,P|188:157|171:95,1,90,2|0,1:2|0:2,0:0:0:0:
131,47,17880,1,10,0:2:0:0:
298,140,18047,1,2,1:2:0:0:
298,140,18130,1,0,0:0:0:0:
298,140,18214,2,0,P|343:147|440:54,1,180,0|10,0:0|0:2,0:0:0:0:
227,43,18714,1,0,1:2:0:0:
426,162,18880,6,0,L|409:336,1,135,2|0,1:2|0:0,0:0:0:0:
362,358,19214,1,10,0:2:0:0:
229,257,19380,2,0,B|179:237|129:254|151:282|93:299|21:274,1,180,2|0,1:2|1:2,0:0:0:0:
282,185,19880,1,10,0:2:0:0:
193,331,20047,1,10,0:2:0:0:
83,200,20214,6,0,B|54:149|54:149|72:7,1,180,2|10,1:2|0:2,0:0:0:0:
301,131,20714,2,0,P|214:168|141:122,1,180,2|0,1:2|0:2,0:0:0:0:
321,29,21214,1,10,0:2:0:0:
421,133,21380,1,0,1:2:0:0:
366,283,21547,6,0,L|242:272,1,90,2|0,1:2|0:2,0:0:0:0:
46,196,21880,1,10,0:2:0:0:
136,340,22047,1,2,1:2:0:0:
180,119,22214,1,0,0:0:0:0:
44,305,22380,1,0,1:2:0:0:
44,305,22464,1,0,0:0:0:0:
44,305,22547,1,10,0:2:0:0:
231,266,22714,1,0,1:2:0:0:
77,108,22880,5,10,0:0:0:0:
300,82,23047,1,2,1:2:0:0:
91,137,23214,5,10,0:0:0:0:
299,54,23381,1,2,1:2:0:0:
112,161,23547,5,10,0:0:0:0:
291,27,23714,1,2,1:2:0:0:
138,179,23880,5,10,0:0:0:0:
277,3,24047,1,2,1:2:0:0:
168,189,24214,5,2,1:2:0:0:
175,225,24297,1,2,1:2:0:0:
179,265,24380,1,2,1:2:0:0:
319,348,24547,1,10,0:2:0:0:
465,260,24714,1,10,0:2:0:0:
436,104,24880,2,0,L|327:110,1,90,0|0,0:0|1:0,0:0:0:0:
160,57,25214,1,10,0:2:0:0:
325,212,25380,1,2,0:2:0:0:
54,179,25547,6,0,P|115:156|247:173,1,180,6|8,1:2|0:2,0:0:0:0:
386,286,26047,1,2,1:2:0:0:
392,305,26130,1,2,0:2:0:0:
397,321,26214,2,0,L|399:195,1,90,2|0,0:2|0:0,0:0:0:0:
331,25,26547,1,8,0:2:0:0:
227,164,26714,1,2,1:2:0:0:
290,328,26880,5,2,1:2:0:0:
344,184,27047,1,2,0:2:0:0:
366,187,27130,1,2,0:2:0:0:
383,188,27214,1,10,0:2:0:0:
250,248,27380,2,0,P|187:246|66:298,1,180,2|2,1:2|1:2,0:0:0:0:
0,345,27880,1,10,0:2:0:0:
55,117,28047,1,2,1:2:0:0:
250,248,28214,6,0,B|294:278|294:278|435:253,1,180,2|8,1:2|0:2,0:0:0:0:
187,165,28714,1,2,1:2:0:0:
187,165,28797,1,2,0:2:0:0:
187,165,28880,2,0,P|156:222|215:344,1,180,2|8,0:2|0:2,0:0:0:0:
305,74,29380,1,2,1:2:0:0:
250,248,29547,5,2,1:2:0:0:
69,146,29714,1,2,0:2:0:0:
69,146,29797,1,2,0:0:0:0:
69,146,29880,1,10,0:2:0:0:
196,57,30047,1,2,1:2:0:0:
132,338,30214,1,2,0:2:0:0:
164,162,30380,1,0,1:2:0:0:
369,247,30547,1,10,0:2:0:0:
305,74,30714,1,10,0:2:0:0:
238,379,30880,6,0,P|234:300|245:164,1,180,2|8,1:2|0:2,0:0:0:0:
456,149,31380,1,2,1:2:0:0:
456,149,31464,1,2,0:0:0:0:
456,149,31547,2,0,P|408:153|347:165,1,90,2|0,0:2|0:0,0:0:0:0:
172,73,31880,2,0,P|220:77|281:89,1,90,8|2,0:2|1:2,0:0:0:0:
121,251,32214,5,2,1:2:0:0:
43,103,32380,1,2,0:2:0:0:
220,251,32547,1,10,0:2:0:0:
174,338,32714,1,2,1:2:0:0:
130,150,32880,1,0,0:2:0:0:
319,220,33047,1,2,1:2:0:0:
83,312,33214,2,0,L|66:206,1,90,10|2,0:2|1:2,0:0:0:0:
243,62,33547,6,0,L|226:168,1,90,2|0,1:2|0:0,0:0:0:0:
276,344,33880,1,8,0:2:0:0:
405,206,34047,1,2,1:2:0:0:
405,206,34130,1,2,0:2:0:0:
405,206,34214,2,0,P|360:203|318:219,1,90,2|0,0:2|0:0,0:0:0:0:
125,288,34547,1,8,0:2:0:0:
379,308,34714,1,2,1:2:0:0:
152,125,34880,5,2,1:2:0:0:
217,303,35047,1,2,0:2:0:0:
390,116,35214,1,10,0:2:0:0:
297,114,35380,1,2,1:2:0:0:
339,292,35547,2,0,P|350:212|343:184,1,90,2|0,0:2|1:2,0:0:0:0:
188,46,35880,1,10,0:2:0:0:
263,238,36047,1,2,1:2:0:0:
390,116,36214,5,6,1:2:0:0:
297,114,36380,1,2,0:2:0:0:
218,145,36547,1,10,0:2:0:0:
167,218,36713,1,2,0:2:0:0:
402,106,36880,5,2,1:2:0:0:
298,101,37047,1,2,0:2:0:0:
210,136,37214,1,10,0:2:0:0:
153,224,37380,1,2,0:2:0:0:
332,366,37547,6,0,P|347:301|346:165,1,180,2|10,1:2|0:2,0:0:0:0:
439,311,38047,1,2,0:2:0:0:
249,149,38214,2,0,P|256:215|269:253,1,90,2|2,1:2|0:2,0:0:0:0:
434,120,38547,1,10,0:2:0:0:
337,88,38714,1,2,0:2:0:0:
355,270,38880,6,0,L|364:163,1,90,2|2,1:2|0:2,0:0:0:0:
167,42,39214,1,10,0:2:0:0:
249,149,39380,1,2,0:2:0:0:
249,149,39464,1,0,0:0:0:0:
249,149,39547,1,2,1:2:0:0:
64,135,39714,1,2,0:2:0:0:
228,247,39880,1,10,0:2:0:0:
51,260,40047,1,2,0:2:0:0:
224,349,40214,5,2,1:2:0:0:
44,379,40380,1,2,0:2:0:0:
133,196,40547,1,10,0:2:0:0:
304,308,40714,1,2,0:2:0:0:
217,122,40880,1,2,1:2:0:0:
138,296,41047,1,2,0:2:0:0:
376,179,41214,1,10,0:2:0:0:
218,10,41380,1,2,0:2:0:0:
282,242,41547,6,0,P|287:174|327:36,1,180,2|10,1:2|0:2,0:0:0:0:
251,331,42047,2,0,P|246:263|206:125,1,180,2|2,0:2|0:2,0:0:0:0:
24,183,42547,1,10,0:2:0:0:
167,239,42714,1,2,0:2:0:0:
111,63,42880,6,0,L|116:152,1,90,2|2,1:2|0:2,0:0:0:0:
227,328,43214,1,10,0:2:0:0:
313,161,43380,1,2,0:2:0:0:
379,366,43547,2,0,L|384:276,1,90,2|2,1:2|0:2,0:0:0:0:
210,114,43880,2,0,L|215:203,1,90,10|2,0:2|0:2,0:0:0:0:
410,179,44214,5,10,0:2:0:0:
227,328,44380,1,2,1:2:0:0:
401,139,44547,5,10,0:2:0:0:
263,330,44713,1,2,1:2:0:0:
382,103,44881,5,10,0:2:0:0:
298,323,45047,1,2,1:2:0:0:
354,73,45214,5,10,0:2:0:0:
330,307,45380,1,2,1:2:0:0:
319,51,45548,5,2,1:2:0:0:
310,28,45630,1,2,1:2:0:0:
300,7,45714,1,2,1:2:0:0:
92,171,45880,1,10,0:2:0:0:
287,138,46047,1,10,0:2:0:0:
47,63,46214,1,10,0:2:0:0:
165,247,46547,2,0,L|285:239,1,90,4|0,3:2|0:2,0:0:0:0:
434,199,46880,5,6,1:2:0:0:
344,189,47047,1,2,0:2:0:0:
440,187,47214,5,10,0:2:0:0:
350,200,47381,1,2,0:2:0:0:
442,173,47547,5,2,1:2:0:0:
359,209,47714,1,2,0:2:0:0:
441,159,47880,5,10,0:2:0:0:
369,215,48047,1,2,0:2:0:0:
435,146,48213,5,6,1:2:0:0:
382,219,48380,1,2,0:2:0:0:
426,134,48547,5,10,0:2:0:0:
393,219,48714,1,2,0:2:0:0:
415,125,48880,5,2,1:2:0:0:
406,215,49047,1,2,0:2:0:0:
403,119,49213,5,10,0:2:0:0:
415,210,49380,1,2,0:2:0:0:
389,115,49547,6,0,P|324:90|233:99,1,135,2|0,1:2|0:0,0:0:0:0:
149,130,49880,1,10,0:2:0:0:
308,176,50047,1,10,0:2:0:0:
81,253,50214,6,0,P|146:228|237:237,1,135,2|0,1:2|0:0,0:0:0:0:
321,268,50547,1,10,0:2:0:0:
159,316,50714,1,10,0:2:0:0:
408,199,50880,6,0,L|383:386,1,180,2|8,1:2|0:2,0:0:0:0:
508,192,51380,1,2,1:2:0:0:
501,166,51464,1,2,1:2:0:0:
495,142,51547,2,0,L|479:66,1,45,2|0,1:2|0:0,0:0:0:0:
414,32,51714,1,10,0:2:0:0:
280,125,51880,2,0,L|166:116,1,90,8|0,0:2|1:2,0:0:0:0:
34,37,52214,5,6,1:2:0:0:
54,136,52381,1,2,0:2:0:0:
47,30,52548,5,10,0:2:0:0:
42,130,52715,1,2,0:2:0:0:
62,26,52881,5,2,1:2:0:0:
31,121,53048,1,2,0:2:0:0:
78,26,53214,5,10,0:2:0:0:
23,111,53381,1,2,0:2:0:0:
193,251,53547,5,6,1:2:0:0:
188,123,53714,1,2,0:2:0:0:
147,326,53880,5,10,0:2:0:0:
269,184,54047,1,2,0:2:0:0:
227,372,54214,5,2,1:2:0:0:
103,198,54380,1,2,0:2:0:0:
103,198,54464,1,0,0:2:0:0:
103,198,54547,1,10,0:2:0:0:
281,275,54714,1,2,0:2:0:0:
32,351,54880,5,14,0:2:0:0:
345,324,55047,1,0,1:2:0:0:
103,198,55214,5,10,0:2:0:0:
383,237,55380,1,2,1:2:0:0:
28,273,55547,5,14,0:2:0:0:
350,162,55714,1,0,1:2:0:0:
143,101,55880,5,10,0:2:0:0:
221,350,56047,1,2,1:2:0:0:
292,45,56214,5,14,1:2:0:0:
274,274,56380,1,0,1:2:0:0:
61,165,56547,5,10,0:2:0:0:
383,237,56714,1,0,1:2:0:0:
111,333,56880,5,2,1:2:0:0:
111,333,56964,1,2,1:2:0:0:
111,333,57047,1,2,1:2:0:0:
196,26,57214,2,0,L|209:137,1,90,8|0,3:2|0:2,0:0:0:0:
272,291,57547,5,6,1:2:0:0:
418,171,57713,1,2,0:2:0:0:
279,323,57880,5,10,0:2:0:0:
390,169,58046,1,2,0:2:0:0:
294,352,58214,5,2,1:2:0:0:
361,175,58380,1,2,0:2:0:0:
316,376,58547,5,10,0:2:0:0:
336,188,58713,1,2,0:2:0:0:
180,312,58880,5,2,1:2:0:0:
101,139,59046,1,2,0:2:0:0:
212,312,59213,5,10,0:2:0:0:
92,165,59379,1,2,0:2:0:0:
243,306,59547,5,2,1:2:0:0:
90,195,59713,1,10,0:2:0:0:
272,291,59880,5,10,0:2:0:0:
96,223,60046,1,2,0:2:0:0:
293,94,60214,6,0,P|358:64|442:71,1,135,2|0,1:2|0:0,0:0:0:0:
499,128,60547,1,8,0:2:0:0:
249,191,60714,1,8,0:2:0:0:
468,282,60880,6,0,P|403:252|319:259,1,135,2|0,1:2|0:0,0:0:0:0:
262,316,61213,1,10,0:2:0:0:
512,379,61380,1,10,0:2:0:0:
381,162,61547,6,0,L|393:348,1,180,2|8,1:2|0:2,0:0:0:0:
233,170,62047,1,2,1:2:0:0:
239,148,62130,1,2,1:2:0:0:
245,129,62214,2,0,L|257:84,1,45,2|0,1:2|0:0,0:0:0:0:
329,34,62380,1,2,0:2:0:0:
139,13,62547,2,0,L|156:111,1,90,10|0,0:2|0:2,0:0:0:0:
119,260,62880,5,6,1:2:0:0:
339,159,63047,1,2,0:2:0:0:
109,231,63214,5,10,0:2:0:0:
347,190,63381,1,2,0:2:0:0:
106,200,63547,5,2,1:2:0:0:
347,222,63714,1,2,0:2:0:0:
111,169,63880,5,10,0:2:0:0:
338,253,64047,1,2,0:2:0:0:
67,317,64214,5,2,1:2:0:0:
151,90,64381,1,2,0:2:0:0:
97,326,64547,5,10,0:2:0:0:
120,85,64714,1,2,0:2:0:0:
130,326,64880,5,2,1:2:0:0:
89,88,65047,1,10,0:2:0:0:
161,318,65214,5,10,0:2:0:0:
60,98,65381,1,2,0:2:0:0:
407,276,65547,6,0,L|236:263,1,135,14|0,0:2|0:0,0:0:0:0:
83,331,65880,1,10,0:2:0:0:
323,384,66047,1,2,1:2:0:0:
29,102,66214,6,0,L|200:89,1,135,14|0,1:2|0:0,0:0:0:0:
353,157,66547,1,10,0:2:0:0:
113,210,66714,1,2,1:2:0:0:
319,41,66880,5,6,1:2:0:0:
183,331,67047,1,0,0:2:0:0:
150,103,67214,1,14,0:2:0:0:
307,350,67380,1,4,1:2:0:0:
307,350,67464,1,0,1:2:0:0:
307,350,67547,1,0,1:2:0:0:
226,36,67714,1,2,1:2:0:0:
419,222,67880,1,10,1:2:0:0:
457,36,68047,1,2,1:2:0:0:
163,105,68214,6,0,P|87:94|52:100,1,90,2|0,1:2|0:2,0:0:0:0:
277,280,68547,2,0,P|201:291|166:285,1,90,10|0,0:2|0:2,0:0:0:0:
391,105,68880,2,0,P|315:94|280:100,1,90,2|0,1:2|0:2,0:0:0:0:
505,280,69214,2,0,P|429:291|394:285,1,90,10|0,0:2|0:2,0:0:0:0:
84,103,69547,6,0,P|114:59|167:27,1,90,2|2,1:2|0:2,0:0:0:0:
155,353,69880,2,0,P|120:325|95:288,1,90,10|2,0:2|0:2,0:0:0:0:
408,281,70214,2,0,P|384:318|349:346,1,90,2|2,1:2|0:2,0:0:0:0:
347,40,70547,2,0,P|382:68|407:106,1,90,10|0,0:2|0:2,0:0:0:0:
219,222,70880,6,0,L|232:133,1,90,2|0,1:2|0:2,0:0:0:0:
501,293,71214,2,0,L|488:203,1,90,10|0,0:2|0:2,0:0:0:0:
132,260,71547,2,0,L|145:171,1,90,2|0,1:2|0:2,0:0:0:0:
414,331,71881,2,0,L|401:241,1,90,10|0,0:2|0:2,0:0:0:0:
197,61,72214,5,2,1:2:0:0:
450,90,72380,1,2,0:2:0:0:
158,202,72547,1,10,0:2:0:0:
393,190,72714,1,2,0:2:0:0:
170,351,72880,1,2,1:2:0:0:
170,351,72964,1,2,1:2:0:0:
170,351,73047,1,2,0:2:0:0:
433,319,73214,1,10,1:2:0:0:
433,319,73297,1,2,1:2:0:0:
433,319,73380,1,2,0:2:0:0:
133,122,73547,6,0,L|9:126,1,90,2|0,1:2|0:2,0:0:0:0:
272,25,73880,2,0,L|396:29,1,90,10|0,0:2|0:2,0:0:0:0:
239,249,74214,1,2,1:2:0:0:
203,98,74380,1,0,0:2:0:0:
329,309,74547,1,10,0:2:0:0:
356,137,74714,1,0,0:2:0:0:
172,312,74880,6,0,L|71:305,1,90,2|2,1:2|0:2,0:0:0:0:
266,143,75214,2,0,L|367:136,1,90,10|2,0:2|0:2,0:0:0:0:
94,60,75547,1,2,1:2:0:0:
152,215,75714,1,2,0:2:0:0:
273,0,75880,1,10,0:2:0:0:
266,143,76047,1,2,0:2:0:0:
51,145,76214,5,6,1:2:0:0:
49,251,76380,1,2,0:2:0:0:
131,318,76547,1,10,0:2:0:0:
233,318,76714,1,2,0:2:0:0:
32,146,76880,5,6,1:2:0:0:
29,261,77046,1,2,0:2:0:0:
119,334,77213,1,10,0:2:0:0:
230,334,77380,1,2,0:2:0:0:
202,80,77547,5,14,0:2:0:0:
143,225,77714,1,2,1:2:0:0:
283,12,77880,1,14,0:2:0:0:
376,248,78047,1,6,1:2:0:0:
57,44,78214,1,6,1:2:0:0:
464,141,78547,2,0,L|356:126,1,90,12|0,0:2|0:0,0:0:0:0:
119,121,78880,5,2,1:2:0:0:
425,41,79047,1,2,0:2:0:0:
141,208,79214,5,10,0:2:0:0:
321,10,79380,1,2,0:2:0:0:
321,10,79464,1,10,0:2:0:0:
321,10,79547,5,2,1:2:0:0:
208,275,79714,1,2,0:2:0:0:
204,14,79880,5,10,0:2:0:0:
342,266,80047,1,2,0:2:0:0:
119,121,80214,5,2,1:2:0:0:
389,105,80380,1,2,0:2:0:0:
254,353,80547,1,10,0:2:0:0:
209,105,80714,1,2,0:2:0:0:
209,105,80797,1,10,0:2:0:0:
209,105,80880,1,2,1:2:0:0:
447,303,81047,5,2,0:2:0:0:
130,339,81214,1,10,0:2:0:0:
130,339,81297,1,2,1:2:0:0:
130,339,81380,1,2,0:2:0:0:
264,19,81547,6,0,B|303:61|303:61|299:191,1,161.9999950562,2|0,1:2|0:0,0:0:0:0:
258,254,81880,1,10,0:2:0:0:
53,130,82047,1,2,0:2:0:0:
53,130,82130,1,10,0:2:0:0:
53,130,82214,6,0,B|95:91|95:91|225:95,1,161.9999950562,2|0,1:2|0:0,0:0:0:0:
321,102,82547,1,10,0:2:0:0:
124,188,82714,1,2,0:2:0:0:
413,302,82880,6,0,P|341:282|170:315,1,215.9999934082,2|8,1:2|0:2,0:0:0:0:
0,230,83380,1,0,1:2:0:0:
0,230,83464,1,8,0:2:0:0:
0,230,83547,1,0,1:2:0:0:
219,143,83714,1,2,0:2:0:0:
133,348,83880,2,0,L|120:231,1,107.9999967041,10|0,0:2|0:2,0:0:0:0:
58,60,84214,5,2,1:2:0:0:
358,149,84380,1,2,0:2:0:0:
121,240,84547,1,10,0:2:0:0:
196,13,84714,1,2,0:2:0:0:
196,13,84797,1,10,0:2:0:0:
196,13,84880,1,2,1:2:0:0:
274,288,85047,1,2,0:2:0:0:
284,77,85214,1,10,0:2:0:0:
46,168,85380,1,2,0:2:0:0:
381,279,85547,5,2,1:2:0:0:
19,264,85713,1,2,0:2:0:0:
284,77,85880,1,10,0:2:0:0:
261,359,86047,1,2,0:2:0:0:
261,359,86130,1,10,0:2:0:0:
261,359,86213,1,2,1:2:0:0:
148,106,86380,1,2,0:2:0:0:
404,165,86547,1,10,0:2:0:0:
404,165,86630,1,2,1:2:0:0:
404,165,86714,1,2,0:2:0:0:
148,328,86880,6,0,L|128:209,1,107.9999967041,10|0,0:2|1:2,0:0:0:0:
327,54,87214,1,10,0:2:0:0:
44,87,87380,1,2,1:2:0:0:
235,265,87547,6,0,L|252:158,1,107.9999967041,10|0,0:2|1:2,0:0:0:0:
114,0,87880,1,10,0:2:0:0:
432,55,88046,1,2,1:2:0:0:
357,334,88213,6,0,L|339:227,1,107.9999967041,2|0,1:2|0:2,0:0:0:0:
512,110,88547,1,10,0:2:0:0:
215,165,88714,1,0,0:2:0:0:
447,274,88880,1,2,1:2:0:0:
447,274,88964,1,2,1:2:0:0:
447,274,89047,1,2,1:2:0:0:
344,61,89214,2,0,L|229:68,1,90,10|0,0:2|0:2,0:0:0:0:
28,157,89547,5,2,1:2:0:0:
215,165,89714,1,2,0:2:0:0:
43,134,89880,5,10,0:2:0:0:
220,190,90047,2,0,L|294:183,1,53.99999835205,2|10,0:2|0:2,0:0:0:0:
451,123,90214,5,2,1:2:0:0:
381,306,90381,1,2,0:2:0:0:
302,76,90547,5,10,0:2:0:0:
419,220,90714,1,2,0:2:0:0:
479,17,90880,5,2,1:2:0:0:
334,180,91047,1,2,0:2:0:0:
212,20,91214,5,10,0:2:0:0:
412,91,91380,1,2,0:2:0:0:
412,91,91464,1,10,0:2:0:0:
412,91,91547,5,2,1:2:0:0:
201,219,91714,1,2,0:2:0:0:
391,305,91880,1,10,0:2:0:0:
391,305,91964,1,2,1:2:0:0:
391,305,92047,1,2,0:2:0:0:
175,356,92214,6,0,L|163:189,1,161.9999950562,2|0,1:2|0:0,0:0:0:0:
101,84,92547,1,10,0:2:0:0:
75,366,92714,1,2,0:2:0:0:
75,366,92797,1,10,0:2:0:0:
75,366,92880,6,0,L|63:199,1,161.9999950562,2|0,1:2|0:0,0:0:0:0:
1,94,93213,1,10,0:2:0:0:
205,270,93380,1,2,0:2:0:0:
244,96,93547,6,0,P|297:77|410:94,1,161.9999950562,2|0,1:2|0:0,0:0:0:0:
423,165,93880,1,10,0:2:0:0:
244,347,94047,1,2,1:2:0:0:
244,347,94130,1,10,1:2:0:0:
244,347,94214,1,2,1:2:0:0:
463,284,94380,1,2,0:2:0:0:
135,157,94547,2,0,L|127:271,1,107.9999967041,10|0,0:2|0:2,0:0:0:0:
234,71,94880,5,2,1:2:0:0:
40,87,95047,1,2,0:2:0:0:
228,250,95214,5,10,0:2:0:0:
133,57,95380,1,2,0:2:0:0:
133,57,95464,1,10,0:2:0:0:
133,57,95547,1,2,1:2:0:0:
398,60,95714,1,2,0:2:0:0:
332,251,95880,5,10,0:2:0:0:
261,31,96047,1,2,0:2:0:0:
452,288,96214,5,2,1:2:0:0:
228,250,96380,1,2,0:2:0:0:
453,177,96547,5,10,0:2:0:0:
258,348,96714,1,2,0:2:0:0:
258,348,96797,1,10,0:2:0:0:
258,348,96880,1,2,1:2:0:0:
47,181,97047,1,2,0:2:0:0:
317,148,97214,5,10,0:2:0:0:
317,148,97297,1,2,1:2:0:0:
317,148,97380,1,2,0:2:0:0:
67,305,97547,5,10,0:2:0:0:
102,58,97714,1,0,1:2:0:0:
258,348,97880,1,10,0:2:0:0:
197,121,98047,1,2,1:2:0:0:
162,368,98214,5,10,0:2:0:0:
6,78,98380,1,0,1:2:0:0:
325,194,98547,1,10,0:2:0:0:
67,305,98714,1,2,1:2:0:0:
279,60,98880,6,0,L|410:68,1,107.9999967041,10|2,0:2|1:2,0:0:0:0:
200,265,99214,1,10,0:2:0:0:
134,49,99380,1,2,1:2:0:0:
405,153,99547,1,10,0:2:0:0:
351,335,99714,1,2,1:2:0:0:
343,359,99797,1,0,0:0:0:0:
336,384,99880,2,0,L|316:290,1,53.99999835205,10|10,0:2|0:2,0:0:0:0:
200,265,100047,2,0,L|220:171,1,53.99999835205,10|0,0:2|0:0,0:0:0:0:
376,126,100214,5,14,0:2:0:0:
105,194,100380,1,0,1:2:0:0:
217,43,100547,1,10,0:2:0:0:
284,290,100714,1,2,1:2:0:0:
397,167,100880,5,14,0:2:0:0:
83,161,101046,1,0,1:2:0:0:
248,30,101213,1,10,0:2:0:0:
249,318,101380,1,2,1:2:0:0:
407,216,101547,5,6,1:2:0:0:
407,216,101630,1,2,1:2:0:0:
407,216,101714,1,2,1:2:0:0:
69,118,101881,1,10,0:2:0:0:
69,118,101964,1,10,0:2:0:0:
69,118,102047,1,10,0:2:0:0:
286,25,102214,1,8,0:2:0:0:
322,64,102297,1,8,0:2:0:0:
334,116,102380,1,8,0:2:0:0:
319,167,102463,1,8,0:2:0:0:
280,203,102547,1,8,0:2:0:0:
243,242,102630,1,8,0:2:0:0:
231,294,102713,1,8,0:2:0:0:
246,345,102796,1,8,0:2:0:0:
285,381,102880,6,0,L|404:366,1,107.9999967041,6|2,1:2|0:2,0:0:0:0:
218,119,103214,2,0,L|99:103,1,107.9999967041,10|2,0:2|0:2,0:0:0:0:
110,104,103464,1,10,0:2:0:0:
110,104,103547,1,2,1:2:0:0:
150,253,103714,1,2,0:2:0:0:
319,167,103880,2,0,L|440:164,1,107.9999967041,10|2,0:2|0:2,0:0:0:0:
203,301,104214,6,0,L|188:177,1,107.9999967041,2|2,1:2|0:2,0:0:0:0:
370,356,104547,2,0,L|385:232,1,107.9999967041,10|2,0:2|0:2,0:0:0:0:
426,164,104797,1,10,0:2:0:0:
426,164,104880,2,0,L|411:40,1,107.9999967041,2|2,1:2|0:2,0:0:0:0:
111,100,105214,1,10,0:2:0:0:
111,100,105297,1,2,1:2:0:0:
111,100,105380,1,2,0:2:0:0:
312,195,105547,6,0,P|254:178|193:183,1,107.9999967041,2|2,1:2|0:2,0:0:0:0:
37,266,105880,2,0,P|90:266|142:250,1,107.9999967041,10|2,0:2|0:2,0:0:0:0:
206,179,106130,1,10,0:2:0:0:
206,179,106214,2,0,L|197:52,1,107.9999967041,2|2,1:2|0:2,0:0:0:0:
386,271,106547,2,0,L|377:398,1,107.9999967041,10|2,0:2|0:2,0:0:0:0:
70,169,106880,5,2,1:2:0:0:
344,159,107047,1,2,0:2:0:0:
167,290,107214,1,10,0:2:0:0:
138,70,107380,1,2,0:2:0:0:
138,70,107464,1,10,0:2:0:0:
138,70,107547,1,2,1:2:0:0:
279,254,107714,1,2,0:2:0:0:
27,341,107880,1,10,0:2:0:0:
319,27,108214,5,2,0:2:0:0:
361,50,108547,5,2,0:2:0:0:
253,135,108880,5,2,0:2:0:0:
335,227,109214,5,2,0:2:0:0:
160,318,109547,5,2,0:2:0:0:
412,314,109880,5,2,0:2:0:0:
140,143,110214,5,2,0:2:0:0:
436,11,110547,5,2,0:2:0:0:
