osu file format v14

[General]
AudioFilename: seiya-murai feat.ALT - Sumidagawa Karenka.mp3
AudioLeadIn: 0
PreviewTime: 76219
Countdown: 0
SampleSet: Soft
StackLeniency: 0.7
Mode: 0
LetterboxInBreaks: 0
StoryFireInFront: 0
WidescreenStoryboard: 1

[Editor]
DistanceSpacing: 1.3
BeatDivisor: 4
GridSize: 8
TimelineZoom: 1.999999

[Metadata]
Title:Sumidagawa Karenka
TitleUnicode:隅田川夏恋歌
Artist:seiya-murai feat. ALT
ArtistUnicode:seiya-murai feat. ALT
Creator:Nevo
Version:GreenHue's Insane
Source:jubeat ripples
Tags:Murai Seiya Video Game Japanese bemani donjuan wenect djulus walaowey affirmation greenhue kowari zhu Unranked Mapper
BeatmapID:1987964
BeatmapSetID:940601

[Difficulty]
HPDrainRate:6
CircleSize:4
OverallDifficulty:8
ApproachRate:9
SliderMultiplier:1.8
SliderTickRate:1

[Events]
//Background and Video events
0,0,"seiya-murai - Sumidagawa Karenka.jpg",0,0
//Break Periods
//Storyboard Layer 0 (Background)
//Storyboard Layer 1 (Fail)
//Storyboard Layer 2 (Pass)
//Storyboard Layer 3 (Foreground)
//Storyboard Sound Samples

[TimingPoints]
1564,337.0786516854,4,2,1,40,1,0
1564,-200,4,2,1,50,0,0
2881,333.3333333333,4,2,1,40,1,0
2881,-125,4,2,1,50,0,0
14880,-125,4,2,1,50,0,0
25547,-125,4,2,1,40,0,0
36214,-125,4,2,1,50,0,0
46880,-125,4,2,1,70,0,0
57214,-250,4,2,1,70,0,0
57547,-125,4,2,1,70,0,0
68214,-125,4,2,1,75,0,0
78214,-125,4,2,1,60,0,0
78547,-250,4,2,1,60,0,0
78880,-100,4,2,1,80,0,0
89214,-250,4,2,1,80,0,0
89547,-100,4,2,1,80,0,0
102880,-100,4,2,1,60,0,0

[Colours]
Combo1 : 226,226,226
Combo2 : 35,128,197
Combo3 : 241,183,143
Combo4 : 240,166,238

[HitObjects]
159,144,1564,6,0,B|82:136|111:173|27:164,2,135,2|2|2,0:2|0:2|0:2,0:0:0:0:
49,72,2881,1,0,0:0:0:0:
50,80,3380,1,4,0:2:0:0:
213,18,3880,1,0,3:2:0:0:
209,46,4047,1,0,3:2:0:0:
271,128,4214,5,6,0:2:0:0:
266,138,4714,2,0,P|266:166|270:188,2,36,2|2|2,1:2|0:2|0:2,0:0:0:0:
409,20,5214,2,0,L|396:106,1,72,8|2,0:2|1:2,0:0:0:0:
460,164,5547,5,2,1:2:0:0:
460,164,5714,1,2,1:2:0:0:
420,90,5880,1,2,0:2:0:0:
356,187,6047,2,0,P|383:260|411:340,1,144,2|2,1:2|1:2,0:0:0:0:
277,260,6547,2,0,P|312:260|345:274,1,72,10|0,0:2|0:2,0:0:0:0:
413,348,6880,5,2,1:2:0:0:
155,344,7380,2,0,P|149:320|141:281,2,36,2|2|2,1:2|0:2|0:2,0:0:0:0:
164,353,7880,1,8,0:2:0:0:
53,315,8047,2,0,P|59:291|67:252,2,36,2|0|2,0:0|0:0|1:2,0:0:0:0:
100,161,8380,1,2,0:0:0:0:
100,161,8464,1,0,0:0:0:0:
100,161,8547,2,0,P|113:203|147:230,1,72,2|2,0:0|1:2,0:0:0:0:
240,294,8880,2,0,P|291:256|345:260,1,108,2|0,0:0|0:0,0:0:0:0:
362,264,9214,1,10,0:2:0:0:
320,347,9380,1,10,0:2:0:0:
298,165,9547,5,2,1:2:0:0:
334,182,10047,1,2,1:2:0:0:
334,182,10130,1,2,0:2:0:0:
334,182,10214,2,0,P|323:152|317:93,1,72,2|0,0:2|0:0,0:0:0:0:
254,10,10547,2,0,P|240:44|213:76,1,72,8|2,0:2|1:2,0:0:0:0:
61,117,10880,6,0,P|96:121|131:130,1,72,2|2,1:2|1:2,0:0:0:0:
152,155,11130,1,0,0:0:0:0:
152,155,11214,1,2,0:2:0:0:
320,85,11380,2,0,P|386:76|475:58,1,144,2|2,1:2|1:2,0:0:0:0:
366,203,11880,1,10,0:2:0:0:
411,115,12047,1,8,0:2:0:0:
462,277,12214,5,2,1:2:0:0:
465,267,12714,2,0,L|472:203,2,36,2|2|2,1:2|0:2|0:2,0:0:0:0:
312,327,13214,1,8,0:2:0:0:
269,245,13380,1,2,0:0:0:0:
269,245,13464,1,0,0:0:0:0:
269,245,13547,6,0,P|228:238|172:247,1,72,2|2,1:2|0:0,0:0:0:0:
76,259,13880,2,0,P|105:211|111:178,1,72,2|2,0:0|1:2,0:0:0:0:
6,177,14214,1,2,0:0:0:0:
4,166,14547,1,10,0:2:0:0:
0,41,14714,1,10,0:2:0:0:
138,103,14880,6,0,P|202:81|308:87,1,144,2|10,1:2|0:2,0:0:0:0:
400,112,15380,2,0,P|345:186|323:249,1,144,2|0,1:2|0:2,0:0:0:0:
458,291,15880,1,10,0:2:0:0:
442,204,16047,1,0,1:2:0:0:
355,327,16214,6,0,P|316:335|257:334,1,72,2|0,1:2|0:2,0:0:0:0:
239,193,16547,1,10,0:2:0:0:
306,248,16714,1,2,1:2:0:0:
164,357,16880,2,0,P|168:313|166:285,1,72,0|0,0:0|1:2,0:0:0:0:
43,190,17214,1,10,0:2:0:0:
70,280,17380,1,0,1:2:0:0:
135,139,17547,6,0,P|112:62|99:-4,1,144,2|10,1:2|0:2,0:0:0:0:
242,75,18047,2,0,L|289:82,1,36,2|0,1:2|0:0,0:0:0:0:
314,121,18214,2,0,P|397:109|468:111,1,144,0|10,0:0|0:2,0:0:0:0:
393,189,18714,1,0,1:2:0:0:
379,34,18880,5,2,1:2:0:0:
368,22,19214,1,10,0:2:0:0:
224,91,19380,2,0,P|216:166|201:239,1,144,2|0,1:2|1:2,0:0:0:0:
40,186,19880,1,10,0:2:0:0:
179,155,20047,1,10,0:2:0:0:
119,285,20214,6,0,P|169:332|259:311,1,144,2|10,1:2|0:2,0:0:0:0:
310,217,20714,2,0,B|358:212|419:205|419:205|427:270|394:331,1,216,2|10,1:2|0:2,0:0:0:0:
317,303,21380,1,0,1:2:0:0:
373,121,21547,6,0,P|284:107|227:86,1,144,2|10,1:2|0:2,0:0:0:0:
167,28,22047,1,2,1:2:0:0:
37,96,22214,1,0,0:0:0:0:
139,141,22380,1,0,1:2:0:0:
139,141,22464,1,0,0:0:0:0:
139,141,22547,2,0,P|121:187|109:237,1,72,10|0,0:2|1:2,0:0:0:0:
207,332,22880,6,0,P|202:295|199:255,1,72,10|2,0:0|1:2,0:0:0:0:
311,176,23214,2,0,L|303:247,1,72,10|2,0:0|1:2,0:0:0:0:
422,331,23547,2,0,B|409:319|373:307|373:307|339:346|288:335,1,144,10|10,0:0|0:0,0:0:0:0:
440,250,24047,1,2,1:2:0:0:
400,176,24214,5,2,1:2:0:0:
400,176,24297,1,2,1:2:0:0:
400,176,24380,1,2,1:2:0:0:
444,86,24547,1,10,0:2:0:0:
369,2,24714,1,10,0:2:0:0:
275,34,24880,1,0,0:0:0:0:
210,185,25214,2,0,P|210:150|196:114,1,72,10|2,0:2|0:2,0:0:0:0:
126,64,25547,5,6,1:2:0:0:
290,113,25880,1,8,0:2:0:0:
117,170,26047,1,2,1:2:0:0:
117,170,26130,1,2,0:2:0:0:
117,170,26214,2,0,B|96:196|100:227|100:227|120:263|104:309,1,144,2|8,0:2|0:2,0:0:0:0:
24,275,26714,1,2,1:2:0:0:
24,275,26880,5,2,1:2:0:0:
194,212,27047,2,0,P|210:205|227:188,2,36,2|2|10,0:2|0:2|0:2,0:0:0:0:
128,335,27380,2,0,P|217:322|289:328,1,144,2|2,1:2|1:2,0:0:0:0:
401,227,27880,1,10,0:2:0:0:
309,235,28047,1,2,1:2:0:0:
434,317,28214,6,0,P|436:272|466:154,1,144,2|8,1:2|0:2,0:0:0:0:
362,49,28714,2,0,L|371:105,1,36,2|2,1:2|0:2,0:0:0:0:
346,163,28880,2,0,P|233:142|202:141,1,144,2|8,0:2|0:2,0:0:0:0:
27,247,29380,2,0,L|37:283,1,36,2|0,1:2|0:0,0:0:0:0:
124,322,29546,6,0,P|125:251|135:156,1,144,2|10,1:2|0:2,0:0:0:0:
6,18,30047,2,0,L|-3:74,1,36,2|0,1:2|0:0,0:0:0:0:
22,132,30213,2,0,P|108:86|145:48,1,144,2|10,0:2|0:2,0:0:0:0:
118,193,30714,1,10,0:2:0:0:
246,77,30880,5,2,1:2:0:0:
244,92,31214,1,8,0:2:0:0:
322,174,31380,1,2,1:2:0:0:
322,174,31464,1,2,0:2:0:0:
322,174,31547,2,0,P|381:153|460:205,1,144,2|8,0:2|0:2,0:0:0:0:
380,244,32047,1,2,1:2:0:0:
206,171,32214,6,0,P|248:228|260:284,1,108,2|2,1:2|0:2,0:0:0:0:
260,288,32547,1,10,0:2:0:0:
135,384,32714,2,0,P|137:303|124:229,1,144,2|2,1:2|1:2,0:0:0:0:
0,193,33214,1,10,0:2:0:0:
42,282,33380,1,2,1:2:0:0:
63,111,33547,6,0,P|112:104|231:74,1,144,2|8,1:2|0:2,0:0:0:0:
276,3,34047,1,2,1:2:0:0:
367,128,34214,2,0,P|352:215|350:279,1,144,2|8,0:2|0:2,0:0:0:0:
415,336,34714,1,2,1:2:0:0:
388,212,34880,5,2,1:2:0:0:
464,131,35047,1,2,0:2:0:0:
464,131,35130,1,2,0:2:0:0:
464,131,35214,1,10,0:2:0:0:
333,120,35380,1,2,1:2:0:0:
470,233,35547,1,2,0:2:0:0:
470,233,35714,1,0,1:2:0:0:
293,273,35880,1,10,0:2:0:0:
415,336,36047,1,2,1:2:0:0:
340,208,36214,6,0,P|275:194|213:263,1,144,6|10,1:2|0:2,0:0:0:0:
127,359,36714,2,0,B|116:287|92:208,1,144,2|2,0:2|0:2,0:0:0:0:
28,316,37214,1,10,0:2:0:0:
26,161,37380,1,2,0:2:0:0:
26,161,37464,1,0,0:0:0:0:
26,161,37547,6,0,P|89:132|165:162,1,144,2|10,1:2|0:2,0:0:0:0:
194,237,38047,1,2,0:2:0:0:
271,117,38214,2,0,P|269:85|255:14,1,72,2|2,1:2|0:2,0:0:0:0:
376,111,38547,2,0,P|366:147|364:182,1,72,10|2,0:2|0:2,0:0:0:0:
372,212,38797,1,0,0:0:0:0:
372,212,38880,6,0,B|463:228|425:169|527:190,1,144,2|10,1:2|0:2,0:0:0:0:
464,322,39380,1,2,0:2:0:0:
464,322,39464,1,0,0:0:0:0:
464,322,39547,2,0,P|373:315|326:335,1,144,2|10,1:2|0:2,0:0:0:0:
224,360,40047,1,2,0:2:0:0:
276,218,40214,5,2,1:2:0:0:
277,229,40547,1,10,0:2:0:0:
149,120,40714,2,0,P|161:194|170:274,1,144,2|2,0:2|0:2,0:0:0:0:
79,271,41214,1,10,0:2:0:0:
196,185,41380,1,2,0:2:0:0:
50,123,41547,6,0,P|78:50|152:20,1,144,2|10,1:2|0:2,0:0:0:0:
245,107,42047,2,0,B|272:117|299:113|299:113|345:75|389:75,1,144,2|2,0:2|0:2,0:0:0:0:
267,28,42547,1,10,0:2:0:0:
386,179,42714,1,2,0:2:0:0:
386,179,42797,1,0,0:0:0:0:
386,179,42880,6,0,B|398:206|388:240|388:240|366:271|383:328,1,144,2|10,1:2|0:2,0:0:0:0:
457,290,43380,1,2,0:2:0:0:
356,350,43547,1,2,1:2:0:0:
269,273,43714,1,2,0:2:0:0:
357,269,43880,1,10,0:2:0:0:
231,355,44047,1,2,0:2:0:0:
117,258,44214,6,0,P|120:297|131:343,1,72,10|2,0:2|1:2,0:0:0:0:
252,181,44547,2,0,P|249:216|241:252,1,72,10|2,0:2|1:2,0:0:0:0:
39,203,44880,2,0,P|110:164|185:192,1,144,10|10,0:2|0:2,0:0:0:0:
117,258,45380,1,2,1:2:0:0:
33,100,45547,5,2,1:2:0:0:
64,83,45630,1,2,1:2:0:0:
99,74,45714,1,2,1:2:0:0:
134,77,45797,1,0,1:2:0:0:
168,85,45880,1,10,0:2:0:0:
272,165,46047,1,10,0:2:0:0:
373,85,46214,1,10,0:2:0:0:
465,233,46547,1,4,3:2:0:0:
472,202,46714,1,0,0:2:0:0:
358,256,46880,6,0,P|382:320|388:350,1,72,6|2,1:2|0:2,0:0:0:0:
370,346,47130,1,0,0:0:0:0:
349,363,47214,2,0,P|307:359|253:354,1,72,10|2,0:2|0:2,0:0:0:0:
205,245,47547,1,2,1:2:0:0:
205,245,47714,1,2,0:2:0:0:
123,340,47880,1,10,0:2:0:0:
123,340,48047,1,2,0:2:0:0:
53,220,48214,6,0,P|43:188|37:138,1,72,6|2,1:2|0:2,0:0:0:0:
172,66,48547,2,0,P|166:101|158:136,1,72,10|2,0:2|0:2,0:0:0:0:
71,63,48880,1,2,1:2:0:0:
171,177,49047,1,2,0:2:0:0:
205,166,49130,1,0,0:0:0:0:
240,158,49214,2,0,P|299:150|343:151,1,72,10|2,0:2|0:2,0:0:0:0:
489,227,49547,6,0,P|414:233|331:272,1,144,2|10,1:2|0:2,0:0:0:0:
428,329,50047,1,10,0:2:0:0:
268,384,50214,2,0,P|193:373|123:364,1,144,2|10,1:2|0:2,0:0:0:0:
220,278,50714,1,10,0:2:0:0:
42,223,50880,6,0,P|52:157|140:162,1,144,2|8,1:2|0:2,0:0:0:0:
127,280,51380,1,2,1:2:0:0:
127,280,51464,1,2,1:2:0:0:
127,280,51547,1,2,1:2:0:0:
31,128,51714,1,10,0:2:0:0:
200,185,51880,1,8,0:2:0:0:
255,115,52047,1,0,1:2:0:0:
352,325,52214,6,0,P|343:273|348:238,1,72,6|2,1:2|0:2,0:0:0:0:
459,141,52547,2,0,P|420:168|377:179,1,72,10|2,0:2|0:2,0:0:0:0:
370,81,52880,1,2,1:2:0:0:
370,81,53047,1,2,0:2:0:0:
290,197,53214,1,10,0:2:0:0:
290,197,53381,1,2,0:2:0:0:
434,288,53547,5,6,1:2:0:0:
415,186,53714,1,2,0:2:0:0:
270,294,53880,1,10,0:2:0:0:
290,197,54047,1,2,0:2:0:0:
357,370,54214,2,0,P|318:381|263:385,1,72,2|2,1:2|0:2,0:0:0:0:
252,384,54464,1,0,0:2:0:0:
217,373,54547,2,0,P|188:337|164:302,1,72,10|2,0:2|0:2,0:0:0:0:
105,215,54880,6,0,P|95:255|81:296,1,72,14|0,0:2|1:2,0:0:0:0:
0,128,55214,1,10,0:2:0:0:
16,217,55380,1,2,1:2:0:0:
132,112,55547,2,0,P|166:108|220:115,1,72,14|0,0:2|1:2,0:0:0:0:
335,0,55880,2,0,P|280:40|251:49,1,72,10|2,0:2|1:2,0:0:0:0:
195,200,56214,5,2,1:2:0:0:
290,130,56380,1,0,0:2:0:0:
386,221,56547,1,12,0:2:0:0:
473,117,56714,1,0,0:2:0:0:
473,117,56797,1,0,0:0:0:0:
473,117,56880,2,0,L|477:65,2,36,2|2|2,1:2|1:2|1:2,0:0:0:0:
306,330,57214,2,0,P|334:311|360:327,1,54,8|0,3:2|0:0,0:0:0:0:
382,349,57547,6,0,P|425:333|484:327,1,72,6|2,1:2|0:2,0:0:0:0:
288,236,57880,2,0,P|243:230|196:214,1,72,10|2,0:2|0:2,0:0:0:0:
218,327,58214,1,2,1:2:0:0:
218,327,58380,1,2,0:2:0:0:
150,150,58547,1,10,0:2:0:0:
150,150,58713,1,2,0:2:0:0:
33,247,58880,5,2,1:2:0:0:
127,275,59047,1,2,0:2:0:0:
176,128,59214,1,10,0:2:0:0:
273,122,59380,1,2,0:2:0:0:
331,271,59547,1,2,1:2:0:0:
420,233,59713,1,10,0:2:0:0:
420,233,59797,1,0,0:2:0:0:
420,233,59880,2,0,L|427:151,1,72,10|2,0:2|0:2,0:0:0:0:
506,47,60214,6,0,P|427:59|361:88,1,144,2|8,1:2|0:2,0:0:0:0:
256,22,60714,1,8,0:2:0:0:
136,124,60880,2,0,P|208:140|291:175,1,144,2|10,1:2|0:2,0:0:0:0:
163,225,61380,1,10,0:2:0:0:
362,171,61547,6,2,B|361:248|315:229|326:328,1,144,2|8,1:2|0:2,0:0:0:0:
456,310,62047,1,2,1:2:0:0:
443,304,62130,1,2,1:2:0:0:
428,297,62213,1,2,1:2:0:0:
186,240,62380,1,2,0:2:0:0:
275,382,62547,1,10,0:2:0:0:
324,307,62714,1,0,0:2:0:0:
245,164,62880,6,0,P|184:189|102:199,1,144,6|10,1:2|0:2,0:0:0:0:
34,144,63380,1,2,0:2:0:0:
121,70,63547,2,0,P|116:39|99:-18,1,72,2|2,1:2|0:2,0:0:0:0:
235,81,63880,2,0,P|225:115|219:151,1,72,10|2,0:2|0:2,0:0:0:0:
320,218,64214,5,2,1:2:0:0:
320,218,64380,1,2,0:2:0:0:
328,105,64547,1,10,0:2:0:0:
328,105,64714,1,2,0:2:0:0:
489,133,64880,1,2,1:2:0:0:
399,171,65047,1,10,0:2:0:0:
399,171,65130,1,0,1:2:0:0:
399,171,65214,1,10,0:2:0:0:
467,228,65380,1,2,0:2:0:0:
358,325,65547,6,0,P|321:315|280:313,1,72,14|0,0:2|1:2,0:0:0:0:
126,244,65880,2,0,P|164:242|203:231,1,72,10|2,0:2|1:2,0:0:0:0:
238,41,66214,2,0,P|148:137|128:152,1,144,14|10,1:2|0:2,0:0:0:0:
112,39,66714,1,2,1:2:0:0:
277,146,66880,6,0,P|284:245|293:296,1,144,6|14,1:2|0:2,0:0:0:0:
475,198,67380,1,4,1:2:0:0:
434,221,67463,1,0,1:2:0:0:
387,220,67546,1,0,1:2:0:0:
308,148,67714,1,2,1:2:0:0:
124,171,67880,1,10,1:2:0:0:
192,237,68047,1,2,1:2:0:0:
198,93,68214,6,0,P|189:16|188:5,1,72,2|0,1:2|0:2,0:0:0:0:
330,63,68547,2,0,P|326:100|321:134,1,72,10|0,0:2|0:2,0:0:0:0:
176,178,68880,2,0,P|167:101|166:90,1,72,2|0,1:2|0:2,0:0:0:0:
308,148,69213,2,0,P|304:185|299:219,1,72,10|0,0:2|0:2,0:0:0:0:
100,274,69547,6,0,P|156:284|189:305,1,72,2|2,1:2|0:2,0:0:0:0:
196,320,69797,1,2,0:2:0:0:
218,343,69880,2,0,P|259:339|304:324,1,72,10|2,0:2|0:2,0:0:0:0:
487,162,70214,6,0,P|431:172|398:193,1,72,2|2,1:2|0:2,0:0:0:0:
391,208,70464,1,2,0:2:0:0:
369,231,70547,2,0,P|328:227|283:212,1,72,10|0,0:2|0:2,0:0:0:0:
199,74,70880,5,2,1:2:0:0:
217,182,71047,1,0,0:2:0:0:
90,105,71214,1,10,0:2:0:0:
72,213,71381,1,0,0:2:0:0:
184,74,71547,1,2,1:2:0:0:
204,198,71714,1,0,0:2:0:0:
58,109,71881,1,10,0:2:0:0:
37,234,72048,1,0,0:2:0:0:
150,312,72214,5,2,1:2:0:0:
184,323,72297,1,2,0:2:0:0:
219,321,72380,1,2,0:2:0:0:
252,309,72463,1,0,0:2:0:0:
281,287,72547,1,10,0:2:0:0:
315,279,72630,1,2,0:2:0:0:
348,291,72713,1,2,0:2:0:0:
378,310,72797,1,0,0:2:0:0:
390,343,72880,2,0,L|385:393,2,36,2|2|2,1:2|1:2|0:2,0:0:0:0:
501,198,73214,2,0,L|504:233,2,36,10|2|2,1:2|1:2|0:2,0:0:0:0:
365,86,73547,6,0,P|397:121|420:142,1,72,2|0,1:2|0:2,0:0:0:0:
260,108,73880,2,0,P|275:152|288:181,1,72,10|0,0:2|0:2,0:0:0:0:
65,67,74214,2,0,P|52:100|42:135,1,72,2|0,1:2|0:2,0:0:0:0:
161,118,74547,2,0,P|162:153|166:189,1,72,10|0,0:2|0:2,0:0:0:0:
250,289,74880,5,2,1:2:0:0:
217,272,74964,1,2,0:2:0:0:
181,274,75047,1,2,0:2:0:0:
150,292,75130,1,0,0:2:0:0:
134,327,75214,1,8,0:0:0:0:
312,202,75380,2,0,L|302:155,2,36,2|0|2,0:2|0:2|1:2,0:0:0:0:
343,346,75714,5,2,0:2:0:0:
376,329,75798,1,0,0:2:0:0:
412,331,75881,1,10,0:2:0:0:
418,220,76047,1,2,0:2:0:0:
261,373,76214,6,0,P|265:343|268:299,1,72,6|2,1:2|0:2,0:0:0:0:
311,56,76547,2,0,P|313:91|317:127,1,72,10|2,0:2|0:2,0:0:0:0:
224,211,76880,1,6,1:2:0:0:
224,211,77047,1,2,0:2:0:0:
202,92,77214,1,10,0:2:0:0:
202,92,77381,1,2,0:2:0:0:
73,127,77547,5,14,0:2:0:0:
192,192,77714,1,2,1:2:0:0:
67,222,77880,1,14,0:2:0:0:
222,117,78047,1,6,1:2:0:0:
138,322,78214,1,6,1:2:0:0:
397,286,78547,2,0,P|372:276|346:259,1,54,12|0,0:2|0:0,0:0:0:0:
339,239,78880,6,0,P|340:187|358:124,1,90,2|2,1:2|0:2,0:0:0:0:
205,84,79214,2,0,P|229:136|235:167,1,90,10|2,0:2|0:2,0:0:0:0:
217,209,79464,1,10,0:2:0:0:
217,209,79547,2,0,P|213:246|233:316,1,90,2|2,1:2|0:2,0:0:0:0:
127,161,79880,1,10,0:2:0:0:
127,161,80047,1,2,0:2:0:0:
284,46,80214,5,2,1:2:0:0:
284,46,80381,1,2,0:2:0:0:
134,40,80547,1,10,0:2:0:0:
320,156,80714,2,0,P|314:186|310:237,2,45,2|10|2,0:2|0:2|1:2,0:0:0:0:
421,53,81047,1,2,0:2:0:0:
421,53,81130,1,0,0:0:0:0:
421,53,81214,2,0,L|431:106,1,45,10|2,0:2|1:2,0:0:0:0:
497,161,81380,2,0,L|488:205,1,45,2|0,0:2|0:0,0:0:0:0:
497,325,81547,6,0,P|425:280|310:294,1,180,2|10,1:2|0:2,0:0:0:0:
129,375,82047,1,2,0:2:0:0:
172,363,82130,1,10,0:2:0:0:
203,329,82214,2,0,P|222:274|255:121,1,180,2|10,1:2|0:2,0:0:0:0:
132,222,82714,1,2,0:2:0:0:
337,194,82880,5,2,1:2:0:0:
337,194,83047,1,0,0:0:0:0:
306,317,83214,1,8,0:2:0:0:
483,143,83380,1,0,1:2:0:0:
438,151,83463,1,8,0:2:0:0:
395,133,83547,1,0,1:2:0:0:
463,257,83714,1,2,0:2:0:0:
447,55,83880,1,10,0:2:0:0:
512,117,84047,1,0,0:2:0:0:
266,53,84214,6,0,P|311:47|356:44,1,90,2|2,1:2|0:2,0:0:0:0:
174,126,84547,2,0,P|129:123|85:117,1,90,10|2,0:2|0:2,0:0:0:0:
62,112,84797,1,10,0:2:0:0:
62,112,84880,1,2,1:2:0:0:
123,205,85047,1,2,0:2:0:0:
224,237,85214,1,10,0:2:0:0:
144,313,85380,1,2,0:2:0:0:
313,342,85547,5,2,1:2:0:0:
313,342,85714,1,2,0:2:0:0:
272,155,85880,1,10,0:2:0:0:
272,155,86047,1,2,0:2:0:0:
304,185,86130,1,10,0:2:0:0:
348,190,86214,1,2,1:2:0:0:
436,76,86380,1,2,0:2:0:0:
436,76,86464,1,0,0:0:0:0:
436,76,86547,2,0,P|436:98|448:143,1,45,10|2,0:2|1:2,0:0:0:0:
497,197,86714,2,0,P|499:218|496:240,1,45,2|0,0:2|0:0,0:0:0:0:
440,339,86880,6,0,P|345:333|236:349,1,180,10|10,0:2|0:2,0:0:0:0:
281,239,87380,1,2,1:2:0:0:
176,384,87547,6,0,P|152:294|113:190,1,180,10|10,0:2|0:2,0:0:0:0:
47,288,88047,1,2,1:2:0:0:
188,160,88214,5,2,1:2:0:0:
44,108,88380,1,0,0:2:0:0:
266,0,88547,1,10,0:2:0:0:
92,0,88713,1,0,0:2:0:0:
119,34,88797,1,0,0:0:0:0:
157,57,88880,2,0,P|181:64|217:73,2,45,2|2|2,1:2|1:2|1:2,0:0:0:0:
358,8,89214,2,0,P|349:30|341:73,1,54,10|0,0:2|0:0,0:0:0:0:
333,82,89547,6,0,P|373:99|411:139,1,90,2|2,1:2|0:2,0:0:0:0:
512,210,89880,2,0,P|467:217|407:255,1,90,10|2,0:2|0:2,0:0:0:0:
406,276,90130,1,10,0:2:0:0:
406,276,90214,1,2,1:2:0:0:
316,177,90380,1,2,0:2:0:0:
270,255,90547,1,10,0:2:0:0:
279,344,90714,1,2,0:2:0:0:
189,292,90880,5,2,1:2:0:0:
189,292,91047,1,2,0:2:0:0:
358,268,91214,1,10,0:2:0:0:
206,189,91380,1,2,0:2:0:0:
206,189,91464,1,10,0:2:0:0:
206,189,91547,2,0,P|213:132|201:87,1,90,2|2,1:2|0:2,0:0:0:0:
129,43,91797,1,0,0:0:0:0:
129,43,91880,2,0,B|142:-5|142:-5|143:-6,2,45,10|2|2,0:2|1:2|0:2,0:0:0:0:
0,108,92214,6,0,P|89:135|188:144,1,180,2|10,1:2|0:2,0:0:0:0:
340,8,92714,1,2,0:2:0:0:
377,32,92797,1,10,0:2:0:0:
389,75,92880,2,0,P|325:148|289:264,1,180,2|10,1:2|0:2,0:0:0:0:
369,298,93380,1,2,0:2:0:0:
214,277,93547,5,2,1:2:0:0:
334,303,93714,1,0,0:2:0:0:
203,178,93880,1,10,0:2:0:0:
105,264,94047,1,2,1:2:0:0:
105,264,94131,1,10,1:2:0:0:
105,264,94214,1,2,1:2:0:0:
96,83,94380,1,2,0:2:0:0:
214,200,94547,2,0,L|227:105,1,90,10|0,0:2|0:2,0:0:0:0:
310,24,94880,6,0,P|333:61|342:125,1,90,2|2,1:2|0:2,0:0:0:0:
329,215,95214,1,10,0:2:0:0:
456,92,95380,1,2,0:2:0:0:
456,92,95464,1,10,0:2:0:0:
456,92,95547,2,0,P|465:140|463:207,1,90,2|2,1:2|0:2,0:0:0:0:
416,267,95880,1,10,0:2:0:0:
416,267,96047,1,2,0:2:0:0:
295,186,96214,5,2,1:2:0:0:
289,301,96380,1,2,0:2:0:0:
156,177,96547,1,10,0:2:0:0:
195,290,96714,1,2,0:2:0:0:
195,290,96797,1,10,0:2:0:0:
195,290,96880,2,0,P|146:299|87:280,1,90,2|2,1:2|0:2,0:0:0:0:
89,278,97130,1,0,0:0:0:0:
75,259,97214,2,0,L|61:174,1,45,10|2,0:2|1:2,0:0:0:0:
158,150,97380,2,0,L|172:65,1,45,2|0,0:2|0:0,0:0:0:0:
39,56,97547,6,0,L|226:73,1,180,10|10,0:2|0:2,0:0:0:0:
310,26,98047,1,2,1:2:0:0:
433,150,98214,2,0,L|246:167,1,180,10|10,0:2|0:2,0:0:0:0:
193,234,98714,1,2,1:2:0:0:
302,295,98880,6,0,L|316:416,1,90,10|2,0:2|1:2,0:0:0:0:
182,323,99214,2,0,L|192:233,1,90,10|2,0:2|1:2,0:0:0:0:
179,217,99464,1,0,0:0:0:0:
166,204,99547,1,10,0:2:0:0:
61,243,99714,1,2,1:2:0:0:
56,226,99797,1,0,0:0:0:0:
50,210,99880,2,0,L|25:118,1,90,10|10,0:2|0:2,0:0:0:0:
108,32,100214,5,14,0:2:0:0:
108,32,100380,1,0,1:2:0:0:
167,114,100547,1,10,0:2:0:0:
167,114,100713,1,2,1:2:0:0:
253,21,100880,2,0,P|293:10|376:22,1,90,14|0,0:2|1:2,0:0:0:0:
417,108,101214,1,10,0:2:0:0:
312,149,101380,1,2,1:2:0:0:
406,225,101547,6,0,L|413:299,2,45,6|2|2,1:2|1:2|1:2,0:0:0:0:
281,353,101880,1,10,0:2:0:0:
281,353,101964,1,10,0:2:0:0:
281,353,102047,2,0,L|278:291,1,45,10|0,0:2|0:0,0:0:0:0:
234,212,102214,2,0,L|178:242,3,45,8|8|8|8,0:2|0:2|0:2|0:2,0:0:0:0:
152,251,102547,1,8,0:2:0:0:
107,255,102630,1,8,0:2:0:0:
63,245,102713,1,8,0:2:0:0:
40,206,102796,1,8,0:2:0:0:
32,161,102880,5,6,1:2:0:0:
82,98,103047,1,2,0:2:0:0:
152,251,103214,2,0,P|140:310|143:361,1,90,10|2,0:2|0:2,0:0:0:0:
150,359,103464,1,10,0:2:0:0:
162,373,103547,2,0,P|206:363|278:363,1,90,2|2,1:2|0:2,0:0:0:0:
417,294,103880,2,0,P|373:298|312:280,1,90,10|2,0:2|0:2,0:0:0:0:
293,125,104214,5,2,1:2:0:0:
336,113,104297,1,0,0:0:0:0:
377,129,104380,1,2,0:2:0:0:
394,170,104464,1,0,0:0:0:0:
384,213,104547,1,10,0:2:0:0:
258,225,104714,1,2,0:2:0:0:
258,225,104797,1,10,0:2:0:0:
258,225,104880,1,2,1:2:0:0:
202,85,105047,1,2,0:2:0:0:
149,206,105214,2,0,L|153:275,2,45,10|2|2,0:2|1:2|0:2,0:0:0:0:
26,110,105547,6,0,L|131:123,1,90,2|2,1:2|0:2,0:0:0:0:
199,47,105880,2,0,L|288:35,1,90,10|2,0:2|0:2,0:0:0:0:
287,53,106130,1,10,0:2:0:0:
286,70,106214,2,0,L|389:78,1,90,2|2,1:2|0:2,0:0:0:0:
495,162,106547,2,0,L|392:170,1,90,10|2,0:2|0:2,0:0:0:0:
343,256,106880,5,2,1:2:0:0:
343,256,107047,1,2,0:2:0:0:
500,135,107214,1,10,0:2:0:0:
304,169,107380,1,2,0:2:0:0:
304,169,107464,1,10,0:2:0:0:
304,169,107547,1,2,1:2:0:0:
437,277,107714,1,2,0:2:0:0:
272,351,107880,1,10,0:2:0:0:
317,262,108047,1,2,0:2:0:0:
72,290,108214,5,2,0:0:0:0:
80,173,108547,1,0,0:0:0:0:
193,231,108880,1,2,0:0:0:0:
60,329,109214,1,0,0:0:0:0:
70,137,109547,1,2,0:0:0:0:
231,233,109880,1,0,0:0:0:0:
55,104,110214,1,2,0:0:0:0:
52,359,110547,1,0,0:0:0:0:
