osu file format v14

[General]
AudioFilename: audio.mp3
AudioLeadIn: 0
PreviewTime: 76271
Countdown: 0
SampleSet: Soft
StackLeniency: 0.4
Mode: 0
LetterboxInBreaks: 0
WidescreenStoryboard: 1

[Editor]
DistanceSpacing: 1
BeatDivisor: 12
GridSize: 4
TimelineZoom: 0.9999999

[Metadata]
Title:Marude Matryoshka
TitleUnicode:まるでマトリョーシカ
Artist:seiya-murai feat. ALT
ArtistUnicode:seiya-murai feat. ALT
Creator:KaedeharaKazuha
Version:Hard
Source:REFLEC BEAT
Tags:Addy2607 Kaedehara Kazuha vocaloid VocalWriter japanese electronic video rhythm game konami jubeat sarah
BeatmapID:4520279
BeatmapSetID:2146026

[Difficulty]
HPDrainRate:5
CircleSize:3.3
OverallDifficulty:6
ApproachRate:8
SliderMultiplier:1.4
SliderTickRate:1

[Events]
//Background and Video events
0,0,"bg.png",0,0
//Break Periods
//Storyboard Layer 0 (Background)
//Storyboard Layer 1 (Fail)
//Storyboard Layer 2 (Pass)
//Storyboard Layer 3 (Foreground)
//Storyboard Layer 4 (Overlay)
//Storyboard Sound Samples

[TimingPoints]
401,387.096774193548,4,2,1,50,1,0
401,-125,4,2,1,50,0,0
6594,-111.111111111111,4,2,1,60,0,0
12788,-100,4,2,1,70,0,0
25175,-111.111111111111,4,2,1,50,0,0
37562,-100,4,2,1,70,0,0
40659,-100,4,2,1,80,0,0
41046,-100,4,2,1,70,0,0
41433,-100,4,2,1,60,0,0
41820,-100,4,2,1,50,0,0
42207,-100,4,2,1,60,0,0
43755,-100,4,2,1,70,0,0
46852,-100,4,2,1,50,0,0
47239,-100,4,2,1,60,0,0
47626,-100,4,2,1,70,0,0
48013,-100,4,2,1,80,0,0
48400,-100,4,2,1,70,0,0
49949,-111.111111111111,4,2,1,50,0,0
62336,-100,4,2,1,70,0,0
65433,-100,4,2,1,80,0,0
65820,-100,4,2,1,70,0,0
66207,-100,4,2,1,60,0,0
66594,-100,4,2,1,50,0,0
66981,-100,4,2,1,60,0,0
68530,-100,4,2,1,70,0,0
71626,-100,4,2,1,50,0,0
72013,-100,4,2,1,60,0,0
72400,-100,4,2,1,70,0,0
72788,-100,4,2,1,80,0,0
73175,-100,4,2,1,70,0,0
76271,387.096774193548,4,2,1,90,1,0
76271,-90.9090909090909,4,2,1,90,0,1
87109,-90.9090909090909,4,2,1,90,0,1
88658,-90.9090909090909,4,2,1,90,0,1
99496,-90.9090909090909,4,2,1,90,0,1
102593,-100,4,2,1,90,0,0

[Colours]
Combo1 : 233,203,86
Combo2 : 137,207,250
Combo3 : 251,87,91
Combo4 : 104,160,217

[HitObjects]
502,190,6594,6,0,P|504:118|509:57,1,125.999996154785,0|0,3:0|3:0,0:0:0:0:
445,11,7175,1,8,0:0:0:0:
378,58,7368,2,0,P|376:120|371:183,1,125.999996154785,0|0,3:0|3:0,0:0:0:0:
389,346,8142,2,0,P|344:288|295:305,1,125.999996154785,0|0,3:0|3:0,0:0:0:0:
241,355,8723,1,8,0:0:0:0:
172,309,8917,2,0,P|168:245|159:176,1,125.999996154785,0|2,3:0|3:0,0:0:0:0:
211,28,9691,6,0,P|179:89|119:81,1,125.999996154785,0|0,3:0|3:0,0:0:0:0:
65,35,10271,1,8,0:0:0:0:
8,94,10465,2,0,P|15:156|19:219,1,125.999996154785,0|0,3:0|3:0,0:0:0:0:
0,335,11142,5,8,0:0:0:0:
5,344,11239,2,0,P|37:339|70:337,1,62.9999980773926,8|8,0:0|0:0,0:0:0:0:
129,284,11626,1,8,0:0:0:0:
194,333,11820,1,8,0:0:0:0:
243,267,12013,2,0,L|239:226,2,31.4999990386963,8|8|8,0:0|0:0|0:0,0:0:0:0:
306,319,12400,2,0,L|310:360,2,31.4999990386963,8|8|8,0:0|0:0|0:0,0:0:0:0:
382,231,12788,6,0,P|389:171|401:100,1,105,6|0,3:2|0:0,0:0:0:0:
404,120,13175,1,0,3:0:0:0:
358,41,13368,1,10,0:0:0:0:
293,105,13562,2,0,P|248:128|188:71,1,140,2|0,3:2|3:0,0:0:0:0:
129,5,14142,1,8,0:0:0:0:
54,57,14336,2,0,P|61:122|66:182,1,105,2|0,3:2|0:0,0:0:0:0:
66,177,14723,1,2,3:2:0:0:
17,254,14917,1,8,0:0:0:0:
79,319,15110,2,0,P|159:310|232:304,1,140,2|2,3:2|3:2,0:0:0:0:
390,362,15884,6,0,P|425:306|398:263,1,105,2|0,3:2|0:0,0:0:0:0:
400,264,16271,1,0,3:2:0:0:
458,194,16465,1,8,0:0:0:0:
400,123,16659,2,0,P|403:67|407:38,1,70,2|2,3:2|0:0,0:0:0:0:
313,45,17046,2,0,P|310:101|306:130,1,70,2|8,3:2|0:0,0:0:0:0:
241,177,17433,2,0,P|251:251|260:326,1,140,2|2,3:2|3:2,0:0:0:0:
195,381,18013,1,8,0:0:0:0:
114,337,18207,2,0,P|108:294|103:252,1,70,2|8,3:2|0:0,0:0:0:0:
134,181,18594,1,8,0:0:0:0:
78,108,18788,1,8,0:0:0:0:
160,9,18981,6,0,P|235:17|281:20,1,105,2|0,3:2|0:0,0:0:0:0:
275,12,19368,1,0,3:0:0:0:
350,63,19562,1,10,0:0:0:0:
435,33,19755,2,0,P|426:98|421:187,1,140,2|0,3:2|3:0,0:0:0:0:
483,238,20336,1,8,0:0:0:0:
416,300,20530,2,0,P|381:276|311:314,1,105,2|0,3:2|0:0,0:0:0:0:
317,304,20917,1,2,3:2:0:0:
248,363,21110,1,8,0:0:0:0:
166,321,21304,2,0,P|160:248|151:181,1,140,2|2,3:2|3:2,0:0:0:0:
194,5,22078,6,0,P|167:48|99:33,1,105,8|8,0:0|0:0,0:0:0:0:
108,39,22465,1,0,3:0:0:0:
26,80,22659,1,8,0:0:0:0:
71,164,22852,1,0,3:0:0:0:
71,164,23046,1,8,0:0:0:0:
5,226,23239,1,8,0:0:0:0:
127,360,23626,6,0,P|186:351|203:350,1,70,8|8,0:0|0:0,0:0:0:0:
283,376,24013,2,0,P|342:367|359:366,1,70,0|8,3:0|0:0,0:0:0:0:
409,295,24400,1,8,0:0:0:0:
223,162,24788,6,0,P|219:105|213:50,1,105,8|0,0:0|0:0,0:0:0:0:
208,45,25175,6,0,P|271:42|349:33,1,125.999996154785,6|0,3:2|3:0,0:0:0:0:
423,41,25755,1,8,0:0:0:0:
423,41,25852,1,2,0:3:0:0:
423,41,25949,2,0,P|465:95|431:150,1,125.999996154785,2|0,3:2|3:0,0:0:0:0:
383,197,26530,1,8,0:0:0:0:
308,164,26723,2,0,P|245:166|182:173,1,125.999996154785,2|0,3:2|3:0,0:0:0:0:
116,120,27304,1,8,0:0:0:0:
116,120,27400,1,2,0:3:0:0:
116,120,27497,2,0,P|112:76|108:50,2,62.9999980773926,2|2|0,3:2|0:3|3:0,0:0:0:0:
25,256,28271,6,0,P|-11:300|21:363,1,125.999996154785,2|0,3:2|3:0,0:0:0:0:
103,371,28852,1,8,0:0:0:0:
103,371,28949,1,2,0:3:0:0:
103,371,29046,2,0,P|179:359|233:357,1,125.999996154785,2|0,3:2|3:0,0:0:0:0:
391,348,29820,2,0,P|417:305|379:240,1,125.999996154785,2|0,3:2|3:0,0:0:0:0:
306,231,30400,1,8,0:0:0:0:
306,231,30497,1,2,0:3:0:0:
306,231,30594,2,0,P|259:234|240:236,1,62.9999980773926,2|0,3:2|3:0,0:0:0:0:
240,153,30981,2,0,P|287:150|306:148,1,62.9999980773926,8|8,0:0|0:0,0:0:0:0:
164,200,31368,6,0,P|101:201|38:206,1,125.999996154785,2|0,3:2|3:0,0:0:0:0:
28,117,31949,1,8,0:0:0:0:
28,117,32046,1,2,0:3:0:0:
28,117,32142,2,0,P|90:115|153:110,1,125.999996154785,2|0,3:2|3:0,0:0:0:0:
221,63,32723,1,8,0:0:0:0:
292,22,32917,2,0,P|354:16|417:14,1,125.999996154785,2|0,3:2|3:0,0:0:0:0:
493,67,33497,1,8,0:0:0:0:
493,67,33594,1,2,0:3:0:0:
493,67,33691,2,0,P|508:103|490:130,2,62.9999980773926,2|0|0,3:2|0:0|3:0,0:0:0:0:
333,108,34465,6,0,P|270:110|207:115,1,125.999996154785,2|0,3:2|3:0,0:0:0:0:
147,59,35046,1,8,0:0:0:0:
147,59,35142,1,2,0:3:0:0:
148,60,35239,2,0,P|106:16|48:33,1,125.999996154785,2|0,3:2|3:0,0:0:0:0:
4,102,35820,1,8,0:0:0:0:
60,180,36013,6,0,P|51:242|43:286,1,94.499997116089,10|0,0:0|0:0,0:0:0:0:
39,283,36400,2,0,P|101:292|145:300,1,94.499997116089,10|0,0:0|3:0,0:0:0:0:
142,289,36788,1,10,0:0:0:0:
279,377,37175,1,0,3:0:0:0:
450,316,37562,5,10,3:2:0:0:
459,225,37755,1,8,0:0:0:0:
330,96,38142,1,8,0:0:0:0:
339,5,38335,1,0,3:0:0:0:
248,0,38530,1,8,0:0:0:0:
239,87,38723,2,0,L|187:82,2,35,2|2|2,3:0|0:3|0:3,0:0:0:0:
230,178,39110,5,10,3:2:0:0:
321,183,39304,1,8,0:0:0:0:
426,331,39691,1,8,0:0:0:0:
335,326,39885,1,0,3:0:0:0:
254,368,40078,1,8,0:0:0:0:
163,363,40271,2,0,P|165:333|169:312,2,35,2|2|2,3:0|0:3|0:3,0:0:0:0:
36,369,40659,6,0,B|6:328|6:328|45:276,1,105,10|2,3:2|0:3,0:0:0:0:
50,282,41046,2,0,B|82:238|82:238|52:197,1,105,10|2,3:2|0:3,0:0:0:0:
41,197,41433,2,0,B|11:156|11:156|50:104,1,105,10|2,3:2|0:3,0:0:0:0:
54,115,41820,1,10,3:2:0:0:
121,54,42013,1,2,0:3:0:0:
196,105,42207,6,0,P|256:97|344:89,1,140,2|0,3:2|3:0,0:0:0:0:
409,36,42788,1,8,0:0:0:0:
481,90,42981,2,0,P|484:124|488:159,1,70,2|10,3:2|0:0,0:0:0:0:
411,207,43368,2,0,P|407:172|403:137,1,70,10|8,3:2|0:0,0:0:0:0:
491,245,43755,5,10,3:2:0:0:
500,336,43948,1,8,0:0:0:0:
323,381,44336,1,8,0:0:0:0:
314,290,44529,1,0,3:0:0:0:
254,235,44723,1,8,0:0:0:0:
254,235,44820,1,2,0:3:0:0:
254,235,44917,2,0,L|197:241,2,35,2|2|2,3:0|0:3|0:3,0:0:0:0:
293,152,45304,5,10,3:2:0:0:
284,61,45497,1,8,0:0:0:0:
110,4,45884,1,8,0:0:0:0:
119,95,46077,1,0,3:0:0:0:
61,166,46271,1,8,0:0:0:0:
61,166,46368,1,2,0:3:0:0:
61,166,46465,2,0,L|4:172,2,35,2|2|2,3:0|0:3|0:3,0:0:0:0:
141,235,46852,6,0,B|182:265|182:265|234:226,1,105,10|0,3:2|0:0,0:0:0:0:
228,221,47239,2,0,B|272:189|272:189|313:219,1,105,10|0,3:2|0:0,0:0:0:0:
313,230,47626,2,0,B|354:260|354:260|406:221,1,105,10|0,3:2|0:0,0:0:0:0:
395,217,48013,1,10,3:2:0:0:
464,276,48207,1,0,0:0:0:0:
500,193,48400,6,0,P|504:124|510:43,1,140,2|0,3:2|3:0,0:0:0:0:
434,1,48981,1,10,0:0:0:0:
359,53,49175,2,0,P|356:88|353:130,1,70,10|8,3:2|0:0,0:0:0:0:
296,193,49562,1,8,3:2:0:0:
296,193,49659,1,8,0:0:0:0:
296,193,49755,1,8,0:0:0:0:
398,252,49949,6,0,P|439:284|420:360,1,125.999996154785,6|0,3:2|3:0,0:0:0:0:
357,377,50530,1,8,0:0:0:0:
357,377,50626,1,2,0:3:0:0:
357,377,50723,2,0,P|268:368|212:366,1,125.999996154785,2|0,3:2|3:0,0:0:0:0:
149,362,51304,1,8,0:0:0:0:
97,298,51497,2,0,P|106:208|108:153,1,125.999996154785,2|0,3:2|3:0,0:0:0:0:
103,97,52078,1,8,0:0:0:0:
103,97,52175,1,2,0:3:0:0:
103,97,52271,2,0,P|62:78|31:92,2,62.9999980773926,2|2|0,3:2|0:3|3:0,0:0:0:0:
204,226,53046,6,0,P|282:220|343:217,1,125.999996154785,2|0,3:2|3:0,0:0:0:0:
398,261,53626,1,8,0:0:0:0:
472,226,53820,2,0,P|508:180|478:114,1,125.999996154785,2|0,3:2|3:0,0:0:0:0:
355,23,54594,2,0,P|277:29|216:32,1,125.999996154785,2|0,3:2|3:0,0:0:0:0:
151,9,55175,1,8,0:0:0:0:
151,9,55271,1,2,0:3:0:0:
151,9,55368,2,0,P|141:38|154:67,1,62.9999980773926,2|0,3:2|3:0,0:0:0:0:
218,115,55755,2,0,P|230:143|220:172,1,62.9999980773926,8|8,0:0|0:0,0:0:0:0:
140,231,56142,6,0,P|61:226|-7:224,1,125.999996154785,2|0,3:2|3:0,0:0:0:0:
8,313,56723,1,8,0:0:0:0:
8,313,56820,1,2,0:3:0:0:
8,313,56917,2,0,P|70:315|133:319,1,125.999996154785,2|0,3:2|3:0,0:0:0:0:
194,374,57497,1,8,0:0:0:0:
263,330,57691,6,0,P|302:292|276:223,1,125.999996154785,2|0,3:2|3:0,0:0:0:0:
219,181,58271,1,8,0:0:0:0:
219,181,58368,1,2,0:3:0:0:
219,181,58465,2,0,P|182:179|150:176,2,62.9999980773926,2|0|0,3:2|0:0|3:0,0:0:0:0:
294,14,59239,6,0,P|362:9|423:-1,1,125.999996154785,2|0,3:2|3:0,0:0:0:0:
501,40,59820,1,8,0:0:0:0:
501,40,59917,1,2,0:3:0:0:
501,40,60013,2,0,P|527:83|484:147,1,125.999996154785,2|0,3:2|3:0,0:0:0:0:
415,171,60594,1,8,0:0:0:0:
329,116,60788,6,0,B|285:95|285:95|244:128,1,94.499997116089,10|0,0:0|0:0,0:0:0:0:
251,132,61175,2,0,B|215:160|215:160|171:139,1,94.499997116089,10|0,0:0|3:0,0:0:0:0:
166,129,61562,1,10,0:0:0:0:
46,241,61949,1,0,3:0:0:0:
201,335,62336,5,10,3:2:0:0:
291,327,62530,1,8,0:0:0:0:
472,313,62917,1,8,0:0:0:0:
464,223,63111,1,0,3:0:0:0:
456,133,63304,1,8,0:0:0:0:
448,43,63497,2,0,L|444:3,2,35,2|2|2,3:0|0:3|0:3,0:0:0:0:
357,50,63884,5,10,3:2:0:0:
267,58,64078,1,8,0:0:0:0:
86,72,64465,1,8,0:0:0:0:
94,162,64659,1,0,3:0:0:0:
102,252,64852,1,8,0:0:0:0:
110,342,65045,2,0,L|114:382,2,35,2|2|2,3:0|0:3|0:3,0:0:0:0:
197,290,65433,6,0,P|252:285|309:281,1,105,10|2,3:2|0:3,0:0:0:0:
309,274,65820,2,0,P|304:219|300:162,1,105,10|2,3:2|0:3,0:0:0:0:
293,162,66207,2,0,P|238:167|181:171,1,105,10|2,3:2|0:3,0:0:0:0:
178,163,66594,1,10,3:2:0:0:
113,227,66788,1,2,0:3:0:0:
31,187,66981,6,0,P|-9:155|19:77,1,140,2|0,3:2|3:0,0:0:0:0:
72,9,67562,1,8,0:0:0:0:
147,58,67755,2,0,P|206:52|236:46,1,70,2|10,3:2|0:0,0:0:0:0:
216,141,68142,2,0,P|157:147|127:153,1,70,10|8,3:2|0:0,0:0:0:0:
321,101,68530,5,10,3:2:0:0:
313,191,68724,1,8,0:0:0:0:
299,372,69111,1,8,0:0:0:0:
209,364,69305,1,0,3:0:0:0:
114,362,69498,1,8,0:0:0:0:
114,362,69594,1,2,0:3:0:0:
114,362,69691,2,0,L|74:358,2,35,2|2|2,3:0|0:3|0:3,0:0:0:0:
127,271,70078,5,10,3:2:0:0:
135,181,70272,1,8,0:0:0:0:
149,0,70659,1,8,0:0:0:0:
239,8,70853,1,0,3:0:0:0:
334,10,71046,1,8,0:0:0:0:
334,10,71142,1,2,0:3:0:0:
334,10,71239,2,0,L|374:14,2,35,2|2|2,3:0|0:3|0:3,0:0:0:0:
275,103,71626,6,0,P|270:158|266:215,1,105,10|0,3:2|0:0,0:0:0:0:
259,215,72013,2,0,P|204:210|147:206,1,105,10|0,3:2|0:0,0:0:0:0:
147,199,72400,2,0,P|152:144|156:87,1,105,10|0,3:2|0:0,0:0:0:0:
148,84,72787,1,10,3:2:0:0:
75,28,72981,1,0,0:0:0:0:
5,122,73175,6,0,P|2:156|0:191,1,70,2|8,3:2|0:0,0:0:0:0:
51,266,73562,2,0,P|48:300|45:335,1,70,2|8,3:2|0:0,0:0:0:0:
136,342,73949,2,0,P|138:307|141:272,1,70,2|8,3:2|0:0,0:0:0:0:
213,215,74336,2,0,P|215:180|218:145,1,70,2|8,3:2|0:0,0:0:0:0:
156,16,74723,6,0,P|194:103|285:70,1,210,2|0,3:2|0:0,0:0:0:0:
294,61,75400,1,8,0:0:0:0:
302,51,75497,1,8,3:2:0:0:
379,98,75691,1,8,0:0:0:0:
488,21,75884,5,8,0:0:0:0:
488,21,75981,1,8,0:0:0:0:
488,21,76078,1,8,0:0:0:0:
488,21,76175,1,8,0:0:0:0:
488,21,76271,2,0,P|479:95|471:186,1,154.000004699707,6|2,3:2|3:2,0:0:0:0:
508,266,76851,1,10,0:0:0:0:
433,333,77045,2,0,P|371:338|304:351,1,115.50000352478,2|2,3:2|0:3,0:0:0:0:
312,356,77432,1,2,3:2:0:0:
234,293,77625,1,10,0:0:0:0:
328,209,77819,6,0,P|347:157|323:102,1,115.50000352478,2|0,3:2|0:0,0:0:0:0:
330,98,78206,2,0,P|294:55|234:48,1,115.50000352478,2|0,3:2|0:0,0:0:0:0:
234,40,78593,2,0,P|178:49|142:98,1,115.50000352478,2|0,3:2|0:0,0:0:0:0:
148,103,78980,1,2,3:2:0:0:
68,41,79174,1,8,0:0:0:0:
1,141,79367,6,0,P|12:214|19:312,1,154.000004699707,2|2,3:2|3:2,0:0:0:0:
103,347,79948,1,10,0:0:0:0:
176,279,80141,2,0,P|170:242|167:193,1,77.0000023498536,2|2,3:2|0:3,0:0:0:0:
176,191,80432,1,2,0:3:0:0:
187,180,80529,2,0,P|223:175|272:171,1,77.0000023498536,2|8,3:2|0:0,0:0:0:0:
310,82,80916,6,0,P|353:42|424:45,1,115.50000352478,2|0,3:2|0:0,0:0:0:0:
415,34,81303,2,0,P|467:60|488:128,1,115.50000352478,2|0,3:2|0:0,0:0:0:0:
500,120,81690,1,2,3:2:0:0:
489,218,81883,1,8,0:0:0:0:
404,164,82077,1,8,0:0:0:0:
393,262,82270,1,8,0:0:0:0:
480,325,82464,6,0,P|399:315|321:313,1,154.000004699707,2|2,3:2|3:2,0:0:0:0:
251,379,83045,1,10,0:0:0:0:
177,311,83238,2,0,P|150:267|184:212,1,115.50000352478,2|2,3:2|0:3,0:0:0:0:
190,213,83625,1,2,3:2:0:0:
287,246,83819,1,10,0:0:0:0:
386,155,84012,6,0,P|388:89|394:24,1,115.50000352478,2|0,3:2|0:0,0:0:0:0:
401,32,84400,2,0,P|335:30|270:24,1,115.50000352478,2|0,3:2|0:0,0:0:0:0:
278,17,84787,2,0,P|276:83|270:148,1,115.50000352478,2|0,3:2|0:0,0:0:0:0:
263,140,85174,1,2,3:2:0:0:
179,85,85367,1,8,0:0:0:0:
30,138,85561,6,0,P|34:80|36:22,1,115.50000352478,10|10,3:2|0:0,0:0:0:0:
28,15,85948,2,0,P|74:18|120:19,1,77.0000023498536,10|10,3:2|0:0,0:0:0:0:
179,85,86335,1,10,3:2:0:0:
251,16,86529,1,10,0:0:0:0:
313,94,86722,1,10,3:2:0:0:
494,10,87109,5,10,3:2:0:0:
486,117,87303,1,10,0:0:0:0:
486,117,87400,1,2,0:0:0:0:
486,117,87496,1,10,3:2:0:0:
475,216,87690,1,10,0:0:0:0:
469,315,87883,1,10,0:0:0:0:
261,363,88270,6,0,B|226:318|226:318|272:252,1,115.50000352478,0|0,3:0|0:0,0:0:0:0:
271,267,88658,6,0,P|275:197|284:104,1,154.000004699707,6|2,3:2|3:2,0:0:0:0:
213,41,89238,1,10,0:0:0:0:
129,96,89432,2,0,P|125:154|118:231,1,115.50000352478,2|2,3:2|0:3,0:0:0:0:
128,220,89819,1,2,3:2:0:0:
54,287,90012,1,10,0:0:0:0:
137,371,90206,6,0,P|217:361|266:358,1,115.50000352478,2|0,3:2|0:0,0:0:0:0:
259,367,90593,2,0,P|339:357|388:354,1,115.50000352478,2|0,3:2|0:0,0:0:0:0:
381,363,90980,2,0,P|461:353|510:350,1,115.50000352478,2|0,3:2|0:0,0:0:0:0:
504,358,91367,1,2,3:2:0:0:
448,274,91561,1,8,0:0:0:0:
510,196,91754,5,2,3:2:0:0:
403,26,92141,2,0,P|350:21|313:15,1,77.0000023498536,2|10,3:2|0:0,0:0:0:0:
240,70,92529,1,2,3:2:0:0:
240,70,92722,1,2,0:3:0:0:
161,7,92916,2,0,P|108:2|71:-4,1,77.0000023498536,2|8,3:2|0:0,0:0:0:0:
2,86,93303,6,0,B|49:121|49:121|19:189,1,115.50000352478,2|0,3:2|0:0,0:0:0:0:
16,176,93690,2,0,B|-6:228|-6:228|40:263,1,115.50000352478,2|0,3:2|0:0,0:0:0:0:
51,261,94077,1,2,3:2:0:0:
5,349,94270,1,8,0:0:0:0:
100,379,94464,1,8,0:0:0:0:
146,291,94657,1,8,0:0:0:0:
107,160,94851,6,0,P|181:150|280:138,1,154.000004699707,2|2,3:2|3:2,0:0:0:0:
346,191,95432,1,10,0:0:0:0:
432,140,95625,2,0,P|459:98|432:33,1,115.50000352478,2|2,3:2|0:3,0:0:0:0:
431,33,96012,1,2,3:2:0:0:
339,74,96206,1,10,0:0:0:0:
212,20,96400,6,0,P|160:1|105:25,1,115.50000352478,2|0,3:2|0:0,0:0:0:0:
101,18,96787,2,0,P|58:54|51:114,1,115.50000352478,2|0,3:2|0:0,0:0:0:0:
43,114,97174,2,0,P|52:170|101:206,1,115.50000352478,2|0,3:2|0:0,0:0:0:0:
106,200,97561,1,2,3:2:0:0:
183,263,97754,1,8,0:0:0:0:
299,170,97948,6,0,P|290:113|279:48,1,115.50000352478,10|10,3:2|0:0,0:0:0:0:
275,43,98335,2,0,P|308:8|354:15,1,77.0000023498536,10|10,3:2|0:0,0:0:0:0:
421,56,98722,1,10,3:2:0:0:
434,155,98916,1,10,0:0:0:0:
447,254,99109,1,10,3:2:0:0:
283,369,99496,5,10,3:2:0:0:
224,301,99690,1,10,0:0:0:0:
224,301,99787,1,2,0:0:0:0:
224,301,99883,1,10,3:2:0:0:
123,296,100077,1,10,0:0:0:0:
57,371,100270,1,10,0:0:0:0:
57,371,100658,5,10,3:2:0:0:
114,292,100851,1,10,0:0:0:0:
114,292,100948,1,2,0:0:0:0:
114,292,101045,1,10,3:2:0:0:
101,192,101238,1,10,0:0:0:0:
25,126,101432,1,10,0:0:0:0:
25,126,101819,5,10,3:2:0:0:
214,189,102206,1,10,3:2:0:0:
356,75,102593,1,10,3:2:0:0:
