osu file format v14

[General]
AudioFilename: mp3.mp3
AudioLeadIn: 0
PreviewTime: 81211
Countdown: 0
SampleSet: Normal
StackLeniency: 0.7
Mode: 1
LetterboxInBreaks: 0
WidescreenStoryboard: 0

[Editor]
DistanceSpacing: 0.9
BeatDivisor: 16
GridSize: 32
TimelineZoom: 2.899999

[Metadata]
Title:efchi
TitleUnicode:ευχή
Artist:seatrus
ArtistUnicode:seatrus
Creator:ikin5050
Version:Inner Oni
Source:
Tags:Faputa frontier electronic instrumental revolution hardcore artcore
BeatmapID:3002413
BeatmapSetID:1461343

[Difficulty]
HPDrainRate:5
CircleSize:5
OverallDifficulty:6.5
ApproachRate:5
SliderMultiplier:1.4
SliderTickRate:1

[Events]
//Background and Video events
0,0,"efchi.jpg",0,0
//Break Periods
//Storyboard Layer 0 (Background)
//Storyboard Layer 1 (Fail)
//Storyboard Layer 2 (Pass)
//Storyboard Layer 3 (Foreground)
//Storyboard Layer 4 (Overlay)
//Storyboard Sound Samples

[TimingPoints]
1186,300,4,1,0,70,1,0
1186,-125,4,1,0,70,0,0
4786,300,3,1,0,70,1,0
4786,-125,4,1,0,70,0,0
5686,-125,4,1,0,80,0,0
5986,-119.58489690586,4,1,0,80,0,0
6136,-117.049418264391,4,1,0,80,0,0
6286,-114.619354853499,4,1,0,80,0,0
6436,-112.288140351192,4,1,0,80,0,0
6586,-110.049863593194,4,1,0,80,0,0
6736,-107.899075520721,4,1,0,80,0,0
6886,-105.830632888351,4,1,0,80,0,0
7036,-103.840111150455,4,1,0,80,0,0
7186,-101.923084763314,4,1,0,80,0,0
7261,-100.990820944284,4,1,0,80,0,0
7336,-100.075557045569,4,1,0,80,0,0
7486,-86.9565217391304,4,1,0,100,0,0
11086,-90.9090909090909,4,1,0,100,0,0
11236,-93.7297602299004,4,1,0,100,0,0
11386,-96.7311637823046,4,1,0,100,0,0
11536,-99.9310475771717,4,1,0,100,0,0
11686,-103.349986461152,4,1,0,100,0,0
11736,-104.54214721207,4,1,0,100,0,0
11786,-105.762244359435,4,1,0,100,0,0
11836,-107.011042469472,4,1,0,100,0,0
11911,-108.940650223165,4,1,0,100,0,0
11986,300,4,1,0,100,1,0
11986,-110.941124654557,4,1,0,100,0,0
12023,-110.941124654557,4,1,0,85,0,0
22186,-142.857142857143,4,1,0,75,0,0
23686,-125,4,1,0,85,0,0
23761,-121.212121212121,4,1,0,85,0,0
23836,-117.647058823529,4,1,0,85,0,0
23911,-114.285714285714,4,1,0,85,0,0
23986,-111.111111111111,4,1,0,85,0,0
24023,-111.111111111111,4,1,0,80,0,0
30136,-108.123303815671,4,1,0,80,0,0
30211,-106.688744124117,4,1,0,80,0,0
30286,-105.29186378181,4,1,0,80,0,0
30436,-102.605039343902,4,1,0,80,0,0
30511,-101.312298198566,4,1,0,80,0,0
30586,-100.051826846306,4,1,0,80,0,0
30661,-98.8223342428282,4,1,0,80,0,0
30736,-97.6226921995564,4,1,0,80,0,0
30811,-96.4517336234601,4,1,0,80,0,0
30886,-95.3086236195737,4,1,0,80,0,0
30961,-94.1922916796181,4,1,0,80,0,0
31036,-93.1018077578012,4,1,0,80,0,0
31111,-92.0362843847558,4,1,0,80,0,0
31186,-90.9947914581369,4,1,0,100,0,0
32086,-90.9090909090909,4,1,0,100,0,0
32236,-91.8324241923338,4,1,0,100,0,0
32311,-92.301160225584,4,1,0,100,0,0
32386,-92.7747059041823,4,1,0,100,0,0
32536,-93.7365253744774,4,1,0,100,0,0
32611,-94.2249526519613,4,1,0,100,0,0
32686,-94.7184966280215,4,1,0,100,0,0
32836,-95.7212596917775,4,1,0,100,0,0
32911,-96.230553008119,4,1,0,100,0,0
32986,-96.745388389199,4,1,0,100,0,0
33136,-97.7917641732049,4,1,0,100,0,0
33211,-98.3234862361868,4,1,0,100,0,0
33286,-98.8610221636526,4,1,0,100,0,0
33436,-99.9539212423073,4,1,0,100,0,0
33586,-90.9090909090909,4,1,0,100,0,0
34861,-91.4603473663993,4,1,0,100,0,0
34936,-92.0183300513462,4,1,0,100,0,0
34986,-92.3941163426713,4,1,0,100,0,0
35036,-92.7728984387249,4,1,0,100,0,0
35086,-93.1548858340297,4,1,0,100,0,0
35236,-94.3199578201149,4,1,0,100,0,0
35311,-94.9134910985382,4,1,0,100,0,0
35386,-95.5145416113876,4,1,0,100,0,0
35536,-96.739679327311,4,1,0,100,0,0
35686,-97.9967504277558,4,1,0,100,0,0
35761,-98.5221674876847,4,1,0,100,0,0
35836,-99.2869213310008,4,1,0,100,0,0
35986,-90.9947914581369,4,1,0,100,0,0
38386,-90.9090909090909,4,1,0,100,0,0
38536,-91.8005577801891,4,1,0,100,0,0
38611,-92.2529650102954,4,1,0,100,0,0
38686,-92.7097674375484,4,1,0,100,0,0
38836,-93.637079534399,4,1,0,100,0,0
38911,-94.1078155599744,4,1,0,100,0,0
38986,-94.583219045277,4,1,0,100,0,0
39136,-95.5485826323252,4,1,0,100,0,0
39286,-96.5339485763656,4,1,0,100,0,0
39436,-97.5397547655486,4,1,0,100,0,0
39511,-98.0506549293496,4,1,0,100,0,0
39586,-98.5668381729651,4,1,0,100,0,0
39736,-99.6156826961582,4,1,0,100,0,0
39811,-100.148620552901,4,1,0,100,0,0
39886,-100.687190072243,4,1,0,100,0,0
40036,-101.781895647094,4,1,0,100,0,0
40111,-102.338328467146,4,1,0,100,0,0
40186,-102.900772784804,4,1,0,100,0,0
40261,-103.46943357728,4,1,0,100,0,0
40336,-104.044414479653,4,1,0,100,0,0
40411,-104.62593090922,4,1,0,100,0,0
40486,-105.21387350136,4,1,0,100,0,0
40748,-117.647058823529,4,1,0,85,0,0
41761,-116.37027158494,4,1,0,85,0,0
41836,-115.120767441084,4,1,0,85,0,0
41911,-113.897940611336,4,1,0,85,0,0
41986,-112.700691756846,4,1,0,85,0,0
42136,-110.38027107187,4,1,0,85,0,0
42211,-109.255587057583,4,1,0,85,0,0
42286,-108.153591077761,4,1,0,85,0,0
42361,-107.073488818316,4,1,0,85,0,0
42436,-106.014859042643,4,1,0,85,0,0
42511,-104.976847356316,4,1,0,85,0,0
42586,-103.959073391987,4,1,0,85,0,0
42736,-101.981500555799,4,1,0,85,0,0
42886,-100.077760419846,4,1,0,85,0,0
43186,-100.077760419846,4,1,0,100,0,0
43486,-86.9565217391304,4,1,0,100,0,0
43823,-100.077760419846,4,1,0,100,0,0
44086,-86.9565217391304,4,1,0,100,0,0
44423,-100.077760419846,4,1,0,100,0,0
44611,-86.9565217391304,4,1,0,100,0,0
45136,-88.8888888888889,4,1,0,100,0,0
45286,-93.0232558139535,4,1,0,100,0,0
45436,-96.3855421686747,4,1,0,100,0,0
45586,-100,4,1,0,100,0,0
47986,-86.9565217391304,4,1,0,100,0,0
48061,-90.9090909090909,4,1,0,100,0,0
48136,-95.2380952380952,4,1,0,100,0,0
48286,-86.9565217391304,4,1,0,100,0,0
48361,-90.9090909090909,4,1,0,100,0,0
48436,-95.2380952380952,4,1,0,100,0,0
48586,-86.9565217391304,4,1,0,100,0,0
48661,-87.6674667784135,4,1,0,100,0,0
48736,-88.3902109609165,4,1,0,100,0,0
48811,-89.1248916018506,4,1,0,100,0,0
48886,-89.8719683938262,4,1,0,100,0,0
48961,-90.6315934484234,4,1,0,100,0,0
49036,-91.4042526742599,4,1,0,100,0,0
49111,-92.1901144540271,4,1,0,100,0,0
49186,-92.9896065516757,4,1,0,100,0,0
49261,-93.8031746746437,4,1,0,100,0,0
49336,-94.6310147472973,4,1,0,100,0,0
49411,-95.4736879289752,4,1,0,100,0,0
49486,-96.3314108794769,4,1,0,100,0,0
49561,-97.2047793645918,4,1,0,100,0,0
49636,-98.0940329399763,4,1,0,100,0,0
49711,-98.9997069608674,4,1,0,100,0,0
49786,-99.9223603260267,4,1,0,100,0,0
49936,-103.854346356322,4,1,0,100,0,0
50086,-108.017840226492,4,1,0,100,0,0
50236,-112.528976211374,4,1,0,100,0,0
50386,-117.433468068666,4,1,0,100,0,0
50461,-116.91243609274,4,1,0,100,0,0
50536,-116.186930829273,4,1,0,100,0,0
50611,-115.470241009487,4,1,0,100,0,0
50686,-114.762470376937,4,1,0,100,0,0
50836,-113.372643407891,4,1,0,100,0,0
50911,-112.690150542772,4,1,0,100,0,0
50986,-112.015951071433,4,1,0,100,0,0
51061,-111.349770786497,4,1,0,100,0,0
51136,-110.691467458922,4,1,0,100,0,0
51286,-109.397819701453,4,1,0,100,0,0
51361,-108.762328209903,4,1,0,100,0,0
51436,-108.134177212452,4,1,0,100,0,0
51586,-106.899279498856,4,1,0,100,0,0
51736,-105.692380213541,4,1,0,100,0,0
51886,-104.512319389648,4,1,0,100,0,0
52036,-103.358425313719,4,1,0,100,0,0
52111,-102.79087504844,4,1,0,100,0,0
52186,-102.229628190842,4,1,0,100,0,0
52336,-101.125322589779,4,1,0,100,0,0
52486,-100.044519811316,4,1,0,100,0,0
53086,-86.9565217391304,4,1,0,100,0,0
55186,-100,4,1,0,100,0,0
57586,-86.9565217391304,4,1,0,100,0,0
57661,-90.9090909090909,4,1,0,100,0,0
57736,-95.2380952380952,4,1,0,100,0,0
57886,-86.9565217391304,4,1,0,100,0,0
57961,-90.9090909090909,4,1,0,100,0,0
58036,-95.2380952380952,4,1,0,100,0,0
58186,-86.9565217391304,4,1,0,100,0,0
58261,-87.4300122751737,4,1,0,100,0,0
58336,-87.9087647675736,4,1,0,100,0,0
58411,-88.3927111370396,4,1,0,100,0,0
58486,-88.8820153463688,4,1,0,100,0,0
58561,-89.376846749096,4,1,0,100,0,0
58636,-89.877137952419,4,1,0,100,0,0
58711,-90.3831431822639,4,1,0,100,0,0
58786,-90.8947956366862,4,1,0,100,0,0
58861,-91.41227392602,4,1,0,100,0,0
58936,-91.9357626439254,4,1,0,100,0,0
59011,-92.4651961001879,4,1,0,100,0,0
59086,-93.0007626062534,4,1,0,100,0,0
59161,-93.5426568546656,4,1,0,100,0,0
59236,-94.090814572409,4,1,0,100,0,0
59311,-94.6455241185189,4,1,0,100,0,0
59386,-95.2067223562521,4,1,0,100,0,0
59461,-95.774615512806,4,1,0,100,0,0
59536,-96.3494169415034,4,1,0,100,0,0
59611,-96.9310655341241,4,1,0,100,0,0
59686,-97.5197794492668,4,1,0,100,0,0
59761,-98.1157844749432,4,1,0,100,0,0
59836,-98.7190219709055,4,1,0,100,0,0
59986,-99.9481269221274,4,1,0,100,0,0
60136,-99.3804621986536,4,1,0,100,0,0
60286,-98.7685536728074,4,1,0,100,0,0
60436,-98.1642307212813,4,1,0,100,0,0
60511,-97.864786096937,4,1,0,100,0,0
60586,-97.5671627956895,4,1,0,100,0,0
60661,-97.271344251069,4,1,0,100,0,0
60736,-96.9773140969133,4,1,0,100,0,0
60886,-96.3945544788284,4,1,0,100,0,0
61036,-95.8188487173689,4,1,0,100,0,0
61186,-95.2498880813815,4,1,0,100,0,0
61336,-94.6876443986577,4,1,0,100,0,0
61486,-94.1319994201469,4,1,0,100,0,0
61636,-93.5829252337935,4,1,0,100,0,0
61711,-93.3107396928957,4,1,0,100,0,0
61786,-93.0401328613097,4,1,0,100,0,0
61936,-92.5036007026573,4,1,0,100,0,0
62086,-91.9732210769512,4,1,0,100,0,0
62236,-91.4489723878973,4,1,0,100,0,0
62386,-90.9305835924855,4,1,0,100,0,0
62498,-133.333333333333,4,1,0,75,0,0
71761,-125.15957846254,4,1,0,100,0,0
71836,-117.930230117258,4,1,0,100,0,0
71911,-111.490302016079,4,1,0,100,0,0
71986,-105.717408908595,4,1,0,80,0,0
76786,-105.263157894737,4,1,0,80,0,0
76936,-104.440387515614,4,1,0,80,0,0
77086,-103.630272060553,4,1,0,80,0,0
77236,-102.832733304334,4,1,0,80,0,0
77386,-102.047272378457,4,1,0,80,0,0
77536,-101.273822134812,4,1,0,80,0,0
77686,-100.512008169616,4,1,0,80,0,0
77836,-99.7614703244542,4,1,0,80,0,0
77986,-99.0221562074514,4,1,0,80,0,0
78136,-98.2936227097586,4,1,0,80,0,0
78286,-97.5758261745202,4,1,0,80,0,0
78436,-96.8684371633822,4,1,0,80,0,0
78586,-96.17113846432,4,1,0,80,0,0
78736,-95.4838980728485,4,1,0,80,0,0
78886,-94.8063201685277,4,1,0,80,0,0
79036,-94.1383796525541,4,1,0,80,0,0
79186,-93.4796976118742,4,1,0,80,0,0
79261,-93.1538445057397,4,1,0,80,0,0
79336,-92.8302552367868,4,1,0,80,0,0
79411,-92.5089062949535,4,1,0,80,0,0
79486,-92.1897744945926,4,1,0,80,0,0
79561,-91.8727525627904,4,1,0,80,0,0
79636,-91.5579873356992,4,1,0,80,0,0
79711,-91.2453715785267,4,1,0,80,0,0
79786,-90.9348833487316,4,1,0,80,0,0
80386,-90.9090909090909,4,1,0,80,0,0
80536,-93.7297602299004,4,1,0,80,0,0
80611,-95.2068129995382,4,1,0,80,0,0
80686,-96.7311637823046,4,1,0,80,0,0
80836,-99.9310475771717,4,1,0,80,0,0
80911,-101.611765829589,4,1,0,80,0,0
81061,-105.148711823131,4,1,0,80,0,0
81136,-107.011042469472,4,1,0,80,0,0
81286,-110.941124654557,4,1,0,80,0,0
81586,-100,4,1,0,100,0,1
91186,-100,4,1,0,100,0,0
91223,-100,4,1,0,70,0,0
91486,-80,4,1,0,100,0,1
91523,-100,4,1,0,100,0,1
99586,-100,4,1,0,100,0,1
99736,-101.683057975612,4,1,0,100,0,1
99811,-102.546012395762,4,1,0,100,0,1
99886,-103.423632506875,4,1,0,100,0,1
100036,-105.224944625373,4,1,0,100,0,1
100111,-106.149337256613,4,1,0,100,0,1
100186,-107.090115261091,4,1,0,100,0,1
100261,-108.047718194263,4,1,0,100,0,1
100336,-109.022601475512,4,1,0,100,0,1
100411,-110.015116076949,4,1,0,100,0,1
100486,-111.025991184536,4,1,0,100,0,0
100786,-111.111111111111,4,1,0,100,0,0
100936,-108.108108108108,4,1,0,100,0,0
101086,-105.29186378181,4,1,0,100,0,0
101236,-102.605039343902,4,1,0,100,0,0
101386,-100.051826846306,4,1,0,100,0,0
101536,-97.6226921995564,4,1,0,100,0,0
101686,-95.3086236195737,4,1,0,100,0,0
101836,-93.1018077578012,4,1,0,100,0,0
101986,-90.9947914581369,4,1,0,100,0,0
103186,-90.9090909090909,4,1,0,80,0,0
103336,-91.6885267395835,4,1,0,80,0,0
103486,-92.481358070247,4,1,0,80,0,0
103636,-93.2881072589342,4,1,0,80,0,0
103786,-94.1090554556431,4,1,0,80,0,0
103936,-94.9444907035102,4,1,0,80,0,0
104086,-95.7949834083089,4,1,0,80,0,0
104236,-96.6608509054705,4,1,0,80,0,0
104386,-97.542418759358,4,1,0,80,0,0
104536,-98.440311701403,4,1,0,80,0,0
104686,-99.3547899937804,4,1,0,80,0,0
104836,-100.286518583593,4,1,0,80,0,0
104986,-101.235887717252,4,1,0,80,0,0
105136,-102.203298713669,4,1,0,80,0,0
105211,-102.694076400285,4,1,0,80,0,0
105286,-103.189483753332,4,1,0,80,0,0
105436,-104.194886114989,4,1,0,80,0,0
105586,-105.263157894737,4,1,0,90,0,0
105736,-104.092717465301,4,1,0,90,0,0
105886,-102.947913503163,4,1,0,90,0,0
106036,-101.828120242718,4,1,0,90,0,0
106186,-100.732323995447,4,1,0,90,0,0
106336,-99.6599602157439,4,1,0,90,0,0
106486,-98.6100907705886,4,1,0,90,0,0
106636,-97.5822056896281,4,1,0,90,0,0
106786,-96.575435072335,4,1,0,90,0,0
106936,-95.5893177025681,4,1,0,90,0,0
107086,-94.6230454427176,4,1,0,90,0,0
107236,-93.6762007181218,4,1,0,90,0,0
107386,-92.748031423033,4,1,0,90,0,0
107536,-91.838159122468,4,1,0,90,0,0
107686,-90.9458826525276,4,1,0,90,0,0
107986,-90.9458826525276,4,1,0,100,0,0
109786,-90.9090909090909,4,1,0,100,0,0
109861,-91.9431166326017,4,1,0,100,0,0
109936,-93.000935589412,4,1,0,100,0,0
110011,-94.0833785717579,4,1,0,100,0,0
110086,-95.1914061198555,4,1,0,100,0,0
110161,-96.3257505702484,4,1,0,100,0,0
110236,-97.4874558016247,4,1,0,100,0,0
110311,-98.6775238256881,4,1,0,100,0,0
110386,-99.8970061866216,4,1,0,100,0,0
110536,-99.8970061866216,4,1,0,90,0,0
111586,-99.8970061866216,4,1,0,75,0,0
112186,-99.8970061866216,4,1,0,50,0,0
112786,-99.8970061866216,4,1,0,20,0,0

[HitObjects]
288,192,1186,5,4,0:0:0:0:
288,192,1786,1,8,0:0:0:0:
288,192,1936,1,0,0:0:0:0:
288,192,2086,1,8,0:0:0:0:
288,192,2236,1,8,0:0:0:0:
288,192,2386,1,0,0:0:0:0:
288,192,3286,1,0,0:0:0:0:
288,192,3436,1,8,0:0:0:0:
288,192,3586,1,0,0:0:0:0:
288,192,4186,1,8,0:0:0:0:
288,192,4336,1,0,0:0:0:0:
288,192,4486,1,8,0:0:0:0:
288,192,4636,1,8,0:0:0:0:
288,192,4786,1,0,0:0:0:0:
288,192,5686,1,12,0:0:0:0:
288,192,5986,1,0,0:0:0:0:
288,192,6136,1,0,0:0:0:0:
288,192,6286,1,8,0:0:0:0:
288,192,6436,1,8,0:0:0:0:
288,192,6586,1,8,0:0:0:0:
288,192,6736,1,0,0:0:0:0:
288,192,6886,1,8,0:0:0:0:
288,192,7036,1,0,0:0:0:0:
288,192,7186,1,8,0:0:0:0:
288,192,7261,1,8,0:0:0:0:
288,192,7336,1,0,0:0:0:0:
256,192,7486,1,12,0:0:0:0:
256,192,7636,1,4,0:0:0:0:
256,192,7936,1,4,0:0:0:0:
256,192,8086,1,4,0:0:0:0:
256,192,8386,1,12,0:0:0:0:
256,192,8536,1,4,0:0:0:0:
256,192,8836,1,4,0:0:0:0:
256,192,8986,1,12,0:0:0:0:
256,192,9136,1,4,0:0:0:0:
256,192,9436,1,4,0:0:0:0:
256,192,9586,1,4,0:0:0:0:
256,192,9886,1,12,0:0:0:0:
256,192,10036,1,12,0:0:0:0:
256,192,10186,1,4,0:0:0:0:
256,192,10486,1,4,0:0:0:0:
256,192,10786,1,4,0:0:0:0:
256,192,11086,1,4,0:0:0:0:
256,192,11236,1,4,0:0:0:0:
256,192,11386,1,4,0:0:0:0:
256,192,11536,1,4,0:0:0:0:
256,192,11686,1,8,0:0:0:0:
256,192,11736,1,8,0:0:0:0:
256,192,11786,1,8,0:0:0:0:
256,192,11836,1,0,0:0:0:0:
256,192,11911,1,0,0:0:0:0:
256,192,11986,1,8,0:0:0:0:
256,192,12286,1,12,0:0:0:0:
256,192,12436,1,0,0:0:0:0:
256,192,12736,1,0,0:0:0:0:
256,192,12886,1,8,0:0:0:0:
256,192,13036,1,0,0:0:0:0:
256,192,13336,1,0,0:0:0:0:
256,192,13486,1,8,0:0:0:0:
256,192,13786,1,8,0:0:0:0:
256,192,13861,1,0,0:0:0:0:
256,192,13936,1,8,0:0:0:0:
256,192,14011,1,0,0:0:0:0:
256,192,14086,1,8,0:0:0:0:
256,192,14161,1,8,0:0:0:0:
256,192,14236,1,0,0:0:0:0:
256,192,14311,1,0,0:0:0:0:
256,192,14386,1,8,0:0:0:0:
256,192,14686,1,8,0:0:0:0:
256,192,14836,1,0,0:0:0:0:
256,192,15136,1,0,0:0:0:0:
256,192,15286,1,8,0:0:0:0:
256,192,15736,1,0,0:0:0:0:
256,192,15886,1,8,0:0:0:0:
256,192,16186,1,0,0:0:0:0:
256,192,16286,1,8,0:0:0:0:
256,192,16386,1,8,0:0:0:0:
256,192,16486,1,0,0:0:0:0:
256,192,16586,1,8,0:0:0:0:
256,192,16686,1,8,0:0:0:0:
256,192,16786,1,0,0:0:0:0:
256,192,17086,1,8,0:0:0:0:
256,192,17236,1,0,0:0:0:0:
256,192,17536,1,0,0:0:0:0:
256,192,17686,1,8,0:0:0:0:
256,192,17836,1,0,0:0:0:0:
256,192,17911,1,8,0:0:0:0:
256,192,17986,1,0,0:0:0:0:
256,192,18136,1,0,0:0:0:0:
256,192,18286,1,8,0:0:0:0:
256,192,18436,1,8,0:0:0:0:
256,192,18736,1,8,0:0:0:0:
256,192,18886,1,0,0:0:0:0:
256,192,19036,1,8,0:0:0:0:
256,192,19186,1,0,0:0:0:0:
256,192,19486,1,8,0:0:0:0:
256,192,19636,1,0,0:0:0:0:
256,192,19936,1,0,0:0:0:0:
256,192,20086,1,8,0:0:0:0:
256,192,20236,1,0,0:0:0:0:
256,192,20311,1,0,0:0:0:0:
256,192,20386,1,8,0:0:0:0:
256,192,20536,1,0,0:0:0:0:
256,192,20686,1,8,0:0:0:0:
256,192,20836,1,0,0:0:0:0:
256,192,21136,1,8,0:0:0:0:
256,192,21286,1,0,0:0:0:0:
256,192,21586,1,12,0:0:0:0:
256,192,22186,1,8,0:0:0:0:
256,192,22411,1,0,0:0:0:0:
256,192,22486,1,8,0:0:0:0:
256,192,22636,1,0,0:0:0:0:
256,192,22786,1,8,0:0:0:0:
256,192,22861,1,8,0:0:0:0:
256,192,22936,1,8,0:0:0:0:
256,192,23086,1,0,0:0:0:0:
256,192,23236,1,8,0:0:0:0:
256,192,23311,1,0,0:0:0:0:
256,192,23386,1,8,0:0:0:0:
256,192,23536,1,0,0:0:0:0:
256,192,23686,1,8,0:0:0:0:
256,192,23761,1,8,0:0:0:0:
256,192,23836,1,8,0:0:0:0:
256,192,23911,1,8,0:0:0:0:
256,192,23986,1,4,0:0:0:0:
256,192,24136,1,8,0:0:0:0:
256,192,24211,1,8,0:0:0:0:
256,192,24286,1,0,0:0:0:0:
256,192,24436,1,8,0:0:0:0:
256,192,24586,1,8,0:0:0:0:
256,192,24736,1,0,0:0:0:0:
256,192,24886,1,8,0:0:0:0:
256,192,25336,1,0,0:0:0:0:
256,192,25486,1,8,0:0:0:0:
256,192,25936,1,0,0:0:0:0:
256,192,26086,1,8,0:0:0:0:
256,192,26236,1,0,0:0:0:0:
256,192,26311,1,0,0:0:0:0:
256,192,26386,1,12,0:0:0:0:
256,192,26686,1,8,0:0:0:0:
256,192,26986,1,8,0:0:0:0:
256,192,27136,1,0,0:0:0:0:
256,192,27286,1,8,0:0:0:0:
256,192,27436,1,0,0:0:0:0:
256,192,27586,1,12,0:0:0:0:
256,192,27736,1,8,0:0:0:0:
256,192,27886,1,0,0:0:0:0:
256,192,28186,1,0,0:0:0:0:
256,192,28336,1,0,0:0:0:0:
256,192,28411,1,0,0:0:0:0:
256,192,28486,1,8,0:0:0:0:
256,192,28636,1,0,0:0:0:0:
256,192,28786,1,12,0:0:0:0:
256,192,29086,1,8,0:0:0:0:
256,192,29311,1,0,0:0:0:0:
256,192,29386,1,8,0:0:0:0:
256,192,29536,1,0,0:0:0:0:
256,192,29686,1,8,0:0:0:0:
256,192,29836,1,0,0:0:0:0:
256,192,29911,1,0,0:0:0:0:
256,192,29986,1,12,0:0:0:0:
256,192,30136,1,0,0:0:0:0:
256,192,30211,1,8,0:0:0:0:
256,192,30286,1,0,0:0:0:0:
256,192,30436,1,0,0:0:0:0:
256,192,30511,1,0,0:0:0:0:
256,192,30586,1,8,0:0:0:0:
256,192,30661,1,8,0:0:0:0:
256,192,30736,1,8,0:0:0:0:
256,192,30811,1,8,0:0:0:0:
256,192,30886,1,0,0:0:0:0:
256,192,30961,1,0,0:0:0:0:
256,192,31036,1,8,0:0:0:0:
256,192,31111,1,0,0:0:0:0:
256,192,31186,1,12,0:0:0:0:
256,192,31336,1,0,0:0:0:0:
256,192,31411,1,0,0:0:0:0:
256,192,31486,1,8,0:0:0:0:
256,192,31561,1,8,0:0:0:0:
256,192,31636,1,4,0:0:0:0:
256,192,31786,1,8,0:0:0:0:
256,192,31861,1,8,0:0:0:0:
256,192,31936,1,0,0:0:0:0:
256,192,32086,1,12,0:0:0:0:
256,192,32236,1,0,0:0:0:0:
256,192,32311,1,0,0:0:0:0:
256,192,32386,1,8,0:0:0:0:
256,192,32536,1,8,0:0:0:0:
256,192,32611,1,0,0:0:0:0:
256,192,32686,1,8,0:0:0:0:
256,192,32836,1,0,0:0:0:0:
256,192,32911,1,0,0:0:0:0:
256,192,32986,1,8,0:0:0:0:
256,192,33136,1,8,0:0:0:0:
256,192,33211,1,0,0:0:0:0:
256,192,33286,1,8,0:0:0:0:
256,192,33436,1,8,0:0:0:0:
256,192,33586,1,4,0:0:0:0:
256,192,33736,1,8,0:0:0:0:
256,192,33811,1,8,0:0:0:0:
256,192,33886,1,0,0:0:0:0:
256,192,33961,1,0,0:0:0:0:
256,192,34036,1,12,0:0:0:0:
256,192,34186,1,0,0:0:0:0:
256,192,34261,1,0,0:0:0:0:
256,192,34336,1,8,0:0:0:0:
256,192,34486,1,4,0:0:0:0:
256,192,34786,1,0,0:0:0:0:
256,192,34861,1,0,0:0:0:0:
256,192,34936,1,8,0:0:0:0:
256,192,34986,1,8,0:0:0:0:
256,192,35036,1,8,0:0:0:0:
256,192,35086,1,0,0:0:0:0:
256,192,35236,1,8,0:0:0:0:
256,192,35311,1,0,0:0:0:0:
256,192,35386,1,8,0:0:0:0:
256,192,35536,1,8,0:0:0:0:
256,192,35686,1,0,0:0:0:0:
256,192,35761,1,8,0:0:0:0:
256,192,35836,1,0,0:0:0:0:
256,192,35986,1,12,0:0:0:0:
256,192,36136,1,0,0:0:0:0:
256,192,36211,1,8,0:0:0:0:
256,192,36286,1,0,0:0:0:0:
256,192,36361,1,0,0:0:0:0:
256,192,36436,1,12,0:0:0:0:
256,192,36586,1,8,0:0:0:0:
256,192,36661,1,8,0:0:0:0:
256,192,36736,1,0,0:0:0:0:
256,192,36886,1,12,0:0:0:0:
256,192,37036,1,0,0:0:0:0:
256,192,37111,1,0,0:0:0:0:
256,192,37186,1,8,0:0:0:0:
256,192,37336,1,4,0:0:0:0:
256,192,37486,1,8,0:0:0:0:
256,192,37561,1,8,0:0:0:0:
256,192,37636,1,0,0:0:0:0:
256,192,37786,1,4,0:0:0:0:
256,192,37936,1,8,0:0:0:0:
256,192,38011,1,8,0:0:0:0:
256,192,38086,1,4,0:0:0:0:
256,192,38236,1,8,0:0:0:0:
256,192,38311,1,8,0:0:0:0:
256,192,38386,1,4,0:0:0:0:
256,192,38536,1,8,0:0:0:0:
256,192,38611,1,0,0:0:0:0:
256,192,38686,1,8,0:0:0:0:
256,192,38836,1,0,0:0:0:0:
256,192,38911,1,0,0:0:0:0:
256,192,38986,1,8,0:0:0:0:
256,192,39136,1,8,0:0:0:0:
256,192,39286,1,0,0:0:0:0:
256,192,39436,1,8,0:0:0:0:
256,192,39511,1,0,0:0:0:0:
256,192,39586,1,8,0:0:0:0:
256,192,39736,1,0,0:0:0:0:
256,192,39811,1,0,0:0:0:0:
256,192,39886,1,8,0:0:0:0:
256,192,40036,1,8,0:0:0:0:
256,192,40111,1,8,0:0:0:0:
256,192,40186,1,0,0:0:0:0:
256,192,40261,1,0,0:0:0:0:
256,192,40336,1,0,0:0:0:0:
256,192,40411,1,0,0:0:0:0:
256,192,40486,1,8,0:0:0:0:
256,192,40786,1,0,0:0:0:0:
256,192,40936,1,8,0:0:0:0:
256,192,41086,1,0,0:0:0:0:
256,192,41386,1,0,0:0:0:0:
256,192,41536,1,0,0:0:0:0:
256,192,41686,1,8,0:0:0:0:
256,192,41761,1,0,0:0:0:0:
256,192,41836,1,8,0:0:0:0:
256,192,41911,1,0,0:0:0:0:
256,192,41986,1,8,0:0:0:0:
256,192,42136,1,0,0:0:0:0:
256,192,42211,1,0,0:0:0:0:
256,192,42286,1,8,0:0:0:0:
256,192,42361,1,0,0:0:0:0:
256,192,42436,1,8,0:0:0:0:
256,192,42511,1,0,0:0:0:0:
256,192,42586,1,8,0:0:0:0:
256,192,42736,1,8,0:0:0:0:
256,192,42886,1,0,0:0:0:0:
256,192,43186,1,4,0:0:0:0:
256,192,43486,1,8,0:0:0:0:
256,192,43561,1,8,0:0:0:0:
256,192,43636,1,8,0:0:0:0:
256,192,43711,1,8,0:0:0:0:
256,192,43786,1,0,0:0:0:0:
256,192,44086,1,8,0:0:0:0:
256,192,44161,1,8,0:0:0:0:
256,192,44236,1,8,0:0:0:0:
256,192,44311,1,8,0:0:0:0:
256,192,44386,1,0,0:0:0:0:
256,192,44611,1,0,0:0:0:0:
256,192,44686,1,8,0:0:0:0:
256,192,44761,1,8,0:0:0:0:
256,192,44836,1,8,0:0:0:0:
256,192,44911,1,8,0:0:0:0:
256,192,44986,1,0,0:0:0:0:
256,192,45136,1,8,0:0:0:0:
256,192,45286,1,0,0:0:0:0:
256,192,45436,1,8,0:0:0:0:
256,192,45586,1,0,0:0:0:0:
256,192,45623,1,0,0:0:0:0:
256,192,45886,1,8,0:0:0:0:
256,192,45923,1,8,0:0:0:0:
256,192,46036,1,8,0:0:0:0:
256,192,46073,1,8,0:0:0:0:
256,192,46186,1,0,0:0:0:0:
256,192,46223,1,0,0:0:0:0:
256,192,46486,1,8,0:0:0:0:
256,192,46523,1,8,0:0:0:0:
256,192,46636,1,0,0:0:0:0:
256,192,46673,1,0,0:0:0:0:
256,192,46786,1,0,0:0:0:0:
256,192,46823,1,0,0:0:0:0:
256,192,46936,1,8,0:0:0:0:
256,192,46973,1,8,0:0:0:0:
256,192,47086,1,8,0:0:0:0:
0,160,47123,1,8,0:0:0:0:
256,192,47236,1,0,0:0:0:0:
256,192,47273,1,0,0:0:0:0:
256,192,47386,1,8,0:0:0:0:
256,192,47423,1,8,0:0:0:0:
256,192,47611,1,8,0:0:0:0:
256,192,47686,1,8,0:0:0:0:
256,192,47761,1,0,0:0:0:0:
256,192,47836,1,8,0:0:0:0:
256,192,47986,1,8,0:0:0:0:
256,192,48061,1,0,0:0:0:0:
256,192,48136,1,0,0:0:0:0:
256,192,48286,1,8,0:0:0:0:
256,192,48361,1,0,0:0:0:0:
256,192,48436,1,8,0:0:0:0:
256,192,48586,1,0,0:0:0:0:
256,192,48661,1,8,0:0:0:0:
256,192,48736,1,8,0:0:0:0:
256,192,48811,1,8,0:0:0:0:
256,192,48886,1,8,0:0:0:0:
256,192,48961,1,8,0:0:0:0:
256,192,49036,1,8,0:0:0:0:
256,192,49111,1,8,0:0:0:0:
256,192,49186,1,0,0:0:0:0:
256,192,49261,1,8,0:0:0:0:
256,192,49336,1,8,0:0:0:0:
256,192,49411,1,8,0:0:0:0:
256,192,49486,1,8,0:0:0:0:
256,192,49561,1,8,0:0:0:0:
256,192,49636,1,8,0:0:0:0:
256,192,49711,1,8,0:0:0:0:
256,192,49786,1,0,0:0:0:0:
256,192,49936,1,8,0:0:0:0:
256,192,50086,1,0,0:0:0:0:
256,192,50236,1,8,0:0:0:0:
256,192,50386,1,0,0:0:0:0:
256,192,50461,1,0,0:0:0:0:
256,192,50536,1,8,0:0:0:0:
256,192,50611,1,8,0:0:0:0:
256,192,50686,1,0,0:0:0:0:
256,192,50836,1,8,0:0:0:0:
256,192,50911,1,0,0:0:0:0:
256,192,50986,1,8,0:0:0:0:
256,192,51061,1,8,0:0:0:0:
256,192,51136,1,0,0:0:0:0:
256,192,51286,1,8,0:0:0:0:
256,192,51361,1,8,0:0:0:0:
256,192,51436,1,0,0:0:0:0:
256,192,51586,1,8,0:0:0:0:
256,192,51736,1,0,0:0:0:0:
256,192,51886,1,0,0:0:0:0:
256,192,52036,1,8,0:0:0:0:
256,192,52111,1,8,0:0:0:0:
256,192,52186,1,0,0:0:0:0:
256,192,52336,1,0,0:0:0:0:
256,192,52486,1,8,0:0:0:0:
256,192,52636,1,8,0:0:0:0:
256,192,52786,1,4,0:0:0:0:
256,192,53086,1,0,0:0:0:0:
256,192,53161,1,8,0:0:0:0:
256,192,53236,1,8,0:0:0:0:
256,192,53311,1,8,0:0:0:0:
256,192,53386,1,0,0:0:0:0:
256,192,53461,1,8,0:0:0:0:
256,192,53536,1,8,0:0:0:0:
256,192,53611,1,8,0:0:0:0:
256,192,53686,1,0,0:0:0:0:
256,192,53761,1,8,0:0:0:0:
256,192,53836,1,8,0:0:0:0:
256,192,53911,1,8,0:0:0:0:
256,192,53986,1,0,0:0:0:0:
256,192,54061,1,0,0:0:0:0:
256,192,54136,1,8,0:0:0:0:
256,192,54211,1,8,0:0:0:0:
256,192,54286,1,0,0:0:0:0:
256,192,54361,1,8,0:0:0:0:
256,192,54436,1,8,0:0:0:0:
256,192,54511,1,8,0:0:0:0:
256,192,54586,1,0,0:0:0:0:
256,192,54661,1,0,0:0:0:0:
256,192,54736,1,0,0:0:0:0:
256,192,54811,1,8,0:0:0:0:
256,192,54886,1,0,0:0:0:0:
256,192,54961,1,8,0:0:0:0:
256,192,55036,1,8,0:0:0:0:
256,192,55186,1,0,0:0:0:0:
256,192,55223,1,0,0:0:0:0:
256,192,55486,1,8,0:0:0:0:
256,192,55523,1,8,0:0:0:0:
256,192,55636,1,8,0:0:0:0:
256,192,55673,1,8,0:0:0:0:
256,192,55786,1,0,0:0:0:0:
256,192,55823,1,0,0:0:0:0:
256,160,56086,1,8,0:0:0:0:
256,192,56123,1,8,0:0:0:0:
256,192,56236,1,0,0:0:0:0:
256,192,56273,1,0,0:0:0:0:
256,192,56386,1,0,0:0:0:0:
256,192,56423,1,0,0:0:0:0:
256,192,56536,1,8,0:0:0:0:
256,192,56573,1,8,0:0:0:0:
256,192,56686,1,8,0:0:0:0:
256,192,56723,1,8,0:0:0:0:
256,192,56836,1,0,0:0:0:0:
256,192,56873,1,0,0:0:0:0:
256,192,56986,1,8,0:0:0:0:
256,192,57136,1,8,0:0:0:0:
256,192,57211,1,0,0:0:0:0:
256,192,57361,1,8,0:0:0:0:
256,192,57436,1,0,0:0:0:0:
256,192,57586,1,8,0:0:0:0:
256,192,57661,1,8,0:0:0:0:
256,192,57736,1,0,0:0:0:0:
256,192,57886,1,8,0:0:0:0:
256,192,57961,1,8,0:0:0:0:
256,192,58036,1,0,0:0:0:0:
256,192,58186,1,0,0:0:0:0:
256,192,58261,1,8,0:0:0:0:
256,192,58336,1,8,0:0:0:0:
256,192,58411,1,0,0:0:0:0:
256,192,58486,1,8,0:0:0:0:
256,192,58561,1,0,0:0:0:0:
256,192,58636,1,8,0:0:0:0:
256,192,58711,1,8,0:0:0:0:
256,192,58786,1,0,0:0:0:0:
256,192,58861,1,8,0:0:0:0:
256,192,58936,1,8,0:0:0:0:
256,192,59011,1,8,0:0:0:0:
256,192,59086,1,0,0:0:0:0:
256,192,59161,1,0,0:0:0:0:
256,192,59236,1,8,0:0:0:0:
256,192,59311,1,8,0:0:0:0:
256,192,59386,1,0,0:0:0:0:
256,192,59461,1,0,0:0:0:0:
256,192,59536,1,8,0:0:0:0:
256,192,59611,1,0,0:0:0:0:
256,192,59686,1,8,0:0:0:0:
256,192,59761,1,8,0:0:0:0:
256,192,59836,1,0,0:0:0:0:
256,192,59986,1,0,0:0:0:0:
256,192,60136,1,0,0:0:0:0:
256,192,60286,1,8,0:0:0:0:
256,192,60436,1,0,0:0:0:0:
256,192,60511,1,0,0:0:0:0:
256,192,60586,1,8,0:0:0:0:
256,192,60661,1,0,0:0:0:0:
256,192,60736,1,8,0:0:0:0:
256,192,60886,1,8,0:0:0:0:
256,192,61036,1,8,0:0:0:0:
256,192,61186,1,0,0:0:0:0:
256,192,61336,1,8,0:0:0:0:
256,192,61486,1,0,0:0:0:0:
256,192,61636,1,8,0:0:0:0:
256,192,61711,1,8,0:0:0:0:
256,192,61786,1,0,0:0:0:0:
256,192,61936,1,8,0:0:0:0:
256,192,62086,1,8,0:0:0:0:
256,192,62236,1,0,0:0:0:0:
256,192,62386,1,12,0:0:0:0:
256,192,63586,1,8,0:0:0:0:
256,192,63886,1,0,0:0:0:0:
256,192,64036,1,8,0:0:0:0:
256,192,64336,1,8,0:0:0:0:
256,192,64411,1,8,0:0:0:0:
256,192,64486,1,0,0:0:0:0:
256,192,64561,1,8,0:0:0:0:
256,192,64636,1,0,0:0:0:0:
256,192,64711,1,0,0:0:0:0:
256,192,64786,1,8,0:0:0:0:
256,192,65086,1,0,0:0:0:0:
256,192,65386,1,0,0:0:0:0:
256,192,65536,1,0,0:0:0:0:
256,192,65686,1,8,0:0:0:0:
256,192,65836,1,8,0:0:0:0:
256,192,66136,1,0,0:0:0:0:
256,192,66436,1,8,0:0:0:0:
256,192,66736,1,8,0:0:0:0:
256,192,66773,1,8,0:0:0:0:
256,192,66886,1,8,0:0:0:0:
256,192,67036,1,0,0:0:0:0:
256,192,67186,1,8,0:0:0:0:
256,192,67411,1,8,0:0:0:0:
256,192,67636,1,0,0:0:0:0:
256,192,67786,1,0,0:0:0:0:
256,192,68011,1,8,0:0:0:0:
256,192,68236,1,0,0:0:0:0:
256,192,68386,1,8,0:0:0:0:
256,192,68686,1,8,0:0:0:0:
256,192,68986,1,0,0:0:0:0:
256,192,69136,1,0,0:0:0:0:
256,192,69286,1,8,0:0:0:0:
256,192,69436,1,0,0:0:0:0:
256,192,69586,1,8,0:0:0:0:
256,192,69886,1,0,0:0:0:0:
256,192,70186,1,0,0:0:0:0:
256,192,70411,1,8,0:0:0:0:
256,192,70636,1,8,0:0:0:0:
256,192,70786,1,0,0:0:0:0:
256,192,71086,1,0,0:0:0:0:
256,192,71386,1,0,0:0:0:0:
256,192,71686,1,8,0:0:0:0:
256,192,71761,1,8,0:0:0:0:
256,192,71836,1,8,0:0:0:0:
256,192,71911,1,8,0:0:0:0:
256,192,71986,1,4,0:0:0:0:
256,192,72136,1,8,0:0:0:0:
256,192,72211,1,0,0:0:0:0:
256,192,72286,1,8,0:0:0:0:
256,192,72436,1,0,0:0:0:0:
256,192,72586,1,0,0:0:0:0:
256,192,72661,1,0,0:0:0:0:
256,192,72736,1,8,0:0:0:0:
256,192,72886,1,0,0:0:0:0:
256,192,72961,1,8,0:0:0:0:
256,192,73036,1,0,0:0:0:0:
256,192,73111,1,8,0:0:0:0:
256,192,73186,1,8,0:0:0:0:
256,192,73336,1,0,0:0:0:0:
256,192,73411,1,8,0:0:0:0:
256,192,73486,1,8,0:0:0:0:
256,192,73636,1,0,0:0:0:0:
256,192,73711,1,8,0:0:0:0:
256,192,73786,1,8,0:0:0:0:
256,192,73936,1,0,0:0:0:0:
256,192,74086,1,8,0:0:0:0:
256,192,74236,1,0,0:0:0:0:
256,192,74386,1,0,0:0:0:0:
256,192,74611,1,0,0:0:0:0:
256,192,74686,1,8,0:0:0:0:
256,192,74836,1,0,0:0:0:0:
256,192,74986,1,0,0:0:0:0:
256,192,75136,1,8,0:0:0:0:
256,192,75211,1,0,0:0:0:0:
256,192,75286,1,8,0:0:0:0:
256,192,75436,1,0,0:0:0:0:
256,192,75511,1,8,0:0:0:0:
256,192,75586,1,0,0:0:0:0:
256,192,75661,1,0,0:0:0:0:
256,192,75736,1,8,0:0:0:0:
256,192,75786,1,8,0:0:0:0:
256,192,75836,1,8,0:0:0:0:
256,192,75886,1,0,0:0:0:0:
256,192,76036,1,8,0:0:0:0:
256,192,76086,1,8,0:0:0:0:
256,192,76136,1,8,0:0:0:0:
256,192,76186,1,0,0:0:0:0:
256,192,76261,1,0,0:0:0:0:
256,192,76336,1,8,0:0:0:0:
256,192,76411,1,8,0:0:0:0:
256,192,76486,1,0,0:0:0:0:
256,192,76636,1,8,0:0:0:0:
256,192,76711,1,8,0:0:0:0:
256,192,76786,1,4,0:0:0:0:
256,192,76936,1,0,0:0:0:0:
256,192,77086,1,8,0:0:0:0:
256,192,77236,1,0,0:0:0:0:
256,192,77386,1,8,0:0:0:0:
256,192,77536,1,0,0:0:0:0:
256,192,77686,1,8,0:0:0:0:
256,192,77836,1,0,0:0:0:0:
256,192,77986,1,8,0:0:0:0:
256,192,78136,1,8,0:0:0:0:
256,192,78286,1,0,0:0:0:0:
256,192,78436,1,8,0:0:0:0:
256,192,78586,1,0,0:0:0:0:
256,192,78736,1,0,0:0:0:0:
256,192,78886,1,8,0:0:0:0:
256,192,79036,1,0,0:0:0:0:
256,192,79186,1,0,0:0:0:0:
256,192,79261,1,8,0:0:0:0:
256,192,79336,1,0,0:0:0:0:
256,192,79411,1,0,0:0:0:0:
256,192,79486,1,8,0:0:0:0:
256,192,79561,1,8,0:0:0:0:
256,192,79636,1,0,0:0:0:0:
256,192,79711,1,0,0:0:0:0:
256,192,79786,1,8,0:0:0:0:
256,192,79836,1,8,0:0:0:0:
256,192,79886,1,8,0:0:0:0:
256,192,79936,1,0,0:0:0:0:
256,192,80011,1,8,0:0:0:0:
256,192,80086,1,0,0:0:0:0:
256,192,80136,1,8,0:0:0:0:
256,192,80186,1,8,0:0:0:0:
256,192,80236,1,0,0:0:0:0:
256,192,80311,1,0,0:0:0:0:
256,192,80386,1,8,0:0:0:0:
256,192,80536,1,0,0:0:0:0:
256,192,80611,1,0,0:0:0:0:
256,192,80686,1,8,0:0:0:0:
256,192,80836,1,8,0:0:0:0:
256,192,80911,1,0,0:0:0:0:
256,192,81061,1,0,0:0:0:0:
256,192,81136,1,8,0:0:0:0:
256,192,81286,1,0,0:0:0:0:
256,192,81586,1,12,0:0:0:0:
256,192,81736,1,8,0:0:0:0:
256,192,81886,1,0,0:0:0:0:
256,192,82111,1,8,0:0:0:0:
256,192,82186,1,0,0:0:0:0:
256,192,82336,1,8,0:0:0:0:
256,192,82486,1,0,0:0:0:0:
256,192,82561,1,8,0:0:0:0:
256,192,82636,1,0,0:0:0:0:
256,192,82711,1,0,0:0:0:0:
256,192,82786,1,8,0:0:0:0:
251,195,82936,1,8,0:0:0:0:
256,192,83086,1,0,0:0:0:0:
256,192,83311,1,0,0:0:0:0:
256,192,83386,1,8,0:0:0:0:
256,192,83536,1,8,0:0:0:0:
256,192,83611,1,8,0:0:0:0:
256,192,83686,1,0,0:0:0:0:
256,192,83761,1,8,0:0:0:0:
256,192,83836,1,0,0:0:0:0:
256,192,83911,1,0,0:0:0:0:
256,192,83986,1,8,0:0:0:0:
251,195,84136,1,8,0:0:0:0:
256,192,84286,1,0,0:0:0:0:
256,192,84511,1,8,0:0:0:0:
256,192,84586,1,0,0:0:0:0:
256,192,84736,1,8,0:0:0:0:
256,192,84886,1,0,0:0:0:0:
256,192,84961,1,0,0:0:0:0:
256,192,85036,1,8,0:0:0:0:
256,192,85111,1,8,0:0:0:0:
256,192,85186,1,8,0:0:0:0:
251,195,85336,1,0,0:0:0:0:
256,192,85486,1,8,0:0:0:0:
256,192,85711,1,8,0:0:0:0:
256,192,85786,1,0,0:0:0:0:
256,192,85936,1,0,0:0:0:0:
256,192,86086,1,0,0:0:0:0:
256,192,86236,1,8,0:0:0:0:
256,192,86311,1,0,0:0:0:0:
256,192,86386,1,8,0:0:0:0:
251,195,86536,1,8,0:0:0:0:
256,192,86686,1,0,0:0:0:0:
256,192,86911,1,8,0:0:0:0:
256,192,86986,1,0,0:0:0:0:
256,192,87136,1,0,0:0:0:0:
256,192,87286,1,8,0:0:0:0:
256,192,87361,1,8,0:0:0:0:
256,192,87436,1,0,0:0:0:0:
256,192,87511,1,0,0:0:0:0:
256,192,87586,1,8,0:0:0:0:
251,195,87736,1,8,0:0:0:0:
256,192,87886,1,0,0:0:0:0:
256,192,88111,1,8,0:0:0:0:
256,192,88186,1,0,0:0:0:0:
256,192,88336,1,0,0:0:0:0:
256,192,88486,1,8,0:0:0:0:
256,192,88561,1,0,0:0:0:0:
256,192,88636,1,8,0:0:0:0:
256,192,88711,1,8,0:0:0:0:
256,192,88786,1,0,0:0:0:0:
256,192,88936,1,8,0:0:0:0:
256,192,89011,1,8,0:0:0:0:
256,192,89086,1,0,0:0:0:0:
256,192,89236,1,0,0:0:0:0:
256,192,89386,1,8,0:0:0:0:
256,192,89536,1,0,0:0:0:0:
256,192,89686,1,8,0:0:0:0:
256,192,89761,1,8,0:0:0:0:
256,192,89836,1,0,0:0:0:0:
256,192,89911,1,0,0:0:0:0:
256,192,89986,1,8,0:0:0:0:
256,192,90136,1,0,0:0:0:0:
256,192,90211,1,8,0:0:0:0:
256,192,90436,1,0,0:0:0:0:
256,192,90586,1,0,0:0:0:0:
256,192,90736,1,8,0:0:0:0:
256,192,90811,1,8,0:0:0:0:
256,192,90886,1,0,0:0:0:0:
256,192,90961,1,8,0:0:0:0:
256,192,91036,1,0,0:0:0:0:
256,192,91111,1,0,0:0:0:0:
256,192,91186,1,8,0:0:0:0:
256,192,91486,1,4,0:0:0:0:
256,192,91711,1,8,0:0:0:0:
256,192,91786,1,0,0:0:0:0:
256,192,91936,1,0,0:0:0:0:
256,192,92086,1,8,0:0:0:0:
256,192,92161,1,8,0:0:0:0:
256,192,92236,1,0,0:0:0:0:
256,192,92311,1,8,0:0:0:0:
256,192,92386,1,0,0:0:0:0:
251,195,92536,1,8,0:0:0:0:
256,192,92686,1,0,0:0:0:0:
256,192,92911,1,8,0:0:0:0:
256,192,92986,1,8,0:0:0:0:
256,192,93136,1,0,0:0:0:0:
256,192,93211,1,0,0:0:0:0:
256,192,93286,1,8,0:0:0:0:
256,192,93361,1,0,0:0:0:0:
256,192,93436,1,8,0:0:0:0:
256,192,93511,1,8,0:0:0:0:
256,192,93586,1,0,0:0:0:0:
256,192,93811,1,8,0:0:0:0:
256,192,93886,1,0,0:0:0:0:
256,192,94036,1,8,0:0:0:0:
256,192,94186,1,0,0:0:0:0:
256,192,94261,1,0,0:0:0:0:
256,192,94336,1,8,0:0:0:0:
256,192,94411,1,8,0:0:0:0:
256,192,94486,1,0,0:0:0:0:
256,192,94561,1,8,0:0:0:0:
256,192,94636,1,0,0:0:0:0:
256,192,94711,1,0,0:0:0:0:
256,192,94786,1,8,0:0:0:0:
256,192,94936,1,8,0:0:0:0:
256,192,95011,1,0,0:0:0:0:
256,192,95236,1,0,0:0:0:0:
256,192,95386,1,8,0:0:0:0:
256,192,95436,1,8,0:0:0:0:
256,192,95486,1,8,0:0:0:0:
256,192,95536,1,0,0:0:0:0:
256,192,95611,1,0,0:0:0:0:
256,192,95686,1,8,0:0:0:0:
256,192,95761,1,0,0:0:0:0:
256,192,95836,1,8,0:0:0:0:
256,192,95911,1,8,0:0:0:0:
256,192,95986,1,0,0:0:0:0:
256,192,96136,1,8,0:0:0:0:
256,192,96286,1,0,0:0:0:0:
256,192,96436,1,0,0:0:0:0:
256,192,96511,1,0,0:0:0:0:
256,192,96586,1,8,0:0:0:0:
256,192,96736,1,0,0:0:0:0:
256,192,96886,1,8,0:0:0:0:
256,192,97186,1,8,0:0:0:0:
256,192,97336,1,8,0:0:0:0:
256,192,97486,1,0,0:0:0:0:
256,192,97636,1,0,0:0:0:0:
256,192,97786,1,8,0:0:0:0:
256,192,97861,1,0,0:0:0:0:
256,192,97936,1,8,0:0:0:0:
256,192,98086,1,0,0:0:0:0:
256,192,98386,1,0,0:0:0:0:
256,192,98461,1,0,0:0:0:0:
256,192,98536,1,8,0:0:0:0:
256,192,98611,1,8,0:0:0:0:
256,192,98686,1,0,0:0:0:0:
256,192,98986,1,8,0:0:0:0:
256,192,99061,1,8,0:0:0:0:
256,192,99136,1,8,0:0:0:0:
256,192,99211,1,8,0:0:0:0:
256,192,99286,1,0,0:0:0:0:
256,192,99586,1,0,0:0:0:0:
256,192,99736,1,8,0:0:0:0:
256,192,99811,1,8,0:0:0:0:
256,192,99886,1,0,0:0:0:0:
256,192,100036,1,8,0:0:0:0:
256,192,100111,1,8,0:0:0:0:
256,192,100186,1,0,0:0:0:0:
256,192,100261,1,8,0:0:0:0:
256,192,100336,1,8,0:0:0:0:
256,192,100411,1,8,0:0:0:0:
256,192,100486,1,0,0:0:0:0:
256,192,100786,1,0,0:0:0:0:
256,192,100936,1,0,0:0:0:0:
256,192,101086,1,12,0:0:0:0:
256,192,101236,1,8,0:0:0:0:
256,192,101386,1,0,0:0:0:0:
256,192,101536,1,8,0:0:0:0:
256,192,101686,1,8,0:0:0:0:
256,192,101836,1,0,0:0:0:0:
256,192,101986,1,8,0:0:0:0:
256,192,102136,1,8,0:0:0:0:
256,192,102286,1,0,0:0:0:0:
256,192,102436,1,0,0:0:0:0:
256,192,102586,1,8,0:0:0:0:
256,192,102736,1,8,0:0:0:0:
256,192,102886,1,0,0:0:0:0:
256,192,103036,1,0,0:0:0:0:
256,192,103186,1,8,0:0:0:0:
256,192,103336,1,0,0:0:0:0:
256,192,103486,1,8,0:0:0:0:
256,192,103636,1,0,0:0:0:0:
256,192,103786,1,0,0:0:0:0:
256,192,103936,1,8,0:0:0:0:
256,192,104086,1,0,0:0:0:0:
256,192,104236,1,0,0:0:0:0:
256,192,104386,1,8,0:0:0:0:
256,192,104536,1,0,0:0:0:0:
256,192,104686,1,8,0:0:0:0:
256,192,104836,1,8,0:0:0:0:
256,192,104986,1,0,0:0:0:0:
256,192,105136,1,8,0:0:0:0:
256,192,105211,1,8,0:0:0:0:
256,192,105286,1,0,0:0:0:0:
256,192,105436,1,0,0:0:0:0:
256,192,105586,1,8,0:0:0:0:
256,192,105736,1,0,0:0:0:0:
256,192,105886,1,8,0:0:0:0:
256,192,106036,1,8,0:0:0:0:
256,192,106186,1,0,0:0:0:0:
256,192,106336,1,8,0:0:0:0:
256,192,106486,1,8,0:0:0:0:
256,192,106636,1,0,0:0:0:0:
256,192,106786,1,8,0:0:0:0:
256,192,106936,1,0,0:0:0:0:
256,192,107086,1,0,0:0:0:0:
256,192,107236,1,8,0:0:0:0:
256,192,107386,1,0,0:0:0:0:
256,192,107536,1,8,0:0:0:0:
256,192,107686,1,8,0:0:0:0:
256,192,107761,1,8,0:0:0:0:
256,192,107836,1,0,0:0:0:0:
256,192,107886,1,0,0:0:0:0:
256,192,107936,1,0,0:0:0:0:
256,192,107986,1,12,0:0:0:0:
256,192,108136,1,4,0:0:0:0:
256,192,108436,1,4,0:0:0:0:
256,192,108586,1,12,0:0:0:0:
256,192,108886,1,12,0:0:0:0:
256,192,109036,1,4,0:0:0:0:
256,192,109336,1,12,0:0:0:0:
256,192,109486,1,12,0:0:0:0:
256,192,109786,1,8,0:0:0:0:
256,192,109861,1,0,0:0:0:0:
256,192,109936,1,8,0:0:0:0:
256,192,110011,1,8,0:0:0:0:
256,192,110086,1,0,0:0:0:0:
256,192,110161,1,0,0:0:0:0:
256,192,110236,1,8,0:0:0:0:
256,192,110311,1,8,0:0:0:0:
256,192,110386,1,4,0:0:0:0:
256,192,110536,8,0,112786,0:0:0:0:
