osu file format v14

[General]
AudioFilename: audio.mp3
AudioLeadIn: 0
PreviewTime: 89508
Countdown: 0
SampleSet: Soft
StackLeniency: 0.3
Mode: 0
LetterboxInBreaks: 0
WidescreenStoryboard: 0

[Editor]
DistanceSpacing: 2.1
BeatDivisor: 8
GridSize: 8
TimelineZoom: 2.7

[Metadata]
Title:V!rtuaresort
TitleUnicode:V!rtuaresort
Artist:seatrus
ArtistUnicode:seatrus
Creator:-Atri-
Version:Sommerferien
Source:THE BMS OF FIGHTERS XVI -NEO DYSTOPIA-
Tags:KuranteMelodii krt Firis Mistlud LeCandy featured artist fa japanese electronic instrumental BOFXVI Virtuaresort Virtual Resort summer
BeatmapID:3216130
BeatmapSetID:1575193

[Difficulty]
HPDrainRate:6.5
CircleSize:4.2
OverallDifficulty:8.5
ApproachRate:9.2
SliderMultiplier:2
SliderTickRate:1

[Events]
//Background and Video events
0,0,"new bg.jpg",0,0
//Break Periods
2,66177,72532
//Storyboard Layer 0 (Background)
//Storyboard Layer 1 (Fail)
//Storyboard Layer 2 (Pass)
//Storyboard Layer 3 (Foreground)
//Storyboard Layer 4 (Overlay)
//Storyboard Sound Samples

[TimingPoints]
-23,375,4,2,1,70,1,0
2227,-83.3333333333333,4,2,1,70,0,0
2602,-66.6666666666667,4,2,1,70,0,0
2977,-66.6666666666667,4,2,1,70,0,0
4477,-58.8235294117647,4,2,1,70,0,0
5977,-52.6315789473684,4,2,1,70,0,0
7477,-47.6190476190476,4,2,1,70,0,0
8977,-76.9230769230769,4,2,1,70,0,0
11977,-66.6666666666667,4,2,1,70,0,0
13945,-58.8235294117647,4,2,1,70,0,0
14227,-66.6666666666667,4,2,1,70,0,0
14602,-52.6315789473684,4,2,1,70,0,0
14977,-76.9230769230769,4,2,1,55,0,0
15023,-76.9230769230769,4,2,1,70,0,0
20227,-58.8235294117647,4,2,1,70,0,0
20602,-76.9230769230769,4,2,1,70,0,0
22102,-66.6666666666667,4,2,1,70,0,0
22477,-76.9230769230769,4,2,1,70,0,0
23602,-66.6666666666667,4,2,1,70,0,0
23977,-66.6666666666667,4,2,1,70,0,0
24727,-66.6666666666667,4,2,1,70,0,0
25477,-50,4,2,1,70,0,0
26227,-66.6666666666667,4,2,1,70,0,0
26602,-58.8235294117647,4,2,1,70,0,0
26977,-111.111111111111,4,2,1,70,0,0
27023,-111.111111111111,4,2,1,40,0,0
32977,-100,4,2,1,70,0,0
33070,-100,4,2,1,55,0,0
34477,-100,4,2,1,70,0,0
34570,-100,4,2,1,55,0,0
35789,-83.3333333333333,4,2,1,55,0,0
35977,-66.6666666666667,4,2,1,70,0,0
36023,-66.6666666666667,4,2,1,55,0,0
36352,-100,4,2,1,55,0,0
36727,-50,4,2,1,70,0,0
36773,-50,4,2,1,55,0,0
37102,-100,4,2,1,55,0,0
37289,-83.3333333333333,4,2,1,55,0,0
37664,-200,4,2,1,55,0,0
37945,-100,4,2,1,55,0,0
38133,-50,4,2,1,55,0,0
38227,-133.333333333333,4,2,1,55,0,0
38602,-45.4545454545455,4,2,1,55,0,0
38977,-83.3333333333333,4,2,1,70,0,0
40289,-66.6666666666667,4,2,1,70,0,0
40477,-76.9230769230769,4,2,1,70,0,0
40852,-66.6666666666667,4,2,1,70,0,0
42727,-83.3333333333333,4,2,1,70,0,0
43289,-66.6666666666667,4,2,1,70,0,0
43477,-71.4285714285714,4,2,1,70,0,0
43852,-48.780487804878,4,2,1,70,0,0
45727,-83.3333333333333,4,2,1,70,0,0
46289,-66.6666666666667,4,2,1,70,0,0
46477,-83.3333333333333,4,2,1,70,0,0
46852,-66.6666666666667,4,2,1,70,0,0
47602,-83.3333333333333,4,2,1,70,0,0
47789,-133.333333333333,4,2,1,70,0,0
47977,-66.6666666666667,4,2,1,70,0,0
48539,-58.8235294117647,4,2,1,70,0,0
49289,-50,4,2,1,70,0,0
49477,-45.4545454545455,4,2,1,70,0,0
49852,-58.8235294117647,4,2,1,70,0,0
50227,-71.4285714285714,4,2,1,70,0,0
50602,-58.8235294117647,4,2,1,70,0,0
50977,-83.3333333333333,4,2,1,70,0,0
52289,-66.6666666666667,4,2,1,70,0,0
52477,-76.9230769230769,4,2,1,70,0,0
53227,-66.6666666666667,4,2,1,70,0,0
53508,-76.9230769230769,4,2,1,70,0,0
53789,-100,4,2,1,70,0,0
53977,-83.3333333333333,4,2,1,70,0,0
54914,-66.6666666666667,4,2,1,70,0,0
55477,-71.4285714285714,4,2,1,70,0,0
56227,-62.5,4,2,1,70,0,0
56414,-76.9230769230769,4,2,1,70,0,0
56789,-100,4,2,1,70,0,0
56977,-83.3333333333333,4,2,1,70,0,0
58289,-66.6666666666667,4,2,1,70,0,0
58477,-76.9230769230769,4,2,1,70,0,0
59414,-100,4,2,1,70,0,0
59789,-133.333333333333,4,2,1,70,0,0
59977,-66.6666666666667,4,2,1,70,0,0
60539,-58.8235294117647,4,2,1,70,0,0
61289,-50,4,2,1,70,0,0
61477,-45.4545454545455,4,2,1,70,0,0
61852,-58.8235294117647,4,2,1,70,0,0
62227,-71.4285714285714,4,2,1,70,0,0
62602,-58.8235294117647,4,2,1,70,0,0
62977,-100,4,2,1,70,0,0
65977,-100,4,2,1,5,0,0
74602,-100,4,2,1,60,0,0
74977,-133.333333333333,4,2,1,70,0,0
75023,-133.333333333333,4,2,1,50,0,0
80977,-100,4,2,1,70,0,0
83977,-76.9230769230769,4,2,1,70,0,0
85477,-66.6666666666667,4,2,1,70,0,0
86602,-100,4,2,1,70,0,0
86977,-50,4,2,1,80,0,1
87352,-100,4,2,1,80,0,1
87727,-50,4,2,1,80,0,1
88102,-100,4,2,1,80,0,1
88477,-50,4,2,1,80,0,1
89227,-100,4,2,1,80,0,1
89602,-100,4,2,1,80,0,0
89977,-41.6666666666667,4,2,1,80,0,1
90539,-66.6666666666667,4,2,1,80,0,1
91195,-133.333333333333,4,2,1,80,0,1
91477,-43.4782608695652,4,2,1,80,0,1
91852,-100,4,2,1,80,0,1
92320,-35.7142857142857,4,2,1,80,0,1
92508,-100,4,2,1,80,0,1
92977,-66.6666666666667,4,2,1,80,0,1
93164,-100,4,2,1,80,0,1
93352,-133.333333333333,4,2,1,80,0,1
93633,-66.6666666666667,4,2,1,80,0,1
94102,-100,4,2,1,80,0,1
94383,-50,4,2,1,80,0,1
94664,-66.6666666666667,4,2,1,80,0,1
94852,-100,4,2,1,80,0,1
95320,-35.7142857142857,4,2,1,80,0,1
95508,-100,4,2,1,80,0,1
95977,-66.6666666666667,4,2,1,80,0,1
96727,-100,4,2,1,80,0,1
97289,-41.6666666666667,4,2,1,80,0,1
97852,-90.9090909090909,4,2,1,80,0,1
98227,-125,4,2,1,80,0,1
98977,-100,4,2,1,80,0,1
99727,-83.3333333333333,4,2,1,80,0,1
102258,-58.8235294117647,4,2,1,80,0,1
102820,-100,4,2,1,80,0,1
103477,-83.3333333333333,4,2,1,80,0,1
103758,-58.8235294117647,4,2,1,80,0,1
104320,-100,4,2,1,80,0,1
104977,-58.8235294117647,4,2,1,80,0,1
105539,-100,4,2,1,80,0,1
105727,-83.3333333333333,4,2,1,80,0,1
106758,-58.8235294117647,4,2,1,80,0,1
107039,-100,4,2,1,80,0,1
107977,-76.9230769230769,4,2,1,80,0,0
110977,-40,4,2,1,80,0,0
111352,-100,4,2,1,80,0,0
111727,-33.3333333333333,4,2,1,80,0,0
112102,-83.3333333333333,4,2,1,80,0,0
113227,-133.333333333333,4,2,1,80,0,0
113602,-66.6666666666667,4,2,1,80,0,0
113977,-55.5555555555556,4,2,1,80,0,0
115664,-66.6666666666667,4,2,1,80,0,0
116977,-55.5555555555556,4,2,1,80,0,0
119602,-62.5,4,2,1,80,0,0
119977,-55.5555555555556,4,2,1,80,0,0
121664,-62.5,4,2,1,80,0,0
122977,-55.5555555555556,4,2,1,80,0,0
124477,-50,4,2,1,80,0,0
125227,-66.6666666666667,4,2,1,80,0,0
125602,-58.8235294117647,4,2,1,80,0,0
125977,-58.8235294117647,4,2,1,80,0,0

[Colours]
Combo1 : 255,128,64
Combo2 : 0,255,0
Combo3 : 51,255,255
Combo4 : 0,196,0

[HitObjects]
145,170,2227,6,0,P|174:173|201:186,1,59.9999981689454,0|0,1:0|0:0,0:0:0:0:
367,170,2414,2,0,P|337:173|310:186,1,59.9999981689454,0|0,1:0|0:0,0:0:0:0:
219,111,2602,6,0,B|203:103|196:50|219:80|256:43|256:20|256:20|256:43|286:80|309:50|309:103|286:111,1,225.000008583069,8|0,0:0|0:0,0:0:0:0:
256,317,2977,6,0,B|225:358|256:387|256:387|284:358|256:317,1,150.000005722046,4|0,1:2|0:0,0:0:0:0:
256,133,3258,2,0,B|264:85|247:96|256:45,1,75.0000028610231,12|0,0:0|0:0,0:0:0:0:
314,253,3445,5,0,0:0:0:0:
299,251,3538,1,14,0:0:0:0:
285,247,3632,1,0,0:0:0:0:
272,239,3726,1,2,0:0:0:0:
261,228,3820,1,0,0:0:0:0:
254,215,3913,1,0,0:0:0:0:
250,228,4008,1,0,0:0:0:0:
239,239,4102,1,2,0:0:0:0:
226,247,4196,1,0,0:0:0:0:
212,251,4290,1,0,0:0:0:0:
197,253,4383,1,0,0:0:0:0:
256,317,4477,6,0,B|208:358|256:387|256:387|301:358|256:317,1,170.000003242493,4|0,1:2|0:0,0:0:0:0:
256,133,4758,2,0,B|272:85|240:101|256:45,1,85.0000016212464,12|0,0:0|0:0,0:0:0:0:
316,255,4945,5,0,0:0:0:0:
303,247,5038,1,14,0:0:0:0:
290,241,5132,1,0,0:0:0:0:
276,234,5226,1,2,0:0:0:0:
264,225,5320,1,0,0:0:0:0:
254,215,5413,1,0,0:0:0:0:
247,225,5508,1,0,0:0:0:0:
235,234,5602,1,2,0:0:0:0:
221,241,5696,1,0,0:0:0:0:
208,247,5790,1,0,0:0:0:0:
195,255,5883,1,0,0:0:0:0:
256,317,5977,6,0,B|193:358|256:387|256:387|316:358|256:317,1,189.999994926453,4|0,1:2|0:0,0:0:0:0:
256,133,6258,2,0,B|272:117|272:77|240:93|240:53|256:37,1,94.9999974632264,12|0,0:0|0:0,0:0:0:0:
318,258,6445,5,0,0:0:0:0:
309,245,6538,1,14,0:0:0:0:
296,236,6632,1,0,0:0:0:0:
281,230,6726,1,2,0:0:0:0:
266,224,6820,1,0,0:0:0:0:
254,215,6913,1,0,0:0:0:0:
245,224,7008,1,0,0:0:0:0:
230,230,7102,1,2,0:0:0:0:
215,236,7196,1,0,0:0:0:0:
202,245,7290,1,0,0:0:0:0:
193,258,7383,1,0,0:0:0:0:
256,317,7477,6,0,B|183:358|256:387|256:387|326:358|256:317,1,209.999993591309,4|0,1:2|0:0,0:0:0:0:
256,133,7758,2,0,B|272:117|272:69|240:93|240:45|256:29,1,104.999996795654,12|0,0:0|0:0,0:0:0:0:
320,271,7945,5,0,0:0:0:0:
319,251,8038,1,12,0:0:0:0:
310,234,8132,1,0,0:0:0:0:
292,225,8226,1,2,0:0:0:0:
273,219,8320,1,0,0:0:0:0:
254,215,8413,1,0,0:0:0:0:
238,219,8508,1,0,0:0:0:0:
219,225,8602,1,10,0:0:0:0:
201,234,8696,1,0,1:0:0:0:
192,251,8790,1,0,1:0:0:0:
191,271,8883,1,0,0:0:0:0:
166,342,8977,6,0,B|90:348|125:299|32:300,1,129.999994049073,4|0,1:2|0:0,0:0:0:0:
14,192,9258,2,0,P|54:169|49:106,1,64.9999970245363,0|8,0:0|0:0,0:0:0:0:
51,323,9445,6,0,L|69:256,1,64.9999970245363,0|2,0:0|0:0,0:0:0:0:
26,22,9633,1,0,0:0:0:0:
36,52,9726,1,2,1:2:0:0:
61,73,9820,1,0,0:0:0:0:
92,79,9914,1,0,0:0:0:0:
123,69,10008,1,0,0:0:0:0:
201,45,10102,5,10,0:0:0:0:
201,61,10195,1,0,0:0:0:0:
202,77,10289,1,0,0:0:0:0:
381,17,10477,6,0,P|326:57|330:117,1,129.999994049073,4|0,1:2|0:0,0:0:0:0:
258,141,10758,2,0,P|280:172|327:187,1,64.9999970245363,0|8,0:0|0:0,0:0:0:0:
459,47,10945,6,0,P|443:81|453:129,1,64.9999970245363,0|2,0:0|0:0,0:0:0:0:
499,314,11133,1,0,0:0:0:0:
488,283,11226,1,2,1:2:0:0:
463,262,11320,1,0,0:0:0:0:
432,256,11414,1,0,0:0:0:0:
401,266,11508,1,0,0:0:0:0:
431,336,11602,5,10,0:0:0:0:
432,352,11696,1,0,0:0:0:0:
432,368,11789,1,0,0:0:0:0:
426,154,11977,6,0,P|391:165|354:163,1,75.0000028610231,4|0,1:2|0:0,0:0:0:0:
163,286,12164,2,0,L|156:366,1,75.0000028610231,0|0,1:0|0:0,0:0:0:0:
355,360,12352,6,0,L|349:286,1,75.0000028610231,8|0,1:2|0:0,0:0:0:0:
158,163,12539,2,0,P|120:165|85:154,1,75.0000028610231,0|0,1:0|0:0,0:0:0:0:
256,64,12727,5,6,1:2:0:0:
256,76,12820,1,0,0:0:0:0:
257,90,12914,1,2,1:2:0:0:
258,103,13008,1,0,0:0:0:0:
261,175,13102,5,2,1:2:0:0:
249,207,13195,1,2,1:2:0:0:
249,175,13289,5,2,1:2:0:0:
261,207,13382,1,2,1:2:0:0:
256,288,13477,5,8,0:0:0:0:
146,369,13570,2,0,B|139:289|81:322|98:211,1,150.000005722046,8|0,0:0|0:0,0:0:0:0:
27,190,13852,5,8,0:0:0:0:
174,248,13945,2,0,B|204:274|216:224|195:157|77:158,1,170.000003242493,8|0,0:0|0:0,0:0:0:0:
14,7,14227,6,0,B|62:-3|159:17|78:73|143:106|227:101,1,225.000008583069,0|0,1:0|0:0,0:0:0:0:
44,89,14602,6,0,B|48:114|16:156|-31:69|-14:19|75:-19|179:-1|206:35,1,284.999992389679,8|0,0:0|0:0,0:0:0:0:
325,39,14977,6,0,P|290:48|250:47,1,64.9999970245363,6|0,1:2|0:0,0:0:0:0:
281,129,15164,1,0,0:0:0:0:
406,34,15258,2,0,B|400:108|356:72|356:169,1,129.999994049073,2|0,0:0|0:0,0:0:0:0:
440,164,15539,2,0,P|450:161|432:159,1,64.9999970245363,2|0,0:0|0:0,0:0:0:0:
339,260,15727,6,0,P|413:242|482:244,1,129.999994049073,2|0,1:2|0:0,0:0:0:0:
466,242,16102,6,0,B|491:255|491:255|447:285|370:274|329:207,1,194.999991073609,10|0,0:0|0:0,0:0:0:0:
250,205,16477,6,0,P|257:247|259:281,1,64.9999970245363,2|0,1:2|0:0,0:0:0:0:
240,351,16664,1,0,0:0:0:0:
365,330,16758,2,0,B|295:316|319:365|232:350,1,129.999994049073,2|0,0:0|0:0,0:0:0:0:
166,282,17039,2,0,P|186:297|178:278,1,64.9999970245363,2|0,0:0|0:0,0:0:0:0:
57,218,17227,6,0,P|83:294|81:358,1,129.999994049073,2|0,1:2|0:0,0:0:0:0:
83,343,17602,6,0,B|62:365|62:365|42:294|105:208,1,194.999991073609,10|0,0:0|0:0,0:0:0:0:
7,140,17977,6,0,P|62:136|83:137,1,64.9999970245363,2|0,1:2|0:0,0:0:0:0:
154,137,18164,1,0,0:0:0:0:
55,38,18258,2,0,B|40:13|11:30|44:93|104:74|157:30,1,129.999994049073,2|0,0:0|0:0,0:0:0:0:
206,9,18539,2,0,P|202:64|203:85,1,64.9999970245363,2|0,0:0|0:0,0:0:0:0:
302,227,18727,6,0,P|246:213|246:144,1,129.999994049073,2|0,1:2|0:0,0:0:0:0:
242,150,19102,6,0,B|261:182|276:271|210:222|213:315|258:348,1,194.999991073609,10|0,0:0|0:0,0:0:0:0:
364,379,19477,5,2,1:2:0:0:
373,301,19570,2,0,L|383:231,1,64.9999970245363
446,346,19758,1,2,0:0:0:0:
446,346,19852,2,0,L|456:276,1,64.9999970245363,8|0,0:0|0:0,0:0:0:0:
479,189,20039,2,0,P|461:206|479:202,1,64.9999970245363,2|0,0:0|0:0,0:0:0:0:
306,150,20227,5,6,1:2:0:0:
306,150,20602,6,0,B|281:166|281:166|379:187|424:87,1,194.999991073609,14|0,0:0|0:0,0:0:0:0:
509,21,20977,6,0,P|492:47|489:93,1,64.9999970245363,2|0,1:2|0:0,0:0:0:0:
359,19,21164,1,0,0:0:0:0:
359,19,21258,2,0,P|362:90|417:119,1,129.999994049073,2|0,0:0|0:0,0:0:0:0:
512,250,21539,2,0,P|497:222|459:196,1,64.9999970245363,2|0,0:2|0:0,0:0:0:0:
477,192,21727,2,0,B|411:196|411:196|407:199|407:199|331:202,1,129.999994049073,2|0,1:2|0:0,0:0:0:0:
288,264,22008,5,0,0:0:0:0:
272,280,22102,2,0,P|252:237|252:204,1,75.0000028610231,10|0,0:0|0:0,0:0:0:0:
264,96,22289,2,0,P|257:69|250:96,1,75.0000028610231,2|0,0:0|0:0,0:0:0:0:
14,155,22477,6,0,P|31:181|34:227,1,64.9999970245363,2|0,1:2|0:0,0:0:0:0:
164,153,22664,1,0,0:0:0:0:
164,153,22758,2,0,P|161:224|106:253,1,129.999994049073,2|0,0:0|0:0,0:0:0:0:
11,384,23039,2,0,P|25:356|63:330,1,64.9999970245363,2|0,0:2|0:0,0:0:0:0:
46,326,23227,2,0,B|112:330|112:330|116:333|116:333|192:336,1,129.999994049073,2|0,1:2|0:0,0:0:0:0:
311,366,23508,5,0,0:0:0:0:
326,324,23602,2,0,P|365:314|403:319,1,75.0000028610231,10|0,0:0|0:0,0:0:0:0:
186,324,23789,2,0,P|147:314|109:319,1,75.0000028610231,2|0,0:0|0:0,0:0:0:0:
392,216,23977,6,0,B|405:210|405:210|419:142,1,75.0000028610231,2|0,1:2|0:0,0:0:0:0:
287,58,24164,2,0,B|281:44|281:44|213:30,1,75.0000028610231,2|0,0:0|0:0,0:0:0:0:
131,162,24352,2,0,B|117:167|117:167|103:235,1,75.0000028610231,10|0,0:0|0:0,0:0:0:0:
234,319,24539,2,0,B|239:332|239:332|307:346,1,75.0000028610231,2|0,0:0|0:0,0:0:0:0:
259,207,24727,6,0,B|264:214|264:214|305:211,1,37.5000014305115,2|0,1:2|0:0,0:0:0:0:
269,189,24820,2,0,B|276:183|276:183|273:142,1,37.5000014305115
253,177,24914,2,0,B|247:169|247:169|206:172,1,37.5000014305115
241,195,25008,2,0,B|233:200|233:200|236:241,1,37.5000014305115
260,297,25102,6,0,B|268:313|268:313|260:337,1,37.5000014305115,10|0,0:0|0:0,0:0:0:0:
248,311,25195,2,0,B|240:327|240:327|248:351,1,37.5000014305115
261,331,25289,2,0,B|269:347|269:347|261:371,1,37.5000014305115
249,345,25383,2,0,B|241:361|241:361|249:385,1,37.5000014305115
339,368,25477,6,0,P|358:321|348:289,1,66.6666666666667,8|0,0:3|0:0,0:0:0:0:
432,351,25602,2,0,P|434:300|415:276,1,66.6666666666667,8|0,0:3|0:0,0:0:0:0:
512,301,25727,2,0,P|497:253|470:233,1,66.6666666666667,8|0,0:3|0:0,0:0:0:0:
392,219,25852,6,0,P|372:172|388:147,1,66.6666666666667,8|0,0:3|0:0,0:0:0:0:
346,213,25977,2,0,P|360:165|388:156,1,66.6666666666667,8|0,0:3|0:0,0:0:0:0:
322,196,26102,2,0,P|352:156|381:157,1,66.6666666666667,8|0,0:3|0:0,0:0:0:0:
469,50,26227,6,0,P|434:111|293:102,1,225.000008583069,8|0,0:3|0:0,0:0:0:0:
501,220,26602,6,0,P|417:126|294:104,1,255.000004863739,8|0,0:3|0:0,0:0:0:0:
73,53,26977,6,0,B|108:57|138:71|104:109|138:145|213:137|242:110|192:69|265:36|265:36|220:16|109:12|146:139|39:143|39:143|103:153|125:210,1,629.999980773926,4|0,0:0|0:0,0:0:0:0:
161,334,28477,6,0,B|169:370|120:384|89:335|129:299|153:277|268:352|268:352|153:277|191:281|183:255|132:243|71:279|129:299|45:327|-56:314|-43:188|39:178|71:208|66:251|52:272,1,629.999980773926,2|0,0:0|0:0,0:0:0:0:
79,105,29977,6,0,B|45:137|10:145|10:145|73:131|65:173|135:143|79:105|110:46|242:18|194:83|304:80|304:80|194:83|157:153|212:225|278:180|276:149,1,629.999980773926,2|0,0:0|0:0,0:0:0:0:
402,45,31477,6,0,B|428:33|422:-5|364:-15|348:80|403:45|387:137|335:147,1,179.999994506836,2|0,0:0|0:0,0:0:0:0:
500,202,32227,2,0,B|526:214|520:252|462:262|446:167|501:202|485:110|433:100,1,179.999994506836,2|0,0:0|0:0,0:0:0:0:
397,384,32977,6,0,P|406:354|431:355,1,50,4|0,0:0|0:0,0:0:0:0:
495,311,33164,2,0,P|455:287|390:272,1,100,0|2,3:0|3:0,0:0:0:0:
382,203,33445,5,0,0:0:0:0:
363,210,33539,1,0,3:0:0:0:
347,224,33633,2,0,P|332:254|330:278,1,50,0|2,3:0|3:0,0:0:0:0:
329,344,33820,1,0,0:0:0:0:
319,344,33914,1,0,3:0:0:0:
310,345,34008,2,0,L|254:346,1,50,0|2,3:0|3:0,0:0:0:0:
256,248,34195,5,0,0:0:0:0:
256,232,34289,2,0,L|256:176,1,50,0|0,3:0|3:0,0:0:0:0:
115,384,34477,6,0,P|106:354|81:355,1,50,4|0,0:0|0:0,0:0:0:0:
17,311,34664,2,0,P|57:287|122:272,1,100,0|2,3:0|3:0,0:0:0:0:
130,203,34945,5,0,0:0:0:0:
149,210,35039,1,0,3:0:0:0:
165,224,35133,2,0,P|180:254|182:278,1,50,0|2,3:0|3:0,0:0:0:0:
183,344,35320,1,0,0:0:0:0:
193,344,35414,1,0,3:0:0:0:
202,345,35508,2,0,L|258:346,1,50,0|2,3:0|3:0,0:0:0:0:
256,182,35695,5,0,0:0:0:0:
256,166,35789,2,0,L|256:96,1,59.9999981689454,0|0,3:0|3:0,0:0:0:0:
184,24,35977,6,0,P|189:48|182:74,6,37.5000014305115,4|0|0|0|0|0|0,0:0|3:0|3:0|3:0|3:0|0:0|0:0,0:0:0:0:
169,143,36352,6,0,L|139:141,6,25,0|0|0|0|0|0|0,1:0|0:0|0:0|0:0|0:0|0:0|0:0,0:0:0:0:
12,104,36727,6,0,P|45:128|57:150,6,50,4|0|0|0|0|0|0,0:0|3:0|3:0|3:0|3:0|0:0|0:0,0:0:0:0:
175,151,37102,2,0,L|111:147,1,50,0|0,1:0|0:0,0:0:0:0:
34,211,37289,6,0,B|32:280|77:255|65:331,1,119.999996337891,12|0,0:0|0:0,0:0:0:0:
61,331,37664,6,0,L|52:390,1,50,8|0,0:0|0:0,0:0:0:0:
142,321,37945,6,0,L|133:380,1,50,8|0,0:0|0:0,0:0:0:0:
223,311,38133,6,0,L|214:370,1,50,8|0,0:0|0:0,0:0:0:0:
293,354,38227,6,0,B|335:359|369:375,1,75.0000028610231,8|0,0:0|1:0,0:0:0:0:
483,318,38508,1,0,0:0:0:0:
489,330,38602,6,0,B|485:364|451:396|408:362|401:280|457:332|462:301|468:195|402:183|354:202|325:253|363:295,1,330.000010070801,12|0,0:0|0:0,0:0:0:0:
442,249,38977,6,0,B|430:143|488:208|474:62,1,179.999994506836,4|0,1:2|0:0,0:0:0:0:
275,14,39352,5,10,0:2:0:0:
308,19,39445,1,0,0:0:0:0:
346,47,39539,1,2,0:2:0:0:
368,96,39633,1,0,0:0:0:0:
364,145,39727,2,0,P|319:157|288:179,1,59.9999981689454,2|0,1:2|0:0,0:0:0:0:
275,14,39914,5,0,0:0:0:0:
276,63,40008,1,0,0:0:0:0:
249,114,40102,1,10,0:0:0:0:
183,143,40195,1,0,0:0:0:0:
100,114,40289,2,0,P|52:113|27:124,1,75.0000028610231,2|0,0:2|0:0,0:0:0:0:
172,57,40477,6,0,B|193:130|153:105|175:200,1,129.999994049073,2|0,1:2|0:0,0:0:0:0:
217,333,40758,1,0,0:0:0:0:
217,333,40852,6,0,B|242:345|261:367|261:367|241:314|145:329|191:228|269:250|310:173|310:173|272:225|261:256|327:240|286:342|143:317|191:228|75:273|39:289|6:321|6:321|34:288|32:279,1,750.000028610231,10|0,0:2|0:2,0:0:0:0:
7,215,41977,5,0,1:2:0:0:
118,376,42352,5,10,0:2:0:0:
120,348,42445,1,0,0:0:0:0:
108,325,42539,1,2,0:2:0:0:
86,282,42633,1,0,0:0:0:0:
78,240,42727,2,0,P|81:211|99:177,1,59.9999981689454,2|0,1:2|0:0,0:0:0:0:
118,376,42914,5,0,0:0:0:0:
144,344,43008,1,0,0:0:0:0:
199,333,43102,1,10,0:0:0:0:
255,275,43195,1,0,0:0:0:0:
265,192,43289,2,0,P|264:153|240:122,1,75.0000028610231,2|0,0:2|0:0,0:0:0:0:
136,41,43477,6,0,B|146:17|129:4|99:9|95:70|158:59|147:114|133:143,1,139.999995727539,2|0,1:2|0:0,0:0:0:0:
75,253,43758,1,0,0:0:0:0:
75,253,43852,6,0,B|51:272|-14:262|-25:183|16:143|152:117|135:206|94:231|166:237|208:246|281:210|246:23|246:23|262:118|244:233|62:97|169:281|270:275|282:292|415:279|451:157|286:84|278:195,1,1025.00001564026,10|0,0:2|0:2,0:0:0:0:
210,72,44977,5,4,1:2:0:0:
75,253,45352,5,10,0:2:0:0:
110,244,45445,1,0,0:0:0:0:
140,213,45539,1,2,0:2:0:0:
139,150,45633,1,0,0:0:0:0:
101,119,45727,2,0,P|71:110|39:121,1,59.9999981689454,2|0,1:2|0:0,0:0:0:0:
75,253,45914,5,0,0:0:0:0:
117,252,46008,1,0,0:0:0:0:
172,210,46102,1,10,0:0:0:0:
190,135,46196,1,0,0:0:0:0:
163,56,46289,2,0,P|126:31|68:29,1,75.0000028610231,2|0,0:2|0:0,0:0:0:0:
248,192,46477,6,0,B|313:191|286:236|364:233,1,119.999996337891,6|0,1:2|0:0,0:0:0:0:
391,168,46758,1,0,0:0:0:0:
391,168,46852,6,0,B|380:152|442:63|428:144|463:108|488:66|501:23|501:23|509:90|492:136|460:102|389:178|364:237|423:203|429:284|380:330,1,525.000020027161,10|0,0:2|0:0,0:0:0:0:
320,328,47602,6,0,P|322:343|350:380,1,59.9999981689454,8|0,0:0|0:0,0:0:0:0:
509,321,47789,2,0,L|463:323,1,37.5000014305115,0|0,0:2|0:0,0:0:0:0:
256,248,47977,6,0,L|256:312,4,37.5000014305115,4|0|0|0|0,1:2|3:0|3:0|3:0|3:0,0:0:0:0:
201,375,48258,5,0,0:0:0:0:
209,365,48352,2,0,P|182:322|152:318,1,75.0000028610231,10|0,0:0|0:0,0:0:0:0:
122,250,48539,2,0,P|71:251|43:287,1,85.0000016212464,2|0,0:0|0:0,0:0:0:0:
0,165,48727,6,0,L|3:215,4,42.5000008106232,4|0|0|0|0,1:2|3:0|3:0|3:0|3:0,0:0:0:0:
17,353,49008,5,0,0:0:0:0:
35,362,49102,2,0,P|58:317|42:275,1,85.0000016212464,10|0,0:0|0:0,0:0:0:0:
200,248,49289,2,0,P|194:193|155:153,1,100,2|0,0:0|0:0,0:0:0:0:
1,87,49477,6,0,B|71:87|37:123|112:125,1,110.000003356934,4|0,1:2|0:0,0:0:0:0:
238,34,49664,1,0,0:0:0:0:
245,51,49758,1,0,0:0:0:0:
236,67,49852,6,0,B|219:78|209:97|209:97|197:86|136:83,1,85.0000016212464,10|0,0:0|0:0,0:0:0:0:
171,0,50039,2,0,B|155:25|139:30|139:30|151:48|152:69,1,85.0000016212464,2|0,0:0|0:0,0:0:0:0:
277,130,50227,6,0,B|309:141|384:146|345:57|440:58|485:94,1,209.999993591309,6|0,1:2|0:0,0:0:0:0:
304,58,50602,6,0,B|273:55|265:1|349:-13|445:59|429:188,1,255.000004863739,14|0,0:0|0:0,0:0:0:0:
485,205,50977,6,0,B|500:296|429:276|446:378,1,179.999994506836,4|0,1:2|0:0,0:0:0:0:
362,330,51352,5,10,0:2:0:0:
341,303,51445,1,0,0:0:0:0:
299,283,51539,1,2,0:2:0:0:
248,279,51633,1,0,0:0:0:0:
198,305,51727,2,0,P|182:317|168:356,1,59.9999981689454,2|0,1:2|0:0,0:0:0:0:
44,372,51914,5,0,0:0:0:0:
84,337,52008,1,0,0:0:0:0:
105,285,52102,1,10,0:0:0:0:
96,208,52195,1,0,0:0:0:0:
41,133,52289,2,0,P|18:84|23:40,1,75.0000028610231,2|0,0:2|0:0,0:0:0:0:
234,52,52477,6,0,B|266:31|266:31|221:-3|171:36,1,129.999994049073,2|0,1:2|0:0,0:0:0:0:
92,76,52758,1,0,0:0:0:0:
113,81,52852,2,0,P|155:96|183:125,1,64.9999970245363,10|0,0:2|0:0,0:0:0:0:
247,131,53039,5,2,0:2:0:0:
249,139,53102,1,0,0:0:0:0:
251,147,53164,1,0,0:0:0:0:
252,155,53227,2,0,P|240:189|187:212,1,75.0000028610231,2|2,1:2|0:0,0:0:0:0:
135,212,53414,1,0,0:0:0:0:
135,212,53508,1,2,0:0:0:0:
135,212,53602,2,0,P|111:184|121:135,1,64.9999970245363,8|0,0:0|0:0,0:0:0:0:
0,235,53789,6,0,L|62:241,1,50,2|0,0:2|0:0,0:0:0:0:
90,349,53977,6,0,B|194:356|142:287|273:302,1,179.999994506836,0|0,1:2|0:0,0:0:0:0:
394,376,54352,5,10,0:2:0:0:
392,348,54445,1,0,0:0:0:0:
404,325,54539,1,2,0:2:0:0:
426,282,54633,1,0,0:0:0:0:
434,240,54727,2,0,P|431:211|413:177,1,59.9999981689454,2|0,1:2|0:0,0:0:0:0:
394,376,54914,5,0,0:0:0:0:
368,344,55008,1,0,0:0:0:0:
313,333,55102,1,10,0:0:0:0:
257,275,55195,1,0,0:0:0:0:
247,192,55289,2,0,P|252:151|280:125,1,75.0000028610231,2|0,0:2|0:0,0:0:0:0:
488,6,55477,6,0,P|480:77|407:109,1,139.999995727539,2|0,1:2|0:0,0:0:0:0:
336,24,55758,1,0,0:0:0:0:
352,46,55852,2,0,B|367:83|337:80|361:157,1,69.9999978637696,10|0,0:2|0:0,0:0:0:0:
326,191,56039,5,2,0:2:0:0:
334,190,56102,1,0,0:0:0:0:
342,190,56164,1,0,0:0:0:0:
350,190,56227,2,0,P|398:184|444:183,1,80,2|2,1:2|0:0,0:0:0:0:
502,161,56414,1,0,0:0:0:0:
502,161,56508,1,2,0:0:0:0:
502,161,56602,2,0,P|508:197|488:233,1,64.9999970245363,8|0,0:0|0:0,0:0:0:0:
485,303,56789,6,0,L|421:303,1,50,2|0,0:2|1:0,0:0:0:0:
289,320,56977,6,0,B|179:317|241:378|106:370,1,179.999994506836,4|0,1:2|0:0,0:0:0:0:
32,250,57352,5,10,0:2:0:0:
15,217,57445,1,0,0:0:0:0:
18,174,57539,1,2,0:2:0:0:
67,134,57633,1,0,0:0:0:0:
115,142,57727,2,0,P|141:158|154:190,1,59.9999981689454,2|0,1:2|0:0,0:0:0:0:
32,250,57914,5,0,0:0:0:0:
4,216,58008,1,0,0:0:0:0:
0,148,58102,1,10,0:0:0:0:
45,85,58196,1,0,0:0:0:0:
122,53,58289,2,0,P|165:64|204:106,1,75.0000028610231,2|0,0:2|0:0,0:0:0:0:
322,178,58477,6,0,B|250:167|273:220|181:202,1,129.999994049073,6|0,1:2|0:0,0:0:0:0:
129,148,58758,1,0,0:0:0:0:
129,148,58852,2,0,P|129:166|105:216,1,64.9999970245363,8|2,0:2|0:0,0:0:0:0:
45,335,59039,5,2,0:2:0:0:
82,307,59132,1,2,0:0:0:0:
54,271,59226,1,2,1:2:0:0:
18,298,59320,6,0,P|28:308|80:297,1,64.9999970245363,0|2,0:0|0:0,0:0:0:0:
136,376,59508,2,0,P|175:334|169:276,1,100
123,239,59789,2,0,L|138:196,1,37.5000014305115,0|0,0:2|0:0,0:0:0:0:
256,248,59977,6,0,L|256:312,4,37.5000014305115,4|0|0|0|0,1:2|3:0|3:0|3:0|3:0,0:0:0:0:
311,375,60258,5,0,0:0:0:0:
303,365,60352,2,0,P|330:322|360:318,1,75.0000028610231,10|0,0:0|0:0,0:0:0:0:
390,250,60539,2,0,P|441:251|469:287,1,85.0000016212464,2|0,0:0|0:0,0:0:0:0:
512,165,60727,6,0,L|509:215,4,42.5000008106232,4|0|0|0|0,1:2|3:0|3:0|3:0|3:0,0:0:0:0:
495,353,61008,5,0,0:0:0:0:
477,362,61102,2,0,P|454:317|470:275,1,85.0000016212464,10|0,0:0|0:0,0:0:0:0:
312,248,61289,2,0,P|318:193|357:153,1,100,2|0,0:0|0:0,0:0:0:0:
511,87,61477,6,0,B|441:87|475:123|400:125,1,110.000003356934,4|0,1:2|0:0,0:0:0:0:
274,34,61664,1,0,0:0:0:0:
267,51,61758,1,0,0:0:0:0:
276,67,61852,6,0,B|293:78|303:97|303:97|315:86|376:83,1,85.0000016212464,10|0,0:0|0:0,0:0:0:0:
341,0,62039,2,0,B|357:25|373:30|373:30|361:48|360:69,1,85.0000016212464,2|0,0:0|0:0,0:0:0:0:
502,221,62227,6,0,B|467:206|383:202|430:283|339:279|295:261,1,209.999993591309,6|0,1:2|0:0,0:0:0:0:
465,289,62602,6,0,B|485:319|525:300|507:234|437:156|328:198,1,255.000004863739,14|0,0:0|0:0,0:0:0:0:
280,339,62977,6,0,B|238:336|197:317|170:252|237:227|181:120|152:157|133:110|139:28|139:28|131:110|106:157|61:125|10:179|6:241|6:241|81:272|99:367|99:367|130:301|168:252|197:317|307:241|221:163|301:115|301:115|226:163|186:120|116:228|116:228|106:156|61:125|10:179|-21:94|7:32,1,1600,4|0,0:0|0:0,0:0:0:0:
256,192,73102,12,8,74602,0:0:0:0:
11,309,74977,6,0,P|42:335|77:331,1,75.0000028610231,6|0,0:2|0:0,0:0:0:0:
145,380,75352,2,0,P|183:366|197:333,1,75.0000028610231,2|0,0:2|0:0,0:0:0:0:
11,309,75727,5,10,0:0:0:0:
86,319,75914,1,2,0:0:0:0:
165,300,76102,1,2,0:0:0:0:
240,310,76289,6,0,P|279:324|321:329,1,75.0000028610231,2|0,0:0|0:0,0:0:0:0:
131,222,76664,2,0,P|92:236|50:241,1,75.0000028610231,2|0,0:0|0:0,0:0:0:0:
58,240,77039,1,2,0:0:0:0:
6,94,77227,5,8,0:0:0:0:
62,158,77414,1,0,0:0:0:0:
134,116,77602,1,2,0:0:0:0:
62,145,77789,1,2,0:0:0:0:
203,76,77977,6,0,P|234:50|269:54,1,75.0000028610231,2|0,0:0|0:0,0:0:0:0:
337,5,78352,2,0,P|375:18|389:51,1,75.0000028610231,2|0,0:0|0:0,0:0:0:0:
254,131,78727,6,0,P|330:123|415:136,1,150.000005722046,10|2,0:0|0:0,0:0:0:0:
474,162,79289,1,2,0:0:0:0:
411,27,79477,5,0,1:0:0:0:
474,162,79664,2,0,P|481:121|467:90,1,75.0000028610231,2|0,0:0|0:0,0:0:0:0:
426,229,80039,1,2,0:0:0:0:
467,91,80227,6,0,P|460:132|474:163,1,75.0000028610231,8|0,0:0|1:0,0:0:0:0:
367,97,80602,2,0,P|378:137|367:169,1,75.0000028610231,8|0,0:0|0:0,0:0:0:0:
403,359,80977,5,12,0:0:0:0:
289,305,81164,2,0,L|348:299,1,50
465,288,81352,1,2,0:0:0:0:
403,359,81539,5,0,0:0:0:0:
384,210,81727,2,0,L|387:239,4,25,12|0|0|0|0,0:0|3:0|3:0|3:0|3:0,0:0:0:0:
309,384,82102,5,2,0:0:0:0:
289,201,82289,1,2,0:0:0:0:
109,359,82477,5,12,0:0:0:0:
223,305,82664,2,0,L|164:299,1,50
47,288,82852,1,2,0:0:0:0:
128,210,83039,5,2,0:0:0:0:
128,210,83133,1,0,0:0:0:0:
128,210,83227,2,0,L|120:265,1,50,12|0,0:0|3:0,0:0:0:0:
109,359,83414,5,0,3:0:0:0:
109,359,83508,1,0,0:0:0:0:
109,359,83602,2,0,L|106:388,2,25,0|0|0,3:0|3:0|3:0,0:0:0:0:
47,288,83789,5,0,3:0:0:0:
207,223,83977,6,0,L|255:221,2,32.4999985122681,12|0|0,0:0|0:0|0:0,0:0:0:0:
315,219,84164,1,0,0:0:0:0:
276,356,84352,6,0,L|324:354,2,32.4999985122681,0|0|0,1:0|0:0|0:0,0:0:0:0:
384,352,84539,1,0,0:0:0:0:
419,214,84727,6,0,B|433:203|433:203|429:143,1,64.9999970245363,12|0,0:0|0:0,0:0:0:0:
468,312,84914,2,0,B|482:323|482:323|478:383,1,64.9999970245363
503,196,85102,6,0,L|436:201,1,64.9999970245363,0|0,1:0|0:0,0:0:0:0:
484,337,85289,2,0,L|417:342,1,64.9999970245363
369,240,85477,5,12,0:0:0:0:
354,256,85570,1,0,0:0:0:0:
350,276,85664,1,0,0:0:0:0:
356,296,85758,1,0,0:0:0:0:
266,276,85852,5,0,1:2:0:0:
258,268,85945,1,0,0:0:0:0:
256,258,86039,1,0,0:0:0:0:
259,248,86133,1,0,0:0:0:0:
177,267,86227,6,0,L|171:229,6,37.5000014305115,12|0|0|0|0|0|0,0:0|0:0|0:0|0:0|0:0|0:0|0:0,0:0:0:0:
91,261,86602,6,0,L|87:295,6,25,4|0|0|0|0|0|0,1:2|0:0|0:0|0:0|0:0|0:0|0:0,0:0:0:0:
32,350,86977,6,0,P|47:347|78:296,1,66.6666666666667,8|0,3:0|0:0,0:0:0:0:
191,270,87102,2,0,P|181:259|121:257,1,66.6666666666667,8|0,3:0|0:0,0:0:0:0:
43,172,87227,2,0,P|38:186|67:239,1,66.6666666666667,8|0,3:0|0:0,0:0:0:0:
134,369,87352,6,0,P|207:348|278:345,1,133.333333333333,8|0,3:0|3:0,0:0:0:0:
443,339,87664,5,0,1:0:0:0:
434,345,87727,2,0,P|419:342|388:291,1,66.6666666666667,8|0,3:0|0:0,0:0:0:0:
423,167,87852,2,0,P|428:181|399:234,1,66.6666666666667,8|0,3:0|0:0,0:0:0:0:
275,265,87977,2,0,P|285:254|345:252,1,66.6666666666667,8|0,3:0|0:0,0:0:0:0:
498,101,88102,6,0,B|423:102|462:44|361:48,1,133.333333333333,8|0,3:0|3:0,0:0:0:0:
324,105,88414,5,0,3:0:0:0:
313,95,88477,2,0,L|302:14,1,66.6666666666667,8|0,3:0|0:0,0:0:0:0:
229,97,88602,2,0,L|218:16,1,66.6666666666667,8|0,3:0|0:0,0:0:0:0:
145,99,88727,2,0,L|134:18,1,66.6666666666667,8|0,3:0|0:0,0:0:0:0:
12,226,88852,6,0,L|23:145,1,66.6666666666667,8|0,3:0|0:0,0:0:0:0:
96,228,88977,2,0,L|107:147,1,66.6666666666667,8|0,3:0|0:0,0:0:0:0:
180,230,89102,2,0,L|191:149,1,66.6666666666667,8|0,3:0|0:0,0:0:0:0:
53,304,89227,6,0,B|139:302|102:353|189:356,1,150,8|2,3:0|0:0,0:0:0:0:
269,315,89602,6,0,L|272:284,3,25,0|0|0|0,1:0|0:0|0:0|0:0,0:0:0:0:
259,327,89789,2,0,L|262:358,3,25,0|0|0|0,1:0|0:0|0:0|0:0,0:0:0:0:
344,360,89977,6,0,B|356:338|385:333|412:347|412:347|457:367|518:350|534:250|453:219|400:248|400:248|373:264|317:285|268:193|369:162|370:212|349:233,1,479.999985351563,12|8,1:2|0:0,0:0:0:0:
392,15,90539,5,2,0:0:0:0:
376,127,90633,1,2,0:0:0:0:
332,65,90727,5,2,1:2:0:0:
319,63,90820,1,2,0:0:0:0:
306,61,90914,1,0,0:0:0:0:
441,86,91008,6,0,B|484:83|481:63|517:66,1,75.0000028610231,2|8,0:0|0:0,0:0:0:0:
296,137,91195,6,0,L|257:130,1,37.5000014305115,2|0,0:0|0:0,0:0:0:0:
49,80,91383,5,0,0:0:0:0:
96,29,91477,2,0,B|134:-1|178:18|191:155|129:102|93:114|91:190,1,230.000004386902,2|0,1:2|0:0,0:0:0:0:
109,333,91758,1,0,0:0:0:0:
143,255,91852,6,0,P|113:251|94:260,1,50,10|0,0:0|0:0,0:0:0:0:
54,254,92039,2,0,P|84:258|103:249,1,50,2|0,0:0|0:0,0:0:0:0:
256,368,92227,5,2,1:2:0:0:
256,288,92320,2,0,B|266:257|255:218|230:249|218:178|264:141|290:213|256:241,1,139.999995727539,2|0,0:0|0:0,0:0:0:0:
189,330,92508,6,0,P|154:327|130:339,1,50,2|8,0:0|0:0,0:0:0:0:
323,330,92695,1,0,0:0:0:0:
323,330,92789,2,0,P|358:327|382:339,1,50,2|0,0:0|0:0,0:0:0:0:
491,227,92977,6,0,P|439:218|425:164,1,112.500004291535,2|0,1:2|0:0,0:0:0:0:
444,154,93164,2,0,L|443:91,1,50,2|0,0:0|0:0,0:0:0:0:
314,24,93352,6,0,L|308:69,1,37.5000014305115,10|0,0:0|0:0,0:0:0:0:
331,175,93539,1,0,0:0:0:0:
317,16,93633,6,0,B|323:80|323:80|317:99|317:99|321:172,1,150.000005722046,2|0,0:0|0:0,0:0:0:0:
276,242,93914,1,0,0:0:0:0:
270,229,94008,1,0,0:0:0:0:
199,184,94102,6,0,L|207:130,1,50,10|0,0:0|0:0,0:0:0:0:
204,19,94289,1,0,0:0:0:0:
203,194,94383,6,0,B|213:170|213:170|204:116|204:116|179:88|179:88|183:34|183:34|198:11,1,200,2|0,0:0|0:0,0:0:0:0:
202,32,94664,6,0,P|171:28|123:7,1,75.0000028610231
13,126,94852,2,0,P|42:115|64:119,1,50,10|0,0:0|0:0,0:0:0:0:
115,170,95039,2,0,L|111:223,1,50,2|0,0:0|0:0,0:0:0:0:
256,368,95227,5,2,1:2:0:0:
256,288,95320,2,0,B|246:257|257:218|282:249|294:178|248:141|222:213|256:241,1,139.999995727539,2|0,0:0|0:0,0:0:0:0:
323,330,95508,6,0,P|358:327|382:339,1,50,2|8,0:0|0:0,0:0:0:0:
189,330,95695,1,0,0:0:0:0:
189,330,95789,2,0,P|154:327|130:339,1,50,2|0,0:0|0:0,0:0:0:0:
255,123,95977,6,0,P|285:122|338:139,1,75.0000028610231,6|0,1:2|0:0,0:0:0:0:
471,35,96164,1,0,0:0:0:0:
464,23,96258,2,0,P|406:89|409:164,1,150.000005722046,2|0,0:0|0:0,0:0:0:0:
467,204,96539,1,2,0:0:0:0:
473,180,96633,1,0,0:0:0:0:
393,228,96727,6,0,P|389:266|396:294,1,50,2|0,1:2|0:0,0:0:0:0:
394,336,96914,2,0,P|398:298|391:270,1,50,2|0,0:0|0:0,0:0:0:0:
474,280,97102,1,10,0:0:0:0:
226,357,97289,6,0,B|246:325|285:314|317:328|317:328|294:299|296:259|319:232|319:232|284:245|246:230|228:201|228:201|230:238|204:270|170:278|170:278|206:288|228:322|226:357,1,479.999985351563,2|2,0:0|0:0,0:0:0:0:
92,372,97758,5,0,0:0:0:0:
98,379,97852,2,0,P|113:365|116:316,1,55.0000016784668,10|0,0:0|0:0,0:0:0:0:
1,272,98039,2,0,P|5:291|46:319,1,55.0000016784668,2|0,0:0|0:0,0:0:0:0:
204,151,98227,6,0,P|200:166|168:187,1,40,2|0,1:2|0:0,0:0:0:0:
129,235,98414,2,0,P|117:224|114:185,1,40,2|0,0:0|0:0,0:0:0:0:
17,15,98602,5,10,0:0:0:0:
40,14,98695,1,0,0:0:0:0:
61,26,98789,1,2,0:0:0:0:
72,47,98883,1,0,0:0:0:0:
20,120,98977,6,0,P|137:63|286:50,1,250,4|0,1:2|0:0,0:0:0:0:
334,49,99539,2,0,P|325:90|309:111,1,50
36,27,99727,6,0,P|117:34|136:114,1,119.999996337891,8|0,0:0|0:0,0:0:0:0:
244,125,100008,2,0,P|216:201|134:199,1,119.999996337891,0|0,1:0|0:0,0:0:0:0:
86,291,100289,2,0,L|16:294,1,59.9999981689454,0|0,1:0|0:0,0:0:0:0:
160,365,100477,5,4,1:2:0:0:
165,314,100570,1,0,0:0:0:0:
206,283,100664,1,0,0:0:0:0:
256,290,100758,1,0,0:0:0:0:
330,236,100852,5,12,0:2:0:0:
332,262,100945,1,0,0:0:0:0:
353,278,101039,1,0,0:0:0:0:
379,274,101133,1,0,0:0:0:0:
423,352,101227,5,0,1:3:0:0:
472,294,101320,2,0,L|464:224,1,59.9999981689454,0|0,0:0|1:0,0:0:0:0:
407,88,101508,1,0,0:0:0:0:
396,140,101602,5,0,1:3:0:0:
454,119,101696,1,0,1:3:0:0:
454,57,101790,1,0,1:3:0:0:
394,39,101884,1,0,1:3:0:0:
358,90,101977,6,0,B|333:86|334:106|287:98,1,59.9999981689454,6|0,1:2|0:0,0:0:0:0:
245,187,102164,1,0,0:0:0:0:
228,186,102258,2,0,B|207:186|180:208|180:208|199:74,1,170.000003242493,2|0,0:0|0:0,0:0:0:0:
134,47,102539,2,0,B|113:47|86:25|86:25|105:159,1,170.000003242493,2|0,0:0|1:2,0:0:0:0:
33,160,102820,6,0,P|46:192|116:216,1,100,2|0,0:0|0:0,0:0:0:0:
206,342,103102,1,8,0:0:0:0:
226,351,103195,2,0,P|247:323|232:251,1,100,2|0,0:0|0:0,0:0:0:0:
358,90,103477,6,0,B|333:86|334:106|287:98,1,59.9999981689454,2|0,1:2|0:0,0:0:0:0:
245,187,103664,1,0,0:0:0:0:
229,185,103758,2,0,B|184:161|184:161|214:36,1,170.000003242493,2|0,0:0|0:0,0:0:0:0:
120,5,104039,2,0,B|75:29|75:29|105:154,1,170.000003242493,2|0,0:0|1:2,0:0:0:0:
33,160,104320,6,0,P|46:192|116:216,1,100,2|0,0:0|0:0,0:0:0:0:
233,261,104602,1,10,0:0:0:0:
184,261,104695,1,0,0:0:0:0:
151,297,104789,1,2,0:0:0:0:
153,345,104883,1,0,0:0:0:0:
280,346,104977,6,0,B|325:322|325:322|295:197,1,170.000003242493,2|0,1:2|0:0,0:0:0:0:
389,166,105258,2,0,B|434:190|434:190|404:315,1,170.000003242493,2|0,0:0|0:0,0:0:0:0:
426,376,105539,6,0,P|456:360|472:337,1,50,2|0,0:0|0:0,0:0:0:0:
497,71,105727,6,0,P|493:104|461:137,1,59.9999981689454,2|0,1:2|0:0,0:0:0:0:
427,210,105914,2,0,P|400:190|387:145,1,59.9999981689454,2|0,0:0|0:0,0:0:0:0:
359,39,106102,1,10,0:0:0:0:
361,87,106196,1,2,0:0:0:0:
328,123,106290,1,0,0:0:0:0:
279,123,106383,1,0,0:0:0:0:
213,68,106477,6,0,P|172:66|150:75,1,59.9999981689454,6|0,1:2|0:0,0:0:0:0:
64,12,106664,1,0,0:0:0:0:
83,33,106758,2,0,B|76:102|76:102|71:112|71:112|61:208,1,170.000003242493,2|0,0:0|0:0,0:0:0:0:
2,246,107039,2,0,P|34:271|59:277,1,50,2|0,0:0|0:0,0:0:0:0:
142,363,107227,5,4,1:2:0:0:
121,353,107320,2,0,P|114:291|144:256,1,100,2|0,0:0|0:0,0:0:0:0:
164,192,107602,5,10,0:0:0:0:
175,192,107695,1,0,1:0:0:0:
188,192,107789,1,2,1:2:0:0:
201,193,107883,1,0,1:0:0:0:
300,194,107977,6,0,L|382:186,1,64.9999970245363,4|0,0:0|0:0,0:0:0:0:
422,186,108164,2,0,L|357:192,1,64.9999970245363,0|0,1:0|0:0,0:0:0:0:
282,49,108352,6,0,P|305:73|313:110,1,64.9999970245363,0|0,1:0|0:0,0:0:0:0:
409,271,108539,2,0,L|421:353,1,64.9999970245363,0|0,1:0|0:0,0:0:0:0:
295,336,108727,6,0,P|318:312|326:275,1,64.9999970245363,0|0,1:0|0:0,0:0:0:0:
401,105,108914,2,0,L|413:23,1,64.9999970245363,0|0,1:0|0:0,0:0:0:0:
255,214,109102,5,0,1:0:0:0:
278,192,109196,1,0,0:0:0:0:
256,169,109290,1,0,1:0:0:0:
233,191,109383,1,0,0:0:0:0:
152,200,109477,6,0,L|138:284,1,64.9999970245363,4|0,0:0|0:0,0:0:0:0:
141,119,109664,2,0,L|151:183,1,64.9999970245363,0|0,1:0|0:0,0:0:0:0:
202,310,109852,6,0,P|180:330|120:329,1,64.9999970245363,0|0,1:0|0:0,0:0:0:0:
5,134,110039,2,0,B|64:137|64:137|93:161,1,64.9999970245363,0|0,1:0|0:0,0:0:0:0:
71,247,110227,6,0,B|58:257|58:257|-3:260,1,64.9999970245363,0|0,1:0|0:0,0:0:0:0:
147,43,110414,2,0,P|178:49|202:70,1,64.9999970245363,0|0,1:0|0:0,0:0:0:0:
267,225,110602,5,0,1:0:0:0:
289,180,110696,1,0,0:0:0:0:
244,158,110790,1,0,1:0:0:0:
222,203,110883,1,0,0:0:0:0:
261,312,110977,6,0,B|309:306|309:306|322:281,4,62.5,4|0|0|0|0,3:2|3:2|3:2|3:2|3:2,0:0:0:0:
395,353,111258,5,2,0:0:0:0:
401,337,111352,2,0,L|394:276,1,50
478,321,111539,2,0,L|471:260,1,50,2|0,0:0|0:0,0:0:0:0:
267,225,111727,6,0,B|262:161|262:161|290:134,4,75.0000028610231,4|0|0|0|0,3:2|3:2|3:2|3:2|3:2,0:0:0:0:
355,227,112008,5,2,0:0:0:0:
370,201,112102,2,0,L|361:132,1,59.9999981689454
461,187,112289,2,0,L|452:118,1,59.9999981689454,2|0,0:0|0:0,0:0:0:0:
271,31,112477,5,4,1:2:0:0:
250,86,112570,1,0,1:0:0:0:
199,116,112664,1,0,1:0:0:0:
141,109,112758,1,0,1:0:0:0:
54,12,112852,5,4,1:2:0:0:
69,37,112945,1,0,1:0:0:0:
71,66,113039,1,0,1:0:0:0:
5,110,113133,5,0,1:0:0:0:
70,147,113227,2,0,B|53:220|102:199|83:269,1,112.500004291535,4|0,1:2|0:0,0:0:0:0:
153,364,113602,6,0,B|146:308|72:262|5:310|5:310|25:338|57:338,1,225.000008583069,8|0,0:0|0:0,0:0:0:0:
161,246,113977,6,0,B|200:253|244:280|191:297|256:346|309:270|283:259|240:223|235:277,1,179.999994506836,4|0,1:2|0:0,0:0:0:0:
290,364,114258,2,0,B|316:333|361:309|349:363|424:331|385:247|362:264|310:283|354:315,1,179.999994506836,0|0,1:2|0:0,0:0:0:0:
457,311,114539,2,0,B|443:272|445:221|486:258|495:177|404:170|407:198|397:252|447:230,1,179.999994506836,0|0,1:2|0:0,0:0:0:0:
495,139,114820,2,0,B|455:131|411:104|464:87|399:38|346:114|372:125|415:161|420:107,1,179.999994506836,0|0,1:2|0:0,0:0:0:0:
365,23,115101,2,0,B|338:53|293:77|305:23|230:55|269:139|292:122|344:103|300:71,1,179.999994506836,0|0,1:2|0:0,0:0:0:0:
199,74,115383,2,0,B|212:112|210:163|169:126|160:207|251:214|248:186|258:132|208:154,1,179.999994506836,0|0,1:2|0:0,0:0:0:0:
313,87,115664,6,0,B|358:98|364:140|364:140|414:144|420:190,1,150.000005722046,0|0,1:2|0:0,0:0:0:0:
225,294,115945,2,0,B|195:257|214:220|214:220|176:187|198:147,1,150.000005722046,0|0,1:2|0:0,0:0:0:0:
419,175,116227,2,0,B|421:221|384:240|384:240|395:289|354:309,1,150.000005722046,0|0,1:2|0:0,0:0:0:0:
193,158,116508,2,0,B|218:118|259:125|259:125|279:78|324:87,1,150.000005722046,0|0,1:2|0:0,0:0:0:0:
398,94,116789,2,0,B|399:72|399:72|417:60|417:60|413:85|413:85|403:92,1,75.0000028610231,0|0,1:2|0:0,0:0:0:0:
431,258,116977,6,0,B|386:259|346:247|373:210|332:188|280:216|289:275|366:290|364:219,1,179.999994506836,0|0,1:2|0:0,0:0:0:0:
252,280,117258,2,0,B|273:319|304:348|322:306|362:330|363:389|308:411|256:352|319:318,1,179.999994506836,0|0,1:2|0:0,0:0:0:0:
172,260,117539,2,0,B|193:220|224:191|242:233|282:209|283:150|228:128|176:187|239:221,1,179.999994506836,0|0,1:2|0:0,0:0:0:0:
240,96,117820,2,0,B|195:95|155:107|182:144|141:165|89:137|98:78|174:63|173:134,1,179.999994506836,0|0,1:2|0:0,0:0:0:0:
299,34,118102,2,0,B|322:72|331:113|286:108|287:154|338:185|384:148|359:74|298:111,1,179.999994506836,0|0,1:2|0:0,0:0:0:0:
408,180,118383,2,0,B|431:141|440:100|395:105|396:59|447:28|493:65|468:139|407:102,1,179.999994506836,0|0,1:2|0:0,0:0:0:0:
483,242,118664,6,0,P|381:194|296:179,1,179.999994506836,0|0,1:2|0:0,0:0:0:0:
284,5,118945,2,0,P|293:117|322:198,1,179.999994506836,0|0,1:2|0:0,0:0:0:0:
178,295,119227,2,0,P|270:230|326:164,1,179.999994506836,0|0,1:2|0:0,0:0:0:0:
314,180,119602,6,0,B|346:171|380:210|313:295|217:229|309:174|217:154|172:163,1,240,0|0,1:2|0:0,0:0:0:0:
54,55,119977,6,0,B|43:59|15:13|53:-19|104:11|105:57|68:56|69:93|80:126,1,179.999994506836,4|0,1:2|0:0,0:0:0:0:
182,78,120258,2,0,B|179:66|126:65|117:115|169:143|210:121|189:89|223:72|259:72,1,179.999994506836,0|0,1:2|0:0,0:0:0:0:
335,159,120539,2,0,B|337:147|390:146|399:196|347:224|306:202|327:170|293:153|260:146,1,179.999994506836,0|0,1:2|0:0,0:0:0:0:
251,258,120820,2,0,B|262:262|290:216|251:183|200:214|199:260|237:259|235:296|218:331,1,179.999994506836,0|0,1:2|0:0,0:0:0:0:
104,350,121102,2,0,B|112:357|87:404|39:387|41:328|80:303|97:337|129:317|152:291,1,179.999994506836,0|0,1:2|0:0,0:0:0:0:
60,228,121383,2,0,B|51:235|76:282|124:265|122:206|83:181|66:215|29:197|11:169,1,179.999994506836,0|0,1:2|0:0,0:0:0:0:
68,38,121664,6,0,B|56:-18|-19:49|73:121,1,160,0|0,1:2|0:0,0:0:0:0:
244,187,121945,2,0,B|286:225|307:126|190:122,1,160,0|0,1:2|0:0,0:0:0:0:
11,170,122227,2,0,B|-45:163|-4:256|92:191,1,160,0|0,1:2|0:0,0:0:0:0:
210,49,122508,2,0,B|259:20|171:-30|131:79,1,160,0|0,1:2|0:0,0:0:0:0:
166,191,122789,2,0,B|156:235|181:228|166:293,1,80,0|0,1:2|0:0,0:0:0:0:
67,349,122977,6,0,B|110:346|110:346|114:350|114:350|174:345,1,89.9999972534181,0|0,1:2|0:0,0:0:0:0:
226,368,123164,2,0,B|265:344|265:344|219:318,1,89.9999972534181,0|0,1:2|0:0,0:0:0:0:
116,384,123352,6,0,B|121:368|121:368|96:279,1,89.9999972534181,8|0,3:0|3:0,0:0:0:0:
25,282,123539,2,0,L|12:224,2,44.999998626709,0|0|0,1:0|0:0|0:0,0:0:0:0:
188,141,123727,6,0,B|145:138|145:138|141:142|141:142|81:137,1,89.9999972534181,0|0,1:2|0:0,0:0:0:0:
29,160,123914,2,0,B|-10:136|-10:136|36:110,1,89.9999972534181,0|0,1:2|0:0,0:0:0:0:
139,176,124102,6,0,B|134:160|134:160|159:71,1,89.9999972534181,8|0,3:0|3:0,0:0:0:0:
230,74,124289,2,0,L|244:17,2,44.999998626709,0|0|0,1:0|0:0|0:0,0:0:0:0:
356,77,124477,6,0,P|355:44|339:15,1,66.6666666666667,8|0,0:3|0:0,0:0:0:0:
427,95,124602,2,0,P|438:64|431:31,1,66.6666666666667,8|0,0:3|0:0,0:0:0:0:
486,141,124727,2,0,P|506:114|511:82,1,66.6666666666667,8|0,0:3|0:0,0:0:0:0:
403,238,124852,6,0,P|399:205|418:179,1,66.6666666666667,8|0,0:3|0:0,0:0:0:0:
398,240,124977,2,0,P|373:218|372:185,1,66.6666666666667,8|0,0:3|0:0,0:0:0:0:
391,244,125102,2,0,P|360:231|347:201,1,66.6666666666667,8|0,0:3|0:0,0:0:0:0:
491,348,125227,6,0,B|510:353|510:353|487:284|410:257|343:314,1,225.000008583069,8|0,0:3|0:0,0:0:0:0:
497,169,125602,6,0,P|463:285|344:313,1,255.000004863739,8|0,0:3|0:0,0:0:0:0:
263,301,125977,6,0,P|272:330|272:353,1,42.5000008106232,8|0,0:0|0:0,0:0:0:0:
249,313,126070,2,0,P|248:343|240:364,1,42.5000008106232,8|0,0:0|0:0,0:0:0:0:
170,252,126164,5,0,0:0:0:0:
144,209,126257,1,0,0:0:0:0:
148,159,126351,1,0,0:0:0:0:
180,120,126445,1,0,0:0:0:0:
252,63,126539,6,0,P|243:34|243:11,1,42.5000008106232,8|0,0:0|0:0,0:0:0:0:
266,51,126633,2,0,P|268:20|276:0,1,42.5000008106232,8|0,0:0|0:0,0:0:0:0:
333,120,126727,5,0,0:0:0:0:
365,159,126821,1,0,0:0:0:0:
369,209,126915,1,0,0:0:0:0:
343,252,127008,1,0,0:0:0:0:
263,301,127102,6,0,P|272:330|272:353,1,42.5000008106232,8|0,0:0|0:0,0:0:0:0:
249,313,127195,2,0,P|248:343|240:364,1,42.5000008106232,8|0,0:0|0:0,0:0:0:0:
257,228,127289,5,0,0:0:0:0:
220,192,127382,1,0,0:0:0:0:
256,155,127476,1,0,0:0:0:0:
293,191,127570,1,0,0:0:0:0:
256,192,127664,5,8,0:0:0:0:
