osu file format v14

[General]
AudioFilename: audio.mp3
AudioLeadIn: 0
PreviewTime: 89508
Countdown: 0
SampleSet: Soft
StackLeniency: 0.3
Mode: 0
LetterboxInBreaks: 0
WidescreenStoryboard: 1

[Editor]
Bookmarks: 65977
DistanceSpacing: 0.6
BeatDivisor: 4
GridSize: 16
TimelineZoom: 2.7

[Metadata]
Title:V!rtuaresort
TitleUnicode:V!rtuaresort
Artist:seatrus
ArtistUnicode:seatrus
Creator:-Atri-
Version:Hard
Source:THE BMS OF FIGHTERS XVI -NEO DYSTOPIA-
Tags:KuranteMelodii krt Firis Mistlud LeCandy featured artist fa japanese electronic instrumental BOFXVI Virtuaresort Virtual Resort summer
BeatmapID:3226130
BeatmapSetID:1575193

[Difficulty]
HPDrainRate:4
CircleSize:4
OverallDifficulty:5
ApproachRate:7
SliderMultiplier:1.6
SliderTickRate:1

[Events]
//Background and Video events
0,0,"new bg.jpg",0,0
//Break Periods
2,27177,31927
2,66177,72052
//Storyboard Layer 0 (Background)
//Storyboard Layer 1 (Fail)
//Storyboard Layer 2 (Pass)
//Storyboard Layer 3 (Foreground)
//Storyboard Layer 4 (Overlay)
//Storyboard Sound Samples

[TimingPoints]
-23,375,4,2,1,70,1,0
13477,-90.9090909090909,4,2,1,70,0,0
14977,-100,4,2,1,55,0,0
15023,-100,4,2,1,70,0,0
27023,-100,4,2,1,40,0,0
32977,-133.333333333333,4,2,1,70,0,0
33070,-133.333333333333,4,2,1,55,0,0
34477,-133.333333333333,4,2,1,70,0,0
34570,-133.333333333333,4,2,1,55,0,0
35977,-133.333333333333,4,2,1,70,0,0
36023,-133.333333333333,4,2,1,55,0,0
36727,-133.333333333333,4,2,1,70,0,0
36773,-133.333333333333,4,2,1,55,0,0
38977,-100,4,2,1,70,0,0
65977,-100,4,2,1,5,0,0
74602,-100,4,2,1,60,0,0
74977,-133.333333333333,4,2,1,70,0,0
75023,-133.333333333333,4,2,1,50,0,0
80977,-100,4,2,1,70,0,0
86977,-100,4,2,1,80,0,1
87352,-100,4,2,1,80,0,1
87727,-100,4,2,1,80,0,1
88102,-100,4,2,1,80,0,1
88477,-83.3333333333333,4,2,1,80,0,1
89227,-100,4,2,1,80,0,1
89602,-90.9090909090909,4,2,1,80,0,0
89977,-90.9090909090909,4,2,1,80,0,1
97289,-90.9090909090909,4,2,1,80,0,1
98977,-90.9090909090909,4,2,1,80,0,1
101227,-90.9090909090909,4,2,1,80,0,1
101602,-90.9090909090909,4,2,1,80,0,1
107977,-90.9090909090909,4,2,1,80,0,0
122977,-90.9090909090909,4,2,1,80,0,0
124477,-90.9090909090909,4,2,1,80,0,0
125977,-100,4,2,1,80,0,0

[Colours]
Combo1 : 255,128,64
Combo2 : 0,255,0
Combo3 : 51,255,255
Combo4 : 0,196,0

[HitObjects]
35,358,2227,5,0,1:0:0:0:
35,358,2414,1,0,1:0:0:0:
77,294,2602,2,0,P|124:286|177:311,1,80,8|0,0:0|0:0,0:0:0:0:
254,363,2977,6,0,B|301:367|288:338|345:352,1,80,4|0,1:2|0:0,0:0:0:0:
360,361,3258,2,0,P|412:369|436:346,1,80,12|0,0:0|0:0,0:0:0:0:
451,329,3539,2,0,L|447:282,2,40,14|0|2,0:0|0:0|0:0,0:0:0:0:
380,261,3914,2,0,L|384:214,2,40,0|0|2,0:0|0:0|0:0,0:0:0:0:
453,179,4289,1,0,0:0:0:0:
486,77,4477,6,0,P|434:85|410:62,1,80,4|0,1:2|0:0,0:0:0:0:
389,51,4758,2,0,P|337:43|313:66,1,80,12|0,0:0|0:0,0:0:0:0:
298,83,5039,2,0,L|302:130,2,40,14|0|2,0:0|0:0|0:0,0:0:0:0:
226,51,5414,2,0,L|230:4,2,40,0|0|2,0:0|0:0|0:0,0:0:0:0:
153,87,5789,1,0,0:0:0:0:
50,32,5977,6,0,P|69:82|63:125,1,80,4|0,1:2|0:0,0:0:0:0:
48,133,6258,2,0,L|39:220,1,80,12|0,0:0|0:0,0:0:0:0:
59,238,6539,2,0,L|106:236,2,40,14|0|2,0:0|0:0|0:0,0:0:0:0:
39,316,6914,2,0,L|-8:314,2,40,0|0|2,0:0|0:0|0:0,0:0:0:0:
95,376,7289,1,0,0:0:0:0:
193,319,7477,6,0,B|242:318|219:346|302:347,1,80,4|0,1:2|0:0,0:0:0:0:
296,330,7758,2,0,P|344:321|379:343,1,80,12|0,0:0|0:0,0:0:0:0:
400,343,8039,2,0,L|395:391,2,40,12|0|2,0:0|0:0|0:0,0:0:0:0:
466,280,8414,2,0,L|505:284,2,40,0|0|10,0:0|0:0|0:0,0:0:0:0:
444,256,8695,2,0,P|434:206|449:170,1,80,0|0,1:0|0:0,0:0:0:0:
472,166,8977,6,0,P|482:116|467:80,1,80,4|0,1:2|0:0,0:0:0:0:
412,42,9352,1,8,0:0:0:0:
350,103,9539,2,0,L|304:105,3,40,2|0|2|0,0:0|0:0|1:2|0:0,0:0:0:0:
277,104,9914,1,0,0:0:0:0:
338,193,10102,1,10,0:0:0:0:
338,193,10195,1,0,0:0:0:0:
338,193,10289,1,0,0:0:0:0:
416,234,10477,6,0,P|426:284|411:320,1,80,4|0,1:2|0:0,0:0:0:0:
356,358,10852,1,8,0:0:0:0:
294,297,11039,2,0,L|248:295,3,40,2|0|2|0,0:0|0:0|1:2|0:0,0:0:0:0:
221,296,11414,1,0,0:0:0:0:
168,233,11602,1,10,0:0:0:0:
168,233,11695,1,0,0:0:0:0:
168,233,11789,1,0,0:0:0:0:
120,304,11977,6,0,L|33:296,1,80,4|0,1:2|1:0,0:0:0:0:
0,193,12352,2,0,L|79:200,1,80,8|0,1:2|1:0,0:0:0:0:
145,144,12727,1,6,1:2:0:0:
145,144,12914,1,2,1:2:0:0:
65,108,13102,2,0,L|70:64,3,40,2|2|2|2,1:2|1:2|1:2|1:2,0:0:0:0:
60,34,13477,5,8,0:0:0:0:
60,34,13570,2,0,P|129:19|184:69,1,132.00000402832,8|8,0:0|0:0,0:0:0:0:
193,82,13945,1,8,0:0:0:0:
352,16,14227,6,0,B|364:68|339:55|345:120,1,88.000002685547,0|0,1:0|0:0,0:0:0:0:
295,169,14602,2,0,P|364:184|419:134,1,132.00000402832,8|0,0:0|0:0,0:0:0:0:
425,179,14977,6,0,P|487:183|504:206,1,80,6|0,1:2|0:0,0:0:0:0:
503,224,15258,2,0,L|486:307,1,80,2|0,0:0|0:0,0:0:0:0:
498,332,15539,1,2,0:0:0:0:
404,369,15727,2,0,P|342:373|325:396,1,80,2|0,1:2|0:0,0:0:0:0:
254,315,16102,2,0,B|189:310|210:351|131:345,1,120,10|0,0:0|0:0,0:0:0:0:
113,328,16477,6,0,L|28:332,1,80,2|0,1:2|0:0,0:0:0:0:
1,335,16758,2,0,B|-9:294|-9:294|4:243,1,80,2|0,0:0|0:0,0:0:0:0:
23,234,17039,1,2,0:0:0:0:
18,127,17227,2,0,P|56:156|91:149,1,80,2|0,1:2|0:0,0:0:0:0:
172,82,17602,2,0,B|169:141|169:141|166:145|166:145|162:213,1,120,10|0,0:0|0:0,0:0:0:0:
159,233,17977,6,0,B|211:229|198:254|248:254,1,80,2|0,1:2|0:0,0:0:0:0:
260,234,18258,2,0,P|316:230|339:251,1,80,2|0,0:0|0:0,0:0:0:0:
351,268,18539,1,2,0:0:0:0:
442,332,18727,2,0,L|449:248,1,80,2|0,1:2|0:0,0:0:0:0:
498,165,19102,2,0,P|460:159|438:120,1,80,10|0,0:0|0:0,0:0:0:0:
488,31,19477,5,2,1:2:0:0:
488,31,19570,2,0,P|427:34|390:46,1,80,0|2,0:0|0:0,0:0:0:0:
378,49,19852,1,8,0:0:0:0:
297,24,20039,1,2,0:0:0:0:
299,123,20227,6,0,B|311:145|311:145|297:214,1,80,6|0,1:2|0:0,0:0:0:0:
207,198,20602,2,0,B|196:144|196:144|208:122,1,80,14|0,0:0|0:0,0:0:0:0:
154,35,20977,6,0,L|72:38,1,80,2|0,1:2|0:0,0:0:0:0:
43,29,21258,2,0,P|23:96|36:124,1,80,2|0,0:0|0:0,0:0:0:0:
44,128,21539,1,2,0:0:0:0:
9,228,21727,2,0,P|57:213|94:230,1,80,2|0,1:2|0:0,0:0:0:0:
156,261,22102,1,10,0:0:0:0:
156,261,22289,1,2,0:0:0:0:
141,356,22477,6,0,P|189:371|226:354,1,80,2|0,1:2|0:0,0:0:0:0:
240,341,22758,2,0,P|288:326|325:343,1,80,2|0,0:0|0:0,0:0:0:0:
340,354,23039,1,2,0:0:0:0:
439,375,23227,2,0,B|443:322|443:322|433:295,1,80,2|0,1:2|0:0,0:0:0:0:
358,269,23602,1,10,0:0:0:0:
358,269,23789,1,2,0:0:0:0:
465,224,23977,6,0,L|477:138,1,80,2|2,1:2|0:0,0:0:0:0:
397,157,24352,2,0,L|409:71,1,80,10|2,0:0|0:0,0:0:0:0:
348,26,24727,2,0,L|291:17,3,40,2|0|0|0,1:2|0:0|0:0|0:0,0:0:0:0:
277,28,25102,1,10,0:0:0:0:
265,44,25195,1,0,0:0:0:0:
260,63,25289,1,0,0:0:0:0:
260,83,25383,1,0,0:0:0:0:
267,102,25477,6,0,L|321:98,2,53.3333333333333,8|8|8,0:3|0:3|0:3,0:0:0:0:
237,142,25852,2,0,L|183:138,2,53.3333333333333,8|8|8,0:3|0:3|0:3,0:0:0:0:
257,187,26227,5,8,0:3:0:0:
61,293,26602,2,0,B|43:233|74:239|63:173,1,120,8|0,0:3|0:0,0:0:0:0:
45,134,26977,5,4,0:0:0:0:
72,19,32977,6,0,B|81:81|52:69|67:153,1,120.000004577637,4|2,0:0|3:0,0:0:0:0:
105,210,33539,1,0,3:0:0:0:
105,210,33727,2,0,L|167:204,2,60.0000022888184,2|0|2,3:0|3:0|3:0,0:0:0:0:
25,215,34289,1,0,3:0:0:0:
80,310,34477,5,4,0:0:0:0:
80,310,34664,2,0,P|126:292|153:306,1,60.0000022888184,0|2,3:0|3:0,0:0:0:0:
211,266,35039,2,0,B|205:324|205:324|199:332|199:332|195:385,1,120.000004577637,0|0,3:0|3:0,0:0:0:0:
277,365,35602,1,2,3:0:0:0:
277,365,35789,1,0,3:0:0:0:
358,295,35977,6,0,P|408:315|466:278,1,120.000004577637,4|0,0:0|1:0,0:0:0:0:
488,208,36539,1,0,0:0:0:0:
416,144,36727,6,0,P|366:164|308:127,1,120.000004577637,4|0,0:0|1:0,0:0:0:0:
286,57,37289,1,12,0:0:0:0:
286,57,37664,6,0,P|336:47|371:50,1,60.0000022888184,8|0,0:0|0:0,0:0:0:0:
377,52,37945,1,8,0:0:0:0:
470,22,38133,1,8,0:0:0:0:
470,22,38227,2,0,P|457:73|456:131,1,90.0000034332277,8|0,0:0|0:0,0:0:0:0:
466,141,38602,1,12,0:0:0:0:
444,303,38977,6,0,B|394:296|407:321|340:314,1,80,4|0,1:2|0:0,0:0:0:0:
286,286,39352,2,0,L|290:332,3,40,10|0|2|0,0:2|0:0|0:2|0:0,0:0:0:0:
278,351,39727,1,2,1:2:0:0:
195,307,39914,2,0,L|199:261,3,40,0|0|10|0,0:0|0:0|0:0|0:0,0:0:0:0:
187,242,40289,1,2,0:2:0:0:
108,321,40477,6,0,P|58:309|45:266,1,80,2|0,1:2|0:0,0:0:0:0:
57,260,40758,1,0,0:0:0:0:
57,260,40852,2,0,B|66:192|29:213|42:112,1,120,10|0,0:2|0:0,0:0:0:0:
53,118,41227,2,0,L|142:124,1,80,2|0,1:2|0:0,0:0:0:0:
97,37,41602,2,0,L|186:43,1,80,8|0,0:0|0:2,0:0:0:0:
256,128,41977,6,0,B|308:132|288:104|364:120,1,80,0|0,1:2|0:0,0:0:0:0:
409,69,42352,2,0,L|455:65,3,40,10|0|2|0,0:2|0:0|0:2|0:0,0:0:0:0:
474,77,42727,1,2,1:2:0:0:
494,164,42914,2,0,L|448:160,3,40,0|0|10|0,0:0|0:0|0:0|0:0,0:0:0:0:
429,172,43289,1,2,0:2:0:0:
477,249,43477,6,0,P|481:302|465:335,1,80,2|0,1:2|0:0,0:0:0:0:
454,348,43758,1,0,0:0:0:0:
454,348,43852,2,0,B|387:347|403:375|316:366,1,120,10|0,0:2|0:0,0:0:0:0:
310,357,44227,2,0,P|298:319|304:280,1,80,2|0,1:2|0:0,0:0:0:0:
331,207,44602,1,8,0:0:0:0:
331,207,44789,1,0,0:2:0:0:
256,128,44977,6,0,B|214:122|224:148|178:140,1,80,4|0,1:2|0:0,0:0:0:0:
105,97,45352,2,0,L|59:93,3,40,10|0|2|0,0:2|0:0|0:2|0:0,0:0:0:0:
40,105,45727,1,2,1:2:0:0:
20,192,45914,2,0,L|66:188,3,40,0|0|10|0,0:0|0:0|0:0|0:0,0:0:0:0:
85,200,46289,1,2,0:2:0:0:
29,281,46477,6,0,P|23:333|47:360,1,80,6|0,1:2|0:0,0:0:0:0:
65,371,46758,1,0,0:0:0:0:
65,371,46852,2,0,P|135:354|188:358,1,120,10|0,0:2|0:0,0:0:0:0:
206,372,47227,2,0,P|252:344|255:296,1,80,2|0,1:2|0:0,0:0:0:0:
256,244,47602,1,8,0:0:0:0:
256,244,47789,1,0,0:2:0:0:
302,170,47977,6,0,P|355:165|381:173,1,80,4|0,1:2|3:0,0:0:0:0:
401,184,48258,1,0,0:0:0:0:
401,184,48352,1,10,0:0:0:0:
493,157,48539,1,2,0:0:0:0:
416,85,48727,6,0,P|363:90|337:82,1,80,4|0,1:2|3:0,0:0:0:0:
316,71,49008,1,0,0:0:0:0:
316,71,49102,1,10,0:0:0:0:
225,98,49289,1,2,0:0:0:0:
138,36,49477,6,0,B|90:38|102:54|41:54,1,80,4|0,1:2|0:0,0:0:0:0:
33,46,49758,1,0,0:0:0:0:
33,46,49852,1,10,0:0:0:0:
82,125,50039,1,2,0:0:0:0:
35,195,50227,6,0,L|26:275,1,80,6|0,1:2|0:0,0:0:0:0:
111,206,50602,2,0,L|102:286,1,80,14|0,0:0|0:0,0:0:0:0:
36,378,50977,6,0,P|89:359|123:364,1,80,4|0,1:2|0:0,0:0:0:0:
190,316,51352,2,0,L|186:270,3,40,10|0|2|0,0:2|0:0|0:2|0:0,0:0:0:0:
198,251,51727,1,2,1:2:0:0:
277,293,51914,2,0,L|273:339,3,40,0|0|10|0,0:0|0:0|0:0|0:0,0:0:0:0:
285,358,52289,1,2,0:2:0:0:
364,313,52477,6,0,P|402:302|440:319,1,80,2|0,1:2|0:0,0:0:0:0:
456,337,52758,1,0,0:0:0:0:
456,337,52852,1,10,0:2:0:0:
503,265,53039,2,0,B|510:230|510:230|452:246,1,80,2|2,0:2|1:2,0:0:0:0:
393,224,53414,2,0,B|380:147|411:177|398:99,1,120
394,78,53789,1,2,0:2:0:0:
308,8,53977,6,0,L|315:102,1,80,0|0,1:2|0:0,0:0:0:0:
313,170,54352,2,0,L|267:166,3,40,10|0|2|0,0:2|0:0|0:2|0:0,0:0:0:0:
248,178,54727,1,2,1:2:0:0:
270,261,54914,2,0,L|316:257,3,40,0|0|10|0,0:0|0:0|0:0|0:0,0:0:0:0:
335,269,55289,1,2,0:2:0:0:
288,343,55477,6,0,B|242:340|260:360|208:359,1,80,2|0,1:2|0:0,0:0:0:0:
186,345,55758,1,0,0:0:0:0:
186,345,55852,1,10,0:2:0:0:
120,379,56039,2,0,B|72:366|72:366|111:358,1,80,2|2,0:2|1:2,0:0:0:0:
126,282,56414,2,0,B|54:294|54:294|12:231,1,120
14,230,56789,1,2,0:2:0:0:
46,125,56977,6,0,B|52:78|36:83|43:40,1,80,4|0,1:2|0:0,0:0:0:0:
140,37,57352,2,0,L|136:83,3,40,10|0|2|0,0:2|0:0|0:2|0:0,0:0:0:0:
148,102,57727,1,2,1:2:0:0:
233,84,57914,2,0,L|229:38,3,40,0|0|10|0,0:0|0:0|0:0|0:0,0:0:0:0:
241,19,58289,1,2,0:2:0:0:
323,95,58477,6,0,P|362:81|416:83,1,80,6|0,1:2|0:0,0:0:0:0:
425,92,58758,1,0,0:0:0:0:
425,92,58852,1,8,0:2:0:0:
478,170,59039,1,2,0:2:0:0:
487,187,59133,1,2,0:0:0:0:
491,206,59227,1,2,1:2:0:0:
487,225,59320,2,0,B|384:218,1,80
386,220,59602,2,0,P|373:276|382:312,1,80,8|0,0:0|0:2,0:0:0:0:
268,330,59977,6,0,P|215:325|189:333,1,80,4|0,1:2|3:0,0:0:0:0:
169,345,60258,1,0,0:0:0:0:
169,345,60352,1,10,0:0:0:0:
77,317,60539,1,2,0:0:0:0:
154,245,60727,6,0,P|207:250|233:242,1,80,4|0,1:2|3:0,0:0:0:0:
251,227,61008,1,0,0:0:0:0:
251,227,61102,1,10,0:0:0:0:
345,258,61289,1,2,0:0:0:0:
391,159,61477,6,0,B|439:157|427:141|488:141,1,80,4|0,1:2|0:0,0:0:0:0:
496,149,61758,1,0,0:0:0:0:
496,149,61852,1,10,0:0:0:0:
447,70,62039,1,2,0:0:0:0:
391,14,62227,6,0,L|311:5,1,80,6|0,1:2|0:0,0:0:0:0:
360,87,62602,2,0,L|280:78,1,80,14|0,0:0|0:0,0:0:0:0:
172,67,62977,5,4,0:0:0:0:
256,192,63070,12,0,65977,0:0:0:0:
256,192,73102,12,8,74602,0:0:0:0:
17,316,74977,6,0,B|90:313|60:355|156:352,1,120.000004577637,6|2,0:2|0:2,0:0:0:0:
256,272,75727,2,0,L|256:204,2,60.0000022888184,10|2|2,0:0|0:0|0:0,0:0:0:0:
301,345,76289,6,0,P|350:348|386:284,1,120.000004577637,2|2,0:0|0:0,0:0:0:0:
386,294,77039,1,2,0:0:0:0:
463,266,77227,2,0,L|461:203,1,60.0000022888184,8|0,0:0|0:0,0:0:0:0:
393,171,77602,2,0,L|395:108,1,60.0000022888184,2|2,0:0|0:0,0:0:0:0:
381,36,77977,6,0,B|453:33|429:68|509:68,2,120.000004577637,2|2|10,0:0|0:0|0:0,0:0:0:0:
381,36,79102,1,2,0:0:0:0:
315,91,79289,1,2,0:0:0:0:
247,37,79477,5,0,1:0:0:0:
247,37,79664,2,0,P|204:35|149:89,1,120.000004577637,2|2,0:0|0:0,0:0:0:0:
84,52,80227,2,0,P|77:97|88:123,1,60.0000022888184,8|0,0:0|1:0,0:0:0:0:
143,158,80602,2,0,L|136:220,1,60.0000022888184,8|0,0:0|0:0,0:0:0:0:
126,322,80977,6,0,P|101:283|68:273,1,80,12|0,0:0|0:0,0:0:0:0:
17,223,81352,2,0,P|-4:264|1:299,1,80,2|0,0:0|0:0,0:0:0:0:
57,379,81727,2,0,P|111:358|232:361,1,160,12|2,0:0|0:0,0:0:0:0:
256,288,82289,1,2,0:0:0:0:
204,192,82477,5,12,0:0:0:0:
204,192,82664,2,0,L|120:196,2,80,0|2|2,0:0|0:0|0:0,0:0:0:0:
268,110,83227,1,12,0:0:0:0:
268,110,83414,2,0,L|352:114,2,80,0|0|0,3:0|3:0|3:0,0:0:0:0:
342,187,83977,6,0,P|401:171|416:146,1,80,12|0,0:0|0:0,0:0:0:0:
423,84,84352,2,0,P|460:96|482:129,1,80,0|0,1:0|0:0,0:0:0:0:
471,212,84727,1,12,0:0:0:0:
471,212,84914,1,0,0:0:0:0:
459,294,85102,1,0,1:0:0:0:
459,294,85289,1,0,0:0:0:0:
370,263,85477,6,0,L|329:265,3,40,12|0|0|0,0:0|0:0|0:0|0:0,0:0:0:0:
311,258,85852,2,0,L|270:260,3,40,0|0|0|0,1:2|0:0|0:0|0:0,0:0:0:0:
254,248,86227,6,0,P|230:302|239:338,1,80,12|0,0:0|0:0,0:0:0:0:
143,366,86602,2,0,B|145:329|145:329|147:324|147:324|150:281,1,80,4|0,1:2|0:0,0:0:0:0:
103,207,86977,6,0,L|42:211,2,53.3333333333333,8|8|8,3:0|3:0|3:0,0:0:0:0:
122,188,87352,1,8,3:0:0:0:
219,50,87727,6,0,L|280:54,2,53.3333333333333,8|8|8,3:0|3:0|3:0,0:0:0:0:
200,31,88102,1,8,3:0:0:0:
29,101,88477,6,0,P|22:71|26:25,2,63.9999980468751,8|8|8,3:0|3:0|3:0,0:0:0:0:
52,122,88852,2,0,P|59:152|55:198,2,63.9999980468751,8|8|8,3:0|3:0|3:0,0:0:0:0:
75,108,89227,1,8,3:0:0:0:
215,183,89602,6,0,L|274:182,3,44.0000013427735,0|0|0|0,1:0|0:0|1:0|0:0,0:0:0:0:
280,187,89977,2,0,P|330:138|433:154,1,176.000005371094,4|8,1:2|0:0,0:0:0:0:
487,216,90539,1,2,0:0:0:0:
487,216,90633,1,2,0:0:0:0:
487,216,90727,2,0,L|481:274,3,44.0000013427735,2|2|0|2,1:2|0:0|0:0|0:0,0:0:0:0:
431,333,91195,1,2,0:0:0:0:
360,277,91383,1,0,0:0:0:0:
360,277,91477,6,0,B|305:271|324:312|243:301,1,88.000002685547,2|0,1:2|0:0,0:0:0:0:
212,246,91852,2,0,B|191:271|191:271|197:343,1,88.000002685547,10|2,0:0|0:0,0:0:0:0:
102,373,92227,1,2,1:2:0:0:
102,373,92320,2,0,B|123:348|123:348|117:276,1,88.000002685547,2|2,0:0|0:0,0:0:0:0:
106,274,92602,1,8,0:0:0:0:
141,201,92789,1,2,0:0:0:0:
72,104,92977,6,0,B|125:100|104:128|167:126,1,88.000002685547,2|2,1:2|0:0,0:0:0:0:
218,169,93352,2,0,P|232:127|215:75,1,88.000002685547,10|0,0:0|0:0,0:0:0:0:
208,67,93633,1,2,0:0:0:0:
208,67,93727,1,0,1:0:0:0:
304,96,93914,1,0,0:0:0:0:
393,22,94102,2,0,P|379:64|396:116,1,88.000002685547,10|0,0:0|0:0,0:0:0:0:
403,124,94383,1,2,0:0:0:0:
403,124,94477,6,0,L|494:120,1,88.000002685547,0|0,1:0|0:0,0:0:0:0:
484,202,94852,2,0,L|396:205,1,88.000002685547,10|2,0:0|0:0,0:0:0:0:
331,164,95227,1,2,1:2:0:0:
331,164,95320,2,0,B|310:189|310:189|316:261,1,88.000002685547,2|2,0:0|0:0,0:0:0:0:
318,266,95602,1,8,0:0:0:0:
290,342,95789,1,2,0:0:0:0:
200,266,95977,6,0,B|122:267|156:314|75:313,2,132.00000402832,6|2|2,1:2|0:0|0:0,0:0:0:0:
218,252,96633,1,0,0:0:0:0:
218,252,96727,1,2,1:2:0:0:
145,195,96914,2,0,P|112:148|139:104,1,88.000002685547,2|10,0:0|0:0,0:0:0:0:
176,32,97289,6,0,B|224:48|258:77|258:77|288:48|336:32,1,176.000005371094,2|2,0:0|0:0,0:0:0:0:
376,100,97852,2,0,P|407:62|409:22,1,88.000002685547,10|2,0:0|0:0,0:0:0:0:
485,65,98227,1,2,1:2:0:0:
485,65,98414,1,2,0:0:0:0:
449,141,98602,1,10,0:0:0:0:
450,151,98695,1,0,0:0:0:0:
452,162,98789,1,2,0:0:0:0:
453,173,98883,1,0,0:0:0:0:
455,186,98977,6,0,B|428:231|436:269|483:251|493:343|450:386|396:384|355:305|417:280|440:291,1,264.000008056641,4|0,1:2|0:0,0:0:0:0:
368,231,99727,2,0,B|318:229|331:253|269:249,1,88.000002685547,8|0,0:0|0:0,0:0:0:0:
262,242,100008,2,0,P|240:306|260:336,1,88.000002685547,0|0,1:0|0:0,0:0:0:0:
259,338,100289,1,0,1:0:0:0:
160,368,100477,5,4,1:2:0:0:
146,350,100570,1,0,0:0:0:0:
128,338,100664,1,0,0:0:0:0:
106,333,100758,1,0,0:0:0:0:
83,336,100852,2,0,L|32:334,3,44.0000013427735,12|0|0|0,0:2|0:0|0:0|0:0,0:0:0:0:
25,316,101227,2,0,P|15:264|36:233,1,88.000002685547,0|0,1:3|1:0,0:0:0:0:
109,191,101602,2,0,L|111:140,3,44.0000013427735,0|0|0|0,1:3|1:3|1:3|1:3,0:0:0:0:
124,130,101977,6,0,B|48:123|85:83|3:76,2,132.00000402832,6|2|2,1:2|0:0|0:0,0:0:0:0:
185,53,102727,1,0,1:2:0:0:
185,53,102820,2,0,P|236:43|294:74,1,88.000002685547,2|0,0:0|0:0,0:0:0:0:
288,64,103102,1,8,0:0:0:0:
288,64,103195,2,0,L|283:166,1,88.000002685547,2|0,0:0|0:0,0:0:0:0:
294,171,103477,6,0,B|370:164|333:124|415:117,2,132.00000402832,2|2|2,1:2|0:0|0:0,0:0:0:0:
220,236,104227,1,0,1:2:0:0:
220,236,104320,2,0,P|210:287|241:345,1,88.000002685547,2|0,0:0|0:0,0:0:0:0:
237,334,104602,2,0,L|287:333,3,44.0000013427735,10|0|2|0,0:0|0:0|0:0|0:0,0:0:0:0:
302,331,104977,6,0,B|378:338|341:378|423:385,2,132.00000402832,2|2|2,1:2|0:0|0:0,0:0:0:0:
302,254,105727,2,0,L|312:160,1,88.000002685547,2|2,1:2|0:0,0:0:0:0:
359,87,106102,1,10,0:0:0:0:
359,87,106195,2,0,P|309:74|289:35,1,88.000002685547,2|0,0:0|0:0,0:0:0:0:
286,23,106477,6,0,B|210:30|247:70|165:77,2,132.00000402832,6|2|2,1:2|0:0|0:0,0:0:0:0:
399,16,107227,2,0,B|451:18|451:18|425:51,1,88.000002685547,4|0,1:2|0:0,0:0:0:0:
402,150,107602,2,0,L|398:208,3,44.0000013427735,10|0|2|0,0:0|1:0|1:2|1:0,0:0:0:0:
413,210,107977,6,0,P|360:201|328:228,1,88.000002685547,4|0,0:0|1:0,0:0:0:0:
292,157,108352,2,0,P|257:198|265:239,1,88.000002685547,0|0,1:0|1:0,0:0:0:0:
317,300,108727,1,0,1:0:0:0:
317,300,108914,1,0,1:0:0:0:
240,308,109102,2,0,L|189:305,3,44.0000013427735,0|0|0|0,1:0|0:0|1:0|0:0,0:0:0:0:
176,315,109477,6,0,P|141:273|149:232,1,88.000002685547,4|0,0:0|1:0,0:0:0:0:
70,237,109852,2,0,P|88:186|128:172,1,88.000002685547,0|0,1:0|1:0,0:0:0:0:
206,187,110227,1,0,1:0:0:0:
206,187,110414,1,0,1:0:0:0:
175,117,110602,2,0,L|179:66,3,44.0000013427735,0|0|0|0,1:0|0:0|1:0|0:0,0:0:0:0:
170,52,110977,6,0,P|222:42|258:61,1,88.000002685547,4|0,3:2|3:2,0:0:0:0:
267,71,111258,1,2,0:0:0:0:
267,71,111352,1,0,0:0:0:0:
333,19,111539,1,2,0:0:0:0:
377,110,111727,6,0,P|429:120|465:101,1,88.000002685547,4|0,3:2|3:2,0:0:0:0:
474,91,112008,1,2,0:0:0:0:
474,91,112102,1,0,0:0:0:0:
512,167,112289,1,2,0:0:0:0:
455,233,112477,5,4,1:2:0:0:
455,254,112570,1,0,1:0:0:0:
456,276,112664,1,0,1:0:0:0:
457,298,112758,1,0,1:0:0:0:
459,322,112852,2,0,P|417:331|396:324,3,44.0000013427735,4|0|0|0,1:2|1:0|1:0|1:0,0:0:0:0:
399,344,113227,2,0,P|357:311|312:316,1,88.000002685547,4|0,1:2|0:0,0:0:0:0:
236,360,113602,2,0,L|246:272,1,88.000002685547,8|0,0:0|0:0,0:0:0:0:
160,194,113977,6,0,P|107:200|80:175,1,88.000002685547,4|0,1:2|0:0,0:0:0:0:
60,180,114258,2,0,P|28:137|36:101,1,88.000002685547,0|0,1:2|0:0,0:0:0:0:
22,86,114539,2,0,P|43:37|78:26,1,88.000002685547,0|0,1:2|0:0,0:0:0:0:
84,6,114820,2,0,P|137:0|164:25,1,88.000002685547,0|0,1:2|0:0,0:0:0:0:
184,20,115102,2,0,P|215:62|207:98,1,88.000002685547,0|0,1:2|0:0,0:0:0:0:
219,113,115383,1,0,1:2:0:0:
367,49,115664,6,0,B|434:45|434:45|453:68,1,88.000002685547,0|0,1:2|0:0,0:0:0:0:
460,78,115945,2,0,B|464:145|464:145|441:164,1,88.000002685547,0|0,1:2|0:0,0:0:0:0:
429,170,116227,2,0,B|362:174|362:174|343:151,1,88.000002685547,0|0,1:2|0:0,0:0:0:0:
336,141,116508,2,0,B|332:74|332:74|355:55,1,88.000002685547,0|0,1:2|0:0,0:0:0:0:
367,49,116789,1,0,1:2:0:0:
260,61,116977,6,0,P|212:61|181:33,1,88.000002685547,0|0,1:2|0:0,0:0:0:0:
166,19,117258,2,0,P|142:60|102:73,1,88.000002685547,0|0,1:2|0:0,0:0:0:0:
86,79,117539,2,0,P|110:119|101:160,1,88.000002685547,0|0,1:2|0:0,0:0:0:0:
95,179,117821,2,0,P|142:178|173:206,1,88.000002685547,0|0,1:2|0:0,0:0:0:0:
189,219,118102,2,0,P|212:177|252:164,1,88.000002685547,0|0,1:2|0:0,0:0:0:0:
270,158,118383,1,0,1:2:0:0:
416,244,118664,6,0,B|424:327|391:293|394:383,2,132.00000402832,0|0|0,1:2|1:2|1:2,0:0:0:0:
416,244,119602,2,0,B|394:238|377:242|377:242|390:200|434:204,1,88.000002685547,0|0,1:2|0:0,0:0:0:0:
499,144,119977,6,0,P|505:91|480:64,1,88.000002685547,4|0,1:2|0:0,0:0:0:0:
485,44,120258,2,0,P|442:12|406:20,1,88.000002685547,0|0,1:2|0:0,0:0:0:0:
391,6,120539,2,0,P|342:27|331:62,1,88.000002685547,0|0,1:2|0:0,0:0:0:0:
311,68,120820,2,0,P|305:121|330:148,1,88.000002685547,0|0,1:2|0:0,0:0:0:0:
325,168,121102,2,0,P|367:199|403:191,1,88.000002685547,0|0,1:2|0:0,0:0:0:0:
413,175,121383,1,0,1:2:0:0:
303,285,121664,6,0,B|307:352|307:352|284:371,1,88.000002685547,0|0,1:2|0:0,0:0:0:0:
274,378,121945,2,0,B|207:382|207:382|188:359,1,88.000002685547,0|0,1:2|0:0,0:0:0:0:
182,347,122227,2,0,B|178:280|178:280|201:261,1,88.000002685547,0|0,1:2|0:0,0:0:0:0:
211,254,122508,2,0,B|278:250|278:250|297:273,1,88.000002685547,0|0,1:2|0:0,0:0:0:0:
303,285,122789,1,0,1:2:0:0:
383,351,122977,6,0,P|444:357|473:331,1,88.000002685547,0|0,1:2|1:2,0:0:0:0:
492,266,123352,1,8,3:0:0:0:
492,266,123539,1,0,1:0:0:0:
419,199,123727,2,0,P|358:205|329:179,1,88.000002685547,0|0,1:2|1:2,0:0:0:0:
310,114,124102,1,8,3:0:0:0:
310,114,124289,1,0,1:0:0:0:
232,171,124477,6,0,L|238:238,2,58.6666684570313,8|8|8,0:3|0:3|0:3,0:0:0:0:
211,149,124852,2,0,L|217:82,2,58.6666684570313,8|8|8,0:3|0:3|0:3,0:0:0:0:
186,164,125227,1,8,0:3:0:0:
27,62,125602,2,0,B|5:132|46:114|25:201,1,132.00000402832,8|0,0:3|0:0,0:0:0:0:
11,221,125977,5,8,0:0:0:0:
11,221,126070,2,0,P|39:258|38:341,1,120,8|0,0:0|0:0,0:0:0:0:
125,383,126539,5,8,0:0:0:0:
125,383,126632,2,0,P|162:355|245:356,1,120,8|0,0:0|0:0,0:0:0:0:
280,269,127102,5,8,0:0:0:0:
280,269,127195,2,0,P|252:232|253:149,1,120,8|0,0:0|0:0,0:0:0:0:
256,64,127664,5,8,0:0:0:0:
