osu file format v14

[General]
AudioFilename: audio.mp3
AudioLeadIn: 0
PreviewTime: 89508
Countdown: 0
SampleSet: Soft
StackLeniency: 0.2
Mode: 0
LetterboxInBreaks: 0
WidescreenStoryboard: 1

[Editor]
DistanceSpacing: 0.7
BeatDivisor: 4
GridSize: 4
TimelineZoom: 2.7

[Metadata]
Title:V!rtuaresort
TitleUnicode:V!rtuaresort
Artist:seatrus
ArtistUnicode:seatrus
Creator:-Atri-
Version:Another
Source:THE BMS OF FIGHTERS XVI -NEO DYSTOPIA-
Tags:KuranteMelodii krt Firis Mistlud LeCandy featured artist fa japanese electronic instrumental BOFXVI Virtuaresort Virtual Resort summer
BeatmapID:3216333
BeatmapSetID:1575193

[Difficulty]
HPDrainRate:6
CircleSize:4.2
OverallDifficulty:7.5
ApproachRate:9
SliderMultiplier:1.8
SliderTickRate:1

[Events]
//Background and Video events
0,0,"new bg.jpg",0,0
//Break Periods
2,66177,72502
//Storyboard Layer 0 (Background)
//Storyboard Layer 1 (Fail)
//Storyboard Layer 2 (Pass)
//Storyboard Layer 3 (Foreground)
//Storyboard Layer 4 (Overlay)
//Storyboard Sound Samples

[TimingPoints]
-23,375,4,2,1,70,1,0
2227,-133.333333333333,4,2,1,70,0,0
2602,-111.111111111111,4,2,1,70,0,0
2977,-100,4,2,1,70,0,0
12727,-83.3333333333333,4,2,1,70,0,0
14602,-66.6666666666667,4,2,1,70,0,0
14977,-90.9090909090909,4,2,1,55,0,0
15023,-90.9090909090909,4,2,1,70,0,0
16102,-76.9230769230769,4,2,1,70,0,0
16477,-90.9090909090909,4,2,1,70,0,0
17602,-76.9230769230769,4,2,1,70,0,0
17977,-90.9090909090909,4,2,1,70,0,0
19102,-76.9230769230769,4,2,1,70,0,0
19570,-90.9090909090909,4,2,1,70,0,0
20039,-83.3333333333333,4,2,1,70,0,0
20227,-66.6666666666667,4,2,1,70,0,0
20602,-90.9090909090909,4,2,1,70,0,0
23977,-66.6666666666667,4,2,1,70,0,0
25477,-71.4285714285714,4,2,1,70,0,0
26602,-62.5,4,2,1,70,0,0
26977,-133.333333333333,4,2,1,70,0,0
27023,-133.333333333333,4,2,1,40,0,0
32977,-100,4,2,1,70,0,0
33070,-100,4,2,1,55,0,0
34477,-100,4,2,1,70,0,0
34570,-100,4,2,1,55,0,0
35977,-100,4,2,1,70,0,0
36023,-100,4,2,1,55,0,0
36727,-100,4,2,1,70,0,0
36773,-100,4,2,1,55,0,0
38602,-66.6666666666667,4,2,1,55,0,0
38977,-83.3333333333333,4,2,1,70,0,0
62977,-133.333333333333,4,2,1,70,0,0
65977,-133.333333333333,4,2,1,5,0,0
74602,-133.333333333333,4,2,1,60,0,0
74977,-133.333333333333,4,2,1,70,0,0
75023,-133.333333333333,4,2,1,50,0,0
80977,-100,4,2,1,70,0,0
81352,-133.333333333333,4,2,1,70,0,0
81727,-83.3333333333333,4,2,1,70,0,0
83039,-100,4,2,1,70,0,0
83977,-90.9090909090909,4,2,1,70,0,0
86977,-71.4285714285714,4,2,1,80,0,1
87352,-100,4,2,1,80,0,1
87727,-71.4285714285714,4,2,1,80,0,1
88102,-100,4,2,1,80,0,1
88477,-71.4285714285714,4,2,1,80,0,1
89227,-100,4,2,1,80,0,1
89602,-100,4,2,1,80,0,0
89977,-76.9230769230769,4,2,1,80,0,1
94102,-66.6666666666667,4,2,1,80,0,1
94664,-76.9230769230769,4,2,1,80,0,1
107977,-76.9230769230769,4,2,1,80,0,0
113977,-83.3333333333333,4,2,1,80,0,0
122977,-71.4285714285714,4,2,1,80,0,0
125602,-62.5,4,2,1,80,0,0
125977,-100,4,2,1,80,0,0

[Colours]
Combo1 : 255,128,64
Combo2 : 0,255,0
Combo3 : 51,255,255
Combo4 : 0,196,0

[HitObjects]
142,97,2227,6,0,P|165:107|177:120,1,33.7500012874604,0|0,1:0|0:0,0:0:0:0:
370,97,2414,2,0,P|347:107|335:120,1,33.7500012874604,0|0,1:0|0:0,0:0:0:0:
256,16,2602,6,0,B|242:83|273:71|256:136,1,121.499996292114,8|0,0:0|0:0,0:0:0:0:
235,219,2977,6,0,P|307:206|343:208,1,90,4|0,1:2|0:0,0:0:0:0:
392,169,3258,2,0,P|401:203|378:262,1,90,12|0,0:0|0:0,0:0:0:0:
395,384,3539,6,0,L|401:326,3,45,14|0|2|0,0:0|0:0|0:0|0:0,0:0:0:0:
470,310,3914,1,0,0:0:0:0:
457,291,4007,1,0,0:0:0:0:
440,277,4101,1,2,0:0:0:0:
419,267,4195,1,0,0:0:0:0:
397,264,4289,1,0,0:0:0:0:
375,267,4382,1,0,0:0:0:0:
354,277,4477,6,0,B|302:276|326:307|246:299,1,90,4|0,1:2|0:0,0:0:0:0:
208,253,4758,2,0,P|192:293|208:346,1,90,12|0,0:0|0:0,0:0:0:0:
79,358,5039,6,0,L|138:353,3,45,14|0|2|0,0:0|0:0|0:0|0:0,0:0:0:0:
116,281,5414,1,0,0:0:0:0:
120,259,5507,1,0,0:0:0:0:
119,236,5601,1,2,0:0:0:0:
110,216,5695,1,0,0:0:0:0:
104,194,5789,1,0,0:0:0:0:
106,172,5882,1,0,0:0:0:0:
112,149,5977,6,0,P|125:102|114:59,1,90,4|0,1:2|0:0,0:0:0:0:
59,12,6258,2,0,P|41:53|59:108,1,90,12|0,0:0|0:0,0:0:0:0:
188,187,6539,6,0,L|242:186,3,45,14|0|2|0,0:0|0:0|0:0|0:0,0:0:0:0:
202,109,6914,1,0,0:0:0:0:
213,89,7007,1,0,0:0:0:0:
229,74,7101,1,2,0:0:0:0:
249,63,7195,1,0,0:0:0:0:
271,58,7289,1,0,0:0:0:0:
293,59,7382,1,0,0:0:0:0:
319,64,7477,6,0,B|371:76|354:32|427:47,1,90,4|0,1:2|0:0,0:0:0:0:
465,0,7758,2,0,P|480:50|452:104,1,90,12|0,0:0|0:0,0:0:0:0:
481,199,8039,6,0,L|423:193,3,45,12|0|2|0,0:0|0:0|0:0|0:0,0:0:0:0:
395,123,8414,1,0,0:0:0:0:
376,136,8507,1,0,0:0:0:0:
362,153,8601,1,10,0:0:0:0:
352,174,8695,1,0,1:0:0:0:
349,196,8789,1,0,1:0:0:0:
352,218,8882,1,0,0:0:0:0:
369,240,8977,6,0,P|365:295|362:343,1,90,4|0,1:2|0:0,0:0:0:0:
238,226,9352,1,8,0:0:0:0:
290,367,9539,5,2,0:0:0:0:
281,334,9632,1,0,0:0:0:0:
259,310,9726,1,2,1:2:0:0:
227,299,9820,1,0,0:0:0:0:
194,305,9914,2,0,P|168:316|155:337,1,45
80,366,10102,1,10,0:0:0:0:
79,353,10195,1,0,0:0:0:0:
78,341,10289,1,0,0:0:0:0:
6,178,10477,6,0,P|55:177|108:214,1,90,4|0,1:2|0:0,0:0:0:0:
237,148,10852,1,8,0:0:0:0:
61,266,11039,5,2,0:0:0:0:
93,271,11132,1,0,0:0:0:0:
126,261,11226,1,2,1:2:0:0:
150,238,11320,1,0,0:0:0:0:
161,207,11414,2,0,L|159:149,1,45
96,88,11602,1,10,0:0:0:0:
95,101,11695,1,0,0:0:0:0:
94,113,11789,1,0,0:0:0:0:
256,24,11977,5,4,1:2:0:0:
176,176,12164,1,0,1:0:0:0:
256,24,12352,5,8,1:2:0:0:
336,176,12539,1,0,1:0:0:0:
206,95,12727,6,0,P|173:84|145:84,1,53.9999983520508,6|0,1:2|0:0,0:0:0:0:
306,95,12914,2,0,P|339:84|367:84,1,53.9999983520508,2|0,1:2|0:0,0:0:0:0:
256,200,13102,5,2,1:2:0:0:
254,218,13195,1,2,1:2:0:0:
256,236,13289,1,2,1:2:0:0:
257,254,13383,1,2,1:2:0:0:
256,272,13477,5,8,0:0:0:0:
273,299,13570,2,0,B|329:298|307:336|386:333,1,107.999996704102,8|0,0:0|0:0,0:0:0:0:
480,272,13852,5,8,0:0:0:0:
463,244,13945,2,0,P|401:229|358:266,1,107.999996704102,8|0,0:0|0:0,0:0:0:0:
372,333,14227,6,0,B|397:350|385:373|345:385|314:322|349:290|381:322|364:208,1,161.999995056153,0|0,1:0|0:0,0:0:0:0:
412,182,14602,6,0,B|463:158|480:119|464:36|435:18|405:71|444:100,1,202.500007724762,8|0,0:0|0:0,0:0:0:0:
362,120,14977,6,0,P|313:95|262:89,1,99.0000030212403,6|0,1:2|0:0,0:0:0:0:
221,33,15258,2,0,P|199:66|197:91,1,49.5000015106202,2|8,0:0|0:0,0:0:0:0:
27,90,15539,2,0,P|44:125|65:139,1,49.5000015106202,2|0,0:0|0:0,0:0:0:0:
129,44,15727,2,0,B|117:101|137:93|123:164,1,99.0000030212403,2|0,1:2|0:0,0:0:0:0:
158,265,16102,6,0,B|124:196|44:209|44:209|49:233|82:236,1,175.499991966248,10|0,0:0|0:0,0:0:0:0:
90,307,16477,6,0,P|101:342|101:368,1,49.5000015106202,2|0,1:2|0:0,0:0:0:0:
225,360,16664,1,0,0:0:0:0:
225,360,16758,2,0,B|220:299|243:315|239:253,1,99.0000030212403,2|0,0:0|0:0,0:0:0:0:
207,191,17039,2,0,P|210:166|223:142,1,49.5000015106202,2|0,0:0|0:0,0:0:0:0:
283,197,17227,2,0,B|293:172|325:179|325:179|331:210|282:236,1,99.0000030212403,2|0,1:2|0:0,0:0:0:0:
158,265,17602,6,0,P|238:274|326:315,1,175.499991966248,10|0,0:0|0:0,0:0:0:0:
336,384,17977,6,0,B|390:378|371:340|432:344,1,99.0000030212403,2|0,1:2|0:0,0:0:0:0:
487,384,18258,2,0,P|499:351|496:326,1,49.5000015106202,2|8,0:0|0:0,0:0:0:0:
341,239,18539,2,0,P|367:216|377:193,1,49.5000015106202,2|0,0:0|0:0,0:0:0:0:
457,271,18727,2,0,P|453:205|461:166,1,99.0000030212403,2|0,1:2|0:0,0:0:0:0:
454,30,19102,6,0,B|486:32|503:54|503:54|445:87|378:29,1,175.499991966248,10|0,0:0|0:0,0:0:0:0:
308,18,19477,5,2,1:2:0:0:
312,47,19570,2,0,L|317:105,1,49.5000015106202
204,18,19759,1,2,0:0:0:0:
200,47,19852,2,0,L|195:105,1,49.5000015106202,8|0,0:0|0:0,0:0:0:0:
264,176,20039,2,0,B|272:168|256:152|256:152|240:168|248:176,1,53.9999983520508,2|0,0:0|0:0,0:0:0:0:
192,256,20227,6,0,B|240:264|256:280|256:280|272:264|320:256,1,135.000005149842,6|0,1:2|0:0,0:0:0:0:
324,272,20602,6,0,B|316:264|316:264|260:264|260:264|256:256|256:256|252:264|252:264|196:264|196:264|188:272,1,148.50000453186,14|0,0:0|0:0,0:0:0:0:
128,326,20977,6,0,L|134:383,1,49.5000015106202,2|0,1:2|0:0,0:0:0:0:
34,270,21164,2,0,L|40:213,1,49.5000015106202,0|2,0:0|0:0,0:0:0:0:
127,164,21352,2,0,B|67:166|83:140|2:141,1,99.0000030212403,8|2,0:0|0:0,0:0:0:0:
14,68,21633,1,0,0:0:0:0:
14,68,21727,6,0,B|24:29|61:18|86:33|86:33|75:64|42:67,1,148.50000453186,2|0,1:2|0:0,0:0:0:0:
31,142,22102,2,0,P|64:141|83:146,1,49.5000015106202,10|0,0:0|0:0,0:0:0:0:
163,11,22289,2,0,P|164:44|159:63,1,49.5000015106202,2|0,0:0|0:0,0:0:0:0:
199,126,22477,6,0,P|198:159|203:178,1,49.5000015106202,2|0,1:2|0:0,0:0:0:0:
310,174,22664,2,0,P|314:150|313:126,1,49.5000015106202,0|2,0:0|0:0,0:0:0:0:
349,11,22852,2,0,B|409:9|393:35|474:34,1,99.0000030212403,8|2,0:0|0:0,0:0:0:0:
462,107,23133,1,0,0:0:0:0:
462,107,23227,6,0,B|452:146|415:157|390:142|390:142|400:110|434:108,1,148.50000453186,2|0,1:2|0:0,0:0:0:0:
349,11,23601,2,0,P|348:44|353:63,1,49.5000015106202,10|0,0:0|0:0,0:0:0:0:
310,174,23789,2,0,P|314:198|312:222,1,49.5000015106202,2|0,0:0|0:0,0:0:0:0:
449,322,23977,6,0,P|410:306|382:310,1,67.5000025749208,2|0,1:2|0:0,0:0:0:0:
390,241,24164,2,0,P|374:279|378:307,1,67.5000025749208,2|0,0:0|0:0,0:0:0:0:
309,298,24352,2,0,P|347:313|375:309,1,67.5000025749208,10|0,0:0|0:0,0:0:0:0:
368,379,24539,2,0,P|383:340|379:312,1,67.5000025749208,2|0,0:0|0:0,0:0:0:0:
237,238,24727,5,2,1:2:0:0:
201,224,24820,1,0,0:0:0:0:
165,231,24914,1,0,0:0:0:0:
136,253,25008,1,0,0:0:0:0:
122,287,25102,5,10,0:0:0:0:
108,309,25195,1,0,0:0:0:0:
86,322,25289,1,0,0:0:0:0:
60,323,25383,1,0,0:0:0:0:
40,307,25477,6,0,L|35:201,2,83.9999974365235,8|8|8,0:3|0:3|0:3,0:0:0:0:
195,300,25852,2,0,L|191:383,2,83.9999974365235,8|8|8,0:3|0:3|0:3,0:0:0:0:
222,197,26227,6,0,B|152:208|176:173|93:185,1,125.999996154785,8|0,0:3|0:0,0:0:0:0:
98,184,26602,6,0,P|166:216|225:110,1,216,8|0,0:3|0:0,0:0:0:0:
188,47,26977,6,0,B|204:39|225:35|225:35|95:54|143:13|12:22|12:22|73:31|72:94|54:124|54:124|50:106|44:91,1,405.000015449525,4|0,0:0|0:0,0:0:0:0:
49,106,28477,6,0,B|71:82|73:52|73:52|96:90|92:158|51:133|9:206|46:303|108:292|176:283|170:209|122:191,1,405.000015449525,2|0,0:0|0:0,0:0:0:0:
132,196,29977,6,0,B|145:243|126:296|49:301|49:301|166:298|78:369|258:380|281:318|197:254|176:333,1,405.000015449525,2|0,0:0|0:0,0:0:0:0:
187,311,31477,6,0,B|159:335|124:339|144:301|74:320|73:365|154:390|131:350|130:333,1,135.000005149842,2|0,0:0|0:0,0:0:0:0:
220,243,32227,2,0,B|254:255|275:283|232:285|284:336|323:314|304:232|281:271|267:281,1,135.000005149842,2|0,0:0|0:0,0:0:0:0:
456,368,32977,5,4,0:0:0:0:
357,296,33164,1,0,3:0:0:0:
355,278,33257,1,0,3:0:0:0:
344,265,33351,1,2,3:0:0:0:
337,351,33539,1,0,3:0:0:0:
352,358,33632,1,0,3:0:0:0:
368,356,33726,1,2,3:0:0:0:
298,306,33914,1,0,3:0:0:0:
284,315,34007,1,0,3:0:0:0:
277,331,34101,1,2,3:0:0:0:
360,196,34289,2,0,L|300:188,1,45,0|0,3:0|3:0,0:0:0:0:
248,244,34477,5,4,0:0:0:0:
200,104,34664,1,0,3:0:0:0:
197,126,34757,1,0,3:0:0:0:
183,143,34851,1,2,3:0:0:0:
174,31,35039,1,0,3:0:0:0:
194,21,35132,1,0,3:0:0:0:
215,24,35226,1,2,3:0:0:0:
124,91,35414,1,0,3:0:0:0:
105,78,35507,1,0,3:0:0:0:
97,57,35601,1,2,3:0:0:0:
112,188,35789,2,0,L|52:196,1,45,0|0,3:0|3:0,0:0:0:0:
17,321,35977,6,0,L|45:319,6,22.5,4|0|0|0|0|0|0,0:0|3:0|3:0|3:0|3:0|0:0|0:0,0:0:0:0:
106,275,36352,2,0,B|153:280|130:309|186:319,1,90,0|0,1:0|0:0,0:0:0:0:
317,373,36727,6,0,L|315:345,6,22.5,4|0|0|0|0|0|0,0:0|3:0|3:0|3:0|3:0|0:0|0:0,0:0:0:0:
256,300,37102,1,0,1:0:0:0:
455,244,37289,5,12,0:0:0:0:
455,244,37664,2,0,P|427:192|429:144,1,90,8|0,0:0|0:0,0:0:0:0:
347,146,37945,2,0,P|365:110|382:95,1,45,8|0,0:0|0:0,0:0:0:0:
482,11,38133,1,8,0:0:0:0:
482,11,38227,2,0,P|467:68|427:98,1,90,8|0,0:0|1:0,0:0:0:0:
425,162,38508,1,0,0:0:0:0:
425,162,38602,6,0,B|436:171|434:183|434:183|353:125|233:120,1,202.500007724762,12|0,0:0|0:0,0:0:0:0:
198,157,38977,6,0,B|176:93|214:109|190:34,1,107.999996704102,4|0,1:2|0:0,0:0:0:0:
15,34,39352,5,10,0:2:0:0:
9,60,39445,1,0,0:0:0:0:
18,85,39539,1,2,0:2:0:0:
38,102,39633,1,0,0:0:0:0:
65,105,39727,2,0,L|122:100,1,53.9999983520508,2|0,1:2|0:0,0:0:0:0:
122,184,39914,5,0,0:0:0:0:
95,178,40007,1,0,0:0:0:0:
70,187,40101,1,10,0:0:0:0:
53,207,40195,1,0,0:0:0:0:
51,234,40289,2,0,L|56:291,1,53.9999983520508,2|0,0:2|0:0,0:0:0:0:
28,359,40477,6,0,P|86:323|164:326,1,107.999996704102,2|0,1:2|0:0,0:0:0:0:
181,378,40758,1,0,0:0:0:0:
181,378,40852,2,0,P|205:318|188:274,1,107.999996704102,10|0,0:2|0:2,0:0:0:0:
42,180,41227,2,0,P|81:230|128:238,1,107.999996704102,2|0,1:2|0:0,0:0:0:0:
191,197,41602,1,8,0:0:0:0:
124,318,41789,1,0,0:2:0:0:
305,370,41977,5,0,1:2:0:0:
305,370,42352,5,10,0:2:0:0:
300,343,42445,1,0,0:0:0:0:
309,318,42539,1,2,0:2:0:0:
329,301,42633,1,0,0:0:0:0:
355,299,42727,2,0,L|412:304,1,53.9999983520508,2|0,1:2|0:0,0:0:0:0:
500,241,42914,5,0,0:0:0:0:
473,247,43007,1,0,0:0:0:0:
448,238,43101,1,10,0:0:0:0:
431,218,43195,1,0,0:0:0:0:
429,191,43289,2,0,L|434:134,1,53.9999983520508,2|0,0:2|0:0,0:0:0:0:
484,25,43477,6,0,P|426:61|348:58,1,107.999996704102,2|0,1:2|0:0,0:0:0:0:
331,6,43758,1,0,0:0:0:0:
331,6,43852,2,0,P|307:66|324:110,1,107.999996704102,10|0,0:2|0:2,0:0:0:0:
470,204,44227,2,0,P|430:153|383:145,1,107.999996704102,2|0,1:2|0:0,0:0:0:0:
388,66,44602,1,8,0:0:0:0:
315,184,44789,2,0,L|254:179,1,53.9999983520508,0|0,0:2|1:0,0:0:0:0:
239,109,44977,6,0,B|172:99|205:147|116:138,1,107.999996704102,4|0,1:2|0:0,0:0:0:0:
0,27,45352,5,10,0:2:0:0:
27,27,45445,1,0,0:0:0:0:
50,40,45539,1,2,0:2:0:0:
63,63,45633,1,0,0:0:0:0:
67,90,45727,2,0,L|66:147,1,53.9999983520508,2|0,1:2|0:0,0:0:0:0:
0,288,45914,5,0,0:0:0:0:
0,261,46007,1,0,0:0:0:0:
13,238,46101,1,10,0:0:0:0:
36,225,46195,1,0,0:0:0:0:
63,221,46289,2,0,L|120:221,1,53.9999983520508,2|0,0:2|0:0,0:0:0:0:
164,365,46477,6,0,B|153:309|185:316|179:256,1,107.999996704102,6|0,1:2|0:0,0:0:0:0:
209,194,46758,1,0,0:0:0:0:
209,194,46852,2,0,P|153:188|115:223,1,107.999996704102,10|0,0:2|0:2,0:0:0:0:
80,373,47227,2,0,P|132:347|251:353,1,161.999995056153,2|0,1:2|0:0,0:0:0:0:
256,364,47602,1,8,0:0:0:0:
256,272,47789,1,0,0:2:0:0:
445,320,47977,6,0,L|411:322,4,26.9999991760254,4|0|0|0|0,1:2|3:0|3:0|3:0|3:0,0:0:0:0:
352,367,48258,1,0,0:0:0:0:
352,367,48352,2,0,P|340:297|364:259,1,107.999996704102,10|2,0:0|0:0,0:0:0:0:
362,137,48727,6,0,L|396:139,4,26.9999991760254,4|0|0|0|0,1:2|3:0|3:0|3:0|3:0,0:0:0:0:
455,184,49008,1,0,0:0:0:0:
455,184,49102,2,0,P|467:114|443:76,1,107.999996704102,10|2,0:0|0:0,0:0:0:0:
256,24,49477,5,4,1:2:0:0:
256,152,49664,1,0,0:0:0:0:
256,168,49758,1,0,0:0:0:0:
257,184,49852,6,0,L|256:244,1,53.9999983520508,10|0,0:0|0:0,0:0:0:0:
256,72,50039,2,0,L|256:16,1,53.9999983520508,2|0,0:0|0:0,0:0:0:0:
180,112,50227,6,0,B|114:107|153:83|72:80,1,107.999996704102,6|0,1:2|0:0,0:0:0:0:
332,112,50602,2,0,B|398:107|359:83|440:80,1,107.999996704102,14|0,0:0|0:0,0:0:0:0:
478,256,50977,6,0,B|492:249|505:250|505:250|470:216|410:234,1,107.999996704102,4|0,1:2|0:0,0:0:0:0:
305,366,51352,5,10,0:2:0:0:
330,359,51445,1,0,0:0:0:0:
349,340,51539,1,2,0:2:0:0:
356,315,51633,1,0,0:0:0:0:
349,289,51727,2,0,P|318:265|301:262,1,53.9999983520508,2|0,1:2|0:0,0:0:0:0:
216,347,51914,5,0,0:0:0:0:
223,321,52007,1,0,0:0:0:0:
216,295,52101,1,10,0:0:0:0:
197,276,52195,1,0,0:0:0:0:
171,270,52289,2,0,P|134:285|123:298,1,53.9999983520508,2|0,0:2|0:0,0:0:0:0:
28,368,52477,6,0,B|29:302|49:334|44:216,1,107.999996704102,2|0,1:2|0:0,0:0:0:0:
37,247,52758,1,0,0:0:0:0:
28,232,52852,1,10,0:2:0:0:
156,157,53039,6,0,L|159:115,2,35.9999989013672,2|0|0,0:2|0:0|0:0,0:0:0:0:
166,178,53227,1,2,1:2:0:0:
166,178,53320,2,0,P|138:185|104:203,1,53.9999983520508,2|0,0:0|0:0,0:0:0:0:
4,77,53508,2,0,P|22:127|77:124,1,107.999996704102,2|0,0:0|0:0,0:0:0:0:
84,120,53789,1,2,0:2:0:0:
256,8,53977,6,0,L|256:120,1,107.999996704102,0|0,1:2|0:0,0:0:0:0:
452,62,54352,5,10,0:2:0:0:
445,37,54445,1,0,0:0:0:0:
426,18,54539,1,2,0:2:0:0:
401,11,54633,1,0,0:0:0:0:
375,18,54727,2,0,P|351:49|348:66,1,53.9999983520508,2|0,1:2|0:0,0:0:0:0:
433,151,54914,5,0,0:0:0:0:
407,144,55007,1,0,0:0:0:0:
381,151,55101,1,10,0:0:0:0:
362,170,55195,1,0,0:0:0:0:
356,196,55289,2,0,P|371:233|384:244,1,53.9999983520508,2|0,0:2|0:0,0:0:0:0:
488,370,55477,6,0,P|438:335|389:332,1,107.999996704102,2|0,1:2|0:0,0:0:0:0:
377,336,55758,1,0,0:0:0:0:
362,343,55852,1,10,0:2:0:0:
288,271,56039,6,0,L|285:229,2,35.9999989013672,2|0|0,0:2|0:0|0:0,0:0:0:0:
278,292,56227,1,2,1:2:0:0:
278,292,56320,2,0,L|280:355,1,53.9999983520508,2|0,0:0|0:0,0:0:0:0:
150,374,56508,2,0,P|193:340|191:287,1,107.999996704102,2|0,0:0|0:0,0:0:0:0:
184,276,56789,1,2,0:2:0:0:
18,175,56977,6,0,B|4:182|-9:181|-9:181|26:215|86:197,1,107.999996704102,4|0,1:2|0:0,0:0:0:0:
164,44,57352,5,10,0:2:0:0:
139,51,57445,1,0,0:0:0:0:
120,70,57539,1,2,0:2:0:0:
113,95,57633,1,0,0:0:0:0:
120,121,57727,2,0,P|151:145|168:148,1,53.9999983520508,2|0,1:2|0:0,0:0:0:0:
253,63,57914,5,0,0:0:0:0:
246,89,58007,1,0,0:0:0:0:
253,115,58101,1,10,0:0:0:0:
272,134,58195,1,0,0:0:0:0:
298,140,58289,2,0,P|335:125|346:112,1,53.9999983520508,2|0,0:2|0:0,0:0:0:0:
433,0,58477,6,0,B|446:58|419:53|440:132,1,107.999996704102,6|0,1:2|0:0,0:0:0:0:
443,120,58758,1,0,0:0:0:0:
452,133,58852,1,8,0:2:0:0:
483,251,59039,1,2,0:2:0:0:
469,227,59132,1,2,0:0:0:0:
448,211,59226,1,2,1:2:0:0:
422,205,59320,2,0,L|368:200,1,53.9999983520508,0|2,0:0|0:0,0:0:0:0:
256,224,59508,1,0,0:0:0:0:
256,224,59602,2,0,B|236:160|264:168|256:112,1,107.999996704102,8|0,0:0|0:2,0:0:0:0:
67,64,59977,6,0,L|101:62,4,26.9999991760254,4|0|0|0|0,1:2|3:0|3:0|3:0|3:0,0:0:0:0:
160,17,60258,1,0,0:0:0:0:
160,17,60352,2,0,P|172:87|148:125,1,107.999996704102,10|2,0:0|0:0,0:0:0:0:
150,247,60727,6,0,L|116:245,4,26.9999991760254,4|0|0|0|0,1:2|3:0|3:0|3:0|3:0,0:0:0:0:
57,200,61008,1,0,0:0:0:0:
57,200,61102,2,0,P|45:270|69:308,1,107.999996704102,10|2,0:0|0:0,0:0:0:0:
256,360,61477,5,4,1:2:0:0:
256,232,61664,1,0,0:0:0:0:
256,216,61758,1,0,0:0:0:0:
255,200,61852,6,0,L|256:140,1,53.9999983520508,10|0,0:0|0:0,0:0:0:0:
256,312,62039,2,0,L|256:368,1,53.9999983520508,2|0,0:0|0:0,0:0:0:0:
180,272,62227,6,0,B|114:277|153:301|72:304,1,107.999996704102,6|0,1:2|0:0,0:0:0:0:
332,272,62602,2,0,B|398:277|359:301|440:304,1,107.999996704102,14|0,0:0|0:0,0:0:0:0:
24,208,62977,5,4,0:0:0:0:
256,192,63023,12,0,65977,0:0:0:0:
256,192,73102,12,8,74602,0:0:0:0:
19,290,74977,6,0,P|54:313|86:307,1,67.5000025749208,6|0,0:2|0:0,0:0:0:0:
101,384,75352,2,0,P|138:365|149:334,1,67.5000025749208,2|0,0:2|0:0,0:0:0:0:
229,366,75727,2,0,L|223:298,1,67.5000025749208,10|2,0:0|0:0,0:0:0:0:
215,220,76102,1,2,0:0:0:0:
340,332,76289,6,0,B|416:331|387:382|473:377,1,135.000005149842,2|2,0:0|0:0,0:0:0:0:
462,377,77039,1,2,0:0:0:0:
501,305,77227,5,8,0:0:0:0:
426,267,77414,1,0,0:0:0:0:
368,203,77602,1,2,0:0:0:0:
369,120,77789,1,2,0:0:0:0:
493,94,77977,6,0,P|458:71|426:77,1,67.5000025749208,2|0,0:0|0:0,0:0:0:0:
411,0,78352,2,0,P|373:18|362:49,1,67.5000025749208,2|0,0:0|0:0,0:0:0:0:
292,131,78727,6,0,B|279:125|274:105|274:105|324:85|377:138,1,135.000005149842,10|2,0:0|0:0,0:0:0:0:
407,196,79289,1,2,0:0:0:0:
450,353,79477,5,0,1:0:0:0:
387,306,79664,2,0,B|312:296|343:350|243:336,1,135.000005149842,2|2,0:0|0:0,0:0:0:0:
200,216,80227,6,0,P|192:264|216:288,1,67.5000025749208,8|0,0:0|1:0,0:0:0:0:
311,277,80602,2,0,P|323:246|312:216,1,67.5000025749208,8|0,0:0|0:0,0:0:0:0:
190,91,80977,6,0,B|118:87|34:119,1,135,12|0,0:0|0:0,0:0:0:0:
43,122,81352,6,0,P|78:114|105:50,1,101.250003862381,2|0,0:0|0:0,0:0:0:0:
127,28,81727,6,0,B|101:117|133:84|101:211,1,161.999995056153,12|0,0:0|0:0,0:0:0:0:
102,203,82102,1,2,0:0:0:0:
185,252,82289,1,2,0:0:0:0:
7,355,82477,5,12,0:0:0:0:
69,282,82664,1,0,0:0:0:0:
73,294,82758,1,0,0:0:0:0:
75,304,82852,1,2,0:0:0:0:
162,330,83039,1,2,0:0:0:0:
331,257,83227,5,12,0:0:0:0:
256,368,83414,1,0,3:0:0:0:
256,368,83508,1,0,0:0:0:0:
256,368,83602,2,0,B|248:304|264:320|257:243,1,90,0|0,3:0|3:0,0:0:0:0:
256,80,83977,5,12,0:0:0:0:
352,125,84164,1,0,0:0:0:0:
160,125,84352,1,0,1:0:0:0:
256,64,84539,1,0,0:0:0:0:
183,204,84727,6,0,P|152:199|129:200,1,49.5000015106202,12|0,0:0|0:0,0:0:0:0:
127,54,84914,2,0,P|109:46|72:35,1,49.5000015106202
329,204,85102,2,0,P|360:199|383:200,1,49.5000015106202,0|0,1:0|0:0,0:0:0:0:
385,54,85289,2,0,P|403:46|440:35,1,49.5000015106202
256,24,85477,5,12,0:0:0:0:
242,37,85570,1,0,0:0:0:0:
232,54,85664,2,0,P|227:92|249:123,1,49.5000015106202
256,176,85852,5,0,1:2:0:0:
270,189,85945,1,0,0:0:0:0:
280,206,86039,2,0,P|285:244|263:275,1,49.5000015106202
208,328,86227,6,0,L|162:331,6,24.7500007553101,12|0|0|0|0|0|0,0:0|0:0|0:0|0:0|0:0|0:0|0:0,0:0:0:0:
115,366,86602,2,0,L|69:369,6,24.7500007553101,4|0|0|0|0|0|0,1:2|0:0|0:0|0:0|0:0|0:0|0:0,0:0:0:0:
8,310,86977,6,0,P|31:303|75:308,1,41.9999987182618,8|0,3:0|0:0,0:0:0:0:
35,231,87102,2,0,L|94:223,1,41.9999987182618,8|0,3:0|0:0,0:0:0:0:
6,158,87227,2,0,P|29:154|59:140,1,41.9999987182618,8|0,3:0|0:0,0:0:0:0:
120,153,87352,6,0,B|137:86|104:99|127:6,1,120,8|0,3:0|3:0,0:0:0:0:
220,17,87727,6,0,P|243:24|287:19,1,41.9999987182618,8|0,3:0|0:0,0:0:0:0:
201,97,87852,2,0,L|260:105,1,41.9999987182618,8|0,3:0|0:0,0:0:0:0:
208,176,87977,2,0,P|231:179|261:193,1,41.9999987182618,8|0,3:0|0:0,0:0:0:0:
151,233,88102,6,0,B|168:300|135:287|158:380,1,120,8|0,3:0|3:0,0:0:0:0:
49,351,88477,6,0,P|77:369|89:392,1,41.9999987182618,8|0,3:0|0:0,0:0:0:0:
136,314,88602,2,0,P|151:343|150:369,1,41.9999987182618,8|0,3:0|0:0,0:0:0:0:
229,325,88727,2,0,P|227:358|213:380,1,41.9999987182618,8|0,3:0|0:0,0:0:0:0:
309,366,88852,6,0,P|310:332|324:310,1,41.9999987182618,8|0,3:0|0:0,0:0:0:0:
402,377,88977,2,0,P|386:347|387:321,1,41.9999987182618,8|0,3:0|0:0,0:0:0:0:
489,340,89102,2,0,P|461:322|449:299,1,41.9999987182618,8|0,3:0|0:0,0:0:0:0:
394,264,89227,6,0,B|412:196|386:207|410:142,1,120,8|0,3:0|0:0,0:0:0:0:
506,126,89602,6,0,L|478:127,6,22.5,0|0|0|0|0|0|0,1:0|0:0|0:0|0:0|1:0|0:0|0:0,0:0:0:0:
407,154,89977,6,0,B|341:122|358:38|410:15|410:15|445:36|432:79,1,233.999989288331,4|8,1:2|0:0,0:0:0:0:
287,187,90539,2,0,B|300:148|281:150|299:104,1,58.4999973220826,2|2,0:0|0:0,0:0:0:0:
244,18,90727,5,2,1:2:0:0:
237,34,90820,1,2,0:0:0:0:
223,44,90914,1,0,0:0:0:0:
206,50,91008,2,0,P|164:43|133:25,1,58.4999973220826,2|8,0:0|0:0,0:0:0:0:
209,168,91196,2,0,P|167:175|136:193,1,58.4999973220826,2|0,0:0|0:0,0:0:0:0:
70,27,91383,1,0,0:0:0:0:
70,27,91477,6,0,B|84:107|37:74|58:171,1,116.999994644165,2|0,1:2|0:0,0:0:0:0:
65,158,91758,1,0,0:0:0:0:
76,171,91852,1,10,0:0:0:0:
26,333,92039,1,2,0:0:0:0:
10,245,92227,5,2,1:2:0:0:
10,245,92320,2,0,P|78:263|103:289,1,58.4999973220826,2|0,0:0|0:0,0:0:0:0:
151,239,92508,2,0,B|157:256|157:256|134:303|134:367,1,116.999994644165,2|0,0:0|0:0,0:0:0:0:
142,367,92789,1,2,0:0:0:0:
256,272,92977,5,2,1:2:0:0:
26,333,93164,1,2,0:0:0:0:
142,367,93352,2,0,P|157:335|160:293,1,58.4999973220826,10|0,0:0|0:0,0:0:0:0:
0,196,93539,1,0,0:0:0:0:
13,193,93633,2,0,P|99:201|181:245,1,175.499991966248,2|0,0:0|0:0,0:0:0:0:
256,272,94008,1,0,0:0:0:0:
256,272,94102,6,0,P|279:246|285:190,1,67.5000025749208,10|0,0:0|0:0,0:0:0:0:
255,29,94289,1,0,0:0:0:0:
240,45,94383,2,0,P|214:118|231:213,1,135.000005149842,2|0,0:0|0:0,0:0:0:0:
177,241,94664,2,0,B|168:276|181:272|173:320,1,58.4999973220826
119,354,94852,6,0,P|98:318|97:298,1,58.4999973220826,10|0,0:0|0:0,0:0:0:0:
247,333,95039,2,0,P|267:296|284:285,1,58.4999973220826,2|0,0:0|0:0,0:0:0:0:
502,245,95227,5,2,1:2:0:0:
502,245,95320,2,0,P|434:263|409:289,1,58.4999973220826,2|0,0:0|0:0,0:0:0:0:
361,239,95508,2,0,B|355:256|355:256|378:303|378:367,1,116.999994644165,2|0,0:0|0:0,0:0:0:0:
370,367,95789,1,2,0:0:0:0:
287,214,95977,6,0,P|302:151|289:88,1,116.999994644165,6|0,1:2|0:0,0:0:0:0:
286,84,96258,1,2,0:0:0:0:
275,69,96352,1,0,1:0:0:0:
434,153,96539,5,2,0:0:0:0:
434,153,96633,1,0,0:0:0:0:
434,153,96727,2,0,P|400:153|370:128,1,58.4999973220826,2|0,1:2|0:0,0:0:0:0:
253,84,96914,2,0,P|270:54|306:41,1,58.4999973220826,2|0,0:0|0:0,0:0:0:0:
370,67,97102,1,10,0:0:0:0:
192,192,97289,1,2,0:0:0:0:
192,192,97383,1,0,0:0:0:0:
192,192,97477,6,0,B|119:186|141:223|64:216,1,116.999994644165,4|2,1:2|0:0,0:0:0:0:
65,206,97758,1,0,0:0:0:0:
50,196,97852,1,10,0:0:0:0:
107,56,98039,1,2,0:0:0:0:
19,17,98227,5,2,1:2:0:0:
31,109,98414,1,2,0:0:0:0:
195,66,98602,5,10,0:0:0:0:
224,66,98695,1,0,0:0:0:0:
251,75,98789,1,2,0:0:0:0:
278,87,98883,1,0,0:0:0:0:
307,90,98977,2,0,B|346:32|429:14|482:57|482:57|472:115|402:121,1,292.499986610413,4|0,1:2|0:0,0:0:0:0:
346,177,99539,6,0,L|339:222,2,38.9999982147218
354,160,99727,2,0,P|384:211|370:275,1,116.999994644165,8|0,0:0|0:0,0:0:0:0:
389,339,100008,2,0,B|372:363|336:371|313:353|313:353|317:328|348:325,1,116.999994644165,0|0,1:0|0:0,0:0:0:0:
447,293,100289,2,0,B|482:295|466:307|505:310,1,58.4999973220826,0|0,1:0|0:0,0:0:0:0:
304,360,100477,5,4,1:2:0:0:
291,333,100570,1,0,0:0:0:0:
270,313,100664,1,0,0:0:0:0:
243,304,100758,1,0,0:0:0:0:
214,306,100852,1,12,0:2:0:0:
200,311,100945,1,0,0:0:0:0:
188,320,101039,1,0,0:0:0:0:
179,331,101133,1,0,0:0:0:0:
173,344,101227,5,0,1:3:0:0:
140,316,101320,2,0,B|67:309|104:345|25:343,1,116.999994644165
13,336,101602,2,0,L|7:272,1,58.4999973220826,0|0,1:3|1:3,0:0:0:0:
145,241,101789,2,0,L|151:177,1,58.4999973220826,0|0,1:3|1:3,0:0:0:0:
8,33,101977,6,0,P|39:90|92:78,1,116.999994644165,6|0,1:2|0:0,0:0:0:0:
166,45,102258,2,0,P|101:43|85:95,1,116.999994644165,2|0,0:0|0:0,0:0:0:0:
92,163,102539,2,0,L|161:153,1,58.4999973220826,2|0,0:0|0:0,0:0:0:0:
249,35,102727,1,0,1:2:0:0:
249,35,102820,2,0,P|231:101|224:166,1,116.999994644165,2|0,0:0|0:0,0:0:0:0:
225,229,103102,1,8,0:0:0:0:
225,229,103195,2,0,B|297:231|272:264|342:266,1,116.999994644165,2|0,0:0|0:0,0:0:0:0:
497,208,103477,6,0,P|440:239|452:292,1,116.999994644165,2|0,1:2|0:0,0:0:0:0:
485,366,103758,2,0,P|487:301|435:285,1,116.999994644165,2|0,0:0|0:0,0:0:0:0:
382,326,104039,2,0,L|392:395,1,58.4999973220826,2|0,0:0|0:0,0:0:0:0:
370,197,104227,1,0,1:2:0:0:
370,197,104320,2,0,L|350:70,1,116.999994644165,2|0,0:0|0:0,0:0:0:0:
282,53,104602,1,10,0:0:0:0:
255,63,104695,1,0,0:0:0:0:
226,58,104789,1,2,0:0:0:0:
205,38,104883,1,0,0:0:0:0:
194,12,104977,6,0,P|214:82|176:112,1,116.999994644165,2|0,1:2|0:0,0:0:0:0:
101,150,105258,2,0,P|151:97|196:115,1,116.999994644165,2|0,0:0|0:0,0:0:0:0:
225,174,105539,2,0,L|218:232,1,58.4999973220826,2|0,0:0|0:0,0:0:0:0:
271,287,105727,2,0,P|245:306|204:309,1,58.4999973220826,2|0,1:2|0:0,0:0:0:0:
28,260,105914,2,0,P|57:273|80:307,1,58.4999973220826,2|0,0:0|0:0,0:0:0:0:
139,380,106102,1,10,0:0:0:0:
139,380,106195,2,0,B|133:310|158:333|147:237,1,116.999994644165,2|0,0:0|0:0,0:0:0:0:
112,187,106477,6,0,P|148:128|130:88,1,116.999994644165,6|0,1:2|0:0,0:0:0:0:
55,23,106758,2,0,P|88:83|131:88,1,116.999994644165,2|0,0:0|0:0,0:0:0:0:
177,26,107039,2,0,L|255:33,1,58.4999973220826,2|0,0:0|0:0,0:0:0:0:
386,119,107227,5,4,1:2:0:0:
386,119,107320,2,0,B|429:75|408:27|408:27|387:48,1,116.999994644165,2|0,0:0|0:0,0:0:0:0:
313,17,107602,1,10,0:0:0:0:
315,46,107695,1,0,1:0:0:0:
314,75,107789,1,2,1:2:0:0:
311,104,107883,1,0,1:0:0:0:
304,132,107977,5,4,0:0:0:0:
466,185,108164,1,0,1:0:0:0:
400,361,108352,5,0,1:0:0:0:
360,208,108539,1,0,1:0:0:0:
512,347,108727,5,0,1:0:0:0:
379,283,108914,1,0,1:0:0:0:
256,364,109102,5,0,1:0:0:0:
256,349,109195,1,0,0:0:0:0:
256,334,109289,1,0,1:0:0:0:
256,320,109383,1,0,0:0:0:0:
256,305,109477,5,4,0:0:0:0:
86,358,109664,1,0,1:0:0:0:
174,361,109852,5,0,1:0:0:0:
134,208,110039,1,0,1:0:0:0:
2,209,110227,5,0,1:0:0:0:
151,287,110414,1,0,1:0:0:0:
256,156,110602,5,0,1:0:0:0:
256,141,110695,1,0,0:0:0:0:
256,126,110789,1,0,1:0:0:0:
256,112,110883,1,0,0:0:0:0:
256,96,110977,6,0,P|276:40|344:40,1,116.999994644165,4|0,3:2|3:2,0:0:0:0:
344,36,111258,1,2,0:0:0:0:
357,47,111352,1,0,0:0:0:0:
504,13,111539,2,0,L|496:72,1,58.4999973220826,2|0,0:0|0:0,0:0:0:0:
461,185,111727,6,0,P|441:129|373:129,1,116.999994644165,4|0,3:2|3:2,0:0:0:0:
373,125,112008,1,2,0:0:0:0:
360,136,112102,1,0,0:0:0:0:
499,254,112289,2,0,P|453:262|430:253,1,58.4999973220826,2|0,0:0|0:0,0:0:0:0:
365,360,112477,5,4,1:2:0:0:
357,327,112570,1,0,1:0:0:0:
337,303,112664,1,0,1:0:0:0:
308,288,112758,1,0,1:0:0:0:
280,300,112852,5,4,1:2:0:0:
263,296,112945,1,0,1:0:0:0:
248,294,113039,1,0,1:0:0:0:
231,292,113133,1,0,1:0:0:0:
217,301,113227,6,0,B|152:294|179:336|96:331,1,116.999994644165,4|0,1:2|0:0,0:0:0:0:
48,208,113602,2,0,B|13:223|2:267|21:293|21:293|60:290|68:250|51:218,1,175.499991966248,8|0,0:0|0:0,0:0:0:0:
144,218,113977,6,0,B|124:156|156:170|138:104,1,107.999996704102,4|0,1:2|0:0,0:0:0:0:
134,4,114258,2,0,B|154:66|122:52|140:118,1,107.999996704102,0|0,1:2|0:0,0:0:0:0:
234,161,114539,6,0,B|170:147|198:126|132:109,1,107.999996704102,0|0,1:2|0:0,0:0:0:0:
44,60,114820,2,0,B|107:73|79:94|145:111,1,107.999996704102,0|0,1:2|0:0,0:0:0:0:
229,54,115102,6,0,B|185:102|181:67|133:116,1,107.999996704102,0|0,1:2|0:0,0:0:0:0:
48,167,115383,2,0,B|91:118|95:153|143:104,1,107.999996704102,0|0,1:2|0:0,0:0:0:0:
298,104,115664,6,0,P|345:64|397:64,1,107.999996704102,0|0,1:2|0:0,0:0:0:0:
452,194,115945,2,0,P|393:173|367:128,1,107.999996704102,0|0,1:2|0:0,0:0:0:0:
453,16,116227,2,0,P|464:76|438:121,1,107.999996704102,0|0,1:2|0:0,0:0:0:0:
348,237,116508,2,0,B|338:290|360:280|352:356,1,107.999996704102,0|0,1:2|0:0,0:0:0:0:
434,331,116789,2,0,L|423:388,1,53.9999983520508,0|0,1:2|0:0,0:0:0:0:
238,336,116977,6,0,B|249:348|249:348|146:352,1,107.999996704102,0|0,1:2|0:0,0:0:0:0:
208,200,117258,2,0,B|213:183|213:183|268:270,1,107.999996704102,0|0,1:2|0:0,0:0:0:0:
160,354,117539,6,0,B|154:370|154:370|99:283,1,107.999996704102,0|0,1:2|0:0,0:0:0:0:
263,259,117821,2,0,B|279:255|279:255|231:346,1,107.999996704102,0|0,1:2|0:0,0:0:0:0:
106,293,118102,6,0,B|89:296|89:296|137:205,1,107.999996704102,0|0,1:2|0:0,0:0:0:0:
238,336,118383,2,0,B|249:348|249:348|146:352,1,107.999996704102,0|0,1:2|0:0,0:0:0:0:
11,294,118664,6,0,B|24:230|1:240|21:165,1,107.999996704102,0|0,1:2|0:0,0:0:0:0:
19,92,118945,2,0,B|49:50|13:24|13:24|-4:37|12:71,1,107.999996704102,0|0,1:2|0:0,0:0:0:0:
112,118,119227,2,0,P|170:94|227:91,1,107.999996704102,0|0,1:2|0:0,0:0:0:0:
214,90,119602,6,0,B|267:129|326:95|346:54|307:39|286:81,1,161.999995056153,0|0,1:2|0:0,0:0:0:0:
498,65,119977,6,0,B|454:113|450:78|402:127,1,107.999996704102,4|0,1:2|0:0,0:0:0:0:
317,180,120258,2,0,B|360:131|364:166|412:117,1,107.999996704102,0|0,1:2|0:0,0:0:0:0:
403,15,120539,6,0,B|422:77|390:63|408:129,1,107.999996704102,0|0,1:2|0:0,0:0:0:0:
411,230,120820,2,0,B|390:168|422:182|404:117,1,107.999996704102,0|0,1:2|0:0,0:0:0:0:
313,73,121102,6,0,B|376:87|348:108|414:125,1,107.999996704102,0|0,1:2|0:0,0:0:0:0:
501,173,121383,2,0,B|437:160|465:139|398:122,1,107.999996704102,0|0,1:2|0:0,0:0:0:0:
317,180,121664,6,0,P|308:236|348:277,1,107.999996704102,0|0,1:2|0:0,0:0:0:0:
430,301,121945,2,0,P|386:265|330:279,1,107.999996704102,0|0,1:2|0:0,0:0:0:0:
269,339,122227,2,0,P|321:318|337:263,1,107.999996704102,0|0,1:2|0:0,0:0:0:0:
231,228,122508,2,0,B|173:223|194:258|123:254,1,107.999996704102,0|0,1:2|0:0,0:0:0:0:
71,303,122789,2,0,P|53:267|55:248,1,53.9999983520508,0|0,1:2|0:0,0:0:0:0:
19,47,122977,6,0,L|24:133,1,62.9999980773926,0|0,1:2|0:0,0:0:0:0:
35,56,123164,2,0,L|40:142,1,62.9999980773926,0|0,1:2|0:0,0:0:0:0:
113,182,123352,6,0,L|118:96,1,62.9999980773926,8|0,3:0|3:0,0:0:0:0:
136,166,123539,2,0,L|138:123,2,31.4999990386963,0|0|0,1:0|0:0|0:0,0:0:0:0:
209,22,123727,6,0,L|214:108,1,62.9999980773926,0|0,1:2|0:0,0:0:0:0:
225,31,123914,2,0,L|230:117,1,62.9999980773926,0|0,1:2|0:0,0:0:0:0:
303,157,124102,6,0,L|308:71,1,62.9999980773926,8|0,3:0|3:0,0:0:0:0:
323,143,124289,2,0,L|325:100,2,31.4999990386963,0|0|0,1:0|0:0|0:0,0:0:0:0:
430,79,124477,6,0,P|467:71|514:82,2,83.9999974365235,8|8|8,0:3|0:3|0:3,0:0:0:0:
323,143,124852,2,0,P|286:135|239:146,2,83.9999974365235,8|8|8,0:3|0:3|0:3,0:0:0:0:
410,175,125227,6,0,B|427:257|379:220|400:308,1,125.999996154785,8|0,0:3|0:0,0:0:0:0:
397,296,125602,6,0,B|413:278|439:276|439:276|385:247|314:265|298:349,1,216,8|0,0:3|0:0,0:0:0:0:
229,332,125977,5,8,0:0:0:0:
213,303,126070,1,8,0:0:0:0:
211,271,126164,2,0,P|218:241|241:219,3,45
390,144,126540,5,8,0:0:0:0:
373,172,126633,1,8,0:0:0:0:
346,189,126727,2,0,P|317:200|286:189,3,45
147,97,127102,5,8,0:0:0:0:
180,98,127195,1,8,0:0:0:0:
208,113,127289,2,0,P|231:133|238:165,3,45
256,192,127664,5,8,0:0:0:0:
