osu file format v14

[General]
AudioFilename: audio.mp3
AudioLeadIn: 0
PreviewTime: 76762
Countdown: 0
SampleSet: Soft
StackLeniency: 0.2
Mode: 0
LetterboxInBreaks: 0
WidescreenStoryboard: 1

[Editor]
DistanceSpacing: 1
BeatDivisor: 4
GridSize: 32
TimelineZoom: 3.299999

[Metadata]
Title:TH3 5UMMONERS
TitleUnicode:TH3 5UMM∅NERS
Artist:seatrus
ArtistUnicode:seatrus
Creator:Fisky
Version:Normal
Source:
Tags:THE SUMMONERS featured artist fa hardcore j-core instrumental electronic 200step dtm9 nowa collaboration
BeatmapID:3073579
BeatmapSetID:1497954

[Difficulty]
HPDrainRate:3
CircleSize:3.2
OverallDifficulty:4.5
ApproachRate:6
SliderMultiplier:0.999999999999999
SliderTickRate:1

[Events]
//Background and Video events
0,0,"bg summoner.jpg",0,0
//Break Periods
2,48181,54131
//Storyboard Layer 0 (Background)
//Storyboard Layer 1 (Fail)
//Storyboard Layer 2 (Pass)
//Storyboard Layer 3 (Foreground)
//Storyboard Layer 4 (Overlay)
//Storyboard Sound Samples

[TimingPoints]
-19,300,4,2,1,40,1,0
7181,-111.111111111111,4,2,1,40,0,0
7781,-111.111111111111,4,2,1,50,0,0
8231,-90.9090909090909,4,2,1,70,0,0
9581,-90.9090909090909,4,2,1,80,0,0
10631,-90.9090909090909,4,2,2,80,0,0
11231,-90.9090909090909,4,2,1,80,0,0
13031,-90.9090909090909,4,2,2,80,0,0
13631,-90.9090909090909,4,2,1,80,0,0
13781,-90.9090909090909,4,2,2,80,0,0
14381,-90.9090909090909,4,2,1,80,0,0
15431,-90.9090909090909,4,2,2,80,0,0
16031,-90.9090909090909,4,2,1,80,0,0
17831,-90.9090909090909,4,2,3,80,0,0
19181,-100,4,2,1,60,0,0
25181,-100,4,2,1,70,0,0
26981,-100,4,2,1,60,0,0
27731,-100,4,2,1,50,0,0
28481,-100,4,2,5,70,0,0
28781,-100,4,2,1,80,0,0
30581,-100,4,2,1,70,0,0
31706,-100,4,2,1,5,0,0
31781,-100,4,2,1,70,0,0
33131,-100,4,2,3,70,0,0
33581,-100,4,2,2,70,0,0
34106,-100,4,2,1,5,0,0
34181,-100,4,2,1,70,0,0
35831,-100,4,2,2,70,0,0
37781,-100,4,2,3,70,0,0
38381,-100,4,2,1,70,0,0
38681,-100,4,2,2,70,0,0
38981,-100,4,2,1,70,0,0
40781,-100,4,2,2,70,0,0
41381,-100,4,2,1,70,0,0
42731,-100,4,2,3,70,0,0
43181,-100,4,2,2,70,0,0
43781,-100,4,2,1,70,0,0
45581,-100,4,2,2,70,0,0
46631,-100,4,2,5,70,0,0
46781,-100,4,2,1,70,0,0
55181,-111.111111111111,4,2,1,40,0,0
55781,-111.111111111111,4,2,1,50,0,0
56231,-90.9090909090909,4,2,1,70,0,0
57581,-90.9090909090909,4,2,1,80,0,0
58631,-90.9090909090909,4,2,2,80,0,0
59231,-90.9090909090909,4,2,1,80,0,0
61031,-90.9090909090909,4,2,2,80,0,0
61631,-90.9090909090909,4,2,1,80,0,0
61781,-90.9090909090909,4,2,2,80,0,0
62381,-90.9090909090909,4,2,1,80,0,0
63431,-90.9090909090909,4,2,2,80,0,0
64031,-90.9090909090909,4,2,1,80,0,0
65831,-90.9090909090909,4,2,3,80,0,0
67181,-100,4,2,1,60,0,0
73181,-100,4,2,1,70,0,0
74981,-100,4,2,1,60,0,0
76031,-100,4,2,1,50,0,0
76481,-100,4,2,5,70,0,0
76781,-90.9090909090909,4,2,1,90,0,1
95981,-90.9090909090909,4,2,3,90,0,1
96431,-90.9090909090909,4,2,2,90,0,1
97181,-90.9090909090909,4,2,3,90,0,1
97631,-90.9090909090909,4,2,2,90,0,1
98381,-90.9090909090909,4,2,3,90,0,1
100781,-100,4,2,1,80,0,0
103181,-100,4,2,1,70,0,0
105131,-100,4,2,3,70,0,0
105581,-100,4,2,2,70,0,0
106181,-100,4,2,1,70,0,0
107831,-100,4,2,2,70,0,0
109781,-100,4,2,3,70,0,0
110381,-100,4,2,2,70,0,0
110981,-100,4,2,1,70,0,0
112781,-100,4,2,2,70,0,0
114731,-100,4,2,3,70,0,0
115181,-100,4,2,2,70,0,0
115781,-100,4,2,1,70,0,0
116231,-100,4,2,2,70,0,0
117431,-100,4,2,3,70,0,0
117581,-90.9090909090909,4,2,2,80,0,0
119981,-90.9090909090909,4,2,1,80,0,0
121481,-90.9090909090909,4,2,1,70,0,0
121631,-90.9090909090909,4,2,1,60,0,0
121781,-90.9090909090909,4,2,1,50,0,0
121931,-90.9090909090909,4,2,1,40,0,0
122081,-90.9090909090909,4,2,1,30,0,0
122231,-90.9090909090909,4,2,1,20,0,0
122381,-90.9090909090909,4,2,1,40,0,0

[Colours]
Combo1 : 255,158,62
Combo2 : 255,70,70

[HitObjects]
30,226,7181,6,0,B|54:199|54:199|159:179|159:179|198:202,1,179.999994506836,2|2,0:0|0:0,0:0:0:0:
139,358,8231,2,0,L|71:22,1,330.000010070801,2|2,0:0|0:0,0:0:0:0:
210,126,9581,6,0,B|280:142|280:142|307:130|307:130|411:153,1,165.0000050354,6|0,3:2|0:0,0:0:0:0:
406,184,10181,2,0,L|410:249,1,55.0000016784668
417,293,10481,1,0,0:0:0:0:
417,293,10631,2,0,B|271:317,2,110.000003356934,6|6|0,3:2|3:2|0:0,0:0:0:0:
156,380,11981,6,0,B|113:345|113:345|148:213,1,165.0000050354,6|0,3:2|0:0,0:0:0:0:
173,194,12581,2,0,L|238:190,1,55.0000016784668
285,210,12881,1,0,0:0:0:0:
285,210,13031,2,0,B|309:64,2,110.000003356934,6|6|0,3:2|3:2|0:0,0:0:0:0:
274,264,13781,1,6,3:2:0:0:
169,297,14081,1,6,3:2:0:0:
63,266,14381,6,0,B|45:235|45:235|70:140|70:140|37:73,1,165.0000050354,6|0,3:2|0:0,0:0:0:0:
15,74,14981,2,0,P|24:44|52:23,1,55.0000016784668
99,21,15281,1,0,0:0:0:0:
99,21,15431,2,0,B|130:35|130:35|249:1,2,110.000003356934,6|6|0,3:2|3:2|0:0,0:0:0:0:
373,5,16781,6,0,B|387:34|425:42|425:42|470:100|404:160,1,165.0000050354,6|0,3:2|0:0,0:0:0:0:
386,169,17381,2,0,L|322:164,1,55.0000016784668
280,160,17681,1,0,0:0:0:0:
280,160,17831,1,6,3:2:0:0:
196,231,18131,6,0,L|94:254,1,82.5000025177002,6|6,3:2|3:2,0:0:0:0:
54,304,18581,2,0,L|28:406,2,82.5000025177002,6|6|6,3:2|3:2|3:2,0:0:0:0:
26,261,19181,5,6,3:2:0:0:
8,163,19481,1,0,3:0:0:0:
99,121,19781,2,0,P|127:132|168:44,1,150,2|0,3:0|0:0,0:0:0:0:
139,11,20381,5,2,3:0:0:0:
238,4,20681,1,0,3:0:0:0:
287,91,20981,1,0,3:0:0:0:
386,84,21281,1,0,3:0:0:0:
444,2,21581,6,0,B|483:35|483:35|489:90,1,99.9999999999999,2|0,3:0|3:0,0:0:0:0:
437,169,22181,2,0,B|388:186|388:186|338:163,1,99.9999999999999,0|0,3:0|3:0,0:0:0:0:
289,82,22781,2,0,B|298:31|298:31|342:-1,2,99.9999999999999,0|0|0,3:0|3:0|3:0,0:0:0:0:
247,173,23681,1,0,3:0:0:0:
148,163,23981,6,0,L|129:231,1,50,6|0,3:2|3:0,0:0:0:0:
117,257,24281,2,0,L|136:325,1,50,0|0,3:0|3:0,0:0:0:0:
161,345,24581,2,0,L|299:328,1,99.9999999999999,2|0,3:0|3:0,0:0:0:0:
358,351,25181,6,0,L|377:283,1,50,6|0,3:2|3:0,0:0:0:0:
389,257,25481,2,0,L|370:189,1,50,0|0,3:0|3:0,0:0:0:0:
345,169,25781,2,0,L|367:51,1,99.9999999999999,2|0,3:0|3:0,0:0:0:0:
443,11,26381,1,6,3:2:0:0:
256,192,26531,12,6,27581,0:2:0:0:
485,167,28481,5,10,0:0:0:0:
391,132,28781,2,0,B|328:136|328:136|312:151|312:151|239:157,1,150,6|0,3:2|0:0,0:0:0:0:
197,143,29381,2,0,L|184:87,2,50,10|2|2,0:0|0:0|0:0,0:0:0:0:
175,188,29831,2,0,B|149:214|149:214|30:195,1,150,2|2,3:0|3:0,0:0:0:0:
36,95,30581,5,10,0:0:0:0:
116,34,30881,1,0,3:0:0:0:
204,80,31181,2,0,P|252:80|306:42,2,99.9999999999999,2|2|10,3:0|3:0|0:0,0:0:0:0:
71,10,32231,5,0,3:0:0:0:
92,158,32681,1,0,3:0:0:0:
112,255,32981,1,8,0:0:0:0:
112,255,33131,2,0,L|183:265,2,50,6|6|6,3:2|3:2|3:2,0:0:0:0:
64,238,33581,5,6,3:2:0:0:
25,330,33881,1,6,3:2:0:0:
109,384,34181,2,0,L|274:367,1,150,10|0,0:0|3:0,0:0:0:0:
360,355,34931,1,0,3:0:0:0:
360,355,35081,1,0,3:0:0:0:
462,343,35381,5,8,0:0:0:0:
462,343,35531,2,0,L|477:232,1,99.9999999999999,2|0,3:0|3:0,0:0:0:0:
480,194,35981,5,6,3:2:0:0:
386,219,36281,1,10,0:0:0:0:
386,219,36431,1,6,3:2:0:0:
299,179,36731,1,10,0:0:0:0:
299,179,36881,1,6,3:2:0:0:
205,204,37181,1,10,0:0:0:0:
205,204,37331,1,6,3:2:0:0:
118,153,37631,1,10,0:0:0:0:
118,153,37781,2,0,B|93:194|93:194|129:297|129:297|104:337,1,200,6|6,3:2|3:2,0:0:0:0:
19,283,38681,6,0,B|53:244|53:244|139:237,1,99.9999999999999,14|0,0:2|0:0,0:0:0:0:
150,248,39131,1,0,3:0:0:0:
150,248,39281,1,8,0:0:0:0:
236,297,39581,2,0,B|269:286|269:286|279:277|279:277|294:278|294:278|343:267,1,99.9999999999999,2|10,3:0|0:0,0:0:0:0:
429,284,40181,6,0,P|455:255|467:226,1,50,2|0,0:0|3:0,0:0:0:0:
470,196,40481,1,8,0:0:0:0:
409,116,40781,6,0,B|447:86|447:86|524:105,2,99.9999999999999,6|14|2,3:2|3:2|3:0,3:0:0:0:
383,160,41531,1,0,3:0:0:0:
383,160,41681,2,0,L|361:216,1,50,8|2,0:0|3:0,0:0:0:0:
280,259,42131,1,0,3:0:0:0:
280,259,42281,1,10,0:0:0:0:
205,198,42581,5,2,3:0:0:0:
205,198,42731,2,0,L|216:134,2,50,6|14|6,3:2|0:2|3:2,0:0:0:0:
175,238,43181,1,6,3:2:0:0:
75,224,43481,2,0,L|61:92,1,99.9999999999999,14|2,0:2|0:0,0:0:0:0:
64,78,43931,5,0,3:0:0:0:
64,78,44081,2,0,L|132:86,1,50,8|0,0:0|3:0,0:0:0:0:
204,45,44531,1,2,3:0:0:0:
204,45,44681,1,10,0:0:0:0:
285,103,44981,1,0,3:0:0:0:
285,103,45131,2,0,L|370:91,2,50,2|10|2,3:0|0:0|3:0,0:0:0:0:
240,135,45581,6,0,L|230:226,2,74.9999999999999,6|6|12,3:2|3:2|0:2,0:0:0:0:
203,94,46181,2,0,L|211:13,2,74.9999999999999,6|6|2,3:2|3:2|1:0,0:0:0:0:
154,118,46781,5,2,3:0:0:0:
56,138,47081,1,2,3:0:0:0:
2,220,47381,1,2,3:0:0:0:
11,319,47681,1,2,3:0:0:0:
90,384,47981,1,6,3:2:0:0:
481,182,55181,6,0,B|457:209|457:209|350:225|350:225|326:271,1,179.999994506836,2|2,0:0|0:0,0:0:0:0:
439,383,56231,2,0,L|362:4,1,385.000011749268,2|2,0:0|0:0,0:0:0:0:
282,81,57581,6,0,P|221:142|122:127,1,165.0000050354,6|0,3:2|0:0,0:0:0:0:
93,126,58181,2,0,L|34:142,1,55.0000016784668
8,186,58481,1,0,0:0:0:0:
8,186,58631,2,0,B|31:208|31:208|54:322,2,110.000003356934,6|6|2,3:2|3:2|0:0,0:0:0:0:
221,360,59981,6,0,B|284:347|284:347|322:366|322:366|388:352,1,165.0000050354,6|0,3:2|0:0,0:0:0:0:
430,333,60581,2,0,L|437:273,1,55.0000016784668
483,247,60881,1,0,0:0:0:0:
483,247,61031,2,0,P|465:198|392:160,2,110.000003356934,6|6|2,3:2|3:2|0:0,0:0:0:0:
467,300,61781,1,6,3:2:0:0:
360,273,62081,1,6,3:2:0:0:
253,244,62381,6,0,B|130:259|130:259|101:312,1,165.0000050354,6|0,3:2|0:0,0:0:0:0:
104,349,62981,2,0,P|76:363|41:367,1,55.0000016784668
4,353,63281,1,0,0:0:0:0:
4,353,63431,2,0,B|-10:322|-10:322|24:203,2,110.000003356934,6|6|0,3:2|3:2|0:0,0:0:0:0:
12,78,64781,6,0,B|44:57|97:70|121:106|121:106|126:145|166:161,1,165.0000050354,6|0,3:2|0:0,0:0:0:0:
188,165,65381,2,0,L|251:157,1,55.0000016784668
300,151,65681,1,0,0:0:0:0:
300,151,65831,1,6,3:2:0:0:
386,83,66131,6,0,B|429:87|429:87|469:129,1,82.5000025177002,6|6,3:2|3:2,0:0:0:0:
441,196,66581,2,0,B|397:200|397:200|357:242,2,82.5000025177002,6|6|6,3:2|3:2|3:2,0:0:0:0:
482,223,67181,5,6,3:2:0:0:
482,323,67481,1,0,3:0:0:0:
384,344,67781,2,0,B|348:329|292:349|318:373|272:391|221:382,1,150,0|0,3:0|0:0,0:0:0:0:
196,378,68381,5,2,3:0:0:0:
148,289,68681,1,0,3:0:0:0:
195,200,68981,1,0,3:0:0:0:
152,109,69281,1,0,3:0:0:0:
96,25,69581,6,0,B|57:58|57:58|51:113,1,99.9999999999999,2|0,3:0|3:0,0:0:0:0:
103,192,70181,2,0,B|152:209|152:209|202:186,1,99.9999999999999,0|0,3:0|3:0,3:0:0:0:
251,105,70781,2,0,B|242:54|242:54|198:22,2,99.9999999999999,0|0|0,3:0|3:0|3:0,3:0:0:0:
294,195,71681,1,0,3:0:0:0:
392,177,71981,6,0,L|440:220,1,50,6|0,3:2|3:0,0:0:0:0:
452,254,72281,2,0,L|438:317,1,50,0|0,3:0|3:0,0:0:0:0:
404,335,72581,2,0,L|299:343,1,99.9999999999999,2|0,3:0|3:0,0:0:0:0:
225,281,73181,6,0,L|162:293,1,50,6|0,3:2|3:0,0:0:0:0:
135,319,73481,2,0,L|72:307,1,50,0|0,3:0|3:0,0:0:0:0:
46,278,73781,2,0,L|26:181,1,99.9999999999999,2|0,3:0|3:0,0:0:0:0:
1,82,74381,1,6,3:2:0:0:
256,192,74531,12,6,75581,0:2:0:0:
88,82,76481,5,8,0:0:0:0:
172,152,76781,2,0,B|212:167|212:167|259:151,1,82.5000025177002,6|2,3:2|0:0,0:0:0:0:
306,94,77231,2,0,B|346:79|346:79|393:95,1,82.5000025177002,2|2,0:0|0:0,0:0:0:0:
449,142,77681,1,2,3:0:0:0:
434,194,77831,1,2,0:0:0:0:
418,246,77981,2,0,B|389:335,1,82.5000025177002,2|2,3:0|0:0,0:0:0:0:
317,360,78431,2,0,B|288:271,1,82.5000025177002,2|2,0:0|0:0,0:0:0:0:
261,204,78881,1,2,3:0:0:0:
154,178,79181,6,0,L|63:164,2,82.5000025177002,2|2|2,3:0|0:0|0:0,0:0:0:0:
191,137,79781,2,0,L|282:123,2,82.5000025177002,2|2|2,3:0|0:0|0:0,0:0:0:0:
155,94,80381,2,0,L|64:80,2,82.5000025177002,2|2|2,3:0|0:0|0:0,0:0:0:0:
193,53,80981,1,2,3:0:0:0:
300,28,81281,1,0,3:0:0:0:
408,48,81581,6,0,B|419:71|419:71|401:143,1,82.5000025177002,2|2,3:0|0:0,0:0:0:0:
339,176,82031,2,0,L|349:250,1,55.0000016784668,2|0,0:0|3:0,0:0:0:0:
365,287,82331,1,0,0:0:0:0:
365,287,82481,2,0,L|305:339,1,55.0000016784668,2|2,3:0|0:0,0:0:0:0:
270,338,82781,6,0,B|244:319|244:319|228:248,1,82.5000025177002,2|0,3:0|0:0,0:0:0:0:
221,187,83231,2,0,L|131:165,1,82.5000025177002,2|2,0:0|0:0,0:0:0:0:
58,177,83681,2,0,L|23:246,1,55.0000016784668,2|2,3:0|0:0,0:0:0:0:
47,279,83981,6,0,L|5:364,2,82.5000025177002,2|2|0,3:0|0:0|0:0,0:0:0:0:
102,280,84581,2,0,L|170:346,2,82.5000025177002,2|2|2,3:0|0:0|0:0,0:0:0:0:
124,229,85181,2,0,L|208:184,1,82.5000025177002,2|2,3:0|0:0,0:0:0:0:
270,149,85631,1,2,0:0:0:0:
270,149,85781,2,0,B|291:157|291:157|318:197,1,55.0000016784668,2|0,3:0|0:0,0:0:0:0:
320,236,86081,2,0,B|327:257|327:257|368:285,1,55.0000016784668,2|0,3:0|0:0,0:0:0:0:
409,282,86381,1,6,3:2:0:0:
510,239,86681,6,0,L|500:137,1,82.5000025177002,2|2,3:0|0:0,0:0:0:0:
506,75,87131,2,0,L|457:28,1,55.0000016784668,2|0,0:0|3:0,0:0:0:0:
417,25,87431,1,2,0:0:0:0:
417,25,87581,2,0,L|365:41,1,55.0000016784668,0|0,3:0|0:0,0:0:0:0:
320,78,87881,2,0,L|337:174,1,82.5000025177002,2|2,3:0|0:0,0:0:0:0:
301,235,88331,1,2,0:0:0:0:
251,211,88481,1,2,3:0:0:0:
202,184,88631,1,2,0:0:0:0:
173,78,88931,6,0,B|155:67|155:67|84:59,1,82.5000025177002,2|2,0:0|0:0,0:0:0:0:
26,107,89381,2,0,B|26:128|26:128|55:193,1,82.5000025177002,2|2,3:0|0:0,0:0:0:0:
108,250,89831,1,2,0:0:0:0:
108,250,89981,2,0,L|180:262,1,55.0000016784668,2|2,3:0|0:0,0:0:0:0:
202,296,90281,1,2,3:0:0:0:
276,376,90581,2,0,L|349:356,1,55.0000016784668,2|2,3:0|0:0,0:0:0:0:
383,348,90881,1,2,3:0:0:0:
405,240,91181,6,0,L|485:260,2,82.5000025177002,6|2|2,3:2|0:0|0:0,0:0:0:0:
377,194,91781,2,0,L|421:124,2,82.5000025177002,2|2|2,3:0|0:0|0:0,0:0:0:0:
324,206,92381,2,0,L|271:142,2,82.5000025177002,6|2|2,3:2|0:0|0:0,0:0:0:0:
320,258,92981,1,2,3:0:0:0:
214,287,93281,1,0,3:0:0:0:
105,307,93581,6,0,B|98:278|98:278|109:245,1,55.0000016784668,6|0,3:2|3:0,0:0:0:0:
140,210,93881,2,0,B|146:181|146:181|135:148,1,55.0000016784668,2|0,3:0|3:0,0:0:0:0:
114,107,94181,2,0,B|141:91|141:91|236:103,1,110.000003356934,6|2,3:2|3:0,0:0:0:0:
277,114,94631,1,0,3:0:0:0:
277,114,94781,2,0,B|309:120|309:120|390:97|390:97|404:118|404:118|342:232|342:232|304:242|304:242|276:282,1,357.500010910034,6|0,3:2|3:0,0:0:0:0:
240,354,95981,5,4,3:2:0:0:
82,305,96431,2,0,L|69:195,1,110.000003356934,6|0,3:2|0:0,0:0:0:0:
234,201,97181,5,6,3:2:0:0:
392,152,97631,2,0,L|404:42,1,110.000003356934,6|0,3:2|3:0,0:0:0:0:
238,51,98381,6,0,B|202:35|202:35|136:41,2,82.5000025177002,6|2|2,3:2|0:0|3:0,0:0:0:0:
274,93,98981,2,0,B|290:132|290:132|286:171,2,82.5000025177002,6|2|2,3:2|0:0|3:0,0:0:0:0:
221,106,99581,2,0,L|147:183,1,82.5000025177002,6|2,3:2|3:0,0:0:0:0:
91,214,100031,5,2,3:0:0:0:
91,214,100181,2,0,B|102:237|102:237|134:249,1,55.0000016784668,2|2,3:2|3:0,0:0:0:0:
182,262,100481,2,0,L|258:286,1,55.0000016784668,2|0,3:0|3:0,0:0:0:0:
281,295,100781,1,6,3:2:0:0:
256,192,100931,12,10,102581,0:0:0:0:
193,218,103181,6,0,B|201:263|201:263|212:274|212:274|220:321,2,99.9999999999999,2|2|10,3:0|3:0|0:0,0:0:0:0:
158,59,104231,5,0,3:0:0:0:
306,79,104681,1,0,3:0:0:0:
408,99,104981,1,8,0:0:0:0:
408,99,105131,2,0,L|431:49,2,50,6|6|6,3:2|3:2|3:2,0:0:0:0:
387,144,105581,5,6,3:2:0:0:
300,197,105881,1,6,3:2:0:0:
200,182,106181,2,0,B|141:177|141:177|117:194|117:194|41:189,1,150,10|2,0:0|3:0,0:0:0:0:
7,108,106931,1,0,3:0:0:0:
7,108,107081,1,0,3:0:0:0:
99,64,107381,1,8,0:0:0:0:
99,64,107531,2,0,L|216:74,1,99.9999999999999,2|0,3:0|3:0,0:0:0:0:
248,77,107981,5,6,3:2:0:0:
335,136,108281,1,10,0:0:0:0:
335,136,108431,1,6,3:2:0:0:
315,237,108731,1,10,0:0:0:0:
315,237,108881,1,6,3:2:0:0:
224,273,109181,1,10,0:0:0:0:
224,273,109331,1,6,3:2:0:0:
136,235,109631,1,10,0:0:0:0:
136,235,109781,2,0,B|111:193|111:193|147:90|147:90|122:50,1,200,6|6,3:2|3:2,0:0:0:0:
37,103,110681,6,0,B|71:142|71:142|157:149,1,99.9999999999999,6|2,3:2|3:0,0:0:0:0:
173,153,111131,1,0,0:0:0:0:
173,153,111281,1,0,3:0:0:0:
266,117,111581,2,0,B|287:113|287:113|294:118|294:118|326:114|326:114|332:118|332:118|366:112,1,99.9999999999999,2|2,3:0|3:0,0:0:0:0:
462,112,112181,2,0,L|453:170,1,50,0|0,3:0|0:0,0:0:0:0:
452,211,112481,1,0,3:0:0:0:
439,310,112781,6,0,B|461:353|461:353|539:368,2,99.9999999999999,6|6|0,3:2|3:2|3:0,0:0:0:0:
357,252,113681,1,0,3:0:0:0:
270,291,113981,2,0,L|152:282,1,99.9999999999999,0|0,3:0|3:0,0:0:0:0:
79,255,114581,5,0,3:0:0:0:
79,255,114731,2,0,L|63:191,2,50,6|6|6,3:2|3:2|3:2,0:0:0:0:
88,304,115181,2,0,B|50:337|50:337|-8:331,2,99.9999999999999,6|6|2,3:2|3:2|3:2,0:3:0:0:
166,240,116081,5,2,3:0:0:0:
166,240,116231,1,6,3:2:0:0:
234,167,116531,1,0,3:0:0:0:
234,167,116681,1,6,3:2:0:0:
336,153,116981,1,0,3:0:0:0:
336,153,117131,1,6,3:2:0:0:
431,198,117431,5,6,3:2:0:0:
431,198,117581,2,0,L|418:297,2,82.5000025177002,6|6|2,3:2|3:2|3:0,0:0:0:0:
436,142,118181,2,0,L|528:103,2,82.5000025177002,6|6|2,3:2|3:2|3:0,0:0:0:0:
388,170,118781,6,0,L|323:125,1,55.0000016784668,2|0,3:0|3:0,0:0:0:0:
291,119,119081,2,0,L|218:126,1,55.0000016784668,2|0,3:0|3:0,0:0:0:0:
186,147,119381,1,2,3:0:0:0:
113,230,119681,1,2,3:0:0:0:
15,178,119981,1,6,3:2:0:0:
256,192,120131,12,0,122381,0:0:0:0:
