osu file format v14

[General]
AudioFilename: audio.mp3
AudioLeadIn: 0
PreviewTime: 97708
Countdown: 0
SampleSet: Soft
StackLeniency: 0.5
Mode: 0
LetterboxInBreaks: 0
EpilepsyWarning: 1
WidescreenStoryboard: 1

[Editor]
DistanceSpacing: 1.1
BeatDivisor: 4
GridSize: 8
TimelineZoom: 1.6

[Metadata]
Title:Stargaze Station
TitleUnicode:Stargaze Station
Artist:seatrus
ArtistUnicode:seatrus
Creator:banter
Version:Extreme
Source:
Tags:Oriental Battle featured artist fa electronic instrumental mpg mappers' guild
BeatmapID:3238884
BeatmapSetID:1585728

[Difficulty]
HPDrainRate:5
CircleSize:3.8
OverallDifficulty:9
ApproachRate:9.5
SliderMultiplier:1.8
SliderTickRate:1

[Events]
//Background and Video events
0,0,"anime-landscape-falling-star-train-station-trip-scenery-anime-girl-anime-36897-1920x1080.jpeg",0,0
//Break Periods
//Storyboard Layer 0 (Background)
Sprite,Background,Centre,"sb/glow.png",0,0 S,2,12775,13108,1,0.2 F,2,12775,13108,1,0 P,0,12775,13108,A C,0,12775,,172,117,240 M,0,12775,12808,169,370,153.5322,360.8616 M,0,12808,12841,153.5322,360.8616,136.649,354.7475 M,0,12841,12875,136.649,354.7475,118.9343,351.866 M,0,12875,12908,118.9343,351.866,100.9793,352.1972
Sprite,Background,Centre,"sb/glow.png",437,136 S,2,21042,21242,1,0.2 F,2,21042,21242,1,0 P,0,21042,21242,A C,0,21042,,247,153,125
Sprite,Background,Centre,"sb/glow.png",0,0 S,2,38108,38507,1,0.2 F,2,38108,38507,1,0 P,0,38108,38507,A C,0,38108,,155,215,247 M,0,38108,38141,576,258,574.5618,271.4232 M,0,38141,38174,574.5618,271.4232,573.1236,284.8463 M,0,38174,38208,573.1236,284.8463,571.6854,298.2695 M,0,38208,38241,571.6854,298.2695,570.2472,311.6927 M,0,38241,38274,570.2472,311.6927,568.809,325.1159 M,0,38274,38307,568.809,325.1159,567.3708,338.539
Sprite,Background,Centre,"sb/glow.png",0,0 S,2,46375,46641,1,0.2 F,2,46375,46641,1,0 P,0,46375,46641,A C,0,46375,,82,129,252 M,0,46375,46408,390,408,412.1441,404.0141 M,0,46408,46441,412.1441,404.0141,434.2882,400.0281
Sprite,Background,Centre,"sb/glow.png",0,0 S,2,46642,46908,1,0.2 F,2,46642,46908,1,0 P,0,46642,46908,A C,0,46642,,82,129,252 M,0,46642,46675,529,220,506.7674,223.4584 M,0,46675,46708,506.7674,223.4584,484.5348,226.9168
Sprite,Background,Centre,"sb/glow.png",0,0 S,2,71442,71908,1,0.2 F,2,71442,71908,1,0 P,0,71442,71908,A C,0,71442,,82,129,252 M,0,71442,71475,352,319,332.0531,315.5093 M,0,71475,71508,332.0531,315.5093,312.1063,312.0186 M,0,71508,71541,312.1063,312.0186,296.0618,324.3159 M,0,71541,71575,296.0618,324.3159,280.0383,336.6977 M,0,71575,71608,280.0383,336.6977,296.0618,324.3159 M,0,71608,71641,296.0618,324.3159,312.1063,312.0186 M,0,71641,71675,312.1063,312.0186,332.0531,315.5093 M,0,71675,71708,332.0531,315.5093,352,319
Sprite,Background,Centre,"sb/glow.png",0,0 S,2,71842,72308,1,0.2 F,2,71842,72308,1,0 P,0,71842,72308,A C,0,71842,,82,129,252 M,0,71842,71875,456,382,472.0121,394.3965 M,0,71875,71908,472.0121,394.3965,488.276,405.7767 M,0,71908,71941,488.276,405.7767,508.2229,402.286 M,0,71941,71975,508.2229,402.286,527,399 M,0,71975,72008,527,399,508.2229,402.286 M,0,72008,72041,508.2229,402.286,488.276,405.7767 M,0,72041,72075,488.276,405.7767,472.0121,394.3965 M,0,72075,72108,472.0121,394.3965,456,382
Sprite,Background,Centre,"sb/glow.png",393,160 S,2,72242,72442,1,0.2 F,2,72242,72442,1,0 P,0,72242,72442,A C,0,72242,,82,129,252
Sprite,Background,Centre,"sb/glow.png",506,313 S,2,72375,72575,1,0.2 F,2,72375,72575,1,0 P,0,72375,72575,A C,0,72375,,82,129,252
Sprite,Background,Centre,"sb/glow.png",0,0 S,2,72508,72908,1,0.2 F,2,72508,72908,1,0 P,0,72508,72908,A C,0,72508,,247,153,125 M,0,72508,72541,274,346,262.8391,344.5872 M,0,72541,72574,262.8391,344.5872,251.6781,343.1744 M,0,72574,72607,251.6781,343.1744,240.5172,341.7617 M,0,72607,72641,240.5172,341.7617,229.3562,340.3489 M,0,72641,72674,229.3562,340.3489,218.1953,338.9361 M,0,72674,72708,218.1953,338.9361,207.0344,337.5233
Sprite,Background,Centre,"sb/glow.png",202,110 S,2,109842,110042,1,0.2 F,2,109842,110042,1,0 P,0,109842,110042,A C,0,109842,,247,153,125
Sprite,Background,Centre,"sb/glow.png",0,0 S,2,110375,110708,1,0.2 F,2,110375,110708,1,0 P,0,110375,110708,A C,0,110375,,247,153,125 M,0,110375,110408,90,436,86.51323,413.7718 M,0,110408,110441,86.51323,413.7718,83.02645,391.5436 M,0,110441,110474,83.02645,391.5436,79.53967,369.3154 M,0,110474,110508,79.53967,369.3154,76.0529,347.0872
Sprite,Background,Centre,"sb/glow.png",168,248 S,2,110642,110842,1,0.2 F,2,110642,110842,1,0 P,0,110642,110842,A C,0,110642,,247,153,125
Sprite,Background,Centre,"sb/glow.png",188,240 S,2,110708,110908,1,0.2 F,2,110708,110908,1,0 P,0,110708,110908,A C,0,110708,,247,153,125
Sprite,Background,Centre,"sb/glow.png",211,240 S,2,110775,110975,1,0.2 F,2,110775,110975,1,0 P,0,110775,110975,A C,0,110775,,247,153,125
Sprite,Background,Centre,"sb/glow.png",231,249 S,2,110842,111042,1,0.2 F,2,110842,111042,1,0 P,0,110842,111042,A C,0,110842,,247,153,125
Sprite,Background,Centre,"sb/glow.png",0,0 S,2,110908,111308,1,0.2 F,2,110908,111308,1,0 P,0,110908,111308,A C,0,110908,,172,117,240 M,0,110908,110941,246,266,254.5673,273.2235 M,0,110941,110974,254.5673,273.2235,264.0826,279.1057 M,0,110974,111007,264.0826,279.1057,274.3474,283.5279 M,0,111007,111041,274.3474,283.5279,285.0915,286.5744 M,0,111041,111074,285.0915,286.5744,296.2392,287.514 M,0,111074,111108,296.2392,287.514,307.3941,286.8125
Sprite,Background,Centre,"sb/glow.png",407,322 S,2,138641,138841,1,0.2 F,2,138641,138841,1,0 P,0,138641,138841,A C,0,138641,,155,215,247
Sprite,Background,Centre,"sb/glow.png",0,0 S,2,138775,139241,1,0.2 F,2,138775,139241,1,0 P,0,138775,139241,A C,0,138775,,155,215,247 M,0,138775,138808,481,188,495.5942,177.5418 M,0,138808,138841,495.5942,177.5418,512.0602,170.4156 M,0,138841,138875,512.0602,170.4156,529.6501,166.9395 M,0,138875,138908,529.6501,166.9395,547.5667,167.2664 M,0,138908,138941,547.5667,167.2664,529.6501,166.9395 M,0,138941,138975,529.6501,166.9395,512.0602,170.4156 M,0,138975,139008,512.0602,170.4156,495.5942,177.5418 M,0,139008,139041,495.5942,177.5418,481,188
Sprite,Background,Centre,"sb/glow.png",0,0 S,2,139175,139508,1,0.2 F,2,139175,139508,1,0 P,0,139175,139508,A C,0,139175,,155,215,247 M,0,139175,139208,379,140,375.397,122.3643 M,0,139208,139241,375.397,122.3643,371.794,104.7286 M,0,139241,139275,371.794,104.7286,368.191,87.09285 M,0,139275,139308,368.191,87.09285,364.588,69.45714
Sprite,Background,Centre,"sb/glow.png",313,225 S,2,139442,139642,1,0.2 F,2,139442,139642,1,0 P,0,139442,139642,A C,0,139442,,155,215,247
Sprite,Background,Centre,"sb/glow.png",234,175 S,2,139575,139775,1,0.2 F,2,139575,139775,1,0 P,0,139575,139775,A C,0,139575,,155,215,247
Sprite,Background,Centre,"sb/glow.png",234,175 S,2,139642,139842,1,0.2 F,2,139642,139842,1,0 P,0,139642,139842,A C,0,139642,,155,215,247
Sprite,Background,Centre,"sb/glow.png",234,175 S,2,139708,139908,1,0.2 F,2,139708,139908,1,0 P,0,139708,139908,A C,0,139708,,82,129,252
Sprite,Background,Centre,"sb/glow.png",140,203 S,2,139842,140042,1,0.2 F,2,139842,140042,1,0 P,0,139842,140042,A C,0,139842,,82,129,252
Sprite,Background,Centre,"sb/glow.png",241,84 S,2,139975,140175,1,0.2 F,2,139975,140175,1,0 P,0,139975,140175,A C,0,139975,,82,129,252
Sprite,Background,Centre,"sb/glow.png",0,0 S,2,140108,140708,1,0.2 F,2,140108,140708,1,0 P,0,140108,140708,A C,0,140108,,247,153,125 M,0,140108,140141,180,304,163.0401,310.0302 M,0,140141,140174,163.0401,310.0302,146.0803,316.0604 M,0,140174,140208,146.0803,316.0604,139.9218,316.1639 M,0,140208,140241,139.9218,316.1639,154.1189,305.0985 M,0,140241,140274,154.1189,305.0985,168.316,294.0331 M,0,140274,140308,168.316,294.0331,182.5131,282.9678 M,0,140308,140341,182.5131,282.9678,196.7102,271.9024 M,0,140341,140374,196.7102,271.9024,212.1228,271.1572 M,0,140374,140408,212.1228,271.1572,228.5023,278.6213 M,0,140408,140441,228.5023,278.6213,244.8817,286.0854 M,0,140441,140474,244.8817,286.0854,261.2612,293.5494 M,0,140474,140508,261.2612,293.5494,277.6407,301.0135
Sprite,Background,Centre,"anime-landscape-falling-star-train-station-trip-scenery-anime-girl-anime-36897-1920x1080.jpeg",320,240 S,0,-500,,0.4444444 F,0,-266,13041,0 F,0,13041,13174,0,1 F,0,13174,21042,1 F,0,21042,21110,1,0 F,0,55442,71378,1 F,0,71378,71444,1,0 F,0,72708,72774,0,1 F,0,72774,89442,1 F,0,89442,89575,1,0 F,0,111108,111174,0,1 F,0,111174,124772,1 F,0,124772,138375,1,0
Sprite,Background,BottomCentre,"sb/BGBlur.png",0,0 S,0,-500,,0.4537037 M,0,0,12775,313,490,327,480 F,0,0,4176,0 F,0,4176,4242,0,0.4 F,0,12775,12908,0.4,0 S,0,21308,,0.4444444 M,0,21308,,320,480 F,0,21308,21441,0,1 F,0,21441,38109,1 F,0,38109,38177,1,0 F,0,46908,46974,0,1 F,0,46974,55442,1 F,0,55442,55508,1,0 F,0,98042,98108,0,1 F,1,98108,106642,1 F,1,106642,107041,1,0 F,0,123442,130092,0,1 F,0,123708,138575,1 F,0,138575,138641,1,0
Sprite,Background,BottomCentre,"sb/BlackWhite.png",0,0 S,0,-500,,0.4444444 M,0,0,,320,480 F,0,0,4176,0 F,0,38375,38508,0,1 F,0,38508,46310,1 F,0,46310,46376,1,0
Sprite,Background,BottomCentre,"sb/MaskLight.png",0,0 S,0,-500,,0.6666667 M,0,0,,320,480 F,0,0,4176,0 F,0,38375,38508,0,1 F,0,38508,45844,1 F,0,45844,46110,1,0
Sprite,Background,BottomCentre,"sb/BGGreen.png",0,0 S,0,-500,,0.4444444 M,0,0,,320,480 F,0,0,4176,0 F,0,106642,106908,0,1 F,0,106908,109778,1 F,0,109778,109844,1,0
Sprite,Background,BottomCentre,"sb/BorderMask.png",0,0 S,0,-500,,0.6666667 M,0,0,,320,480 F,0,0,4176,0 F,0,106642,106908,0,1 F,0,106908,109312,1 F,0,109312,109578,1,0
Sprite,Background,BottomCentre,"sb/blank.png",0,0 M,0,0,,320,480 F,0,0,4176,0 F,1,13041,13307,0.5,0 F,1,29842,30374,0.5,0 F,1,55442,55974,0.5,0 F,1,63975,64507,0.5,0 F,1,106642,107174,0.5,0 F,1,123708,124772,0.5,0 F,1,132242,132774,0.5,0
Sprite,Background,CentreLeft,"sb/_0000_Mapper-.png",0,0 M,0,4242,8232,20,360,30,360 S,0,4242,8232,0.3 F,0,4242,8232,0.8 M,0,8232,8498,30,360,330,360 F,0,8232,8498,0.8,0
Sprite,Background,CentreLeft,"sb/_0001_StoryBoarder.png",0,0 M,0,8498,12243,-100,360,-90,360 S,0,8498,12243,0.3 F,0,8498,12243,0.8 M,0,12243,12509,-90,360,210,360 F,0,12243,12509,0.8,0
Sprite,Background,CentreLeft,"sb/_0002_banter.png",0,0 M,0,4242,8232,240,355,250,355 S,0,4242,8232,0.3 F,0,4242,8232,0.8 M,0,8232,8498,250,355,550,355 F,0,8232,8498,0.8,0
Sprite,Background,CentreLeft,"sb/_0003_Oriental.png",0,0 M,0,4242,8232,240,355,250,355 S,0,4242,8232,0.3 F,0,4242,8232,0 M,0,8498,12243,260,355,270,355 F,0,8498,12243,0.8 M,0,12243,12509,270,355,570,355 F,0,12243,12509,0.8,0
Sprite,Background,BottomLeft,"sb/bar.png",0,0 M,0,4242,8232,210,360,220,360 V,0,4242,8232,0.4,0.6 F,0,4242,8232,0.8 M,0,8232,8498,220,360,520,360 F,0,8232,8498,0.8,0 M,0,8498,12243,230,360,240,360 F,0,8498,12243,0.8 M,0,12243,12509,240,360,540,360 F,0,12243,12509,0.8,0
Sprite,Background,BottomLeft,"sb/bar.png",0,0 M,0,4242,12243,-220,400,-210,400 V,0,4242,12243,19,0.8,20,0.8 M,0,12243,12509,-210,400,90,400 F,0,12243,12509,1,0
//Storyboard Layer 1 (Fail)
//Storyboard Layer 2 (Pass)
//Storyboard Layer 3 (Foreground)
//Storyboard Sound Samples

[TimingPoints]
4242,266.666666666667,4,2,1,45,1,0
4242,-166.666666666667,4,2,1,45,0,0
12775,-125,4,2,1,50,0,0
13042,-125,4,2,1,60,0,0
13175,-100,4,2,1,60,0,0
17042,-90.9090909090909,4,2,1,60,0,0
20242,-90.9090909090909,4,2,1,50,0,0
21308,-125,4,2,1,50,0,0
23642,-125,4,2,1,5,0,0
23708,-125,4,2,1,50,0,0
25775,-125,4,2,1,5,0,0
25842,-125,4,2,1,50,0,0
27908,-125,4,2,1,5,0,0
27975,-125,4,2,1,50,0,0
29842,-111.111111111111,4,2,1,55,0,0
31908,-111.111111111111,4,2,1,5,0,0
31975,-111.111111111111,4,2,1,55,0,0
34108,-125,4,2,1,50,0,0
36242,-125,4,2,1,55,0,0
36775,-111.111111111111,4,2,1,60,0,0
37308,-100,4,2,1,65,0,0
37842,-125,4,2,1,55,0,0
38108,-166.666666666667,4,2,2,50,0,0
38308,-166.666666666667,4,2,2,5,0,0
38375,-166.666666666667,4,2,1,40,0,0
45842,-142.857142857143,4,2,1,40,0,0
46375,-100,4,2,1,55,0,0
46442,-100,4,2,1,5,0,0
46508,-100,4,2,1,55,0,0
46708,-100,4,2,1,5,0,0
46774,-100,4,2,1,45,0,0
46908,-111.111111111111,4,2,1,55,0,0
51175,-142.857142857143,4,2,1,50,0,0
52242,-111.111111111111,4,2,1,60,0,0
53308,-90.9090909090909,4,2,1,70,0,0
54375,-125,4,2,1,55,0,0
54842,-125,4,2,1,5,0,0
54908,-125,4,2,1,55,0,0
55108,-125,4,2,1,5,0,0
55174,-125,4,2,1,55,0,0
55375,-125,4,2,1,5,0,0
55442,-90.9090909090909,4,2,1,75,0,1
56175,-90.9090909090909,4,2,1,5,0,1
56242,-90.9090909090909,4,2,1,75,0,1
62042,-90.9090909090909,4,2,1,5,0,1
62108,-90.9090909090909,4,2,1,75,0,1
64175,-90.9090909090909,4,2,1,5,0,1
64241,-90.9090909090909,4,2,1,75,0,1
66308,-90.9090909090909,4,2,1,5,0,1
66374,-90.9090909090909,4,2,1,75,0,1
70508,-90.9090909090909,4,2,1,5,0,1
70553,-90.9090909090909,4,2,1,75,0,1
70686,-90.9090909090909,4,2,1,5,0,1
70730,-90.9090909090909,4,2,1,75,0,1
71442,-111.111111111111,4,2,1,60,0,0
72508,-200,4,2,1,60,0,0
72708,-83.3333333333333,4,2,1,5,0,0
72775,-83.3333333333333,4,2,1,80,0,1
73242,-83.3333333333333,4,2,1,5,0,1
73308,-83.3333333333333,4,2,1,80,0,1
74842,-83.3333333333333,4,2,1,5,0,1
74908,-83.3333333333333,4,2,1,80,0,1
76975,-83.3333333333333,4,2,1,5,0,1
77041,-83.3333333333333,4,2,1,80,0,1
79108,-83.3333333333333,4,2,1,5,0,1
79174,-83.3333333333333,4,2,1,80,0,1
81242,-83.3333333333333,4,2,1,5,0,1
81308,-83.3333333333333,4,2,1,80,0,1
85308,-90.9090909090909,4,2,1,60,0,0
85508,-90.9090909090909,4,2,1,5,0,0
85575,-90.9090909090909,4,2,1,60,0,0
87442,-83.3333333333333,4,2,1,75,0,1
89575,-111.111111111111,4,2,1,55,0,0
90775,-111.111111111111,4,2,1,40,0,0
91175,-111.111111111111,4,2,1,55,0,0
91375,-111.111111111111,4,2,1,5,0,0
91442,-200,4,2,1,55,0,0
91642,-200,4,2,1,55,0,0
91708,-111.111111111111,4,2,1,55,0,0
91908,-111.111111111111,4,2,1,55,0,0
91975,-111.111111111111,4,2,1,55,0,0
92175,-111.111111111111,4,2,1,55,0,0
92242,-111.111111111111,4,2,1,55,0,0
92442,-111.111111111111,4,2,1,5,0,0
92508,-111.111111111111,4,2,1,55,0,0
92708,-111.111111111111,4,2,1,55,0,0
92775,-111.111111111111,4,2,1,55,0,0
92975,-111.111111111111,4,2,1,55,0,0
93042,-111.111111111111,4,2,1,55,0,0
93108,-111.111111111111,4,2,1,5,0,0
93175,-111.111111111111,4,2,1,55,0,0
93242,-111.111111111111,4,2,1,5,0,0
93308,-111.111111111111,4,2,1,55,0,0
93508,-111.111111111111,4,2,1,5,0,0
93575,-166.666666666666,4,2,1,55,0,0
93775,-166.666666666666,4,2,1,55,0,0
93842,-111.111111111111,4,2,1,55,0,0
94042,-111.111111111111,4,2,1,55,0,0
94108,-111.111111111111,4,2,1,55,0,0
94708,-111.111111111111,4,2,1,5,0,0
94775,-111.111111111111,4,2,1,55,0,0
94842,-111.111111111111,4,2,1,5,0,0
94908,-111.111111111111,4,2,1,55,0,0
95108,-111.111111111111,4,2,1,40,0,0
95442,-111.111111111111,4,2,1,55,0,0
95642,-111.111111111111,4,2,1,5,0,0
95708,-166.666666666666,4,2,1,55,0,0
95975,-90.9090909090908,4,2,1,55,0,0
96175,-111.111111111111,4,2,1,5,0,0
96242,-90.9090909090908,4,2,1,55,0,0
96508,-111.111111111111,4,2,1,55,0,0
96708,-111.111111111111,4,2,1,5,0,0
96775,-111.111111111111,4,2,1,55,0,0
97042,-90.9090909090908,4,2,1,55,0,0
97842,-166.666666666667,4,2,1,55,0,0
98042,-166.666666666667,4,2,1,5,0,0
98108,-99.9999999999999,4,2,1,55,0,0
99375,-99.9999999999999,4,2,1,5,0,0
99442,-99.9999999999999,4,2,1,55,0,0
99908,-99.9999999999999,4,2,1,5,0,0
99975,-99.9999999999999,4,2,1,55,0,0
102375,-90.9090909090909,4,2,1,70,0,0
106642,-142.857142857143,4,2,1,45,0,0
110375,-100,4,2,1,65,0,0
110908,-200,4,2,1,65,0,0
111108,-200,4,2,1,5,0,0
111175,-90.909090909091,4,2,1,75,0,1
117308,-90.909090909091,4,2,1,55,0,0
119175,-90.909090909091,4,2,1,60,0,0
119442,-90.909090909091,4,2,1,75,0,1
121575,-83.3333333333333,4,2,1,80,0,1
123708,-111.111111111111,4,2,1,60,0,0
124442,-111.111111111111,4,2,1,5,0,0
124508,-111.111111111111,4,2,1,60,0,0
124575,-111.111111111111,4,2,1,5,0,0
124642,-111.111111111111,4,2,1,60,0,0
124908,-111.111111111111,4,2,1,45,0,0
125308,-111.111111111111,4,2,1,60,0,0
125508,-111.111111111111,4,2,1,5,0,0
125575,-200,4,2,1,60,0,0
125842,-111.111111111111,4,2,1,60,0,0
126042,-111.111111111111,4,2,1,5,0,0
126108,-111.111111111111,4,2,1,60,0,0
126308,-111.111111111111,4,2,1,5,0,0
126375,-111.111111111111,4,2,1,60,0,0
126575,-111.111111111111,4,2,1,5,0,0
126642,-111.111111111111,4,2,1,60,0,0
126842,-111.111111111111,4,2,1,5,0,0
126908,-111.111111111111,4,2,1,60,0,0
127108,-111.111111111111,4,2,1,5,0,0
127175,-111.111111111111,4,2,1,60,0,0
127242,-111.111111111111,4,2,1,5,0,0
127308,-111.111111111111,4,2,1,60,0,0
127375,-111.111111111111,4,2,1,5,0,0
127442,-111.111111111111,4,2,1,60,0,0
127642,-111.111111111111,4,2,1,5,0,0
127708,-166.666666666666,4,2,1,60,0,0
127908,-111.111111111111,4,2,1,5,0,0
127975,-111.111111111111,4,2,1,60,0,0
128175,-111.111111111111,4,2,1,5,0,0
128242,-111.111111111111,4,2,1,60,0,0
128842,-111.111111111111,4,2,1,5,0,0
128908,-111.111111111111,4,2,1,60,0,0
128975,-111.111111111111,4,2,1,5,0,0
129042,-111.111111111111,4,2,1,60,0,0
129242,-111.111111111111,4,2,1,45,0,0
129575,-111.111111111111,4,2,1,60,0,0
129775,-111.111111111111,4,2,1,5,0,0
129842,-166.666666666666,4,2,1,60,0,0
130042,-111.111111111111,4,2,1,5,0,0
130108,-90.9090909090909,4,2,1,60,0,0
130308,-111.111111111111,4,2,1,5,0,0
130375,-90.9090909090909,4,2,1,60,0,0
130642,-111.111111111111,4,2,1,60,0,0
130842,-111.111111111111,4,2,1,5,0,0
130908,-111.111111111111,4,2,1,60,0,0
131175,-111.111111111111,4,2,1,50,0,0
131375,-111.111111111111,4,2,1,5,0,0
131442,-111.111111111111,4,2,1,50,0,0
131508,-111.111111111111,4,2,1,5,0,0
131575,-111.111111111111,4,2,1,50,0,0
131642,-111.111111111111,4,2,1,5,0,0
131708,-111.111111111111,4,2,1,50,0,0
131842,-111.111111111111,4,2,1,70,0,0
131908,-111.111111111111,4,2,1,5,0,0
131975,-111.111111111111,4,2,1,70,0,0
132042,-111.111111111111,4,2,1,5,0,0
132108,-111.111111111111,4,2,1,70,0,0
132175,-111.111111111111,4,2,1,5,0,0
132242,-111.111111111111,4,2,1,55,0,0
134575,-111.111111111111,4,2,1,5,0,0
134642,-111.111111111111,4,2,1,55,0,0
136508,-90.9090909090908,4,2,1,60,0,0
138642,-125,4,2,1,50,0,0

[Colours]
Combo1 : 155,215,247
Combo2 : 82,129,252
Combo3 : 247,153,125
Combo4 : 172,117,240

[HitObjects]
422,292,4242,6,0,P|397:231|393:178,2,107.999996704102,6|0|2,1:2|0:0|0:0,0:0:0:0:
422,292,5042,1,2,0:0:0:0:
463,124,5308,2,0,P|422:86|370:92,1,107.999996704102,2|0,0:0|0:0,0:0:0:0:
304,163,5842,2,0,P|263:201|211:195,1,107.999996704102,2|0,0:0|0:0,0:0:0:0:
147,15,6375,6,0,B|176:42|176:42|165:127,2,107.999996704102,2|0|2,1:2|0:0|0:0,0:0:0:0:
147,15,7175,1,2,0:0:0:0:
28,216,7442,2,0,B|72:184|72:184|134:197,1,107.999996704102,2|0,0:0|0:0,0:0:0:0:
141,283,7975,2,0,B|97:315|97:315|35:302,1,107.999996704102,2|0,0:0|0:0,0:0:0:0:
208,223,8508,5,2,1:2:0:0:
253,303,8775,1,2,0:0:0:0:
333,258,9042,1,2,0:0:0:0:
288,178,9308,1,2,0:0:0:0:
155,307,9575,5,2,0:0:0:0:
26,176,9842,1,0,0:0:0:0:
131,203,10108,1,2,0:0:0:0:
192,34,10375,1,0,0:0:0:0:
105,99,10642,5,2,1:2:0:0:
256,153,10908,1,2,0:0:0:0:
372,105,11175,1,2,0:0:0:0:
386,5,11442,1,2,0:0:0:0:
277,48,11708,6,0,P|258:101|256:161,1,107.999996704102,2|0,0:0|0:0,0:0:0:0:
172,196,12242,2,0,P|191:249|193:309,1,107.999996704102,2|0,0:0|0:0,0:0:0:0:
105,314,12775,6,0,P|74:299|31:297,1,72,2|2,0:0|0:0,0:0:0:0:
178,384,13042,1,14,0:2:0:0:
270,241,13175,2,0,P|316:220|373:226,1,90,2|0,0:0|1:2,0:0:0:0:
485,354,13442,1,2,0:0:0:0:
485,354,13508,1,2,0:0:0:0:
485,354,13575,2,0,P|443:324|420:272,1,90,10|2,0:0|0:0,0:0:0:0:
512,93,13842,5,2,1:2:0:0:
442,197,13975,1,2,0:0:0:0:
387,21,14108,1,10,0:0:0:0:
321,110,14242,2,0,B|251:102|251:102|220:125|220:125|148:117,1,180,2|2,0:0|0:0,0:0:0:0:
285,190,14642,1,10,0:0:0:0:
191,40,14775,1,2,0:0:0:0:
180,219,14908,5,6,1:2:0:0:
289,21,15042,1,2,0:0:0:0:
360,230,15175,1,10,0:0:0:0:
139,109,15308,2,0,P|108:69|116:6,1,90,2|0,0:0|1:2,0:0:0:0:
226,127,15575,1,2,0:0:0:0:
141,301,15708,1,10,0:0:0:0:
73,174,15842,1,2,0:0:0:0:
73,174,15908,1,2,0:0:0:0:
73,174,15975,5,6,1:2:0:0:
250,278,16108,1,2,0:0:0:0:
352,143,16242,1,10,0:0:0:0:
291,384,16375,2,0,L|167:362,1,90,2|4,0:0|1:2,0:0:0:0:
363,248,16642,2,0,L|487:226,1,90,2|8,0:0|0:0,0:0:0:0:
165,198,16908,1,2,0:0:0:0:
469,223,17042,6,0,P|490:173|467:116,1,99.0000030212403,6|0,1:2|1:2,0:0:0:0:
227,24,17308,2,0,P|206:74|229:131,1,99.0000030212403,2|0,1:2|1:2,0:0:0:0:
412,330,17575,1,2,1:2:0:0:
306,125,17708,1,2,1:2:0:0:
237,287,17842,1,2,1:2:0:0:
397,138,17975,1,2,1:2:0:0:
144,273,18108,6,0,B|133:319|133:319|166:358,1,99.0000030212403,6|0,1:2|0:0,0:0:0:0:
435,228,18375,2,0,B|445:181|445:181|412:142,1,99.0000030212403,2|0,1:2|0:0,0:0:0:0:
127,128,18642,1,2,1:2:0:0:
343,211,18775,1,2,1:2:0:0:
131,279,18908,1,2,1:2:0:0:
306,125,19042,1,2,1:2:0:0:
55,175,19175,6,0,P|42:147|48:112,3,49.5000015106202,14|0|0|0,0:0|1:2|1:2|1:2,0:0:0:0:
160,93,19442,2,0,P|142:118|108:130,3,49.5000015106202,14|0|0|0,0:0|1:2|1:2|1:2,0:0:0:0:
37,44,19708,2,0,P|67:46|95:69,1,49.5000015106202,14|0,0:0|1:2,0:0:0:0:
230,151,19842,2,0,P|260:148|288:125,1,49.5000015106202,10|0,0:0|1:2,0:0:0:0:
171,44,19975,2,0,L|158:100,1,49.5000015106202,14|0,0:0|1:2,0:0:0:0:
66,223,20108,2,0,L|54:174,1,49.5000015106202,10|0,0:0|1:2,0:0:0:0:
17,28,20242,5,6,1:2:0:0:
194,290,20508,1,2,0:0:0:0:
306,0,20775,1,2,0:0:0:0:
218,60,20908,1,2,0:0:0:0:
373,80,21042,1,2,1:2:0:0:
295,328,21308,6,0,P|274:291|285:237,1,72,6|0,1:2|0:0,0:0:0:0:
188,279,21575,2,0,P|188:237|225:195,1,72,10|0,0:0|0:0,0:0:0:0:
418,231,21842,2,0,B|357:269|357:269|287:250,1,144,2|10,1:2|0:0,0:0:0:0:
154,134,22242,6,0,B|116:127|116:127|86:143,1,72,2|0,0:0|1:2,0:0:0:0:
32,313,22508,2,0,L|41:393,1,72,2|8,0:0|0:0,0:0:0:0:
126,293,22775,2,0,L|134:221,1,72,2|0,0:0|1:2,0:0:0:0:
43,158,23042,2,0,L|52:238,1,72,2|8,0:0|0:0,0:0:0:0:
125,312,23308,1,2,0:0:0:0:
221,191,23442,6,0,P|275:163|346:188,1,108,2|0,1:2|0:0,0:0:0:0:
376,231,23708,2,0,P|345:249|309:252,1,72,10|0,0:0|0:0,0:0:0:0:
399,145,23975,1,2,1:2:0:0:
329,334,24108,2,0,P|293:334|261:319,1,72,2|8,0:0|0:0,0:0:0:0:
288,122,24375,6,0,B|317:149|317:149|309:277,1,144,2|0,0:0|0:0,0:0:0:0:
229,186,24775,2,0,P|199:168|148:169,1,72,10|0,0:0|0:0,0:0:0:0:
120,297,25042,2,0,P|151:280|172:251,1,72,2|0,1:2|0:0,0:0:0:0:
77,147,25308,2,0,P|76:182|92:214,1,72,10|0,0:0|0:0,0:0:0:0:
162,165,25575,6,0,L|179:26,1,108,2|0,1:2|0:0,0:0:0:0:
234,3,25842,2,0,B|272:-4|272:-4|302:12,1,72,10|0,0:0|0:0,0:0:0:0:
342,96,26108,1,2,1:2:0:0:
250,158,26242,2,0,L|258:86,1,72,2|8,0:0|0:0,0:0:0:0:
347,187,26508,2,0,L|355:258,1,72,2|0,0:0|1:2,0:0:0:0:
379,360,26775,5,2,0:0:0:0:
440,286,26908,1,10,0:0:0:0:
290,329,27042,1,2,0:0:0:0:
493,349,27175,2,0,P|519:314|512:257,1,72,2|2,1:2|0:0,0:0:0:0:
436,154,27442,2,0,P|453:194|506:216,1,72,10|2,0:0|0:0,0:0:0:0:
472,80,27708,6,0,P|423:103|370:104,1,108,2|0,1:2|0:0,0:0:0:0:
295,71,27975,2,0,L|286:0,1,72,10|0,0:0|0:0,0:0:0:0:
381,19,28242,1,2,1:2:0:0:
300,155,28375,1,2,0:0:0:0:
197,71,28508,1,10,0:0:0:0:
185,64,28575,1,2,0:0:0:0:
173,57,28642,1,2,0:0:0:0:
161,49,28708,1,2,0:0:0:0:
149,41,28775,6,0,L|169:193,1,144,6|8,1:2|0:0,0:0:0:0:
181,299,29175,1,2,0:0:0:0:
75,205,29308,5,6,1:2:0:0:
91,184,29374,1,2,0:0:0:0:
116,172,29441,1,2,0:0:0:0:
142,172,29508,1,2,0:0:0:0:
167,183,29575,5,6,1:2:0:0:
199,198,29641,1,2,0:0:0:0:
235,197,29708,1,2,0:0:0:0:
266,180,29775,1,2,0:0:0:0:
287,151,29842,6,0,L|274:57,2,80.9999975280763,6|2|10,1:2|0:0|0:0,0:0:0:0:
318,300,30242,1,2,0:0:0:0:
512,209,30375,2,0,B|449:201|449:201|422:222|422:222|358:215,1,161.999995056153,2|10,1:2|0:0,0:0:0:0:
116,90,30775,6,0,B|185:47|185:47|292:68,1,161.999995056153,2|2,0:0|0:0,0:0:0:0:
199,198,31175,1,10,0:0:0:0:
25,137,31308,2,0,L|17:28,1,80.9999975280763,2|0,0:0|1:2,0:0:0:0:
106,240,31575,1,2,0:0:0:0:
115,104,31708,2,0,L|106:233,1,121.499996292114,10|0,0:0|0:0,0:0:0:0:
173,282,31975,6,0,P|232:280|261:260,1,80.9999975280763,2|0,1:2|0:0,0:0:0:0:
313,114,32242,1,10,0:0:0:0:
313,114,32308,1,2,0:0:0:0:
313,114,32375,2,0,P|285:166|288:201,1,80.9999975280763,2|0,0:0|1:2,0:0:0:0:
388,319,32642,2,0,P|356:268|324:253,1,80.9999975280763,2|8,0:0|0:0,0:0:0:0:
249,269,32908,1,2,0:0:0:0:
373,179,33042,6,0,L|467:167,2,80.9999975280763,2|2|2,1:2|0:0|0:0,0:0:0:0:
220,128,33442,2,0,B|193:97|193:97|336:117,1,161.999995056153,2|0,0:0|0:0,0:0:0:0:
126,146,33842,2,0,P|110:101|122:54,1,80.9999975280763,10|0,0:0|0:0,0:0:0:0:
284,199,34108,6,0,L|276:298,1,72,6|2,1:2|0:0,0:0:0:0:
196,320,34308,1,2,0:0:0:0:
196,320,34375,2,0,L|190:248,1,72,10|0,0:0|0:0,0:0:0:0:
369,162,34642,2,0,L|374:233,1,72,2|0,1:2|0:0,0:0:0:0:
352,327,34908,1,10,0:0:0:0:
264,185,35042,6,0,L|269:113,1,72,2|4,0:0|1:2,0:0:0:0:
212,30,35308,1,2,0:0:0:0:
212,30,35375,1,2,0:0:0:0:
212,30,35442,2,0,P|176:8|130:9,1,72,10|2,0:0|0:0,0:0:0:0:
98,143,35708,2,0,P|135:122|157:82,1,72,2|2,1:2|0:0,0:0:0:0:
70,59,35975,1,10,0:0:0:0:
70,59,36108,1,2,0:0:0:0:
0,227,36242,6,0,B|55:219|55:219|79:238|79:238|136:232,1,144,6|8,1:2|0:0,0:0:0:0:
204,350,36642,1,0,0:0:0:0:
254,177,36775,2,0,B|231:212|231:212|241:270,1,80.9999975280763,6|0,1:2|0:0,0:0:0:0:
331,267,37042,2,0,B|353:231|353:231|343:173,1,80.9999975280763,8|0,0:0|0:0,0:0:0:0:
252,43,37308,6,0,P|301:99|414:54,1,180,6|12,1:2|0:0,0:0:0:0:
254,177,37708,1,0,0:0:0:0:
410,70,37842,2,0,P|443:70|483:98,1,72,4|0,1:2|0:0,0:0:0:0:
512,202,38108,2,0,L|503:286,1,80.9999975280763,14|0,0:0|0:0,0:0:0:0:
498,292,38375,6,0,B|408:352|408:352|290:315,2,215.999993408203,6|2|2,0:0|0:0|0:0,0:0:0:0:
498,292,39975,1,2,0:0:0:0:
324,220,40508,6,0,B|279:228|279:228|266:239|266:239|210:249,1,107.999996704102,2|2,0:0|0:0,0:0:0:0:
222,335,41042,2,0,B|177:327|177:327|164:316|164:316|108:306,1,107.999996704102,2|2,0:0|0:0,0:0:0:0:
6,287,41575,1,2,0:0:0:0:
70,168,41842,1,2,0:0:0:0:
139,220,42108,1,2,0:0:0:0:
241,158,42375,1,2,0:0:0:0:
391,259,42642,6,0,P|430:245|346:195,1,215.999993408203,2|2,0:0|0:0,0:0:0:0:
284,282,43442,2,0,L|291:343,1,53.9999983520508,2|2,0:0|0:0,0:0:0:0:
378,366,43708,2,0,L|390:258,1,107.999996704102,2|2,0:0|0:0,0:0:0:0:
157,255,44375,5,2,0:0:0:0:
157,255,44508,2,0,P|132:271|92:274,1,53.9999983520508,2|2,0:0|0:0,0:0:0:0:
34,229,44775,1,2,0:0:0:0:
97,58,45042,1,2,0:0:0:0:
8,138,45308,1,2,0:0:0:0:
110,177,45575,1,2,0:0:0:0:
186,123,45842,1,2,0:0:0:0:
326,352,46375,6,0,L|376:343,1,45,6|0,1:2|0:0,0:0:0:0:
465,164,46642,2,0,L|420:171,1,45,6|0,1:2|0:0,0:0:0:0:
284,217,46908,6,0,B|347:228|347:228|369:256|369:256|449:272,1,161.999995056153,6|10,1:2|0:0,0:0:0:0:
346,133,47308,1,0,0:0:0:0:
184,200,47442,2,0,L|198:298,1,80.9999975280763,2|0,1:2|0:0,0:0:0:0:
295,320,47708,1,10,0:0:0:0:
238,129,47842,6,0,P|203:112|137:123,1,80.9999975280763,2|0,0:0|1:2,0:0:0:0:
284,217,48108,1,2,0:0:0:0:
327,46,48242,1,10,0:0:0:0:
433,180,48375,2,0,P|473:180|509:163,1,80.9999975280763,2|0,0:0|1:2,0:0:0:0:
346,133,48642,1,2,0:0:0:0:
445,280,48775,1,10,0:0:0:0:
448,88,48908,1,2,0:0:0:0:
356,267,49042,6,0,B|315:280|304:324|304:324|279:291|232:290,2,161.999995056153,6|10|2,1:2|0:0|1:2,0:0:0:0:
394,347,49708,1,0,0:0:0:0:
219,293,49842,2,0,L|207:190,1,80.9999975280763,10|0,0:0|0:0,0:0:0:0:
330,95,50108,6,0,L|320:175,1,80.9999975280763,2|0,1:2|0:0,0:0:0:0:
231,119,50375,1,10,0:0:0:0:
413,148,50508,2,0,L|403:228,1,80.9999975280763,2|0,0:0|1:2,0:0:0:0:
302,360,50775,1,2,0:0:0:0:
209,212,50908,1,10,0:0:0:0:
115,269,51042,1,2,0:0:0:0:
306,250,51175,6,0,L|313:187,1,62.9999980773926,6|0,1:2|0:0,0:0:0:0:
231,119,51442,1,2,0:0:0:0:
205,208,51575,1,2,0:0:0:0:
209,212,51842,1,2,0:0:0:0:
138,140,51975,1,2,0:0:0:0:
313,187,52108,1,2,0:0:0:0:
174,302,52242,6,0,L|81:288,1,80.9999975280763,6|0,1:2|0:0,0:0:0:0:
209,212,52508,1,2,0:0:0:0:
249,361,52642,1,2,0:0:0:0:
253,365,52908,1,2,0:0:0:0:
373,256,53042,1,2,0:0:0:0:
174,302,53175,1,2,0:0:0:0:
433,322,53308,6,0,P|460:275|447:213,1,99.0000030212403,6|0,1:2|1:2,0:0:0:0:
281,23,53575,2,0,P|254:70|267:132,1,99.0000030212403,2|2,1:2|0:0,0:0:0:0:
429,149,53842,1,0,1:2:0:0:
395,133,53908,1,0,1:2:0:0:
359,136,53975,1,2,1:2:0:0:
329,156,54041,1,0,1:2:0:0:
313,190,54108,1,2,1:2:0:0:
289,228,54175,1,0,1:2:0:0:
243,247,54242,1,2,1:2:0:0:
190,235,54308,1,2,1:2:0:0:
158,186,54375,6,0,L|167:97,2,72,6|2|2,1:2|0:0|0:0,0:0:0:0:
33,365,54775,2,0,P|15:375|-22:375,1,36,6|0,1:2|0:0,0:0:0:0:
197,326,55042,2,0,P|214:329|229:338,1,36,6|0,1:2|0:0,0:0:0:0:
69,212,55308,2,0,L|59:155,1,36,2|0,1:2|0:0,0:0:0:0:
105,57,55442,6,0,P|149:32|212:47,1,99.0000030212403,6|0,1:2|0:0,0:0:0:0:
321,150,55708,2,0,L|331:250,1,99.0000030212403,10|0,0:0|0:0,0:0:0:0:
433,80,55975,2,0,L|417:238,1,148.50000453186,2|0,1:2|0:0,0:0:0:0:
404,313,56242,1,10,0:0:0:0:
342,67,56375,6,0,B|291:51|254:95|254:95|216:139|166:124,1,198.000006042481,2|2,0:0|0:0,0:0:0:0:
29,0,56775,1,10,0:0:0:0:
188,46,56908,1,2,0:0:0:0:
31,192,57042,1,2,1:2:0:0:
103,83,57175,1,2,0:0:0:0:
103,83,57242,1,2,0:0:0:0:
103,83,57308,2,0,L|117:189,1,99.0000030212403,10|2,0:0|0:0,0:0:0:0:
205,326,57575,6,0,B|245:356|245:356|303:339,1,99.0000030212403,2|0,1:2|0:0,0:0:0:0:
319,180,57842,2,0,B|273:199|273:199|258:258,1,99.0000030212403,10|0,0:0|0:0,0:0:0:0:
388,351,58108,2,0,B|393:301|393:301|350:259,1,99.0000030212403,2|0,1:2|0:0,0:0:0:0:
177,243,58375,1,10,0:0:0:0:
293,384,58508,6,0,L|325:188,1,198.000006042481,2|0,0:0|0:0,0:0:0:0:
413,70,58908,2,0,P|455:45|503:50,1,99.0000030212403,10|0,0:0|0:0,0:0:0:0:
254,116,59175,2,0,P|205:120|163:96,1,99.0000030212403,2|2,1:2|0:0,0:0:0:0:
163,96,59375,1,2,0:0:0:0:
163,96,59442,1,10,0:0:0:0:
319,40,59575,1,8,0:0:0:0:
409,171,59708,6,0,B|431:202|431:202|421:280,2,99.0000030212403,2|2|10,1:2|0:0|0:0,0:0:0:0:
254,116,60108,2,0,B|232:147|232:147|242:225,1,99.0000030212403,2|0,0:0|1:2,0:0:0:0:
313,354,60375,1,2,0:0:0:0:
313,354,60442,1,2,0:0:0:0:
313,354,60508,2,0,L|326:243,1,99.0000030212403,10|2,0:0|0:0,0:0:0:0:
138,209,60775,5,0,1:2:0:0:
197,292,60908,1,2,0:0:0:0:
320,169,61042,1,10,0:0:0:0:
222,379,61175,2,0,P|173:381|132:354,1,99.0000030212403,2|0,0:0|1:2,0:0:0:0:
47,187,61442,1,2,0:0:0:0:
228,193,61575,1,10,0:0:0:0:
125,345,61708,1,2,0:0:0:0:
174,119,61842,6,0,B|232:72|232:72|322:87,1,148.50000453186,2|0,1:2|0:0,0:0:0:0:
356,157,62108,2,0,L|346:274,1,99.0000030212403,10|0,0:0|0:0,0:0:0:0:
395,79,62375,1,2,1:2:0:0:
246,189,62508,1,2,0:0:0:0:
435,268,62642,1,10,0:0:0:0:
304,84,62775,1,2,1:2:0:0:
297,76,62842,1,2,1:2:0:0:
290,68,62908,5,6,1:2:0:0:
323,260,63042,1,2,1:2:0:0:
449,150,63175,1,6,1:2:0:0:
204,105,63308,1,2,1:2:0:0:
294,345,63442,1,4,1:2:0:0:
356,157,63575,1,2,1:2:0:0:
151,219,63708,2,0,L|36:197,1,99.0000030212403,6|2,1:2|0:0,0:0:0:0:
305,364,63975,6,0,L|482:329,1,148.50000453186,6|0,1:2|0:0,0:0:0:0:
508,274,64242,2,0,P|534:320|522:382,1,99.0000030212403,10|0,0:0|0:0,0:0:0:0:
332,269,64508,1,2,1:2:0:0:
437,192,64642,2,0,L|536:172,1,99.0000030212403,2|8,0:0|0:0,0:0:0:0:
254,141,64908,6,0,B|224:101|224:101|237:53,1,99.0000030212403,2|0,0:0|1:2,0:0:0:0:
396,17,65175,2,0,B|426:57|426:57|412:104,2,99.0000030212403,2|10|2,0:0|0:0|0:0,0:0:0:0:
351,173,65575,1,2,1:2:0:0:
500,114,65708,1,2,0:0:0:0:
326,79,65842,1,10,0:0:0:0:
420,250,65975,1,2,0:0:0:0:
383,8,66108,6,0,P|324:-12|247:40,1,148.50000453186,6|0,1:2|0:0,0:0:0:0:
208,109,66375,2,0,P|155:136|96:120,1,99.0000030212403,10|0,0:0|0:0,0:0:0:0:
326,79,66642,2,0,L|314:177,1,99.0000030212403,2|0,1:2|0:0,0:0:0:0:
97,119,66908,2,0,L|84:4,1,99.0000030212403,10|0,0:0|0:0,0:0:0:0:
299,172,67175,6,0,L|276:368,1,198.000006042481,2|8,1:2|0:0,0:0:0:0:
210,223,67575,1,2,0:0:0:0:
362,349,67708,1,2,1:2:0:0:
392,158,67842,1,2,0:0:0:0:
312,262,67975,1,10,0:0:0:0:
256,84,68108,1,8,0:2:0:0:
256,84,68175,1,8,0:2:0:0:
256,84,68242,6,0,B|216:54|216:54|169:68,1,99.0000030212403,6|2,1:2|0:0,0:0:0:0:
297,171,68508,1,10,0:0:0:0:
408,63,68642,2,0,L|516:45,1,99.0000030212403,2|0,0:0|1:2,0:0:0:0:
511,177,68908,2,0,L|403:159,1,99.0000030212403,2|8,0:0|0:0,0:0:0:0:
212,230,69175,5,14,0:0:0:0:
326,18,69308,1,6,1:2:0:0:
413,160,69442,1,2,0:0:0:0:
269,94,69575,1,10,0:0:0:0:
202,245,69708,2,0,P|145:261|108:138,1,198.000006042481,2|2,0:0|0:0,0:0:0:0:
280,210,70108,1,10,0:0:0:0:
161,368,70242,1,14,0:2:0:0:
65,77,70375,6,0,P|113:73|166:129,1,99.0000030212403,6|0,1:2|0:0,0:0:0:0:
218,160,70553,2,0,P|266:163|319:107,1,99.0000030212403,6|0,1:2|0:0,0:0:0:0:
321,52,70730,1,6,1:2:0:0:
133,186,70908,2,0,L|126:299,1,99.0000030212403,2|2,1:2|1:2,0:0:0:0:
295,362,71175,1,10,0:0:0:0:
293,337,71241,1,8,0:0:0:0:
291,312,71308,1,8,0:0:0:0:
290,287,71375,1,8,0:0:0:0:
288,263,71442,6,0,B|248:256|248:256|204:290,2,80.9999975280763,6|2|2,1:2|0:0|0:0,0:0:0:0:
392,326,71842,2,0,B|423:350|423:350|463:343,2,80.9999975280763,6|2|2,1:2|0:0|0:0,0:0:0:0:
329,104,72242,1,10,0:0:0:0:
442,257,72375,1,2,0:0:0:0:
210,290,72508,6,0,L|131:280,1,67.5,2|0,1:2|0:0,0:0:0:0:
131,275,72775,2,0,B|99:232|99:232|116:164,1,107.999996704102,14|0,0:0|0:0,0:0:0:0:
282,81,73042,2,0,B|349:93|349:93|366:115|366:115|431:128,1,161.999995056153,2|0,1:2|0:0,0:0:0:0:
444,129,73308,1,10,0:0:0:0:
231,1,73442,6,0,B|189:34|189:34|206:208,1,215.999993408203,2|2,0:0|0:0,0:0:0:0:
296,172,73842,1,10,0:0:0:0:
118,99,73975,1,2,0:0:0:0:
226,319,74108,1,2,1:2:0:0:
348,86,74242,1,2,0:0:0:0:
204,195,74375,1,10,0:0:0:0:
336,252,74508,1,2,0:0:0:0:
253,95,74642,6,0,B|186:50|186:50|107:71,1,161.999995056153,2|0,1:2|0:0,0:0:0:0:
51,141,74908,2,0,L|66:252,1,107.999996704102,10|0,0:0|0:0,0:0:0:0:
347,118,75175,2,0,L|332:10,1,107.999996704102,2|0,1:2|0:0,0:0:0:0:
172,152,75442,1,10,0:0:0:0:
361,355,75575,6,0,P|453:352|461:233,1,215.999993408203,2|0,0:0|0:0,0:0:0:0:
271,283,75975,2,0,P|246:337|257:404,1,107.999996704102,10|0,0:0|0:0,0:0:0:0:
357,214,76242,1,2,1:2:0:0:
170,283,76375,1,2,0:0:0:0:
170,283,76442,1,2,0:0:0:0:
170,283,76508,1,10,0:0:0:0:
361,355,76642,1,2,0:0:0:0:
257,175,76775,6,0,L|85:194,1,161.999995056153,2|0,1:2|0:0,0:0:0:0:
23,152,77042,2,0,P|-11:109|-1:40,1,107.999996704102,10|0,0:0|0:0,0:0:0:0:
166,1,77308,2,0,P|200:43|190:112,1,107.999996704102,2|0,1:2|0:0,0:0:0:0:
96,72,77575,1,10,0:0:0:0:
291,166,77708,6,0,B|258:208|258:208|84:191,1,215.999993408203,2|0,0:0|0:0,0:0:0:0:
302,67,78108,2,0,L|409:56,1,107.999996704102,10|0,0:0|0:0,0:0:0:0:
497,272,78375,1,2,1:2:0:0:
399,173,78508,1,2,0:0:0:0:
505,115,78642,1,10,0:0:0:0:
399,281,78775,1,2,0:0:0:0:
311,83,78908,6,0,P|246:115|258:215,1,161.999995056153,2|0,1:2|0:0,0:0:0:0:
291,268,79175,2,0,L|416:282,1,107.999996704102,10|0,0:0|0:0,0:0:0:0:
153,120,79442,2,0,L|45:132,1,107.999996704102,2|0,1:2|0:0,0:0:0:0:
200,280,79708,1,10,0:0:0:0:
333,179,79842,1,8,0:0:0:0:
341,175,79908,1,8,0:0:0:0:
349,171,79975,5,6,1:2:0:0:
254,363,80108,1,2,1:2:0:0:
153,120,80242,1,6,1:2:0:0:
299,278,80375,2,0,L|424:264,1,107.999996704102,2|4,1:2|1:2,0:0:0:0:
281,96,80642,1,2,1:2:0:0:
200,280,80775,1,6,1:2:0:0:
446,170,80908,1,2,1:2:0:0:
225,161,81042,6,0,B|191:131|191:131|209:15,1,161.999995056153,6|0,1:2|0:0,0:0:0:0:
294,0,81308,2,0,B|305:76|305:76|283:96,1,107.999996704102,10|0,0:0|0:0,0:0:0:0:
108,189,81575,1,2,1:2:0:0:
208,15,81708,1,2,0:0:0:0:
276,233,81842,1,10,0:0:0:0:
111,98,81975,6,0,P|42:72|-6:90,1,107.999996704102,2|0,0:0|1:2,0:0:0:0:
243,315,82242,2,0,P|295:321|342:296,1,107.999996704102,2|8,0:0|0:0,0:0:0:0:
206,99,82508,2,0,P|175:206|153:330,1,215.999993408203,2|2,0:0|0:0,0:0:0:0:
284,134,82908,1,10,0:0:0:0:
78,268,83042,1,2,0:0:0:0:
355,282,83175,6,0,B|383:235|383:235|364:166,1,107.999996704102,6|0,1:2|0:0,0:0:0:0:
272,43,83442,1,10,0:0:0:0:
178,237,83575,2,0,L|295:223,1,107.999996704102,2|0,0:0|1:2,0:0:0:0:
470,99,83842,2,0,L|362:86,1,107.999996704102,2|8,0:0|0:0,0:0:0:0:
119,3,84108,6,0,B|91:50|91:50|105:101,1,107.999996704102,2|0,0:0|1:2,0:0:0:0:
285,224,84375,1,2,0:0:0:0:
192,71,84508,1,10,0:0:0:0:
159,254,84642,2,0,P|67:265|41:149,1,215.999993408203,2|0,0:0|0:0,0:0:0:0:
276,124,85042,1,10,0:0:0:0:
176,354,85175,1,10,0:0:0:0:
54,78,85308,6,0,B|108:108|108:108|116:128|116:128|179:158,1,148.50000453186,6|0,1:2|0:0,0:0:0:0:
264,135,85575,2,0,L|241:23,1,99.0000030212403,10|0,0:0|0:0,0:0:0:0:
174,156,85842,1,2,1:2:0:0:
337,213,85975,1,2,0:0:0:0:
327,34,86108,1,10,0:0:0:0:
217,235,86242,6,0,B|191:278|191:278|208:333,1,99.0000030212403,10|4,0:0|1:2,0:0:0:0:
258,120,86508,2,0,B|233:75|233:75|177:63,1,99.0000030212403,2|8,0:0|0:0,0:0:0:0:
337,213,86775,2,0,B|387:214|387:214|426:171,1,99.0000030212403,2|0,0:0|1:2,0:0:0:0:
174,156,87042,1,2,0:0:0:0:
290,289,87175,1,10,0:0:0:0:
347,122,87308,1,10,0:0:0:0:
189,252,87442,6,0,L|72:230,1,107.999996704102,6|0,1:2|0:0,0:0:0:0:
355,358,87708,2,0,L|472:336,1,107.999996704102,10|0,0:0|0:0,0:0:0:0:
270,190,87975,1,2,1:2:0:0:
171,354,88108,1,2,0:0:0:0:
93,146,88242,1,10,0:0:0:0:
290,289,88375,1,2,0:0:0:0:
364,86,88508,6,0,L|373:20,3,53.9999983520508,12|0|0|0,0:0|1:2|1:2|1:2,0:0:0:0:
270,0,88775,2,0,L|277:53,3,53.9999983520508,12|0|0|0,0:0|1:2|1:2|1:2,0:0:0:0:
245,135,89042,1,12,0:0:0:0:
226,154,89108,1,0,1:2:0:0:
201,162,89175,1,0,1:2:0:0:
175,157,89242,1,0,1:2:0:0:
155,140,89308,1,12,0:0:0:0:
146,115,89375,1,0,1:2:0:0:
150,88,89442,1,0,1:2:0:0:
167,68,89508,1,0,1:2:0:0:
192,58,89575,5,6,1:2:0:0:
328,175,89708,2,0,L|436:160,2,80.9999975280763,2|2|2,0:0|0:0|0:0,0:0:0:0:
189,285,90108,1,0,1:2:0:0:
226,154,90242,2,0,L|234:208,1,40.4999987640381,10|0,0:0|0:0,0:0:0:0:
289,316,90375,2,0,L|294:275,1,40.4999987640381,10|0,0:0|0:0,0:0:0:0:
142,201,90508,6,0,P|116:191|89:195,1,40.4999987640381,10|10,0:0|0:0,0:0:0:0:
109,351,90642,1,0,1:2:0:0:
48,249,90775,1,8,0:0:0:0:
38,239,90841,1,8,0:0:0:0:
31,228,90908,1,8,0:0:0:0:
26,215,90975,1,8,0:0:0:0:
24,202,91041,1,8,0:0:0:0:
24,188,91108,1,8,0:0:0:0:
27,175,91175,1,0,1:2:0:0:
65,16,91308,2,0,P|79:44|76:79,1,40.4999987640381,2|0,0:2|0:0,0:0:0:0:
167,57,91442,2,0,P|160:91|140:120,1,67.5,10|0,0:2|0:0,0:0:0:0:
104,191,91708,6,0,P|152:157|212:159,1,121.499996292114,2|0,1:2|0:0,0:0:0:0:
212,159,91975,2,0,P|163:193|103:191,1,121.499996292114,10|0,0:2|0:0,0:0:0:0:
27,175,92242,1,0,1:2:0:0:
119,280,92375,2,0,L|112:334,1,40.4999987640381,2|0,0:0|0:0,0:0:0:0:
64,379,92508,2,0,L|46:246,1,121.499996292114,10|0,0:0|0:0,0:0:0:0:
104,191,92775,6,0,P|163:193|213:159,1,121.499996292114,2|0,1:2|0:0,0:0:0:0:
254,82,93042,2,0,L|243:17,1,40.4999987640381,10|0,0:0|0:0,0:0:0:0:
326,152,93175,2,0,L|319:191,1,40.4999987640381,2|0,0:0|0:0,0:0:0:0:
399,91,93308,1,2,1:2:0:0:
427,241,93442,2,0,L|420:201,1,40.4999987640381,2|0,0:0|0:0,0:0:0:0:
338,163,93575,2,0,L|322:253,1,80.9999975280763,10|0,0:0|0:0,0:0:0:0:
343,369,93842,6,0,B|311:357|302:327|302:327|280:347|245:345,1,121.499996292114,6|0,1:2|0:0,0:0:0:0:
160,340,94108,1,10,0:0:0:0:
222,139,94242,2,0,L|229:179,1,40.4999987640381,8|8,0:0|0:0,0:0:0:0:
245,263,94375,1,0,1:2:0:0:
120,259,94508,1,2,1:2:0:0:
122,245,94574,1,2,1:2:0:0:
124,232,94642,2,0,L|197:218,1,40.4999987640381,10|0,0:0|0:0,0:0:0:0:
43,291,94775,2,0,L|3:283,1,40.4999987640381,10|0,0:0|0:0,0:0:0:0:
48,151,94908,6,0,L|127:135,1,80.9999975280763,6|8,1:2|0:0,0:0:0:0:
134,53,95108,1,8,0:0:0:0:
134,53,95175,2,0,L|173:60,3,40.4999987640381,8|8|8|8,0:0|0:0|0:0|0:0,0:0:0:0:
222,139,95442,1,0,1:2:0:0:
301,78,95575,2,0,L|294:39,1,40.4999987640381,2|0,0:0|0:0,0:0:0:0:
382,130,95708,2,0,L|367:209,1,80.9999975280763,10|0,0:0|0:0,0:0:0:0:
314,301,95975,6,0,B|385:324|385:324|445:281,1,148.50000453186,6|0,1:2|0:0,0:0:0:0:
422,280,96242,2,0,B|381:308|381:308|334:292,1,99.0000030212403,10|0,0:0|0:0,0:0:0:0:
200,222,96508,2,0,B|142:203|142:203|93:237,1,121.499996292114,6|0,1:2|0:0,0:0:0:0:
113,242,96775,2,0,B|145:219|145:219|184:231,1,80.9999975280763,10|0,0:0|0:0,0:0:0:0:
16,308,97042,6,0,L|2:180,1,99.0000030212403,6|0,1:2|0:0,0:0:0:0:
290,119,97308,2,0,L|279:217,1,99.0000030212403,14|0,0:2|0:0,0:0:0:0:
123,340,97575,2,0,L|109:212,1,99.0000030212403,6|0,1:2|0:0,0:0:0:0:
237,54,97842,2,0,P|277:34|322:42,1,80.9999975280763,14|0,0:0|0:0,0:0:0:0:
369,119,98108,6,0,P|272:125|223:51,2,180,6|10|2,1:2|0:0|1:2,0:0:0:0:
410,32,98775,1,2,0:0:0:0:
324,216,98908,1,10,0:0:0:0:
512,139,99042,1,2,0:0:0:0:
316,49,99175,6,0,P|244:60|209:142,1,135,2|0,1:2|0:0,0:0:0:0:
135,141,99442,2,0,P|145:185|151:242,1,90,10|0,0:0|0:0,0:0:0:0:
295,384,99708,2,0,P|303:316|318:249,1,135,2|0,1:2|0:0,0:0:0:0:
241,202,99975,2,0,P|235:246|225:290,1,90,10|0,0:0|0:0,0:0:0:0:
424,314,100242,6,0,P|404:226|393:136,1,180,6|10,1:2|0:0,0:0:0:0:
445,43,100642,1,0,0:0:0:0:
299,146,100775,2,0,P|239:145|203:101,1,90,2|0,1:2|0:0,0:0:0:0:
84,23,101042,2,0,P|24:24|-12:68,1,90,10|0,0:0|0:0,0:0:0:0:
49,235,101308,5,2,1:2:0:0:
217,127,101442,1,2,0:0:0:0:
27,134,101575,1,10,0:0:0:0:
125,292,101708,1,2,0:0:0:0:
143,87,101842,2,0,P|132:136|126:186,1,90,2|2,1:2|0:0,0:0:0:0:
248,328,102108,2,0,P|259:279|265:229,1,90,10|2,0:0|0:0,0:0:0:0:
217,127,102375,5,6,1:2:0:0:
342,259,102508,1,0,1:2:0:0:
316,86,102642,1,2,1:2:0:0:
186,239,102775,1,0,1:2:0:0:
394,169,102908,1,2,1:2:0:0:
230,32,103042,1,0,1:2:0:0:
370,256,103175,2,0,B|420:268|420:268|475:224,1,99.0000030212403,2|0,1:2|1:2,0:0:0:0:
405,71,103442,5,6,1:2:0:0:
269,208,103575,1,0,1:2:0:0:
324,0,103708,1,2,1:2:0:0:
483,148,103842,1,0,1:2:0:0:
192,132,103975,1,2,1:2:0:0:
459,0,104108,1,0,1:2:0:0:
350,244,104242,2,0,B|300:256|300:256|245:212,1,99.0000030212403,2|0,1:2|1:2,0:0:0:0:
155,55,104508,5,14,0:0:0:0:
121,40,104574,1,0,1:2:0:0:
85,45,104641,1,2,1:2:0:0:
56,68,104708,1,0,1:2:0:0:
44,102,104775,2,0,L|54:172,3,49.5000015106202,10|0|2|0,0:0|1:2|1:2|1:2,0:0:0:0:
158,147,105042,1,14,0:0:0:0:
192,132,105108,1,0,1:2:0:0:
228,137,105175,1,2,1:2:0:0:
257,160,105242,1,0,1:2:0:0:
269,194,105309,2,0,L|259:264,3,49.5000015106202,10|0|2|0,0:0|1:2|1:2|1:2,0:0:0:0:
199,339,105575,5,14,0:0:0:0:
161,248,105708,1,0,1:2:0:0:
266,262,105842,1,0,1:2:0:0:
84,301,105975,5,14,0:0:0:0:
228,137,106108,1,0,1:2:0:0:
292,354,106242,1,0,1:2:0:0:
121,143,106375,5,14,0:0:0:0:
56,384,106508,1,10,0:0:0:0:
266,262,106642,6,0,B|344:209|344:209|436:235,2,188.999994232178,2|2|2,1:2|0:0|0:0,0:0:0:0:
266,262,107708,2,0,L|282:387,2,125.999996154785,2|2|2,0:0|0:0|0:0,0:0:0:0:
251,169,108508,1,2,0:0:0:0:
251,169,108775,6,0,P|186:176|130:127,1,125.999996154785,2|0,0:0|0:0,0:0:0:0:
96,216,109175,2,0,P|57:163|71:90,1,125.999996154785,2|0,0:0|0:0,0:0:0:0:
2,52,109575,2,0,P|25:30|56:24,1,62.9999980773926,2|0,0:0|0:0,0:0:0:0:
138,54,109842,5,2,1:2:0:0:
26,380,110375,2,0,L|10:278,1,90,2|0,1:2|0:0,0:0:0:0:
104,192,110642,1,8,0:0:0:0:
124,184,110708,1,8,0:0:0:0:
147,184,110775,1,8,0:0:0:0:
167,193,110842,1,8,0:0:0:0:
182,210,110908,6,0,P|222:231|260:227,1,67.5,2|0,1:2|0:0,0:0:0:0:
314,173,111175,2,0,L|327:43,1,99.0000030212403,14|0,0:0|0:0,0:0:0:0:
212,103,111442,1,2,1:2:0:0:
334,267,111575,1,2,0:0:0:0:
409,85,111708,1,10,0:0:0:0:
232,242,111842,6,0,B|204:282|204:282|222:349,1,99.0000030212403,2|0,0:0|1:2,0:0:0:0:
304,81,112108,2,0,B|283:36|283:36|216:18,1,99.0000030212403,2|8,0:0|0:0,0:0:0:0:
407,223,112375,2,0,B|455:227|455:227|504:178,1,99.0000030212403,2|0,0:0|1:2,0:0:0:0:
314,173,112642,1,2,0:0:0:0:
353,352,112775,1,10,0:0:0:0:
401,133,112908,1,2,0:0:0:0:
208,266,113042,6,0,P|116:278|73:186,1,198.000006042481,6|8,1:2|0:0,0:0:0:0:
225,0,113442,2,0,P|193:92|170:196,1,198.000006042481,2|0,0:0|0:0,0:0:0:0:
345,224,113842,2,0,P|302:186|246:200,1,99.0000030212403,10|0,0:0|0:0,0:0:0:0:
347,335,114108,5,6,1:2:0:0:
403,110,114242,1,2,0:0:0:0:
170,190,114375,1,10,0:0:0:0:
469,177,114508,2,0,B|499:137|499:137|482:55,1,99.0000030212403,2|4,0:0|1:2,0:0:0:0:
338,0,114775,1,2,0:0:0:0:
273,121,114908,1,14,0:0:0:0:
273,121,114975,1,2,0:0:0:0:
273,121,115042,1,2,0:0:0:0:
171,23,115175,6,0,L|64:5,2,99.0000030212403,6|2|10,1:2|0:0|0:0,0:0:0:0:
282,216,115575,2,0,L|379:199,1,99.0000030212403,2|0,0:0|1:2,0:0:0:0:
139,289,115842,1,2,0:0:0:0:
104,173,115975,1,10,0:0:0:0:
237,295,116108,1,2,0:0:0:0:
9,352,116242,5,6,1:2:0:0:
194,206,116375,1,2,0:0:0:0:
1,68,116508,1,10,0:0:0:0:
63,256,116642,2,0,P|98:218|97:153,1,99.0000030212403,2|0,0:0|1:2,0:0:0:0:
68,0,116908,1,2,0:0:0:0:
153,87,117042,1,10,0:0:0:0:
265,43,117175,1,2,0:0:0:0:
17,193,117308,5,6,1:2:0:0:
373,346,117708,1,6,1:2:0:0:
341,0,118108,1,6,1:2:0:0:
243,182,118375,5,6,1:2:0:0:
419,266,118775,1,6,1:2:0:0:
363,110,119175,1,8,0:0:0:0:
364,122,119241,1,8,0:0:0:0:
365,134,119308,1,8,0:0:0:0:
366,146,119375,1,8,0:0:0:0:
367,159,119442,5,6,1:2:0:0:
246,263,119575,2,0,P|224:212|241:163,1,99.0000030212403,2|8,0:0|0:0,0:0:0:0:
341,272,119842,1,2,0:0:0:0:
133,319,119975,2,0,P|222:297|287:373,1,198.000006042481,2|10,1:2|0:0,0:0:0:0:
138,212,120375,1,0,0:0:0:0:
196,384,120508,5,6,1:2:0:0:
261,181,120642,2,0,B|277:135|277:135|257:87,1,99.0000030212403,2|8,0:0|0:0,0:0:0:0:
159,100,120908,1,2,0:0:0:0:
367,201,121042,2,0,L|467:181,1,99.0000030212403,2|0,1:2|0:0,0:0:0:0:
295,283,121308,2,0,L|195:263,1,99.0000030212403,10|0,0:0|0:0,0:0:0:0:
382,95,121575,5,6,1:2:0:0:
414,293,121708,1,2,1:2:0:0:
261,181,121842,1,0,1:2:0:0:
464,181,121975,1,2,1:2:0:0:
311,373,122108,5,6,1:2:0:0:
497,267,122242,1,0,1:2:0:0:
242,85,122375,1,0,1:2:0:0:
474,355,122508,1,0,1:2:0:0:
503,56,122642,6,0,L|509:-5,3,53.9999983520508,12|0|0|0,0:0|1:2|1:2|1:2,0:0:0:0:
430,115,122908,2,0,L|435:168,3,53.9999983520508,12|0|0|0,0:0|1:2|1:2|1:2,0:0:0:0:
366,47,123175,1,12,0:0:0:0:
331,26,123241,1,0,1:2:0:0:
291,27,123308,1,0,1:2:0:0:
258,49,123375,1,0,1:2:0:0:
242,85,123441,1,12,0:0:0:0:
216,120,123508,1,0,1:2:0:0:
170,137,123575,1,0,1:2:0:0:
118,117,123642,1,0,1:2:0:0:
101,61,123708,5,6,1:2:0:0:
252,96,123842,2,0,L|261:188,2,80.9999975280763,2|2|2,0:0|0:0|0:0,0:0:0:0:
181,21,124242,1,0,1:2:0:0:
122,201,124375,2,0,P|100:213|66:216,1,40.4999987640381,8|0,0:0|0:0,0:0:0:0:
34,117,124508,2,0,P|53:122|70:132,1,40.4999987640381,8|0,0:0|0:0,0:0:0:0:
0,233,124642,6,0,L|13:168,2,40.4999987640381,10|10|0,0:0|0:0|1:2,0:0:0:0:
99,287,124908,1,8,0:0:0:0:
96,275,124975,1,8,0:0:0:0:
94,263,125042,1,8,0:0:0:0:
92,251,125108,1,8,0:0:0:0:
89,239,125175,1,8,0:0:0:0:
87,227,125242,1,8,0:0:0:0:
85,216,125308,1,0,1:2:0:0:
59,356,125442,2,0,P|85:368|115:365,1,40.4999987640381,2|0,0:0|0:0,0:0:0:0:
170,331,125575,2,0,P|206:314|253:316,1,67.5,10|0,0:0|0:0,0:0:0:0:
320,270,125842,6,0,B|260:275|260:275|206:213,1,121.499996292114,2|0,1:2|0:0,0:0:0:0:
219,228,126108,2,0,B|279:223|279:223|333:285,1,121.499996292114,10|0,0:0|0:0,0:0:0:0:
333,353,126375,1,0,1:2:0:0:
402,298,126508,2,0,L|405:257,1,40.4999987640381,2|0,0:0|0:0,0:0:0:0:
308,148,126642,2,0,L|319:284,1,121.499996292114,10|0,0:0|0:0,0:0:0:0:
402,298,126908,6,0,B|462:303|462:303|516:241,1,121.499996292114,2|0,1:2|0:0,0:0:0:0:
491,174,127175,2,0,P|464:182|446:200,1,40.4999987640381,10|0,0:0|0:0,0:0:0:0:
417,112,127308,2,0,P|390:104|372:86,1,40.4999987640381,2|0,0:0|0:0,0:0:0:0:
497,85,127442,1,2,1:2:0:0:
304,132,127575,2,0,P|297:104|304:80,1,40.4999987640381,2|0,0:0|0:0,0:0:0:0:
363,189,127708,2,0,P|365:232|352:273,1,80.9999975280763,10|0,0:0|0:0,0:0:0:0:
317,384,127975,6,0,B|370:351|370:351|446:368,1,121.499996292114,6|0,1:2|0:0,0:0:0:0:
441,282,128242,1,8,0:0:0:0:
277,306,128376,2,0,L|237:299,1,40.4999987640381,10|10,0:0|0:0,0:0:0:0:
354,268,128509,1,0,1:2:0:0:
315,172,128642,1,0,1:2:0:0:
301,174,128708,1,0,1:2:0:0:
288,176,128776,2,0,L|274:249,1,40.4999987640381,10|0,0:0|0:0,0:0:0:0:
195,227,128908,2,0,L|187:187,1,40.4999987640381,10|0,0:0|0:0,0:0:0:0:
112,76,129042,6,0,P|70:77|35:104,1,80.9999975280763,6|8,1:2|0:0,0:0:0:0:
32,183,129242,1,8,0:0:0:0:
32,183,129309,2,0,L|41:223,3,40.4999987640381,8|8|8|8,0:0|0:0|0:0|0:0,0:0:0:0:
107,280,129576,1,0,1:2:0:0:
149,200,129708,2,0,P|171:189|212:193,1,40.4999987640381,2|0,0:0|0:0,0:0:0:0:
185,110,129842,2,0,P|233:121|262:152,1,80.9999975280763,10|0,0:0|0:0,0:0:0:0:
291,217,130108,6,0,B|327:201|335:161|335:161|362:191|404:183,1,148.50000453186,6|0,1:2|0:0,0:0:0:0:
385,194,130375,2,0,B|358:199|340:179|340:179|335:205|311:216,1,99.0000030212403,10|0,0:0|0:0,0:0:0:0:
208,313,130642,2,0,B|175:306|153:331|153:331|146:298|117:285,1,121.499996292114,6|0,1:2|0:0,0:0:0:0:
136,286,130908,2,0,B|154:293|158:316|158:316|173:299|196:303,1,80.9999975280763,10|0,0:0|0:0,0:0:0:0:
327,373,131175,5,6,1:2:0:0:
364,273,131308,2,0,P|374:290|390:302,1,40.4999987640381,10|0,0:0|0:0,0:0:0:0:
408,319,131442,2,0,P|428:318|446:310,1,40.4999987640381,10|0,0:0|0:0,0:0:0:0:
469,303,131575,2,0,P|478:285|481:265,1,40.4999987640381,10|0,0:0|0:0,0:0:0:0:
451,154,131708,1,4,1:2:0:0:
305,201,131842,6,0,P|286:208|266:209,1,40.4999987640381,8|0,0:0|0:0,0:0:0:0:
217,278,131975,2,0,P|201:265|190:248,1,40.4999987640381,8|0,0:0|0:0,0:0:0:0:
111,242,132108,2,0,P|113:222|122:203,1,40.4999987640381,8|0,0:0|0:0,0:0:0:0:
184,79,132242,6,0,L|204:194,2,80.9999975280763,6|2|10,1:2|0:0|0:0,0:0:0:0:
26,91,132642,2,0,P|62:115|116:110,1,80.9999975280763,2|0,0:0|1:2,0:0:0:0:
263,25,132908,2,0,P|295:2|335:0,1,80.9999975280763,2|8,0:0|0:0,0:0:0:0:
350,165,133175,6,0,P|345:124|337:80,1,80.9999975280763,2|4,0:0|1:2,0:0:0:0:
501,53,133442,2,0,P|506:94|514:138,1,80.9999975280763,2|8,0:0|0:0,0:0:0:0:
436,194,133708,2,0,P|427:113|413:34,1,161.999995056153,2|2,0:0|0:0,0:0:0:0:
256,124,134108,1,10,0:0:0:0:
373,253,134242,1,2,0:0:0:0:
328,78,134375,6,0,P|274:41|197:62,1,121.499996292114,6|0,1:2|0:0,0:0:0:0:
170,119,134642,2,0,P|133:135|93:129,1,80.9999975280763,10|0,0:0|0:0,0:0:0:0:
256,124,134908,1,6,1:2:0:0:
262,132,134975,1,2,0:0:0:0:
268,140,135042,2,0,L|253:248,1,80.9999975280763,2|8,0:0|0:0,0:0:0:0:
85,121,135308,6,0,L|73:40,1,80.9999975280763,2|4,0:0|1:2,0:0:0:0:
170,32,135575,1,2,1:2:0:0:
125,267,135708,1,4,1:2:0:0:
55,211,135842,1,2,1:2:0:0:
277,156,135975,1,4,1:2:0:0:
236,250,136108,1,2,1:2:0:0:
85,121,136242,1,4,1:2:0:0:
196,176,136375,1,2,1:2:0:0:
142,346,136508,5,12,0:0:0:0:
107,359,136574,1,0,1:2:0:0:
71,353,136641,1,0,1:2:0:0:
44,329,136707,1,0,1:2:0:0:
33,294,136775,2,0,L|48:223,1,49.5000015106202,12|0,0:0|1:2,0:0:0:0:
112,186,136908,2,0,L|97:115,1,49.5000015106202,0|0,1:2|1:2,0:0:0:0:
75,42,137042,2,0,P|45:51|24:68,3,49.5000015106202,12|0|0|0,0:0|1:2|1:2|1:2,0:0:0:0:
164,76,137308,2,0,P|184:89|208:95,3,49.5000015106202,12|0|0|0,0:0|1:2|1:2|1:2,0:0:0:0:
348,84,137575,5,12,0:0:0:0:
312,90,137641,1,0,1:2:0:0:
286,116,137708,1,0,1:2:0:0:
278,152,137774,1,0,1:2:0:0:
293,185,137842,2,0,L|356:177,3,49.5000015106202,12|0|0|0,0:0|1:2|1:2|1:2,0:0:0:0:
421,216,138108,5,12,0:0:0:0:
452,234,138174,1,0,1:2:0:0:
468,266,138241,1,0,1:2:0:0:
464,302,138307,1,0,1:2:0:0:
440,331,138374,1,12,0:0:0:0:
405,340,138441,1,0,1:2:0:0:
370,330,138507,1,0,1:2:0:0:
347,301,138574,1,0,1:2:0:0:
343,266,138641,5,12,0:0:0:0:
417,132,138775,2,0,P|457:112|506:117,2,72,2|2|2,0:0|0:0|0:0,0:0:0:0:
315,84,139175,2,0,L|296:-9,1,72,2|2,0:0|0:0,0:0:0:0:
249,169,139442,1,2,0:0:0:0:
170,119,139575,1,2,0:0:0:0:
170,119,139642,1,2,0:0:0:0:
170,119,139708,5,2,0:0:0:0:
76,147,139842,1,2,0:0:0:0:
177,28,139975,1,2,0:0:0:0:
116,248,140108,6,0,B|71:264|71:264|139:211|139:211|218:247,1,216,6|2,1:2|0:0,0:0:0:0:
