osu file format v14

[General]
AudioFilename: audio.mp3
AudioLeadIn: 0
PreviewTime: 51238
Countdown: 0
SampleSet: Soft
StackLeniency: 0.7
Mode: 3
LetterboxInBreaks: 0
SpecialStyle: 0
WidescreenStoryboard: 1

[Editor]
Bookmarks: 11851
DistanceSpacing: 3.3
BeatDivisor: 8
GridSize: 32
TimelineZoom: 1.8

[Metadata]
Title:Raindrop
TitleUnicode:Raindrop
Artist:seatrus
ArtistUnicode:seatrus
Creator:Tailsdk
Version:Rainfall
Source:
Tags:MWC 7K World Cup 2024 Round of 24 ro24 Chordstream EP Instrumental Electronic featured artist fa piano Asherz007 mappers' guild mg mpg
BeatmapID:4463300
BeatmapSetID:2119535

[Difficulty]
HPDrainRate:8
CircleSize:7
OverallDifficulty:8
ApproachRate:5
SliderMultiplier:1.4
SliderTickRate:1

[Events]
//Background and Video events
0,0,"Raindrop.jpg",0,0
//Break Periods
//Storyboard Layer 0 (Background)
//Storyboard Layer 1 (Fail)
//Storyboard Layer 2 (Pass)
//Storyboard Layer 3 (Foreground)
//Storyboard Layer 4 (Overlay)
//Storyboard Sound Samples

[TimingPoints]
1690,387.096774193548,4,2,1,30,1,0
26464,-100,4,2,1,20,0,0
38851,-100,4,2,1,30,0,0
51238,-100,4,2,1,30,0,1
76012,-100,4,2,1,30,0,0
88399,-100,4,2,1,25,0,0
94593,-100,4,2,1,30,0,0

[HitObjects]
182,192,1690,5,0,0:0:0:0:
36,192,1690,1,0,0:0:0:0:
475,192,1690,1,0,0:0:0:0:
402,192,1690,1,0,0:0:0:0:
256,192,1786,1,0,0:0:0:0:
109,192,1883,1,0,0:0:0:0:
329,192,1883,1,0,0:0:0:0:
475,192,1883,1,0,0:0:0:0:
256,192,1980,1,0,0:0:0:0:
36,192,1980,1,0,0:0:0:0:
402,192,1980,1,0,0:0:0:0:
475,192,2077,1,0,0:0:0:0:
182,192,2077,1,0,0:0:0:0:
329,192,2077,1,0,0:0:0:0:
256,192,2173,1,0,0:0:0:0:
109,192,2173,1,0,0:0:0:0:
36,192,2173,1,0,0:0:0:0:
402,192,2270,1,0,0:0:0:0:
256,192,2367,1,0,0:0:0:0:
36,192,2367,1,0,0:0:0:0:
475,192,2367,1,0,0:0:0:0:
329,192,2367,1,0,0:0:0:0:
182,192,2464,1,0,0:0:0:0:
109,192,2560,1,0,0:0:0:0:
329,192,2560,1,0,0:0:0:0:
475,192,2560,1,0,0:0:0:0:
36,192,2657,1,0,0:0:0:0:
256,192,2657,1,0,0:0:0:0:
402,192,2657,1,0,0:0:0:0:
182,192,2754,1,0,0:0:0:0:
329,192,2754,1,0,0:0:0:0:
109,192,2851,1,0,0:0:0:0:
36,192,2851,1,0,0:0:0:0:
256,192,2851,1,0,0:0:0:0:
329,192,2948,1,0,0:0:0:0:
182,192,2948,1,0,0:0:0:0:
475,192,2948,1,0,0:0:0:0:
256,192,3141,1,0,0:0:0:0:
109,192,3141,1,0,0:0:0:0:
402,192,3141,1,0,0:0:0:0:
36,192,3141,1,0,0:0:0:0:
182,192,3528,1,0,0:0:0:0:
36,192,3528,1,0,0:0:0:0:
402,192,3528,1,0,0:0:0:0:
109,192,3625,1,0,0:0:0:0:
256,192,3625,1,0,0:0:0:0:
475,192,3625,1,0,0:0:0:0:
182,192,3722,1,0,0:0:0:0:
329,192,3722,1,0,0:0:0:0:
36,192,3722,1,0,0:0:0:0:
402,192,3819,1,0,0:0:0:0:
475,192,3915,1,0,0:0:0:0:
256,192,3915,1,0,0:0:0:0:
109,192,3915,1,0,0:0:0:0:
36,192,3915,1,0,0:0:0:0:
109,192,4109,1,0,0:0:0:0:
256,192,4109,1,0,0:0:0:0:
475,192,4109,1,0,0:0:0:0:
182,192,4206,1,0,0:0:0:0:
329,192,4206,1,0,0:0:0:0:
402,192,4206,1,0,0:0:0:0:
256,192,4302,1,0,0:0:0:0:
36,192,4302,1,0,0:0:0:0:
109,192,4302,1,0,0:0:0:0:
402,192,4399,1,0,0:0:0:0:
475,192,4399,1,0,0:0:0:0:
182,192,4399,1,0,0:0:0:0:
329,192,4496,1,0,0:0:0:0:
109,192,4496,1,0,0:0:0:0:
256,192,4496,1,0,0:0:0:0:
182,192,4689,1,0,0:0:0:0:
36,192,4689,1,0,0:0:0:0:
402,192,4689,1,0,0:0:0:0:
475,192,4689,1,0,0:0:0:0:
256,192,4980,1,0,0:0:0:0:
329,192,5077,1,0,0:0:0:0:
109,192,5077,1,0,0:0:0:0:
475,192,5077,1,0,0:0:0:0:
182,192,5173,1,0,0:0:0:0:
402,192,5173,1,0,0:0:0:0:
36,192,5173,1,0,0:0:0:0:
329,192,5270,1,0,0:0:0:0:
256,192,5270,1,0,0:0:0:0:
475,192,5270,1,0,0:0:0:0:
182,192,5367,1,0,0:0:0:0:
475,192,5464,1,0,0:0:0:0:
109,192,5464,1,0,0:0:0:0:
256,192,5464,1,0,0:0:0:0:
36,192,5464,1,0,0:0:0:0:
329,192,5560,1,0,0:0:0:0:
182,192,5657,1,0,0:0:0:0:
36,192,5657,1,0,0:0:0:0:
402,192,5657,1,0,0:0:0:0:
256,192,5754,1,0,0:0:0:0:
109,192,5754,1,0,0:0:0:0:
475,192,5754,1,0,0:0:0:0:
329,192,5851,1,0,0:0:0:0:
182,192,5851,1,0,0:0:0:0:
36,192,5851,1,0,0:0:0:0:
109,192,6044,1,0,0:0:0:0:
475,192,6044,1,0,0:0:0:0:
329,192,6044,1,0,0:0:0:0:
36,192,6141,1,0,0:0:0:0:
402,192,6141,1,0,0:0:0:0:
256,192,6141,1,0,0:0:0:0:
329,192,6238,1,0,0:0:0:0:
182,192,6238,1,0,0:0:0:0:
109,192,6335,1,0,0:0:0:0:
256,192,6335,1,0,0:0:0:0:
475,192,6335,1,0,0:0:0:0:
402,192,6335,1,0,0:0:0:0:
329,192,6625,1,0,0:0:0:0:
182,192,6625,1,0,0:0:0:0:
109,192,6625,1,0,0:0:0:0:
36,192,6625,1,0,0:0:0:0:
256,192,6915,1,0,0:0:0:0:
402,192,6915,1,0,0:0:0:0:
475,192,6915,1,0,0:0:0:0:
109,192,6915,1,0,0:0:0:0:
36,192,7012,1,0,0:0:0:0:
329,192,7206,1,0,0:0:0:0:
402,192,7302,1,0,0:0:0:0:
475,192,7399,1,0,0:0:0:0:
256,192,7496,1,0,0:0:0:0:
182,192,7593,1,0,0:0:0:0:
402,192,7593,1,0,0:0:0:0:
36,192,7593,1,0,0:0:0:0:
109,192,7689,1,0,0:0:0:0:
256,192,7786,1,0,0:0:0:0:
329,192,7883,1,0,0:0:0:0:
475,192,7883,1,0,0:0:0:0:
109,192,7883,1,0,0:0:0:0:
36,192,7883,1,0,0:0:0:0:
182,192,7883,1,0,0:0:0:0:
182,192,8077,1,0,0:0:0:0:
329,192,8077,1,0,0:0:0:0:
256,192,8173,1,0,0:0:0:0:
402,192,8173,1,0,0:0:0:0:
329,192,8270,1,0,0:0:0:0:
182,192,8270,1,0,0:0:0:0:
36,192,8270,1,0,0:0:0:0:
475,192,8270,1,0,0:0:0:0:
109,192,8270,1,0,0:0:0:0:
402,192,8367,1,0,0:0:0:0:
256,192,8367,1,0,0:0:0:0:
329,192,8464,1,0,0:0:0:0:
182,192,8464,1,0,0:0:0:0:
109,192,8560,1,0,0:0:0:0:
256,192,8560,1,0,0:0:0:0:
182,192,8657,1,0,0:0:0:0:
36,192,8657,1,0,0:0:0:0:
402,192,8657,1,0,0:0:0:0:
475,192,8657,1,0,0:0:0:0:
256,192,8754,1,0,0:0:0:0:
329,192,8754,1,0,0:0:0:0:
109,192,8851,1,0,0:0:0:0:
36,192,8851,1,0,0:0:0:0:
402,192,8948,1,0,0:0:0:0:
475,192,8948,1,0,0:0:0:0:
329,192,9044,1,0,0:0:0:0:
256,192,9044,1,0,0:0:0:0:
182,192,9044,1,0,0:0:0:0:
109,192,9044,1,0,0:0:0:0:
36,192,9044,1,0,0:0:0:0:
402,192,9141,1,0,0:0:0:0:
475,192,9141,1,0,0:0:0:0:
182,192,9238,1,0,0:0:0:0:
109,192,9238,1,0,0:0:0:0:
256,192,9335,1,0,0:0:0:0:
329,192,9335,1,0,0:0:0:0:
402,192,9431,1,0,0:0:0:0:
475,192,9431,1,0,0:0:0:0:
182,192,9431,1,0,0:0:0:0:
36,192,9431,1,0,0:0:0:0:
109,192,9528,1,0,0:0:0:0:
402,192,9625,1,0,0:0:0:0:
182,192,9722,1,0,0:0:0:0:
329,192,9722,1,0,0:0:0:0:
256,192,9819,1,0,0:0:0:0:
402,192,9819,1,0,0:0:0:0:
475,192,9819,1,0,0:0:0:0:
36,192,9819,1,0,0:0:0:0:
109,192,9819,1,0,0:0:0:0:
182,192,9915,1,0,0:0:0:0:
329,192,9915,1,0,0:0:0:0:
109,192,10012,1,0,0:0:0:0:
256,192,10109,1,0,0:0:0:0:
475,192,10109,1,0,0:0:0:0:
329,192,10206,1,0,0:0:0:0:
402,192,10206,1,0,0:0:0:0:
182,192,10206,1,0,0:0:0:0:
36,192,10206,1,0,0:0:0:0:
109,192,10302,1,0,0:0:0:0:
402,192,10399,1,0,0:0:0:0:
256,192,10496,1,0,0:0:0:0:
109,192,10496,1,0,0:0:0:0:
36,192,10593,1,0,0:0:0:0:
402,192,10593,1,0,0:0:0:0:
475,192,10593,1,0,0:0:0:0:
182,192,10593,1,0,0:0:0:0:
329,192,10593,1,0,0:0:0:0:
256,192,10689,1,0,0:0:0:0:
329,192,10786,1,0,0:0:0:0:
109,192,10786,1,0,0:0:0:0:
36,192,10786,1,0,0:0:0:0:
402,192,10883,1,0,0:0:0:0:
475,192,10980,1,0,0:0:0:0:
256,192,10980,1,0,0:0:0:0:
182,192,10980,1,0,0:0:0:0:
109,192,10980,1,0,0:0:0:0:
36,192,10980,1,0,0:0:0:0:
329,192,11173,1,0,0:0:0:0:
256,192,11270,1,0,0:0:0:0:
109,192,11270,1,0,0:0:0:0:
36,192,11367,1,0,0:0:0:0:
182,192,11367,1,0,0:0:0:0:
329,192,11367,1,0,0:0:0:0:
402,192,11367,1,0,0:0:0:0:
475,192,11367,1,0,0:0:0:0:
109,192,11464,1,0,0:0:0:0:
256,192,11464,1,0,0:0:0:0:
329,192,11560,1,0,0:0:0:0:
182,192,11560,1,0,0:0:0:0:
256,192,11657,1,0,0:0:0:0:
402,192,11657,1,0,0:0:0:0:
109,192,11754,1,0,0:0:0:0:
36,192,11754,1,0,0:0:0:0:
475,192,11754,1,0,0:0:0:0:
329,192,11754,1,0,0:0:0:0:
182,192,11754,1,0,0:0:0:0:
256,192,11851,1,0,0:0:0:0:
402,192,11851,1,0,0:0:0:0:
182,192,11948,1,0,0:0:0:0:
36,192,11948,1,0,0:0:0:0:
402,192,12044,1,0,0:0:0:0:
329,192,12044,1,0,0:0:0:0:
256,192,12141,1,0,0:0:0:0:
182,192,12141,1,0,0:0:0:0:
36,192,12141,1,0,0:0:0:0:
109,192,12141,1,0,0:0:0:0:
475,192,12141,1,0,0:0:0:0:
329,192,12238,1,0,0:0:0:0:
402,192,12238,1,0,0:0:0:0:
36,192,12335,1,0,0:0:0:0:
109,192,12335,1,0,0:0:0:0:
475,192,12431,1,0,0:0:0:0:
329,192,12431,1,0,0:0:0:0:
109,192,12528,1,0,0:0:0:0:
182,192,12528,1,0,0:0:0:0:
256,192,12528,1,0,0:0:0:0:
402,192,12528,1,0,0:0:0:0:
36,192,12528,1,0,0:0:0:0:
475,192,12625,1,0,0:0:0:0:
329,192,12625,1,0,0:0:0:0:
109,192,12722,1,0,0:0:0:0:
256,192,12722,1,0,0:0:0:0:
182,192,12819,1,0,0:0:0:0:
36,192,12819,1,0,0:0:0:0:
329,192,12819,1,0,0:0:0:0:
402,192,12819,1,0,0:0:0:0:
475,192,12819,1,0,0:0:0:0:
109,192,12915,1,0,0:0:0:0:
256,192,12915,1,0,0:0:0:0:
329,192,13012,1,0,0:0:0:0:
475,192,13012,1,0,0:0:0:0:
402,192,13109,1,0,0:0:0:0:
256,192,13109,1,0,0:0:0:0:
109,192,13109,1,0,0:0:0:0:
36,192,13109,1,0,0:0:0:0:
329,192,13206,1,0,0:0:0:0:
475,192,13206,1,0,0:0:0:0:
182,192,13206,1,0,0:0:0:0:
256,192,13689,1,0,0:0:0:0:
109,192,14077,1,0,0:0:0:0:
36,192,14077,1,0,0:0:0:0:
329,192,14077,1,0,0:0:0:0:
475,192,14077,1,0,0:0:0:0:
182,192,14077,1,0,0:0:0:0:
256,192,14173,1,0,0:0:0:0:
402,192,14173,1,0,0:0:0:0:
182,192,14270,1,0,0:0:0:0:
36,192,14270,1,0,0:0:0:0:
329,192,14270,1,0,0:0:0:0:
109,192,14367,1,0,0:0:0:0:
256,192,14367,1,0,0:0:0:0:
329,192,14464,1,0,0:0:0:0:
475,192,14464,1,0,0:0:0:0:
36,192,14464,1,0,0:0:0:0:
402,192,14464,1,0,0:0:0:0:
182,192,14464,1,0,0:0:0:0:
256,192,14560,1,0,0:0:0:0:
109,192,14560,1,0,0:0:0:0:
329,192,14657,1,0,0:0:0:0:
402,192,14657,1,0,0:0:0:0:
36,192,14657,1,0,0:0:0:0:
475,192,14657,1,0,0:0:0:0:
182,192,14754,1,0,0:0:0:0:
256,192,14754,1,0,0:0:0:0:
475,192,14851,1,0,0:0:0:0:
109,192,14851,1,0,0:0:0:0:
36,192,14851,1,0,0:0:0:0:
329,192,14851,1,0,0:0:0:0:
402,192,14948,1,0,0:0:0:0:
256,192,14948,1,0,0:0:0:0:
329,192,15044,1,0,0:0:0:0:
182,192,15044,1,0,0:0:0:0:
475,192,15044,1,0,0:0:0:0:
256,192,15141,1,0,0:0:0:0:
109,192,15141,1,0,0:0:0:0:
475,192,15238,1,0,0:0:0:0:
182,192,15238,1,0,0:0:0:0:
402,192,15238,1,0,0:0:0:0:
36,192,15238,1,0,0:0:0:0:
329,192,15238,1,0,0:0:0:0:
109,192,15335,1,0,0:0:0:0:
256,192,15335,1,0,0:0:0:0:
182,192,15431,1,0,0:0:0:0:
475,192,15431,1,0,0:0:0:0:
402,192,15431,1,0,0:0:0:0:
329,192,15528,1,0,0:0:0:0:
256,192,15528,1,0,0:0:0:0:
182,192,15625,1,0,0:0:0:0:
402,192,15625,1,0,0:0:0:0:
36,192,15625,1,0,0:0:0:0:
109,192,15625,1,0,0:0:0:0:
329,192,15722,1,0,0:0:0:0:
475,192,15722,1,0,0:0:0:0:
109,192,15819,1,0,0:0:0:0:
402,192,15819,1,0,0:0:0:0:
256,192,15819,1,0,0:0:0:0:
329,192,15915,1,0,0:0:0:0:
182,192,15915,1,0,0:0:0:0:
402,192,16012,1,0,0:0:0:0:
256,192,16012,1,0,0:0:0:0:
109,192,16012,1,0,0:0:0:0:
36,192,16012,1,0,0:0:0:0:
475,192,16012,1,0,0:0:0:0:
329,192,16109,1,0,0:0:0:0:
182,192,16109,1,0,0:0:0:0:
109,192,16206,1,0,0:0:0:0:
475,192,16206,1,0,0:0:0:0:
402,192,16206,1,0,0:0:0:0:
36,192,16302,1,0,0:0:0:0:
256,192,16302,1,0,0:0:0:0:
329,192,16399,1,0,0:0:0:0:
402,192,16399,1,0,0:0:0:0:
182,192,16399,1,0,0:0:0:0:
475,192,16399,1,0,0:0:0:0:
256,192,16496,1,0,0:0:0:0:
109,192,16496,1,0,0:0:0:0:
36,192,16593,1,0,0:0:0:0:
182,192,16593,1,0,0:0:0:0:
475,192,16593,1,0,0:0:0:0:
256,192,16689,1,0,0:0:0:0:
329,192,16689,1,0,0:0:0:0:
182,192,16786,1,0,0:0:0:0:
402,192,16786,1,0,0:0:0:0:
109,192,16786,1,0,0:0:0:0:
475,192,16786,1,0,0:0:0:0:
36,192,16786,1,0,0:0:0:0:
256,192,16883,1,0,0:0:0:0:
329,192,16883,1,0,0:0:0:0:
402,192,16980,1,0,0:0:0:0:
36,192,16980,1,0,0:0:0:0:
182,192,16980,1,0,0:0:0:0:
109,192,17077,1,0,0:0:0:0:
256,192,17077,1,0,0:0:0:0:
182,192,17173,1,0,0:0:0:0:
329,192,17173,1,0,0:0:0:0:
475,192,17173,1,0,0:0:0:0:
36,192,17173,1,0,0:0:0:0:
256,192,17270,1,0,0:0:0:0:
402,192,17270,1,0,0:0:0:0:
329,192,17367,1,0,0:0:0:0:
475,192,17367,1,0,0:0:0:0:
109,192,17367,1,0,0:0:0:0:
182,192,17464,1,0,0:0:0:0:
256,192,17464,1,0,0:0:0:0:
109,192,17560,1,0,0:0:0:0:
36,192,17560,1,0,0:0:0:0:
329,192,17560,1,0,0:0:0:0:
402,192,17560,1,0,0:0:0:0:
475,192,17560,1,0,0:0:0:0:
256,192,17657,1,0,0:0:0:0:
182,192,17657,1,0,0:0:0:0:
402,192,17754,1,0,0:0:0:0:
475,192,17754,1,0,0:0:0:0:
329,192,17754,1,0,0:0:0:0:
182,192,17851,1,0,0:0:0:0:
109,192,17851,1,0,0:0:0:0:
256,192,17948,1,0,0:0:0:0:
402,192,17948,1,0,0:0:0:0:
36,192,17948,1,0,0:0:0:0:
475,192,17948,1,0,0:0:0:0:
329,192,18044,1,0,0:0:0:0:
182,192,18044,1,0,0:0:0:0:
109,192,18141,1,0,0:0:0:0:
256,192,18141,1,0,0:0:0:0:
475,192,18141,1,0,0:0:0:0:
182,192,18238,1,0,0:0:0:0:
36,192,18238,1,0,0:0:0:0:
256,192,18335,1,0,0:0:0:0:
329,192,18335,1,0,0:0:0:0:
402,192,18335,1,0,0:0:0:0:
475,192,18335,1,0,0:0:0:0:
109,192,18335,1,0,0:0:0:0:
182,192,18431,1,0,0:0:0:0:
36,192,18431,1,0,0:0:0:0:
256,192,18528,1,0,0:0:0:0:
329,192,18528,1,0,0:0:0:0:
402,192,18528,1,0,0:0:0:0:
36,192,18625,1,0,0:0:0:0:
109,192,18625,1,0,0:0:0:0:
182,192,18722,1,0,0:0:0:0:
256,192,18722,1,0,0:0:0:0:
329,192,18722,1,0,0:0:0:0:
475,192,18722,1,0,0:0:0:0:
402,192,18722,1,0,0:0:0:0:
36,192,18819,1,0,0:0:0:0:
109,192,18819,1,0,0:0:0:0:
329,192,18915,1,0,0:0:0:0:
475,192,18915,1,0,0:0:0:0:
256,192,19012,1,0,0:0:0:0:
36,192,19012,1,0,0:0:0:0:
402,192,19012,1,0,0:0:0:0:
182,192,19012,1,0,0:0:0:0:
109,192,19012,1,0,0:0:0:0:
329,192,19109,1,0,0:0:0:0:
475,192,19109,1,0,0:0:0:0:
182,192,19206,1,0,0:0:0:0:
36,192,19206,1,0,0:0:0:0:
256,192,19302,1,0,0:0:0:0:
329,192,19302,1,0,0:0:0:0:
109,192,19302,1,0,0:0:0:0:
402,192,19302,1,0,0:0:0:0:
475,192,19302,1,0,0:0:0:0:
182,192,19399,1,0,0:0:0:0:
36,192,19399,1,0,0:0:0:0:
402,192,19496,1,0,0:0:0:0:
475,192,19496,1,0,0:0:0:0:
329,192,19593,1,0,0:0:0:0:
256,192,19593,1,0,0:0:0:0:
182,192,19593,1,0,0:0:0:0:
109,192,19593,1,0,0:0:0:0:
36,192,19593,1,0,0:0:0:0:
402,192,19689,1,0,0:0:0:0:
475,192,19689,1,0,0:0:0:0:
36,192,19786,1,0,0:0:0:0:
256,192,19786,1,0,0:0:0:0:
109,192,19883,1,0,0:0:0:0:
329,192,19883,1,0,0:0:0:0:
256,192,19948,1,0,0:0:0:0:
182,192,20012,1,0,0:0:0:0:
109,192,20077,1,0,0:0:0:0:
475,192,20077,1,0,0:0:0:0:
256,192,20141,1,0,0:0:0:0:
329,192,20206,1,0,0:0:0:0:
109,192,20270,1,0,0:0:0:0:
36,192,20270,1,0,0:0:0:0:
182,192,20270,1,0,0:0:0:0:
402,192,20270,1,0,0:0:0:0:
475,192,20270,1,0,0:0:0:0:
256,192,20367,1,0,0:0:0:0:
329,192,20367,1,0,0:0:0:0:
182,192,20464,1,0,0:0:0:0:
402,192,20464,1,0,0:0:0:0:
475,192,20464,1,0,0:0:0:0:
109,192,20560,1,0,0:0:0:0:
36,192,20560,1,0,0:0:0:0:
329,192,20657,1,0,0:0:0:0:
182,192,20657,1,0,0:0:0:0:
256,192,20657,1,0,0:0:0:0:
402,192,20657,1,0,0:0:0:0:
475,192,20657,1,0,0:0:0:0:
109,192,20754,1,0,0:0:0:0:
36,192,20754,1,0,0:0:0:0:
256,192,20851,1,0,0:0:0:0:
402,192,20851,1,0,0:0:0:0:
475,192,20851,1,0,0:0:0:0:
329,192,20948,1,0,0:0:0:0:
182,192,20948,1,0,0:0:0:0:
109,192,21044,1,0,0:0:0:0:
256,192,21044,1,0,0:0:0:0:
402,192,21044,1,0,0:0:0:0:
475,192,21044,1,0,0:0:0:0:
182,192,21141,1,0,0:0:0:0:
36,192,21141,1,0,0:0:0:0:
256,192,21238,1,0,0:0:0:0:
402,192,21238,1,0,0:0:0:0:
475,192,21238,1,0,0:0:0:0:
109,192,21335,1,0,0:0:0:0:
329,192,21335,1,0,0:0:0:0:
402,192,21431,1,0,0:0:0:0:
182,192,21431,1,0,0:0:0:0:
475,192,21431,1,0,0:0:0:0:
36,192,21431,1,0,0:0:0:0:
256,192,21431,1,0,0:0:0:0:
329,192,21528,1,0,0:0:0:0:
109,192,21528,1,0,0:0:0:0:
182,192,21625,1,0,0:0:0:0:
402,192,21625,1,0,0:0:0:0:
36,192,21625,1,0,0:0:0:0:
256,192,21722,1,0,0:0:0:0:
475,192,21722,1,0,0:0:0:0:
329,192,21819,1,0,0:0:0:0:
182,192,21819,1,0,0:0:0:0:
109,192,21819,1,0,0:0:0:0:
36,192,21819,1,0,0:0:0:0:
402,192,21819,1,0,0:0:0:0:
256,192,21915,1,0,0:0:0:0:
475,192,21915,1,0,0:0:0:0:
182,192,22012,1,0,0:0:0:0:
36,192,22012,1,0,0:0:0:0:
109,192,22012,1,0,0:0:0:0:
402,192,22109,1,0,0:0:0:0:
475,192,22109,1,0,0:0:0:0:
329,192,22206,1,0,0:0:0:0:
256,192,22206,1,0,0:0:0:0:
182,192,22206,1,0,0:0:0:0:
36,192,22206,1,0,0:0:0:0:
109,192,22206,1,0,0:0:0:0:
402,192,22302,1,0,0:0:0:0:
475,192,22302,1,0,0:0:0:0:
36,192,22399,1,0,0:0:0:0:
256,192,22399,1,0,0:0:0:0:
109,192,22399,1,0,0:0:0:0:
182,192,22496,1,0,0:0:0:0:
329,192,22496,1,0,0:0:0:0:
256,192,22593,1,0,0:0:0:0:
402,192,22593,1,0,0:0:0:0:
475,192,22593,1,0,0:0:0:0:
109,192,22593,1,0,0:0:0:0:
36,192,22689,1,0,0:0:0:0:
182,192,22689,1,0,0:0:0:0:
256,192,22786,1,0,0:0:0:0:
402,192,22786,1,0,0:0:0:0:
475,192,22786,1,0,0:0:0:0:
329,192,22883,1,0,0:0:0:0:
182,192,22883,1,0,0:0:0:0:
109,192,22980,1,0,0:0:0:0:
256,192,22980,1,0,0:0:0:0:
402,192,22980,1,0,0:0:0:0:
475,192,22980,1,0,0:0:0:0:
36,192,22980,1,0,0:0:0:0:
329,192,23077,1,0,0:0:0:0:
182,192,23077,1,0,0:0:0:0:
402,192,23173,1,0,0:0:0:0:
475,192,23173,1,0,0:0:0:0:
36,192,23173,1,0,0:0:0:0:
256,192,23270,1,0,0:0:0:0:
182,192,23270,1,0,0:0:0:0:
329,192,23367,1,0,0:0:0:0:
402,192,23367,1,0,0:0:0:0:
475,192,23367,1,0,0:0:0:0:
109,192,23367,1,0,0:0:0:0:
36,192,23367,1,0,0:0:0:0:
256,192,23464,1,0,0:0:0:0:
182,192,23464,1,0,0:0:0:0:
329,192,23560,1,0,0:0:0:0:
475,192,23560,1,0,0:0:0:0:
109,192,23560,1,0,0:0:0:0:
256,192,23657,1,0,0:0:0:0:
402,192,23657,1,0,0:0:0:0:
182,192,23754,1,0,0:0:0:0:
329,192,23754,1,0,0:0:0:0:
36,192,23754,1,0,0:0:0:0:
109,192,23754,1,0,0:0:0:0:
475,192,23754,1,0,0:0:0:0:
256,192,23851,1,0,0:0:0:0:
402,192,23851,1,0,0:0:0:0:
182,192,23948,1,0,0:0:0:0:
36,192,23948,1,0,0:0:0:0:
329,192,23948,1,0,0:0:0:0:
109,192,24044,1,0,0:0:0:0:
256,192,24044,1,0,0:0:0:0:
182,192,24141,1,0,0:0:0:0:
329,192,24141,1,0,0:0:0:0:
402,192,24141,1,0,0:0:0:0:
475,192,24141,1,0,0:0:0:0:
36,192,24141,1,0,0:0:0:0:
256,192,24238,1,0,0:0:0:0:
109,192,24238,1,0,0:0:0:0:
402,192,24335,1,0,0:0:0:0:
475,192,24335,1,0,0:0:0:0:
329,192,24335,1,0,0:0:0:0:
182,192,24431,1,0,0:0:0:0:
109,192,24431,1,0,0:0:0:0:
256,192,24528,1,0,0:0:0:0:
329,192,24528,1,0,0:0:0:0:
402,192,24528,1,0,0:0:0:0:
475,192,24528,1,0,0:0:0:0:
36,192,24528,1,0,0:0:0:0:
182,192,24625,1,0,0:0:0:0:
109,192,24625,1,0,0:0:0:0:
256,192,24722,1,0,0:0:0:0:
475,192,24722,1,0,0:0:0:0:
36,192,24722,1,0,0:0:0:0:
182,192,24819,1,0,0:0:0:0:
402,192,24819,1,0,0:0:0:0:
256,192,24915,1,0,0:0:0:0:
329,192,24915,1,0,0:0:0:0:
475,192,24915,1,0,0:0:0:0:
109,192,24915,1,0,0:0:0:0:
36,192,24915,1,0,0:0:0:0:
329,192,25109,1,0,0:0:0:0:
182,192,25109,1,0,0:0:0:0:
256,192,25206,1,0,0:0:0:0:
109,192,25206,1,0,0:0:0:0:
402,192,25302,1,0,0:0:0:0:
329,192,25302,1,0,0:0:0:0:
182,192,25302,1,0,0:0:0:0:
475,192,25302,1,0,0:0:0:0:
36,192,25302,1,0,0:0:0:0:
256,192,25399,1,0,0:0:0:0:
109,192,25399,1,0,0:0:0:0:
182,192,25496,1,0,0:0:0:0:
329,192,25496,1,0,0:0:0:0:
475,192,25593,1,0,0:0:0:0:
109,192,25593,1,0,0:0:0:0:
36,192,25593,1,0,0:0:0:0:
256,192,25593,1,0,0:0:0:0:
402,192,25593,1,0,0:0:0:0:
256,192,26464,1,0,0:0:0:0:
182,192,26464,1,0,0:0:0:0:
109,192,26464,1,0,0:0:0:0:
36,192,26464,1,0,0:0:0:0:
402,192,26464,1,0,0:0:0:0:
329,192,26657,1,0,0:0:0:0:
475,192,26657,1,0,0:0:0:0:
256,192,26657,1,0,0:0:0:0:
182,192,26851,1,0,0:0:0:0:
109,192,26851,1,0,0:0:0:0:
329,192,26851,1,0,0:0:0:0:
402,192,27044,1,0,0:0:0:0:
182,192,27044,1,0,0:0:0:0:
36,192,27044,1,0,0:0:0:0:
256,192,28012,1,0,0:0:0:0:
329,192,28012,1,0,0:0:0:0:
475,192,28012,1,0,0:0:0:0:
36,192,28012,1,0,0:0:0:0:
109,192,28012,1,0,0:0:0:0:
182,192,28593,1,0,0:0:0:0:
402,192,28593,1,0,0:0:0:0:
475,192,28593,1,0,0:0:0:0:
109,192,28786,1,0,0:0:0:0:
329,192,28786,1,0,0:0:0:0:
402,192,28786,1,0,0:0:0:0:
36,192,28980,1,0,0:0:0:0:
256,192,28980,1,0,0:0:0:0:
475,192,28980,1,0,0:0:0:0:
329,192,29173,1,0,0:0:0:0:
402,192,29173,1,0,0:0:0:0:
182,192,29173,1,0,0:0:0:0:
109,192,29173,1,0,0:0:0:0:
256,192,29560,1,0,0:0:0:0:
402,192,29560,1,0,0:0:0:0:
475,192,29560,1,0,0:0:0:0:
109,192,29560,1,0,0:0:0:0:
36,192,29560,1,0,0:0:0:0:
329,192,30141,1,0,0:0:0:0:
402,192,30141,1,0,0:0:0:0:
182,192,30141,1,0,0:0:0:0:
256,192,30722,1,0,0:0:0:0:
329,192,30722,1,0,0:0:0:0:
109,192,30722,1,0,0:0:0:0:
182,192,31109,1,0,0:0:0:0:
36,192,31109,1,0,0:0:0:0:
402,192,31109,1,0,0:0:0:0:
475,192,31109,1,0,0:0:0:0:
329,192,31109,1,0,0:0:0:0:
256,192,32270,1,0,0:0:0:0:
36,192,32270,1,0,0:0:0:0:
109,192,32367,1,0,0:0:0:0:
329,192,32367,1,0,0:0:0:0:
182,192,32464,1,0,0:0:0:0:
402,192,32464,1,0,0:0:0:0:
475,192,32560,1,0,0:0:0:0:
256,192,32560,1,0,0:0:0:0:
329,192,32657,1,0,0:0:0:0:
182,192,32657,1,0,0:0:0:0:
36,192,32657,1,0,0:0:0:0:
109,192,32657,1,0,0:0:0:0:
402,192,32657,1,0,0:0:0:0:
256,192,32851,1,0,0:0:0:0:
402,192,32851,1,0,0:0:0:0:
475,192,32851,1,0,0:0:0:0:
182,192,33044,1,0,0:0:0:0:
329,192,33044,1,0,0:0:0:0:
402,192,33044,1,0,0:0:0:0:
329,192,33238,1,0,0:0:0:0:
256,192,33238,1,0,0:0:0:0:
109,192,33238,1,0,0:0:0:0:
36,192,33625,1,0,0:0:0:0:
182,192,33625,1,0,0:0:0:0:
329,192,33625,1,0,0:0:0:0:
109,192,33819,1,0,0:0:0:0:
256,192,33819,1,0,0:0:0:0:
402,192,33819,1,0,0:0:0:0:
329,192,34012,1,0,0:0:0:0:
182,192,34012,1,0,0:0:0:0:
475,192,34012,1,0,0:0:0:0:
402,192,34206,1,0,0:0:0:0:
256,192,34206,1,0,0:0:0:0:
182,192,34206,1,0,0:0:0:0:
109,192,34206,1,0,0:0:0:0:
36,192,34206,1,0,0:0:0:0:
182,192,34786,1,0,0:0:0:0:
329,192,34786,1,0,0:0:0:0:
402,192,34786,1,0,0:0:0:0:
109,192,34980,1,0,0:0:0:0:
256,192,34980,1,0,0:0:0:0:
329,192,34980,1,0,0:0:0:0:
182,192,35173,1,0,0:0:0:0:
36,192,35173,1,0,0:0:0:0:
402,192,35173,1,0,0:0:0:0:
329,192,35367,1,0,0:0:0:0:
475,192,35367,1,0,0:0:0:0:
256,192,35367,1,0,0:0:0:0:
182,192,35415,1,0,0:0:0:0:
109,192,35560,1,0,0:0:0:0:
402,192,35560,1,0,0:0:0:0:
256,192,35560,1,0,0:0:0:0:
182,192,35754,1,0,0:0:0:0:
36,192,35754,1,0,0:0:0:0:
329,192,35754,1,0,0:0:0:0:
402,192,35754,1,0,0:0:0:0:
475,192,35754,1,0,0:0:0:0:
109,192,36335,1,0,0:0:0:0:
36,192,36335,1,0,0:0:0:0:
329,192,36335,1,0,0:0:0:0:
256,192,36722,1,0,0:0:0:0:
182,192,36722,1,0,0:0:0:0:
475,192,36722,1,0,0:0:0:0:
402,192,36915,1,0,0:0:0:0:
182,192,36915,1,0,0:0:0:0:
109,192,36915,1,0,0:0:0:0:
109,192,37109,1,0,0:0:0:0:
36,192,37109,1,0,0:0:0:0:
329,192,37109,1,0,0:0:0:0:
256,192,37302,1,0,0:0:0:0:
182,192,37302,1,0,0:0:0:0:
402,192,37302,1,0,0:0:0:0:
475,192,37302,1,0,0:0:0:0:
36,192,37302,1,0,0:0:0:0:
329,192,37593,1,0,0:0:0:0:
109,192,37593,1,0,0:0:0:0:
402,192,37593,1,0,0:0:0:0:
402,192,37883,1,0,0:0:0:0:
475,192,37883,1,0,0:0:0:0:
182,192,37883,1,0,0:0:0:0:
329,192,38077,1,0,0:0:0:0:
256,192,38077,1,0,0:0:0:0:
109,192,38077,1,0,0:0:0:0:
36,192,38077,1,0,0:0:0:0:
475,192,38077,1,0,0:0:0:0:
402,192,38464,1,0,0:0:0:0:
182,192,38464,1,0,0:0:0:0:
109,192,38464,1,0,0:0:0:0:
256,192,38851,1,0,0:0:0:0:
109,192,38851,1,0,0:0:0:0:
36,192,38851,1,0,0:0:0:0:
402,192,38851,1,0,0:0:0:0:
475,192,38851,1,0,0:0:0:0:
182,192,39044,1,0,0:0:0:0:
402,192,39044,1,0,0:0:0:0:
256,192,39141,1,0,0:0:0:0:
329,192,39238,1,0,0:0:0:0:
109,192,39238,1,0,0:0:0:0:
256,192,39431,1,0,0:0:0:0:
36,192,39431,1,0,0:0:0:0:
475,192,39431,1,0,0:0:0:0:
182,192,39528,1,0,0:0:0:0:
109,192,39625,1,0,0:0:0:0:
402,192,39625,1,0,0:0:0:0:
256,192,39819,1,0,0:0:0:0:
475,192,39819,1,0,0:0:0:0:
329,192,39915,1,0,0:0:0:0:
402,192,40012,1,0,0:0:0:0:
109,192,40012,1,0,0:0:0:0:
36,192,40012,1,0,0:0:0:0:
256,192,40206,1,0,0:0:0:0:
329,192,40206,1,0,0:0:0:0:
475,192,40206,1,0,0:0:0:0:
182,192,40302,1,0,0:0:0:0:
109,192,40399,1,0,0:0:0:0:
402,192,40399,1,0,0:0:0:0:
36,192,40399,1,0,0:0:0:0:
329,192,40399,1,0,0:0:0:0:
475,192,40399,1,0,0:0:0:0:
256,192,40593,1,0,0:0:0:0:
475,192,40593,1,0,0:0:0:0:
329,192,40689,1,0,0:0:0:0:
36,192,40689,1,0,0:0:0:0:
109,192,40689,1,0,0:0:0:0:
402,192,40786,1,0,0:0:0:0:
182,192,40786,1,0,0:0:0:0:
329,192,40980,1,0,0:0:0:0:
475,192,40980,1,0,0:0:0:0:
109,192,40980,1,0,0:0:0:0:
256,192,41077,1,0,0:0:0:0:
182,192,41173,1,0,0:0:0:0:
36,192,41173,1,0,0:0:0:0:
402,192,41173,1,0,0:0:0:0:
256,192,41367,1,0,0:0:0:0:
475,192,41367,1,0,0:0:0:0:
329,192,41464,1,0,0:0:0:0:
402,192,41560,1,0,0:0:0:0:
182,192,41560,1,0,0:0:0:0:
36,192,41560,1,0,0:0:0:0:
109,192,41754,1,0,0:0:0:0:
329,192,41754,1,0,0:0:0:0:
256,192,41851,1,0,0:0:0:0:
182,192,41948,1,0,0:0:0:0:
36,192,41948,1,0,0:0:0:0:
402,192,41948,1,0,0:0:0:0:
475,192,41948,1,0,0:0:0:0:
109,192,41948,1,0,0:0:0:0:
256,192,42141,1,0,0:0:0:0:
475,192,42141,1,0,0:0:0:0:
329,192,42238,1,0,0:0:0:0:
402,192,42335,1,0,0:0:0:0:
182,192,42335,1,0,0:0:0:0:
256,192,42528,1,0,0:0:0:0:
36,192,42528,1,0,0:0:0:0:
475,192,42528,1,0,0:0:0:0:
182,192,42625,1,0,0:0:0:0:
109,192,42722,1,0,0:0:0:0:
329,192,42722,1,0,0:0:0:0:
256,192,42915,1,0,0:0:0:0:
475,192,42915,1,0,0:0:0:0:
329,192,43012,1,0,0:0:0:0:
402,192,43109,1,0,0:0:0:0:
109,192,43109,1,0,0:0:0:0:
329,192,43302,1,0,0:0:0:0:
36,192,43302,1,0,0:0:0:0:
256,192,43399,1,0,0:0:0:0:
182,192,43496,1,0,0:0:0:0:
402,192,43496,1,0,0:0:0:0:
475,192,43496,1,0,0:0:0:0:
109,192,43496,1,0,0:0:0:0:
36,192,43496,1,0,0:0:0:0:
256,192,43689,1,0,0:0:0:0:
475,192,43689,1,0,0:0:0:0:
329,192,43786,1,0,0:0:0:0:
402,192,43883,1,0,0:0:0:0:
182,192,43883,1,0,0:0:0:0:
256,192,44077,1,0,0:0:0:0:
36,192,44077,1,0,0:0:0:0:
475,192,44077,1,0,0:0:0:0:
182,192,44173,1,0,0:0:0:0:
109,192,44270,1,0,0:0:0:0:
329,192,44270,1,0,0:0:0:0:
402,192,44270,1,0,0:0:0:0:
256,192,44464,1,0,0:0:0:0:
182,192,44464,1,0,0:0:0:0:
36,192,44464,1,0,0:0:0:0:
329,192,44560,1,0,0:0:0:0:
402,192,44657,1,0,0:0:0:0:
109,192,44657,1,0,0:0:0:0:
475,192,44657,1,0,0:0:0:0:
329,192,44851,1,0,0:0:0:0:
256,192,44851,1,0,0:0:0:0:
36,192,44851,1,0,0:0:0:0:
182,192,44948,1,0,0:0:0:0:
109,192,45044,1,0,0:0:0:0:
329,192,45044,1,0,0:0:0:0:
402,192,45044,1,0,0:0:0:0:
475,192,45044,1,0,0:0:0:0:
36,192,45044,1,0,0:0:0:0:
256,192,45238,1,0,0:0:0:0:
475,192,45238,1,0,0:0:0:0:
329,192,45335,1,0,0:0:0:0:
109,192,45335,1,0,0:0:0:0:
36,192,45335,1,0,0:0:0:0:
402,192,45431,1,0,0:0:0:0:
182,192,45431,1,0,0:0:0:0:
256,192,45625,1,0,0:0:0:0:
475,192,45625,1,0,0:0:0:0:
329,192,45625,1,0,0:0:0:0:
182,192,45722,1,0,0:0:0:0:
109,192,45819,1,0,0:0:0:0:
402,192,45819,1,0,0:0:0:0:
36,192,45819,1,0,0:0:0:0:
475,192,46012,1,0,0:0:0:0:
182,192,46012,1,0,0:0:0:0:
256,192,46109,1,0,0:0:0:0:
329,192,46206,1,0,0:0:0:0:
36,192,46206,1,0,0:0:0:0:
182,192,46399,1,0,0:0:0:0:
402,192,46399,1,0,0:0:0:0:
109,192,46496,1,0,0:0:0:0:
329,192,46496,1,0,0:0:0:0:
36,192,46593,1,0,0:0:0:0:
182,192,46593,1,0,0:0:0:0:
256,192,46593,1,0,0:0:0:0:
402,192,46593,1,0,0:0:0:0:
475,192,46593,1,0,0:0:0:0:
329,192,46786,1,0,0:0:0:0:
109,192,46786,1,0,0:0:0:0:
182,192,46883,1,0,0:0:0:0:
402,192,46883,1,0,0:0:0:0:
475,192,46883,1,0,0:0:0:0:
256,192,46980,1,0,0:0:0:0:
36,192,46980,1,0,0:0:0:0:
182,192,47173,1,0,0:0:0:0:
329,192,47173,1,0,0:0:0:0:
402,192,47173,1,0,0:0:0:0:
109,192,47270,1,0,0:0:0:0:
36,192,47367,1,0,0:0:0:0:
256,192,47367,1,0,0:0:0:0:
329,192,47367,1,0,0:0:0:0:
256,192,47560,1,0,0:0:0:0:
109,192,47560,1,0,0:0:0:0:
329,192,47657,1,0,0:0:0:0:
402,192,47754,1,0,0:0:0:0:
182,192,47754,1,0,0:0:0:0:
36,192,47754,1,0,0:0:0:0:
256,192,47948,1,0,0:0:0:0:
475,192,47948,1,0,0:0:0:0:
182,192,48044,1,0,0:0:0:0:
109,192,48141,1,0,0:0:0:0:
329,192,48141,1,0,0:0:0:0:
36,192,48141,1,0,0:0:0:0:
402,192,48141,1,0,0:0:0:0:
475,192,48141,1,0,0:0:0:0:
256,192,48335,1,0,0:0:0:0:
36,192,48335,1,0,0:0:0:0:
329,192,48431,1,0,0:0:0:0:
402,192,48528,1,0,0:0:0:0:
182,192,48528,1,0,0:0:0:0:
109,192,48722,1,0,0:0:0:0:
475,192,48722,1,0,0:0:0:0:
329,192,48722,1,0,0:0:0:0:
256,192,48819,1,0,0:0:0:0:
182,192,48915,1,0,0:0:0:0:
402,192,48915,1,0,0:0:0:0:
36,192,48915,1,0,0:0:0:0:
109,192,48915,1,0,0:0:0:0:
475,192,48915,1,0,0:0:0:0:
329,192,49109,1,0,0:0:0:0:
36,192,49109,1,0,0:0:0:0:
402,192,49206,1,0,0:0:0:0:
256,192,49302,1,0,0:0:0:0:
182,192,49302,1,0,0:0:0:0:
475,192,49302,1,0,0:0:0:0:
256,192,49496,1,0,0:0:0:0:
36,192,49496,1,0,0:0:0:0:
182,192,49593,1,0,0:0:0:0:
109,192,49689,1,0,0:0:0:0:
329,192,49689,1,0,0:0:0:0:
402,192,49689,1,0,0:0:0:0:
475,192,49689,1,0,0:0:0:0:
36,192,49689,1,0,0:0:0:0:
256,192,49883,1,0,0:0:0:0:
475,192,49883,1,0,0:0:0:0:
329,192,49980,1,0,0:0:0:0:
402,192,50077,1,0,0:0:0:0:
109,192,50077,1,0,0:0:0:0:
36,192,50077,1,0,0:0:0:0:
475,192,50077,1,0,0:0:0:0:
182,192,50077,1,0,0:0:0:0:
329,192,50270,1,0,0:0:0:0:
109,192,50270,1,0,0:0:0:0:
256,192,50367,1,0,0:0:0:0:
182,192,50464,1,0,0:0:0:0:
36,192,50464,1,0,0:0:0:0:
402,192,50464,1,0,0:0:0:0:
475,192,50464,1,0,0:0:0:0:
109,192,50464,1,0,0:0:0:0:
475,192,50657,1,0,0:0:0:0:
329,192,50657,1,0,0:0:0:0:
256,192,50754,1,0,0:0:0:0:
402,192,50851,1,0,0:0:0:0:
475,192,50851,1,0,0:0:0:0:
36,192,50851,1,0,0:0:0:0:
182,192,50851,1,0,0:0:0:0:
329,192,50851,1,0,0:0:0:0:
109,192,50948,1,0,0:0:0:0:
256,192,50948,1,0,0:0:0:0:
182,192,51044,1,0,0:0:0:0:
329,192,51044,1,0,0:0:0:0:
256,192,51141,1,0,0:0:0:0:
402,192,51141,1,0,0:0:0:0:
329,192,51238,1,0,0:0:0:0:
475,192,51238,1,0,0:0:0:0:
182,192,51238,1,0,0:0:0:0:
109,192,51238,1,0,0:0:0:0:
36,192,51238,1,0,0:0:0:0:
256,192,51335,1,0,0:0:0:0:
182,192,51431,1,0,0:0:0:0:
36,192,51431,1,0,0:0:0:0:
402,192,51431,1,0,0:0:0:0:
109,192,51528,1,0,0:0:0:0:
256,192,51528,1,0,0:0:0:0:
402,192,51625,1,0,0:0:0:0:
329,192,51625,1,0,0:0:0:0:
475,192,51625,1,0,0:0:0:0:
182,192,51625,1,0,0:0:0:0:
36,192,51722,1,0,0:0:0:0:
109,192,51722,1,0,0:0:0:0:
475,192,51819,1,0,0:0:0:0:
256,192,51819,1,0,0:0:0:0:
402,192,51819,1,0,0:0:0:0:
329,192,51915,1,0,0:0:0:0:
182,192,51915,1,0,0:0:0:0:
256,192,52012,1,0,0:0:0:0:
109,192,52012,1,0,0:0:0:0:
36,192,52012,1,0,0:0:0:0:
475,192,52012,1,0,0:0:0:0:
329,192,52109,1,0,0:0:0:0:
402,192,52109,1,0,0:0:0:0:
109,192,52206,1,0,0:0:0:0:
182,192,52206,1,0,0:0:0:0:
36,192,52206,1,0,0:0:0:0:
256,192,52302,1,0,0:0:0:0:
329,192,52302,1,0,0:0:0:0:
402,192,52399,1,0,0:0:0:0:
109,192,52399,1,0,0:0:0:0:
36,192,52399,1,0,0:0:0:0:
475,192,52399,1,0,0:0:0:0:
329,192,52496,1,0,0:0:0:0:
182,192,52496,1,0,0:0:0:0:
256,192,52593,1,0,0:0:0:0:
36,192,52593,1,0,0:0:0:0:
402,192,52593,1,0,0:0:0:0:
182,192,52689,1,0,0:0:0:0:
329,192,52786,1,0,0:0:0:0:
402,192,52786,1,0,0:0:0:0:
109,192,52786,1,0,0:0:0:0:
475,192,52786,1,0,0:0:0:0:
182,192,52883,1,0,0:0:0:0:
256,192,52980,1,0,0:0:0:0:
402,192,52980,1,0,0:0:0:0:
475,192,52980,1,0,0:0:0:0:
329,192,53077,1,0,0:0:0:0:
182,192,53173,1,0,0:0:0:0:
109,192,53173,1,0,0:0:0:0:
36,192,53173,1,0,0:0:0:0:
402,192,53173,1,0,0:0:0:0:
256,192,53270,1,0,0:0:0:0:
475,192,53270,1,0,0:0:0:0:
109,192,53367,1,0,0:0:0:0:
36,192,53367,1,0,0:0:0:0:
329,192,53367,1,0,0:0:0:0:
256,192,53464,1,0,0:0:0:0:
402,192,53464,1,0,0:0:0:0:
182,192,53560,1,0,0:0:0:0:
475,192,53560,1,0,0:0:0:0:
109,192,53560,1,0,0:0:0:0:
36,192,53560,1,0,0:0:0:0:
329,192,53657,1,0,0:0:0:0:
256,192,53754,1,0,0:0:0:0:
109,192,53754,1,0,0:0:0:0:
36,192,53754,1,0,0:0:0:0:
182,192,53851,1,0,0:0:0:0:
329,192,53851,1,0,0:0:0:0:
256,192,53948,1,0,0:0:0:0:
402,192,53948,1,0,0:0:0:0:
109,192,53948,1,0,0:0:0:0:
36,192,53948,1,0,0:0:0:0:
475,192,54044,1,0,0:0:0:0:
256,192,54141,1,0,0:0:0:0:
329,192,54141,1,0,0:0:0:0:
182,192,54141,1,0,0:0:0:0:
36,192,54238,1,0,0:0:0:0:
109,192,54238,1,0,0:0:0:0:
256,192,54335,1,0,0:0:0:0:
475,192,54335,1,0,0:0:0:0:
402,192,54335,1,0,0:0:0:0:
329,192,54335,1,0,0:0:0:0:
182,192,54431,1,0,0:0:0:0:
109,192,54528,1,0,0:0:0:0:
329,192,54528,1,0,0:0:0:0:
402,192,54528,1,0,0:0:0:0:
36,192,54625,1,0,0:0:0:0:
256,192,54625,1,0,0:0:0:0:
182,192,54722,1,0,0:0:0:0:
329,192,54722,1,0,0:0:0:0:
402,192,54722,1,0,0:0:0:0:
475,192,54722,1,0,0:0:0:0:
109,192,54819,1,0,0:0:0:0:
36,192,54819,1,0,0:0:0:0:
256,192,54915,1,0,0:0:0:0:
402,192,54915,1,0,0:0:0:0:
475,192,54915,1,0,0:0:0:0:
182,192,55012,1,0,0:0:0:0:
36,192,55012,1,0,0:0:0:0:
402,192,55109,1,0,0:0:0:0:
475,192,55109,1,0,0:0:0:0:
256,192,55109,1,0,0:0:0:0:
109,192,55109,1,0,0:0:0:0:
329,192,55206,1,0,0:0:0:0:
256,192,55302,1,0,0:0:0:0:
36,192,55302,1,0,0:0:0:0:
109,192,55302,1,0,0:0:0:0:
182,192,55399,1,0,0:0:0:0:
402,192,55399,1,0,0:0:0:0:
329,192,55496,1,0,0:0:0:0:
109,192,55496,1,0,0:0:0:0:
36,192,55496,1,0,0:0:0:0:
475,192,55496,1,0,0:0:0:0:
256,192,55593,1,0,0:0:0:0:
182,192,55689,1,0,0:0:0:0:
329,192,55689,1,0,0:0:0:0:
402,192,55689,1,0,0:0:0:0:
109,192,55786,1,0,0:0:0:0:
329,192,55883,1,0,0:0:0:0:
36,192,55883,1,0,0:0:0:0:
256,192,55883,1,0,0:0:0:0:
475,192,55883,1,0,0:0:0:0:
182,192,55980,1,0,0:0:0:0:
109,192,56077,1,0,0:0:0:0:
329,192,56077,1,0,0:0:0:0:
402,192,56077,1,0,0:0:0:0:
475,192,56173,1,0,0:0:0:0:
182,192,56173,1,0,0:0:0:0:
256,192,56270,1,0,0:0:0:0:
329,192,56270,1,0,0:0:0:0:
109,192,56270,1,0,0:0:0:0:
36,192,56270,1,0,0:0:0:0:
402,192,56367,1,0,0:0:0:0:
475,192,56464,1,0,0:0:0:0:
182,192,56464,1,0,0:0:0:0:
109,192,56464,1,0,0:0:0:0:
256,192,56560,1,0,0:0:0:0:
329,192,56560,1,0,0:0:0:0:
36,192,56657,1,0,0:0:0:0:
402,192,56657,1,0,0:0:0:0:
109,192,56657,1,0,0:0:0:0:
475,192,56657,1,0,0:0:0:0:
182,192,56754,1,0,0:0:0:0:
329,192,56754,1,0,0:0:0:0:
109,192,56851,1,0,0:0:0:0:
36,192,56851,1,0,0:0:0:0:
256,192,56948,1,0,0:0:0:0:
402,192,56948,1,0,0:0:0:0:
182,192,57044,1,0,0:0:0:0:
329,192,57044,1,0,0:0:0:0:
36,192,57044,1,0,0:0:0:0:
475,192,57044,1,0,0:0:0:0:
109,192,57141,1,0,0:0:0:0:
256,192,57141,1,0,0:0:0:0:
36,192,57238,1,0,0:0:0:0:
182,192,57238,1,0,0:0:0:0:
329,192,57238,1,0,0:0:0:0:
256,192,57335,1,0,0:0:0:0:
402,192,57335,1,0,0:0:0:0:
329,192,57431,1,0,0:0:0:0:
475,192,57431,1,0,0:0:0:0:
109,192,57431,1,0,0:0:0:0:
36,192,57431,1,0,0:0:0:0:
182,192,57431,1,0,0:0:0:0:
256,192,57528,1,0,0:0:0:0:
182,192,57625,1,0,0:0:0:0:
36,192,57625,1,0,0:0:0:0:
402,192,57625,1,0,0:0:0:0:
329,192,57722,1,0,0:0:0:0:
109,192,57722,1,0,0:0:0:0:
256,192,57819,1,0,0:0:0:0:
402,192,57819,1,0,0:0:0:0:
475,192,57819,1,0,0:0:0:0:
182,192,57819,1,0,0:0:0:0:
109,192,57915,1,0,0:0:0:0:
36,192,57915,1,0,0:0:0:0:
402,192,58012,1,0,0:0:0:0:
475,192,58012,1,0,0:0:0:0:
256,192,58012,1,0,0:0:0:0:
329,192,58109,1,0,0:0:0:0:
182,192,58109,1,0,0:0:0:0:
109,192,58206,1,0,0:0:0:0:
256,192,58206,1,0,0:0:0:0:
36,192,58206,1,0,0:0:0:0:
475,192,58206,1,0,0:0:0:0:
329,192,58302,1,0,0:0:0:0:
402,192,58399,1,0,0:0:0:0:
182,192,58399,1,0,0:0:0:0:
36,192,58399,1,0,0:0:0:0:
256,192,58496,1,0,0:0:0:0:
109,192,58496,1,0,0:0:0:0:
182,192,58593,1,0,0:0:0:0:
329,192,58593,1,0,0:0:0:0:
402,192,58593,1,0,0:0:0:0:
475,192,58593,1,0,0:0:0:0:
109,192,58689,1,0,0:0:0:0:
36,192,58689,1,0,0:0:0:0:
256,192,58786,1,0,0:0:0:0:
475,192,58786,1,0,0:0:0:0:
402,192,58786,1,0,0:0:0:0:
36,192,58883,1,0,0:0:0:0:
109,192,58883,1,0,0:0:0:0:
329,192,58980,1,0,0:0:0:0:
402,192,58980,1,0,0:0:0:0:
182,192,58980,1,0,0:0:0:0:
475,192,58980,1,0,0:0:0:0:
256,192,58980,1,0,0:0:0:0:
36,192,59077,1,0,0:0:0:0:
109,192,59077,1,0,0:0:0:0:
329,192,59173,1,0,0:0:0:0:
475,192,59173,1,0,0:0:0:0:
256,192,59173,1,0,0:0:0:0:
402,192,59270,1,0,0:0:0:0:
182,192,59270,1,0,0:0:0:0:
256,192,59367,1,0,0:0:0:0:
109,192,59367,1,0,0:0:0:0:
36,192,59367,1,0,0:0:0:0:
329,192,59367,1,0,0:0:0:0:
182,192,59464,1,0,0:0:0:0:
475,192,59464,1,0,0:0:0:0:
402,192,59560,1,0,0:0:0:0:
109,192,59560,1,0,0:0:0:0:
329,192,59560,1,0,0:0:0:0:
256,192,59657,1,0,0:0:0:0:
36,192,59657,1,0,0:0:0:0:
182,192,59754,1,0,0:0:0:0:
329,192,59754,1,0,0:0:0:0:
402,192,59754,1,0,0:0:0:0:
475,192,59754,1,0,0:0:0:0:
109,192,59851,1,0,0:0:0:0:
256,192,59948,1,0,0:0:0:0:
402,192,59948,1,0,0:0:0:0:
36,192,59948,1,0,0:0:0:0:
182,192,60044,1,0,0:0:0:0:
329,192,60044,1,0,0:0:0:0:
109,192,60141,1,0,0:0:0:0:
256,192,60141,1,0,0:0:0:0:
402,192,60141,1,0,0:0:0:0:
475,192,60141,1,0,0:0:0:0:
36,192,60238,1,0,0:0:0:0:
109,192,60335,1,0,0:0:0:0:
475,192,60335,1,0,0:0:0:0:
329,192,60335,1,0,0:0:0:0:
182,192,60431,1,0,0:0:0:0:
402,192,60528,1,0,0:0:0:0:
329,192,60528,1,0,0:0:0:0:
475,192,60528,1,0,0:0:0:0:
36,192,60528,1,0,0:0:0:0:
256,192,60528,1,0,0:0:0:0:
109,192,60625,1,0,0:0:0:0:
182,192,60722,1,0,0:0:0:0:
402,192,60722,1,0,0:0:0:0:
256,192,60722,1,0,0:0:0:0:
109,192,60819,1,0,0:0:0:0:
36,192,60819,1,0,0:0:0:0:
256,192,60915,1,0,0:0:0:0:
329,192,60915,1,0,0:0:0:0:
475,192,60915,1,0,0:0:0:0:
402,192,60915,1,0,0:0:0:0:
182,192,61012,1,0,0:0:0:0:
36,192,61012,1,0,0:0:0:0:
109,192,61109,1,0,0:0:0:0:
256,192,61109,1,0,0:0:0:0:
402,192,61109,1,0,0:0:0:0:
475,192,61206,1,0,0:0:0:0:
329,192,61302,1,0,0:0:0:0:
182,192,61302,1,0,0:0:0:0:
36,192,61302,1,0,0:0:0:0:
109,192,61302,1,0,0:0:0:0:
256,192,61302,1,0,0:0:0:0:
402,192,61399,1,0,0:0:0:0:
475,192,61496,1,0,0:0:0:0:
256,192,61496,1,0,0:0:0:0:
36,192,61496,1,0,0:0:0:0:
182,192,61593,1,0,0:0:0:0:
402,192,61593,1,0,0:0:0:0:
109,192,61689,1,0,0:0:0:0:
475,192,61689,1,0,0:0:0:0:
36,192,61689,1,0,0:0:0:0:
329,192,61689,1,0,0:0:0:0:
182,192,61786,1,0,0:0:0:0:
256,192,61883,1,0,0:0:0:0:
475,192,61883,1,0,0:0:0:0:
402,192,61883,1,0,0:0:0:0:
182,192,61980,1,0,0:0:0:0:
329,192,61980,1,0,0:0:0:0:
256,192,62077,1,0,0:0:0:0:
36,192,62077,1,0,0:0:0:0:
402,192,62077,1,0,0:0:0:0:
475,192,62077,1,0,0:0:0:0:
109,192,62077,1,0,0:0:0:0:
182,192,62173,1,0,0:0:0:0:
329,192,62270,1,0,0:0:0:0:
36,192,62270,1,0,0:0:0:0:
402,192,62270,1,0,0:0:0:0:
256,192,62367,1,0,0:0:0:0:
182,192,62367,1,0,0:0:0:0:
109,192,62464,1,0,0:0:0:0:
36,192,62464,1,0,0:0:0:0:
329,192,62464,1,0,0:0:0:0:
402,192,62464,1,0,0:0:0:0:
475,192,62464,1,0,0:0:0:0:
256,192,62560,1,0,0:0:0:0:
182,192,62560,1,0,0:0:0:0:
329,192,62657,1,0,0:0:0:0:
109,192,62657,1,0,0:0:0:0:
475,192,62657,1,0,0:0:0:0:
402,192,62754,1,0,0:0:0:0:
182,192,62754,1,0,0:0:0:0:
256,192,62851,1,0,0:0:0:0:
329,192,62851,1,0,0:0:0:0:
109,192,62851,1,0,0:0:0:0:
36,192,62851,1,0,0:0:0:0:
475,192,62851,1,0,0:0:0:0:
402,192,62948,1,0,0:0:0:0:
329,192,63044,1,0,0:0:0:0:
109,192,63044,1,0,0:0:0:0:
36,192,63044,1,0,0:0:0:0:
256,192,63141,1,0,0:0:0:0:
402,192,63238,1,0,0:0:0:0:
475,192,63238,1,0,0:0:0:0:
182,192,63238,1,0,0:0:0:0:
36,192,63238,1,0,0:0:0:0:
329,192,63238,1,0,0:0:0:0:
109,192,63335,1,0,0:0:0:0:
256,192,63335,1,0,0:0:0:0:
182,192,63431,1,0,0:0:0:0:
329,192,63431,1,0,0:0:0:0:
402,192,63528,1,0,0:0:0:0:
256,192,63528,1,0,0:0:0:0:
475,192,63625,1,0,0:0:0:0:
329,192,63625,1,0,0:0:0:0:
182,192,63625,1,0,0:0:0:0:
109,192,63625,1,0,0:0:0:0:
36,192,63625,1,0,0:0:0:0:
256,192,63819,1,0,0:0:0:0:
182,192,63819,1,0,0:0:0:0:
402,192,63819,1,0,0:0:0:0:
109,192,63915,1,0,0:0:0:0:
329,192,63915,1,0,0:0:0:0:
36,192,64012,1,0,0:0:0:0:
256,192,64012,1,0,0:0:0:0:
402,192,64012,1,0,0:0:0:0:
475,192,64012,1,0,0:0:0:0:
182,192,64109,1,0,0:0:0:0:
109,192,64109,1,0,0:0:0:0:
329,192,64206,1,0,0:0:0:0:
475,192,64206,1,0,0:0:0:0:
402,192,64206,1,0,0:0:0:0:
256,192,64302,1,0,0:0:0:0:
109,192,64302,1,0,0:0:0:0:
182,192,64399,1,0,0:0:0:0:
36,192,64399,1,0,0:0:0:0:
402,192,64399,1,0,0:0:0:0:
475,192,64399,1,0,0:0:0:0:
256,192,64496,1,0,0:0:0:0:
109,192,64593,1,0,0:0:0:0:
36,192,64593,1,0,0:0:0:0:
329,192,64593,1,0,0:0:0:0:
402,192,64689,1,0,0:0:0:0:
475,192,64786,1,0,0:0:0:0:
256,192,64786,1,0,0:0:0:0:
182,192,64786,1,0,0:0:0:0:
36,192,64786,1,0,0:0:0:0:
329,192,64883,1,0,0:0:0:0:
402,192,64980,1,0,0:0:0:0:
182,192,64980,1,0,0:0:0:0:
109,192,64980,1,0,0:0:0:0:
256,192,65077,1,0,0:0:0:0:
329,192,65173,1,0,0:0:0:0:
109,192,65173,1,0,0:0:0:0:
36,192,65173,1,0,0:0:0:0:
475,192,65173,1,0,0:0:0:0:
182,192,65270,1,0,0:0:0:0:
256,192,65367,1,0,0:0:0:0:
402,192,65367,1,0,0:0:0:0:
36,192,65367,1,0,0:0:0:0:
329,192,65464,1,0,0:0:0:0:
256,192,65560,1,0,0:0:0:0:
475,192,65560,1,0,0:0:0:0:
402,192,65560,1,0,0:0:0:0:
36,192,65560,1,0,0:0:0:0:
109,192,65657,1,0,0:0:0:0:
329,192,65754,1,0,0:0:0:0:
182,192,65754,1,0,0:0:0:0:
475,192,65754,1,0,0:0:0:0:
256,192,65851,1,0,0:0:0:0:
402,192,65851,1,0,0:0:0:0:
182,192,65948,1,0,0:0:0:0:
329,192,65948,1,0,0:0:0:0:
36,192,65948,1,0,0:0:0:0:
109,192,65948,1,0,0:0:0:0:
475,192,66044,1,0,0:0:0:0:
182,192,66141,1,0,0:0:0:0:
36,192,66141,1,0,0:0:0:0:
256,192,66141,1,0,0:0:0:0:
329,192,66238,1,0,0:0:0:0:
402,192,66238,1,0,0:0:0:0:
475,192,66335,1,0,0:0:0:0:
256,192,66335,1,0,0:0:0:0:
109,192,66335,1,0,0:0:0:0:
36,192,66335,1,0,0:0:0:0:
182,192,66431,1,0,0:0:0:0:
329,192,66431,1,0,0:0:0:0:
256,192,66528,1,0,0:0:0:0:
402,192,66528,1,0,0:0:0:0:
36,192,66528,1,0,0:0:0:0:
109,192,66625,1,0,0:0:0:0:
182,192,66625,1,0,0:0:0:0:
256,192,66722,1,0,0:0:0:0:
329,192,66722,1,0,0:0:0:0:
402,192,66722,1,0,0:0:0:0:
475,192,66722,1,0,0:0:0:0:
109,192,66819,1,0,0:0:0:0:
256,192,66915,1,0,0:0:0:0:
402,192,66915,1,0,0:0:0:0:
182,192,67012,1,0,0:0:0:0:
329,192,67012,1,0,0:0:0:0:
109,192,67109,1,0,0:0:0:0:
256,192,67109,1,0,0:0:0:0:
36,192,67109,1,0,0:0:0:0:
475,192,67109,1,0,0:0:0:0:
329,192,67206,1,0,0:0:0:0:
402,192,67302,1,0,0:0:0:0:
182,192,67302,1,0,0:0:0:0:
36,192,67302,1,0,0:0:0:0:
256,192,67399,1,0,0:0:0:0:
329,192,67496,1,0,0:0:0:0:
109,192,67496,1,0,0:0:0:0:
475,192,67496,1,0,0:0:0:0:
402,192,67496,1,0,0:0:0:0:
256,192,67593,1,0,0:0:0:0:
182,192,67689,1,0,0:0:0:0:
36,192,67689,1,0,0:0:0:0:
402,192,67689,1,0,0:0:0:0:
329,192,67786,1,0,0:0:0:0:
109,192,67786,1,0,0:0:0:0:
256,192,67883,1,0,0:0:0:0:
402,192,67883,1,0,0:0:0:0:
475,192,67883,1,0,0:0:0:0:
36,192,67883,1,0,0:0:0:0:
182,192,67980,1,0,0:0:0:0:
109,192,68077,1,0,0:0:0:0:
329,192,68077,1,0,0:0:0:0:
475,192,68077,1,0,0:0:0:0:
182,192,68173,1,0,0:0:0:0:
402,192,68173,1,0,0:0:0:0:
256,192,68270,1,0,0:0:0:0:
36,192,68270,1,0,0:0:0:0:
109,192,68270,1,0,0:0:0:0:
475,192,68270,1,0,0:0:0:0:
329,192,68367,1,0,0:0:0:0:
402,192,68464,1,0,0:0:0:0:
182,192,68464,1,0,0:0:0:0:
256,192,68560,1,0,0:0:0:0:
475,192,68560,1,0,0:0:0:0:
329,192,68657,1,0,0:0:0:0:
36,192,68657,1,0,0:0:0:0:
182,192,68657,1,0,0:0:0:0:
109,192,68657,1,0,0:0:0:0:
402,192,68754,1,0,0:0:0:0:
256,192,68851,1,0,0:0:0:0:
36,192,68851,1,0,0:0:0:0:
475,192,68851,1,0,0:0:0:0:
182,192,68948,1,0,0:0:0:0:
402,192,68948,1,0,0:0:0:0:
329,192,69044,1,0,0:0:0:0:
109,192,69044,1,0,0:0:0:0:
36,192,69044,1,0,0:0:0:0:
475,192,69044,1,0,0:0:0:0:
256,192,69141,1,0,0:0:0:0:
182,192,69238,1,0,0:0:0:0:
109,192,69238,1,0,0:0:0:0:
329,192,69335,1,0,0:0:0:0:
402,192,69335,1,0,0:0:0:0:
256,192,69431,1,0,0:0:0:0:
182,192,69431,1,0,0:0:0:0:
109,192,69431,1,0,0:0:0:0:
36,192,69431,1,0,0:0:0:0:
329,192,69528,1,0,0:0:0:0:
475,192,69528,1,0,0:0:0:0:
256,192,69625,1,0,0:0:0:0:
402,192,69625,1,0,0:0:0:0:
36,192,69625,1,0,0:0:0:0:
182,192,69722,1,0,0:0:0:0:
329,192,69722,1,0,0:0:0:0:
109,192,69819,1,0,0:0:0:0:
256,192,69819,1,0,0:0:0:0:
475,192,69819,1,0,0:0:0:0:
36,192,69819,1,0,0:0:0:0:
402,192,69819,1,0,0:0:0:0:
329,192,69915,1,0,0:0:0:0:
402,192,70012,1,0,0:0:0:0:
182,192,70012,1,0,0:0:0:0:
36,192,70012,1,0,0:0:0:0:
256,192,70109,1,0,0:0:0:0:
109,192,70109,1,0,0:0:0:0:
329,192,70206,1,0,0:0:0:0:
182,192,70206,1,0,0:0:0:0:
402,192,70206,1,0,0:0:0:0:
475,192,70206,1,0,0:0:0:0:
109,192,70302,1,0,0:0:0:0:
36,192,70302,1,0,0:0:0:0:
256,192,70399,1,0,0:0:0:0:
329,192,70399,1,0,0:0:0:0:
475,192,70399,1,0,0:0:0:0:
182,192,70496,1,0,0:0:0:0:
402,192,70496,1,0,0:0:0:0:
329,192,70593,1,0,0:0:0:0:
109,192,70593,1,0,0:0:0:0:
36,192,70593,1,0,0:0:0:0:
475,192,70593,1,0,0:0:0:0:
256,192,70689,1,0,0:0:0:0:
36,192,70786,1,0,0:0:0:0:
475,192,70786,1,0,0:0:0:0:
182,192,70786,1,0,0:0:0:0:
256,192,70883,1,0,0:0:0:0:
402,192,70883,1,0,0:0:0:0:
109,192,70980,1,0,0:0:0:0:
36,192,70980,1,0,0:0:0:0:
329,192,70980,1,0,0:0:0:0:
182,192,70980,1,0,0:0:0:0:
402,192,71077,1,0,0:0:0:0:
475,192,71077,1,0,0:0:0:0:
256,192,71173,1,0,0:0:0:0:
36,192,71173,1,0,0:0:0:0:
109,192,71173,1,0,0:0:0:0:
329,192,71270,1,0,0:0:0:0:
182,192,71367,1,0,0:0:0:0:
109,192,71367,1,0,0:0:0:0:
36,192,71367,1,0,0:0:0:0:
475,192,71367,1,0,0:0:0:0:
402,192,71367,1,0,0:0:0:0:
256,192,71464,1,0,0:0:0:0:
329,192,71560,1,0,0:0:0:0:
402,192,71560,1,0,0:0:0:0:
182,192,71657,1,0,0:0:0:0:
36,192,71657,1,0,0:0:0:0:
256,192,71754,1,0,0:0:0:0:
402,192,71754,1,0,0:0:0:0:
475,192,71754,1,0,0:0:0:0:
329,192,71754,1,0,0:0:0:0:
109,192,71851,1,0,0:0:0:0:
36,192,71851,1,0,0:0:0:0:
182,192,71948,1,0,0:0:0:0:
402,192,71948,1,0,0:0:0:0:
475,192,71948,1,0,0:0:0:0:
109,192,72044,1,0,0:0:0:0:
329,192,72044,1,0,0:0:0:0:
256,192,72141,1,0,0:0:0:0:
36,192,72141,1,0,0:0:0:0:
402,192,72141,1,0,0:0:0:0:
475,192,72141,1,0,0:0:0:0:
182,192,72238,1,0,0:0:0:0:
329,192,72335,1,0,0:0:0:0:
109,192,72335,1,0,0:0:0:0:
475,192,72335,1,0,0:0:0:0:
256,192,72431,1,0,0:0:0:0:
182,192,72528,1,0,0:0:0:0:
36,192,72528,1,0,0:0:0:0:
402,192,72528,1,0,0:0:0:0:
109,192,72528,1,0,0:0:0:0:
329,192,72625,1,0,0:0:0:0:
256,192,72722,1,0,0:0:0:0:
182,192,72722,1,0,0:0:0:0:
36,192,72722,1,0,0:0:0:0:
329,192,72819,1,0,0:0:0:0:
475,192,72819,1,0,0:0:0:0:
402,192,72915,1,0,0:0:0:0:
256,192,72915,1,0,0:0:0:0:
182,192,72915,1,0,0:0:0:0:
36,192,72915,1,0,0:0:0:0:
109,192,72915,1,0,0:0:0:0:
475,192,73012,1,0,0:0:0:0:
329,192,73109,1,0,0:0:0:0:
182,192,73109,1,0,0:0:0:0:
109,192,73109,1,0,0:0:0:0:
256,192,73206,1,0,0:0:0:0:
402,192,73206,1,0,0:0:0:0:
329,192,73302,1,0,0:0:0:0:
475,192,73302,1,0,0:0:0:0:
109,192,73302,1,0,0:0:0:0:
36,192,73302,1,0,0:0:0:0:
182,192,73399,1,0,0:0:0:0:
256,192,73399,1,0,0:0:0:0:
36,192,73496,1,0,0:0:0:0:
475,192,73496,1,0,0:0:0:0:
402,192,73496,1,0,0:0:0:0:
109,192,73593,1,0,0:0:0:0:
256,192,73593,1,0,0:0:0:0:
182,192,73689,1,0,0:0:0:0:
402,192,73689,1,0,0:0:0:0:
475,192,73689,1,0,0:0:0:0:
36,192,73689,1,0,0:0:0:0:
329,192,73689,1,0,0:0:0:0:
256,192,73786,1,0,0:0:0:0:
109,192,73883,1,0,0:0:0:0:
36,192,73883,1,0,0:0:0:0:
329,192,73980,1,0,0:0:0:0:
182,192,73980,1,0,0:0:0:0:
402,192,74077,1,0,0:0:0:0:
475,192,74077,1,0,0:0:0:0:
256,192,74077,1,0,0:0:0:0:
36,192,74077,1,0,0:0:0:0:
182,192,74173,1,0,0:0:0:0:
109,192,74270,1,0,0:0:0:0:
329,192,74270,1,0,0:0:0:0:
402,192,74270,1,0,0:0:0:0:
36,192,74367,1,0,0:0:0:0:
256,192,74464,1,0,0:0:0:0:
182,192,74464,1,0,0:0:0:0:
329,192,74464,1,0,0:0:0:0:
402,192,74464,1,0,0:0:0:0:
475,192,74464,1,0,0:0:0:0:
109,192,74560,1,0,0:0:0:0:
36,192,74560,1,0,0:0:0:0:
256,192,74657,1,0,0:0:0:0:
329,192,74657,1,0,0:0:0:0:
182,192,74657,1,0,0:0:0:0:
402,192,74754,1,0,0:0:0:0:
475,192,74754,1,0,0:0:0:0:
256,192,74851,1,0,0:0:0:0:
182,192,74851,1,0,0:0:0:0:
109,192,74851,1,0,0:0:0:0:
36,192,74851,1,0,0:0:0:0:
329,192,74851,1,0,0:0:0:0:
402,192,74948,1,0,0:0:0:0:
475,192,74948,1,0,0:0:0:0:
329,192,75044,1,0,0:0:0:0:
182,192,75044,1,0,0:0:0:0:
36,192,75044,1,0,0:0:0:0:
109,192,75141,1,0,0:0:0:0:
256,192,75141,1,0,0:0:0:0:
329,192,75238,1,0,0:0:0:0:
402,192,75238,1,0,0:0:0:0:
475,192,75238,1,0,0:0:0:0:
182,192,75238,1,0,0:0:0:0:
36,192,75238,1,0,0:0:0:0:
109,192,75335,1,0,0:0:0:0:
256,192,75335,1,0,0:0:0:0:
329,192,75431,1,0,0:0:0:0:
475,192,75431,1,0,0:0:0:0:
182,192,75431,1,0,0:0:0:0:
256,192,75528,1,0,0:0:0:0:
402,192,75528,1,0,0:0:0:0:
182,192,75625,1,0,0:0:0:0:
329,192,75625,1,0,0:0:0:0:
36,192,75625,1,0,0:0:0:0:
109,192,75625,1,0,0:0:0:0:
475,192,75625,1,0,0:0:0:0:
256,192,75722,1,0,0:0:0:0:
402,192,75722,1,0,0:0:0:0:
109,192,75819,1,0,0:0:0:0:
36,192,75819,1,0,0:0:0:0:
182,192,75819,1,0,0:0:0:0:
329,192,75915,1,0,0:0:0:0:
182,192,76012,1,0,0:0:0:0:
256,192,76012,1,0,0:0:0:0:
475,192,76012,1,0,0:0:0:0:
402,192,76012,1,0,0:0:0:0:
36,192,76012,1,0,0:0:0:0:
109,192,76012,1,0,0:0:0:0:
329,192,76109,1,0,0:0:0:0:
182,192,76206,1,0,0:0:0:0:
256,192,76302,1,0,0:0:0:0:
329,192,76302,1,0,0:0:0:0:
475,192,76302,1,0,0:0:0:0:
402,192,76302,1,0,0:0:0:0:
109,192,76302,1,0,0:0:0:0:
36,192,76302,1,0,0:0:0:0:
182,192,76399,1,0,0:0:0:0:
256,192,76496,1,0,0:0:0:0:
402,192,76496,1,0,0:0:0:0:
36,192,76496,1,0,0:0:0:0:
329,192,76593,1,0,0:0:0:0:
109,192,76593,1,0,0:0:0:0:
475,192,76593,1,0,0:0:0:0:
182,192,76689,1,0,0:0:0:0:
402,192,76689,1,0,0:0:0:0:
36,192,76689,1,0,0:0:0:0:
256,192,76786,1,0,0:0:0:0:
475,192,76786,1,0,0:0:0:0:
109,192,76786,1,0,0:0:0:0:
329,192,76883,1,0,0:0:0:0:
256,192,76980,1,0,0:0:0:0:
182,192,76980,1,0,0:0:0:0:
109,192,76980,1,0,0:0:0:0:
36,192,76980,1,0,0:0:0:0:
402,192,76980,1,0,0:0:0:0:
475,192,76980,1,0,0:0:0:0:
329,192,77077,1,0,0:0:0:0:
182,192,77173,1,0,0:0:0:0:
256,192,77270,1,0,0:0:0:0:
109,192,77270,1,0,0:0:0:0:
36,192,77270,1,0,0:0:0:0:
329,192,77270,1,0,0:0:0:0:
402,192,77270,1,0,0:0:0:0:
475,192,77270,1,0,0:0:0:0:
182,192,77367,1,0,0:0:0:0:
402,192,77464,1,0,0:0:0:0:
329,192,77560,1,0,0:0:0:0:
256,192,77560,1,0,0:0:0:0:
182,192,77560,1,0,0:0:0:0:
36,192,77560,1,0,0:0:0:0:
109,192,77560,1,0,0:0:0:0:
475,192,77560,1,0,0:0:0:0:
402,192,77657,1,0,0:0:0:0:
36,192,77754,1,0,0:0:0:0:
182,192,77754,1,0,0:0:0:0:
329,192,77754,1,0,0:0:0:0:
256,192,77851,1,0,0:0:0:0:
109,192,77851,1,0,0:0:0:0:
402,192,77851,1,0,0:0:0:0:
182,192,77948,1,0,0:0:0:0:
329,192,77948,1,0,0:0:0:0:
475,192,77948,1,0,0:0:0:0:
109,192,78044,1,0,0:0:0:0:
182,192,78141,1,0,0:0:0:0:
36,192,78141,1,0,0:0:0:0:
329,192,78141,1,0,0:0:0:0:
256,192,78141,1,0,0:0:0:0:
402,192,78141,1,0,0:0:0:0:
475,192,78141,1,0,0:0:0:0:
109,192,78238,1,0,0:0:0:0:
329,192,78335,1,0,0:0:0:0:
182,192,78335,1,0,0:0:0:0:
256,192,78335,1,0,0:0:0:0:
402,192,78431,1,0,0:0:0:0:
256,192,78528,1,0,0:0:0:0:
475,192,78528,1,0,0:0:0:0:
329,192,78528,1,0,0:0:0:0:
182,192,78528,1,0,0:0:0:0:
109,192,78528,1,0,0:0:0:0:
36,192,78528,1,0,0:0:0:0:
402,192,78625,1,0,0:0:0:0:
182,192,78722,1,0,0:0:0:0:
36,192,78819,1,0,0:0:0:0:
256,192,78819,1,0,0:0:0:0:
329,192,78819,1,0,0:0:0:0:
402,192,78819,1,0,0:0:0:0:
475,192,78819,1,0,0:0:0:0:
109,192,78819,1,0,0:0:0:0:
182,192,78915,1,0,0:0:0:0:
329,192,79012,1,0,0:0:0:0:
256,192,79109,1,0,0:0:0:0:
109,192,79109,1,0,0:0:0:0:
182,192,79109,1,0,0:0:0:0:
36,192,79109,1,0,0:0:0:0:
402,192,79109,1,0,0:0:0:0:
475,192,79109,1,0,0:0:0:0:
329,192,79206,1,0,0:0:0:0:
36,192,79302,1,0,0:0:0:0:
109,192,79399,1,0,0:0:0:0:
182,192,79399,1,0,0:0:0:0:
256,192,79399,1,0,0:0:0:0:
329,192,79399,1,0,0:0:0:0:
402,192,79399,1,0,0:0:0:0:
475,192,79399,1,0,0:0:0:0:
36,192,79496,1,0,0:0:0:0:
182,192,79593,1,0,0:0:0:0:
329,192,79593,1,0,0:0:0:0:
475,192,79593,1,0,0:0:0:0:
402,192,79689,1,0,0:0:0:0:
256,192,79689,1,0,0:0:0:0:
109,192,79689,1,0,0:0:0:0:
36,192,79786,1,0,0:0:0:0:
182,192,79786,1,0,0:0:0:0:
329,192,79786,1,0,0:0:0:0:
402,192,79883,1,0,0:0:0:0:
329,192,79980,1,0,0:0:0:0:
256,192,79980,1,0,0:0:0:0:
109,192,79980,1,0,0:0:0:0:
182,192,79980,1,0,0:0:0:0:
36,192,79980,1,0,0:0:0:0:
475,192,79980,1,0,0:0:0:0:
402,192,80077,1,0,0:0:0:0:
182,192,80173,1,0,0:0:0:0:
109,192,80173,1,0,0:0:0:0:
36,192,80173,1,0,0:0:0:0:
256,192,80270,1,0,0:0:0:0:
182,192,80367,1,0,0:0:0:0:
109,192,80367,1,0,0:0:0:0:
36,192,80367,1,0,0:0:0:0:
329,192,80367,1,0,0:0:0:0:
402,192,80367,1,0,0:0:0:0:
475,192,80367,1,0,0:0:0:0:
256,192,80464,1,0,0:0:0:0:
109,192,80560,1,0,0:0:0:0:
182,192,80657,1,0,0:0:0:0:
36,192,80657,1,0,0:0:0:0:
256,192,80657,1,0,0:0:0:0:
329,192,80657,1,0,0:0:0:0:
402,192,80657,1,0,0:0:0:0:
475,192,80657,1,0,0:0:0:0:
109,192,80754,1,0,0:0:0:0:
329,192,80851,1,0,0:0:0:0:
256,192,80948,1,0,0:0:0:0:
182,192,80948,1,0,0:0:0:0:
36,192,80948,1,0,0:0:0:0:
109,192,80948,1,0,0:0:0:0:
402,192,80948,1,0,0:0:0:0:
475,192,80948,1,0,0:0:0:0:
329,192,81044,1,0,0:0:0:0:
182,192,81141,1,0,0:0:0:0:
109,192,81238,1,0,0:0:0:0:
36,192,81238,1,0,0:0:0:0:
256,192,81238,1,0,0:0:0:0:
329,192,81238,1,0,0:0:0:0:
402,192,81238,1,0,0:0:0:0:
475,192,81238,1,0,0:0:0:0:
182,192,81335,1,0,0:0:0:0:
475,192,81431,1,0,0:0:0:0:
402,192,81528,1,0,0:0:0:0:
329,192,81528,1,0,0:0:0:0:
256,192,81528,1,0,0:0:0:0:
182,192,81528,1,0,0:0:0:0:
109,192,81528,1,0,0:0:0:0:
36,192,81528,1,0,0:0:0:0:
475,192,81625,1,0,0:0:0:0:
36,192,81722,1,0,0:0:0:0:
109,192,81819,1,0,0:0:0:0:
182,192,81819,1,0,0:0:0:0:
256,192,81819,1,0,0:0:0:0:
329,192,81819,1,0,0:0:0:0:
475,192,81819,1,0,0:0:0:0:
402,192,81819,1,0,0:0:0:0:
36,192,81915,1,0,0:0:0:0:
182,192,82012,1,0,0:0:0:0:
329,192,82012,1,0,0:0:0:0:
475,192,82012,1,0,0:0:0:0:
256,192,82109,1,0,0:0:0:0:
182,192,82206,1,0,0:0:0:0:
329,192,82206,1,0,0:0:0:0:
402,192,82206,1,0,0:0:0:0:
475,192,82206,1,0,0:0:0:0:
109,192,82206,1,0,0:0:0:0:
36,192,82206,1,0,0:0:0:0:
256,192,82302,1,0,0:0:0:0:
402,192,82399,1,0,0:0:0:0:
329,192,82496,1,0,0:0:0:0:
256,192,82496,1,0,0:0:0:0:
182,192,82496,1,0,0:0:0:0:
109,192,82496,1,0,0:0:0:0:
36,192,82496,1,0,0:0:0:0:
475,192,82496,1,0,0:0:0:0:
402,192,82593,1,0,0:0:0:0:
36,192,82689,1,0,0:0:0:0:
109,192,82689,1,0,0:0:0:0:
256,192,82689,1,0,0:0:0:0:
182,192,82786,1,0,0:0:0:0:
329,192,82786,1,0,0:0:0:0:
402,192,82786,1,0,0:0:0:0:
109,192,82883,1,0,0:0:0:0:
36,192,82980,1,0,0:0:0:0:
182,192,82980,1,0,0:0:0:0:
256,192,82980,1,0,0:0:0:0:
329,192,82980,1,0,0:0:0:0:
402,192,82980,1,0,0:0:0:0:
475,192,82980,1,0,0:0:0:0:
109,192,83077,1,0,0:0:0:0:
329,192,83173,1,0,0:0:0:0:
256,192,83270,1,0,0:0:0:0:
182,192,83270,1,0,0:0:0:0:
109,192,83270,1,0,0:0:0:0:
36,192,83270,1,0,0:0:0:0:
402,192,83270,1,0,0:0:0:0:
475,192,83270,1,0,0:0:0:0:
329,192,83367,1,0,0:0:0:0:
182,192,83464,1,0,0:0:0:0:
36,192,83464,1,0,0:0:0:0:
402,192,83464,1,0,0:0:0:0:
109,192,83560,1,0,0:0:0:0:
256,192,83560,1,0,0:0:0:0:
475,192,83560,1,0,0:0:0:0:
182,192,83657,1,0,0:0:0:0:
36,192,83754,1,0,0:0:0:0:
256,192,83754,1,0,0:0:0:0:
329,192,83754,1,0,0:0:0:0:
402,192,83754,1,0,0:0:0:0:
475,192,83754,1,0,0:0:0:0:
109,192,83754,1,0,0:0:0:0:
182,192,83851,1,0,0:0:0:0:
402,192,83948,1,0,0:0:0:0:
329,192,84044,1,0,0:0:0:0:
256,192,84044,1,0,0:0:0:0:
182,192,84044,1,0,0:0:0:0:
109,192,84044,1,0,0:0:0:0:
36,192,84044,1,0,0:0:0:0:
475,192,84044,1,0,0:0:0:0:
402,192,84141,1,0,0:0:0:0:
256,192,84238,1,0,0:0:0:0:
109,192,84238,1,0,0:0:0:0:
36,192,84238,1,0,0:0:0:0:
182,192,84335,1,0,0:0:0:0:
329,192,84335,1,0,0:0:0:0:
402,192,84335,1,0,0:0:0:0:
109,192,84431,1,0,0:0:0:0:
182,192,84528,1,0,0:0:0:0:
256,192,84528,1,0,0:0:0:0:
36,192,84528,1,0,0:0:0:0:
329,192,84528,1,0,0:0:0:0:
475,192,84528,1,0,0:0:0:0:
402,192,84528,1,0,0:0:0:0:
109,192,84625,1,0,0:0:0:0:
256,192,84722,1,0,0:0:0:0:
329,192,84819,1,0,0:0:0:0:
182,192,84819,1,0,0:0:0:0:
109,192,84819,1,0,0:0:0:0:
36,192,84819,1,0,0:0:0:0:
402,192,84819,1,0,0:0:0:0:
475,192,84819,1,0,0:0:0:0:
256,192,84915,1,0,0:0:0:0:
329,192,85012,1,0,0:0:0:0:
182,192,85012,1,0,0:0:0:0:
109,192,85012,1,0,0:0:0:0:
36,192,85012,1,0,0:0:0:0:
402,192,85012,1,0,0:0:0:0:
475,192,85012,1,0,0:0:0:0:
256,192,85109,1,0,0:0:0:0:
402,192,85206,1,0,0:0:0:0:
329,192,85302,1,0,0:0:0:0:
256,192,85302,1,0,0:0:0:0:
109,192,85302,1,0,0:0:0:0:
182,192,85302,1,0,0:0:0:0:
36,192,85302,1,0,0:0:0:0:
475,192,85302,1,0,0:0:0:0:
402,192,85399,1,0,0:0:0:0:
182,192,85496,1,0,0:0:0:0:
109,192,85593,1,0,0:0:0:0:
36,192,85593,1,0,0:0:0:0:
256,192,85593,1,0,0:0:0:0:
402,192,85593,1,0,0:0:0:0:
329,192,85593,1,0,0:0:0:0:
475,192,85593,1,0,0:0:0:0:
182,192,85689,1,0,0:0:0:0:
329,192,85786,1,0,0:0:0:0:
256,192,85883,1,0,0:0:0:0:
182,192,85883,1,0,0:0:0:0:
109,192,85883,1,0,0:0:0:0:
36,192,85883,1,0,0:0:0:0:
402,192,85883,1,0,0:0:0:0:
475,192,85883,1,0,0:0:0:0:
329,192,85980,1,0,0:0:0:0:
475,192,86077,1,0,0:0:0:0:
402,192,86077,1,0,0:0:0:0:
182,192,86077,1,0,0:0:0:0:
109,192,86173,1,0,0:0:0:0:
36,192,86270,1,0,0:0:0:0:
329,192,86270,1,0,0:0:0:0:
402,192,86270,1,0,0:0:0:0:
256,192,86270,1,0,0:0:0:0:
182,192,86270,1,0,0:0:0:0:
475,192,86270,1,0,0:0:0:0:
109,192,86367,1,0,0:0:0:0:
329,192,86464,1,0,0:0:0:0:
402,192,86560,1,0,0:0:0:0:
475,192,86560,1,0,0:0:0:0:
256,192,86560,1,0,0:0:0:0:
182,192,86560,1,0,0:0:0:0:
109,192,86560,1,0,0:0:0:0:
36,192,86560,1,0,0:0:0:0:
329,192,86657,1,0,0:0:0:0:
182,192,86754,1,0,0:0:0:0:
256,192,86851,1,0,0:0:0:0:
109,192,86851,1,0,0:0:0:0:
36,192,86851,1,0,0:0:0:0:
329,192,86851,1,0,0:0:0:0:
475,192,86851,1,0,0:0:0:0:
402,192,86851,1,0,0:0:0:0:
182,192,86948,1,0,0:0:0:0:
402,192,87044,1,0,0:0:0:0:
329,192,87141,1,0,0:0:0:0:
256,192,87141,1,0,0:0:0:0:
182,192,87141,1,0,0:0:0:0:
109,192,87141,1,0,0:0:0:0:
36,192,87141,1,0,0:0:0:0:
475,192,87141,1,0,0:0:0:0:
402,192,87238,1,0,0:0:0:0:
256,192,87335,1,0,0:0:0:0:
109,192,87431,1,0,0:0:0:0:
182,192,87431,1,0,0:0:0:0:
36,192,87431,1,0,0:0:0:0:
329,192,87431,1,0,0:0:0:0:
402,192,87431,1,0,0:0:0:0:
475,192,87431,1,0,0:0:0:0:
256,192,87528,1,0,0:0:0:0:
182,192,87625,1,0,0:0:0:0:
109,192,87625,1,0,0:0:0:0:
36,192,87625,1,0,0:0:0:0:
329,192,87625,1,0,0:0:0:0:
402,192,87625,1,0,0:0:0:0:
475,192,87625,1,0,0:0:0:0:
256,192,87722,1,0,0:0:0:0:
36,192,87819,1,0,0:0:0:0:
109,192,87915,1,0,0:0:0:0:
182,192,87915,1,0,0:0:0:0:
256,192,87915,1,0,0:0:0:0:
329,192,87915,1,0,0:0:0:0:
402,192,87915,1,0,0:0:0:0:
475,192,87915,1,0,0:0:0:0:
36,192,88012,1,0,0:0:0:0:
475,192,88109,1,0,0:0:0:0:
402,192,88206,1,0,0:0:0:0:
329,192,88206,1,0,0:0:0:0:
182,192,88206,1,0,0:0:0:0:
256,192,88206,1,0,0:0:0:0:
109,192,88206,1,0,0:0:0:0:
36,192,88206,1,0,0:0:0:0:
475,192,88399,1,0,0:0:0:0:
402,192,88399,1,0,0:0:0:0:
329,192,88399,1,0,0:0:0:0:
256,192,88399,1,0,0:0:0:0:
109,192,88399,1,0,0:0:0:0:
182,192,88399,1,0,0:0:0:0:
36,192,88399,1,0,0:0:0:0:
256,192,88593,1,0,0:0:0:0:
256,192,88786,1,0,0:0:0:0:
182,192,88980,1,0,0:0:0:0:
402,192,88980,1,0,0:0:0:0:
109,192,88980,1,0,0:0:0:0:
475,192,89173,1,0,0:0:0:0:
256,192,89173,1,0,0:0:0:0:
182,192,89173,1,0,0:0:0:0:
329,192,89464,1,0,0:0:0:0:
109,192,89464,1,0,0:0:0:0:
36,192,89464,1,0,0:0:0:0:
256,192,89754,1,0,0:0:0:0:
182,192,89754,1,0,0:0:0:0:
402,192,89754,1,0,0:0:0:0:
329,192,89948,1,0,0:0:0:0:
182,192,89948,1,0,0:0:0:0:
109,192,89948,1,0,0:0:0:0:
475,192,89948,1,0,0:0:0:0:
109,192,90141,1,0,0:0:0:0:
36,192,90141,1,0,0:0:0:0:
256,192,90141,1,0,0:0:0:0:
36,192,90335,1,0,0:0:0:0:
256,192,90335,1,0,0:0:0:0:
329,192,90335,1,0,0:0:0:0:
329,192,90528,1,0,0:0:0:0:
402,192,90528,1,0,0:0:0:0:
109,192,90528,1,0,0:0:0:0:
402,192,90722,1,0,0:0:0:0:
475,192,90722,1,0,0:0:0:0:
182,192,90722,1,0,0:0:0:0:
182,192,91012,1,0,0:0:0:0:
402,192,91012,1,0,0:0:0:0:
475,192,91012,1,0,0:0:0:0:
329,192,91302,1,0,0:0:0:0:
402,192,91302,1,0,0:0:0:0:
109,192,91302,1,0,0:0:0:0:
36,192,91496,1,0,0:0:0:0:
256,192,91496,1,0,0:0:0:0:
329,192,91496,1,0,0:0:0:0:
475,192,91496,1,0,0:0:0:0:
182,192,91689,1,0,0:0:0:0:
256,192,91689,1,0,0:0:0:0:
475,192,91689,1,0,0:0:0:0:
329,192,91786,1,0,0:0:0:0:
182,192,91883,1,0,0:0:0:0:
109,192,91883,1,0,0:0:0:0:
402,192,91883,1,0,0:0:0:0:
256,192,92077,1,0,0:0:0:0:
182,192,92077,1,0,0:0:0:0:
475,192,92077,1,0,0:0:0:0:
329,192,92270,1,0,0:0:0:0:
256,192,92270,1,0,0:0:0:0:
36,192,92270,1,0,0:0:0:0:
475,192,92270,1,0,0:0:0:0:
329,192,92464,1,0,0:0:0:0:
402,192,92464,1,0,0:0:0:0:
109,192,92464,1,0,0:0:0:0:
402,192,92657,1,0,0:0:0:0:
475,192,92657,1,0,0:0:0:0:
182,192,92657,1,0,0:0:0:0:
109,192,92851,1,0,0:0:0:0:
36,192,92851,1,0,0:0:0:0:
329,192,92851,1,0,0:0:0:0:
256,192,93044,1,0,0:0:0:0:
402,192,93044,1,0,0:0:0:0:
475,192,93044,1,0,0:0:0:0:
182,192,93044,1,0,0:0:0:0:
109,192,93335,1,0,0:0:0:0:
182,192,93431,1,0,0:0:0:0:
329,192,93431,1,0,0:0:0:0:
475,192,93431,1,0,0:0:0:0:
402,192,93625,1,0,0:0:0:0:
256,192,93625,1,0,0:0:0:0:
109,192,93625,1,0,0:0:0:0:
182,192,93819,1,0,0:0:0:0:
36,192,93819,1,0,0:0:0:0:
329,192,93819,1,0,0:0:0:0:
475,192,93819,1,0,0:0:0:0:
182,192,94109,1,0,0:0:0:0:
109,192,94206,1,0,0:0:0:0:
36,192,94206,1,0,0:0:0:0:
329,192,94206,1,0,0:0:0:0:
475,192,94206,1,0,0:0:0:0:
256,192,94206,1,0,0:0:0:0:
182,192,94399,1,0,0:0:0:0:
402,192,94399,1,0,0:0:0:0:
36,192,94399,1,0,0:0:0:0:
256,192,94593,1,0,0:0:0:0:
109,192,94593,1,0,0:0:0:0:
329,192,94593,1,0,0:0:0:0:
402,192,94593,1,0,0:0:0:0:
475,192,94593,1,0,0:0:0:0:
256,192,94786,1,0,0:0:0:0:
109,192,94786,1,0,0:0:0:0:
182,192,94980,1,0,0:0:0:0:
36,192,94980,1,0,0:0:0:0:
329,192,94980,1,0,0:0:0:0:
402,192,94980,1,0,0:0:0:0:
475,192,94980,1,0,0:0:0:0:
36,192,95173,1,0,0:0:0:0:
182,192,95173,1,0,0:0:0:0:
402,192,95173,1,0,0:0:0:0:
329,192,95270,1,0,0:0:0:0:
256,192,95270,1,0,0:0:0:0:
109,192,95270,1,0,0:0:0:0:
182,192,95367,1,0,0:0:0:0:
36,192,95367,1,0,0:0:0:0:
402,192,95367,1,0,0:0:0:0:
475,192,95367,1,0,0:0:0:0:
402,192,95560,1,0,0:0:0:0:
475,192,95560,1,0,0:0:0:0:
329,192,95754,1,0,0:0:0:0:
256,192,95754,1,0,0:0:0:0:
182,192,95754,1,0,0:0:0:0:
109,192,95754,1,0,0:0:0:0:
36,192,95754,1,0,0:0:0:0:
182,192,95948,1,0,0:0:0:0:
329,192,95948,1,0,0:0:0:0:
256,192,96141,1,0,0:0:0:0:
402,192,96141,1,0,0:0:0:0:
475,192,96141,1,0,0:0:0:0:
36,192,96141,1,0,0:0:0:0:
109,192,96141,1,0,0:0:0:0:
256,192,96335,1,0,0:0:0:0:
402,192,96335,1,0,0:0:0:0:
475,192,96335,1,0,0:0:0:0:
182,192,96528,1,0,0:0:0:0:
329,192,96528,1,0,0:0:0:0:
109,192,96528,1,0,0:0:0:0:
36,192,96528,1,0,0:0:0:0:
475,192,96528,1,0,0:0:0:0:
329,192,96722,1,0,0:0:0:0:
109,192,96722,1,0,0:0:0:0:
475,192,96722,1,0,0:0:0:0:
402,192,96819,1,0,0:0:0:0:
182,192,96819,1,0,0:0:0:0:
256,192,96819,1,0,0:0:0:0:
109,192,96915,1,0,0:0:0:0:
329,192,96915,1,0,0:0:0:0:
36,192,96915,1,0,0:0:0:0:
475,192,96915,1,0,0:0:0:0:
256,192,97109,1,0,0:0:0:0:
182,192,97109,1,0,0:0:0:0:
36,192,97109,1,0,0:0:0:0:
402,192,97109,1,0,0:0:0:0:
329,192,97302,1,0,0:0:0:0:
182,192,97302,1,0,0:0:0:0:
109,192,97302,1,0,0:0:0:0:
36,192,97302,1,0,0:0:0:0:
475,192,97302,1,0,0:0:0:0:
256,192,97496,1,0,0:0:0:0:
402,192,97496,1,0,0:0:0:0:
475,192,97496,1,0,0:0:0:0:
109,192,97496,1,0,0:0:0:0:
329,192,97689,1,0,0:0:0:0:
182,192,97689,1,0,0:0:0:0:
109,192,97689,1,0,0:0:0:0:
36,192,97689,1,0,0:0:0:0:
475,192,97689,1,0,0:0:0:0:
256,192,97786,1,0,0:0:0:0:
402,192,97786,1,0,0:0:0:0:
182,192,97883,1,0,0:0:0:0:
329,192,97883,1,0,0:0:0:0:
36,192,97883,1,0,0:0:0:0:
109,192,97980,1,0,0:0:0:0:
256,192,97980,1,0,0:0:0:0:
182,192,98077,1,0,0:0:0:0:
36,192,98077,1,0,0:0:0:0:
329,192,98077,1,0,0:0:0:0:
475,192,98077,1,0,0:0:0:0:
256,192,98173,1,0,0:0:0:0:
402,192,98173,1,0,0:0:0:0:
329,192,98270,1,0,0:0:0:0:
182,192,98270,1,0,0:0:0:0:
109,192,98270,1,0,0:0:0:0:
36,192,98270,1,0,0:0:0:0:
256,192,98367,1,0,0:0:0:0:
475,192,98367,1,0,0:0:0:0:
402,192,98367,1,0,0:0:0:0:
109,192,98464,1,0,0:0:0:0:
36,192,98464,1,0,0:0:0:0:
329,192,98464,1,0,0:0:0:0:
182,192,98464,1,0,0:0:0:0:
475,192,98560,1,0,0:0:0:0:
402,192,98560,1,0,0:0:0:0:
182,192,98657,1,0,0:0:0:0:
36,192,98657,1,0,0:0:0:0:
109,192,98657,1,0,0:0:0:0:
329,192,98754,1,0,0:0:0:0:
256,192,98754,1,0,0:0:0:0:
402,192,98754,1,0,0:0:0:0:
475,192,98754,1,0,0:0:0:0:
182,192,98851,1,0,0:0:0:0:
109,192,98851,1,0,0:0:0:0:
36,192,98851,1,0,0:0:0:0:
475,192,98948,1,0,0:0:0:0:
402,192,98948,1,0,0:0:0:0:
182,192,99044,1,0,0:0:0:0:
109,192,99044,1,0,0:0:0:0:
36,192,99044,1,0,0:0:0:0:
329,192,99044,1,0,0:0:0:0:
256,192,99044,1,0,0:0:0:0:
475,192,99141,1,0,0:0:0:0:
256,192,99238,1,0,0:0:0:0:
182,192,99238,1,0,0:0:0:0:
109,192,99238,1,0,0:0:0:0:
36,192,99238,1,0,0:0:0:0:
402,192,99238,1,0,0:0:0:0:
329,192,99238,1,0,0:0:0:0:
329,192,99625,1,0,0:0:0:0:
182,192,99625,1,0,0:0:0:0:
36,192,99673,1,0,0:0:0:0:
256,192,100012,1,0,0:0:0:0:
402,192,100012,1,0,0:0:0:0:
109,192,100060,1,0,0:0:0:0:
329,192,100399,1,0,0:0:0:0:
475,192,100399,1,0,0:0:0:0:
182,192,100448,1,0,0:0:0:0:
182,192,100786,1,0,0:0:0:0:
109,192,100786,1,0,0:0:0:0:
36,192,100786,1,0,0:0:0:0:
329,192,100786,1,0,0:0:0:0:
475,192,100786,1,0,0:0:0:0:
256,192,100883,1,0,0:0:0:0:
109,192,100980,1,0,0:0:0:0:
329,192,100980,1,0,0:0:0:0:
36,192,100980,1,0,0:0:0:0:
182,192,101077,1,0,0:0:0:0:
402,192,101077,1,0,0:0:0:0:
475,192,101173,1,0,0:0:0:0:
256,192,101173,1,0,0:0:0:0:
329,192,101173,1,0,0:0:0:0:
36,192,101173,1,0,0:0:0:0:
182,192,101270,1,0,0:0:0:0:
402,192,101270,1,0,0:0:0:0:
475,192,101367,1,0,0:0:0:0:
256,192,101367,1,0,0:0:0:0:
109,192,101367,1,0,0:0:0:0:
329,192,101464,1,0,0:0:0:0:
256,192,101560,1,0,0:0:0:0:
109,192,101560,1,0,0:0:0:0:
36,192,101560,1,0,0:0:0:0:
402,192,101560,1,0,0:0:0:0:
182,192,101560,1,0,0:0:0:0:
475,192,101657,1,0,0:0:0:0:
182,192,101754,1,0,0:0:0:0:
36,192,101754,1,0,0:0:0:0:
256,192,101851,1,0,0:0:0:0:
402,192,101851,1,0,0:0:0:0:
182,192,101948,1,0,0:0:0:0:
36,192,101948,1,0,0:0:0:0:
329,192,101948,1,0,0:0:0:0:
475,192,101948,1,0,0:0:0:0:
402,192,102044,1,0,0:0:0:0:
256,192,102141,1,0,0:0:0:0:
109,192,102141,1,0,0:0:0:0:
475,192,102141,1,0,0:0:0:0:
182,192,102238,1,0,0:0:0:0:
109,192,102335,1,0,0:0:0:0:
329,192,102335,1,0,0:0:0:0:
402,192,102335,1,0,0:0:0:0:
36,192,102335,1,0,0:0:0:0:
475,192,102335,1,0,0:0:0:0:
256,192,102431,1,0,0:0:0:0:
329,192,102528,1,0,0:0:0:0:
182,192,102528,1,0,0:0:0:0:
36,192,102528,1,0,0:0:0:0:
402,192,102625,1,0,0:0:0:0:
256,192,102625,1,0,0:0:0:0:
109,192,102722,1,0,0:0:0:0:
475,192,102722,1,0,0:0:0:0:
329,192,102722,1,0,0:0:0:0:
36,192,102722,1,0,0:0:0:0:
182,192,102819,1,0,0:0:0:0:
402,192,102819,1,0,0:0:0:0:
256,192,102915,1,0,0:0:0:0:
109,192,102915,1,0,0:0:0:0:
36,192,102915,1,0,0:0:0:0:
329,192,103012,1,0,0:0:0:0:
182,192,103109,1,0,0:0:0:0:
109,192,103109,1,0,0:0:0:0:
402,192,103109,1,0,0:0:0:0:
475,192,103109,1,0,0:0:0:0:
256,192,103109,1,0,0:0:0:0:
36,192,103206,1,0,0:0:0:0:
182,192,103302,1,0,0:0:0:0:
329,192,103302,1,0,0:0:0:0:
109,192,103399,1,0,0:0:0:0:
256,192,103399,1,0,0:0:0:0:
182,192,103496,1,0,0:0:0:0:
36,192,103496,1,0,0:0:0:0:
329,192,103496,1,0,0:0:0:0:
475,192,103496,1,0,0:0:0:0:
402,192,103496,1,0,0:0:0:0:
256,192,103593,1,0,0:0:0:0:
109,192,103593,1,0,0:0:0:0:
329,192,103689,1,0,0:0:0:0:
402,192,103689,1,0,0:0:0:0:
475,192,103689,1,0,0:0:0:0:
182,192,103689,1,0,0:0:0:0:
109,192,103786,1,0,0:0:0:0:
256,192,103883,1,0,0:0:0:0:
182,192,103883,1,0,0:0:0:0:
36,192,103883,1,0,0:0:0:0:
402,192,103883,1,0,0:0:0:0:
475,192,103883,1,0,0:0:0:0:
329,192,103980,1,0,0:0:0:0:
256,192,104077,1,0,0:0:0:0:
36,192,104077,1,0,0:0:0:0:
109,192,104077,1,0,0:0:0:0:
182,192,104173,1,0,0:0:0:0:
329,192,104173,1,0,0:0:0:0:
475,192,104173,1,0,0:0:0:0:
256,192,104270,1,0,0:0:0:0:
109,192,104270,1,0,0:0:0:0:
402,192,104270,1,0,0:0:0:0:
36,192,104270,1,0,0:0:0:0:
475,192,104367,1,0,0:0:0:0:
329,192,104367,1,0,0:0:0:0:
109,192,104464,1,0,0:0:0:0:
402,192,104464,1,0,0:0:0:0:
256,192,104464,1,0,0:0:0:0:
36,192,104464,1,0,0:0:0:0:
182,192,104560,1,0,0:0:0:0:
402,192,104657,1,0,0:0:0:0:
36,192,104657,1,0,0:0:0:0:
475,192,104657,1,0,0:0:0:0:
109,192,104657,1,0,0:0:0:0:
329,192,104657,1,0,0:0:0:0:
256,192,104754,1,0,0:0:0:0:
329,192,104851,1,0,0:0:0:0:
402,192,104948,1,0,0:0:0:0:
182,192,104948,1,0,0:0:0:0:
109,192,104948,1,0,0:0:0:0:
256,192,105044,1,0,0:0:0:0:
36,192,105044,1,0,0:0:0:0:
475,192,105044,1,0,0:0:0:0:
329,192,105044,1,0,0:0:0:0:
182,192,105141,1,0,0:0:0:0:
256,192,105238,1,0,0:0:0:0:
402,192,105238,1,0,0:0:0:0:
109,192,105238,1,0,0:0:0:0:
36,192,105335,1,0,0:0:0:0:
256,192,105431,1,0,0:0:0:0:
329,192,105431,1,0,0:0:0:0:
402,192,105431,1,0,0:0:0:0:
475,192,105431,1,0,0:0:0:0:
182,192,105431,1,0,0:0:0:0:
109,192,105528,1,0,0:0:0:0:
182,192,105625,1,0,0:0:0:0:
329,192,105625,1,0,0:0:0:0:
475,192,105625,1,0,0:0:0:0:
109,192,105722,1,0,0:0:0:0:
256,192,105722,1,0,0:0:0:0:
36,192,105819,1,0,0:0:0:0:
182,192,105819,1,0,0:0:0:0:
402,192,105819,1,0,0:0:0:0:
475,192,105819,1,0,0:0:0:0:
329,192,105915,1,0,0:0:0:0:
256,192,105915,1,0,0:0:0:0:
109,192,106012,1,0,0:0:0:0:
475,192,106012,1,0,0:0:0:0:
182,192,106109,1,0,0:0:0:0:
256,192,106206,1,0,0:0:0:0:
36,192,106206,1,0,0:0:0:0:
329,192,106206,1,0,0:0:0:0:
402,192,106206,1,0,0:0:0:0:
182,192,106302,1,0,0:0:0:0:
109,192,106399,1,0,0:0:0:0:
329,192,106399,1,0,0:0:0:0:
402,192,106399,1,0,0:0:0:0:
36,192,106496,1,0,0:0:0:0:
256,192,106593,1,0,0:0:0:0:
182,192,106593,1,0,0:0:0:0:
475,192,106593,1,0,0:0:0:0:
402,192,106593,1,0,0:0:0:0:
109,192,106689,1,0,0:0:0:0:
329,192,106689,1,0,0:0:0:0:
256,192,106786,1,0,0:0:0:0:
36,192,106786,1,0,0:0:0:0:
402,192,106786,1,0,0:0:0:0:
182,192,106883,1,0,0:0:0:0:
329,192,106980,1,0,0:0:0:0:
109,192,106980,1,0,0:0:0:0:
36,192,106980,1,0,0:0:0:0:
256,192,106980,1,0,0:0:0:0:
475,192,106980,1,0,0:0:0:0:
402,192,107077,1,0,0:0:0:0:
182,192,107173,1,0,0:0:0:0:
475,192,107173,1,0,0:0:0:0:
36,192,107173,1,0,0:0:0:0:
256,192,107270,1,0,0:0:0:0:
109,192,107270,1,0,0:0:0:0:
36,192,107367,1,0,0:0:0:0:
182,192,107367,1,0,0:0:0:0:
329,192,107367,1,0,0:0:0:0:
475,192,107367,1,0,0:0:0:0:
256,192,107464,1,0,0:0:0:0:
402,192,107464,1,0,0:0:0:0:
36,192,107560,1,0,0:0:0:0:
329,192,107560,1,0,0:0:0:0:
182,192,107560,1,0,0:0:0:0:
475,192,107657,1,0,0:0:0:0:
109,192,107754,1,0,0:0:0:0:
36,192,107754,1,0,0:0:0:0:
329,192,107754,1,0,0:0:0:0:
402,192,107754,1,0,0:0:0:0:
182,192,107754,1,0,0:0:0:0:
256,192,107851,1,0,0:0:0:0:
182,192,107948,1,0,0:0:0:0:
36,192,107948,1,0,0:0:0:0:
256,192,108044,1,0,0:0:0:0:
402,192,108044,1,0,0:0:0:0:
109,192,108141,1,0,0:0:0:0:
329,192,108141,1,0,0:0:0:0:
475,192,108141,1,0,0:0:0:0:
36,192,108141,1,0,0:0:0:0:
182,192,108238,1,0,0:0:0:0:
256,192,108335,1,0,0:0:0:0:
109,192,108335,1,0,0:0:0:0:
402,192,108335,1,0,0:0:0:0:
329,192,108431,1,0,0:0:0:0:
109,192,108528,1,0,0:0:0:0:
182,192,108528,1,0,0:0:0:0:
36,192,108528,1,0,0:0:0:0:
475,192,108528,1,0,0:0:0:0:
402,192,108528,1,0,0:0:0:0:
256,192,108625,1,0,0:0:0:0:
329,192,108722,1,0,0:0:0:0:
36,192,108722,1,0,0:0:0:0:
475,192,108722,1,0,0:0:0:0:
402,192,108819,1,0,0:0:0:0:
256,192,108819,1,0,0:0:0:0:
182,192,108915,1,0,0:0:0:0:
329,192,108915,1,0,0:0:0:0:
109,192,108915,1,0,0:0:0:0:
36,192,108915,1,0,0:0:0:0:
475,192,109012,1,0,0:0:0:0:
402,192,109012,1,0,0:0:0:0:
182,192,109109,1,0,0:0:0:0:
109,192,109109,1,0,0:0:0:0:
256,192,109109,1,0,0:0:0:0:
329,192,109206,1,0,0:0:0:0:
182,192,109302,1,0,0:0:0:0:
109,192,109302,1,0,0:0:0:0:
36,192,109302,1,0,0:0:0:0:
402,192,109302,1,0,0:0:0:0:
475,192,109302,1,0,0:0:0:0:
256,192,109399,1,0,0:0:0:0:
329,192,109496,1,0,0:0:0:0:
182,192,109496,1,0,0:0:0:0:
109,192,109593,1,0,0:0:0:0:
402,192,109593,1,0,0:0:0:0:
182,192,109689,1,0,0:0:0:0:
329,192,109689,1,0,0:0:0:0:
36,192,109689,1,0,0:0:0:0:
475,192,109689,1,0,0:0:0:0:
256,192,109786,1,0,0:0:0:0:
109,192,109883,1,0,0:0:0:0:
402,192,109883,1,0,0:0:0:0:
36,192,109883,1,0,0:0:0:0:
182,192,109980,1,0,0:0:0:0:
256,192,110077,1,0,0:0:0:0:
329,192,110077,1,0,0:0:0:0:
475,192,110077,1,0,0:0:0:0:
36,192,110077,1,0,0:0:0:0:
402,192,110077,1,0,0:0:0:0:
109,192,110173,1,0,0:0:0:0:
182,192,110270,1,0,0:0:0:0:
256,192,110270,1,0,0:0:0:0:
402,192,110270,1,0,0:0:0:0:
329,192,110367,1,0,0:0:0:0:
109,192,110367,1,0,0:0:0:0:
36,192,110367,1,0,0:0:0:0:
256,192,110464,1,0,0:0:0:0:
182,192,110464,1,0,0:0:0:0:
402,192,110464,1,0,0:0:0:0:
475,192,110464,1,0,0:0:0:0:
109,192,110560,1,0,0:0:0:0:
36,192,110560,1,0,0:0:0:0:
256,192,110657,1,0,0:0:0:0:
402,192,110657,1,0,0:0:0:0:
475,192,110657,1,0,0:0:0:0:
329,192,110754,1,0,0:0:0:0:
109,192,110754,1,0,0:0:0:0:
36,192,110754,1,0,0:0:0:0:
256,192,110851,1,0,0:0:0:0:
402,192,110851,1,0,0:0:0:0:
182,192,110851,1,0,0:0:0:0:
475,192,110851,1,0,0:0:0:0:
109,192,110948,1,0,0:0:0:0:
256,192,111044,1,0,0:0:0:0:
36,192,111044,1,0,0:0:0:0:
329,192,111141,1,0,0:0:0:0:
182,192,111141,1,0,0:0:0:0:
475,192,111141,1,0,0:0:0:0:
402,192,111238,1,0,0:0:0:0:
256,192,111238,1,0,0:0:0:0:
109,192,111238,1,0,0:0:0:0:
36,192,111238,1,0,0:0:0:0:
475,192,111335,1,0,0:0:0:0:
182,192,111431,1,0,0:0:0:0:
329,192,111431,1,0,0:0:0:0:
36,192,111431,1,0,0:0:0:0:
256,192,111528,1,0,0:0:0:0:
402,192,111528,1,0,0:0:0:0:
475,192,111528,1,0,0:0:0:0:
329,192,111625,1,0,0:0:0:0:
182,192,111625,1,0,0:0:0:0:
109,192,111625,1,0,0:0:0:0:
36,192,111625,1,0,0:0:0:0:
402,192,111722,1,0,0:0:0:0:
475,192,111819,1,0,0:0:0:0:
256,192,111819,1,0,0:0:0:0:
109,192,111819,1,0,0:0:0:0:
329,192,111915,1,0,0:0:0:0:
182,192,112012,1,0,0:0:0:0:
36,192,112012,1,0,0:0:0:0:
402,192,112012,1,0,0:0:0:0:
475,192,112012,1,0,0:0:0:0:
256,192,112109,1,0,0:0:0:0:
109,192,112109,1,0,0:0:0:0:
329,192,112206,1,0,0:0:0:0:
182,192,112206,1,0,0:0:0:0:
402,192,112302,1,0,0:0:0:0:
475,192,112399,1,0,0:0:0:0:
256,192,112399,1,0,0:0:0:0:
109,192,112399,1,0,0:0:0:0:
182,192,112399,1,0,0:0:0:0:
36,192,112496,1,0,0:0:0:0:
182,192,112593,1,0,0:0:0:0:
329,192,112593,1,0,0:0:0:0:
475,192,112593,1,0,0:0:0:0:
109,192,112689,1,0,0:0:0:0:
256,192,112689,1,0,0:0:0:0:
36,192,112786,1,0,0:0:0:0:
182,192,112786,1,0,0:0:0:0:
402,192,112786,1,0,0:0:0:0:
475,192,112786,1,0,0:0:0:0:
329,192,112883,1,0,0:0:0:0:
256,192,112980,1,0,0:0:0:0:
109,192,112980,1,0,0:0:0:0:
36,192,112980,1,0,0:0:0:0:
182,192,113077,1,0,0:0:0:0:
329,192,113077,1,0,0:0:0:0:
402,192,113173,1,0,0:0:0:0:
256,192,113173,1,0,0:0:0:0:
475,192,113173,1,0,0:0:0:0:
109,192,113173,1,0,0:0:0:0:
36,192,113173,1,0,0:0:0:0:
182,192,113270,1,0,0:0:0:0:
329,192,113367,1,0,0:0:0:0:
36,192,113367,1,0,0:0:0:0:
475,192,113367,1,0,0:0:0:0:
256,192,113464,1,0,0:0:0:0:
109,192,113464,1,0,0:0:0:0:
182,192,113560,1,0,0:0:0:0:
329,192,113560,1,0,0:0:0:0:
402,192,113560,1,0,0:0:0:0:
475,192,113560,1,0,0:0:0:0:
109,192,113657,1,0,0:0:0:0:
36,192,113657,1,0,0:0:0:0:
256,192,113754,1,0,0:0:0:0:
402,192,113754,1,0,0:0:0:0:
475,192,113754,1,0,0:0:0:0:
182,192,113851,1,0,0:0:0:0:
109,192,113948,1,0,0:0:0:0:
329,192,113948,1,0,0:0:0:0:
36,192,113948,1,0,0:0:0:0:
402,192,113948,1,0,0:0:0:0:
475,192,113948,1,0,0:0:0:0:
256,192,114044,1,0,0:0:0:0:
182,192,114141,1,0,0:0:0:0:
36,192,114141,1,0,0:0:0:0:
256,192,114238,1,0,0:0:0:0:
402,192,114238,1,0,0:0:0:0:
329,192,114335,1,0,0:0:0:0:
475,192,114335,1,0,0:0:0:0:
109,192,114335,1,0,0:0:0:0:
36,192,114335,1,0,0:0:0:0:
182,192,114431,1,0,0:0:0:0:
256,192,114528,1,0,0:0:0:0:
402,192,114528,1,0,0:0:0:0:
36,192,114528,1,0,0:0:0:0:
182,192,114625,1,0,0:0:0:0:
329,192,114625,1,0,0:0:0:0:
109,192,114722,1,0,0:0:0:0:
36,192,114722,1,0,0:0:0:0:
402,192,114722,1,0,0:0:0:0:
256,192,114722,1,0,0:0:0:0:
475,192,114722,1,0,0:0:0:0:
329,192,114819,1,0,0:0:0:0:
182,192,114915,1,0,0:0:0:0:
109,192,114915,1,0,0:0:0:0:
402,192,114915,1,0,0:0:0:0:
256,192,115012,1,0,0:0:0:0:
329,192,115109,1,0,0:0:0:0:
36,192,115109,1,0,0:0:0:0:
475,192,115109,1,0,0:0:0:0:
109,192,115109,1,0,0:0:0:0:
182,192,115206,1,0,0:0:0:0:
402,192,115206,1,0,0:0:0:0:
256,192,115302,1,0,0:0:0:0:
36,192,115302,1,0,0:0:0:0:
475,192,115302,1,0,0:0:0:0:
329,192,115399,1,0,0:0:0:0:
182,192,115496,1,0,0:0:0:0:
109,192,115496,1,0,0:0:0:0:
36,192,115496,1,0,0:0:0:0:
402,192,115496,1,0,0:0:0:0:
475,192,115496,1,0,0:0:0:0:
256,192,115593,1,0,0:0:0:0:
182,192,115689,1,0,0:0:0:0:
329,192,115689,1,0,0:0:0:0:
109,192,115786,1,0,0:0:0:0:
402,192,115786,1,0,0:0:0:0:
256,192,115786,1,0,0:0:0:0:
36,192,115883,1,0,0:0:0:0:
182,192,115883,1,0,0:0:0:0:
329,192,115883,1,0,0:0:0:0:
475,192,115883,1,0,0:0:0:0:
256,192,115980,1,0,0:0:0:0:
109,192,116077,1,0,0:0:0:0:
36,192,116077,1,0,0:0:0:0:
329,192,116077,1,0,0:0:0:0:
475,192,116077,1,0,0:0:0:0:
402,192,116173,1,0,0:0:0:0:
182,192,116173,1,0,0:0:0:0:
256,192,116270,1,0,0:0:0:0:
329,192,116270,1,0,0:0:0:0:
109,192,116270,1,0,0:0:0:0:
36,192,116270,1,0,0:0:0:0:
475,192,116270,1,0,0:0:0:0:
182,192,116367,1,0,0:0:0:0:
109,192,116464,1,0,0:0:0:0:
402,192,116464,1,0,0:0:0:0:
329,192,116464,1,0,0:0:0:0:
36,192,116560,1,0,0:0:0:0:
256,192,116560,1,0,0:0:0:0:
182,192,116657,1,0,0:0:0:0:
402,192,116657,1,0,0:0:0:0:
475,192,116657,1,0,0:0:0:0:
329,192,116657,1,0,0:0:0:0:
109,192,116754,1,0,0:0:0:0:
36,192,116754,1,0,0:0:0:0:
256,192,116851,1,0,0:0:0:0:
402,192,116851,1,0,0:0:0:0:
329,192,116851,1,0,0:0:0:0:
475,192,116851,1,0,0:0:0:0:
109,192,116948,1,0,0:0:0:0:
182,192,116948,1,0,0:0:0:0:
475,192,117044,1,0,0:0:0:0:
256,192,117044,1,0,0:0:0:0:
36,192,117044,1,0,0:0:0:0:
329,192,117044,1,0,0:0:0:0:
402,192,117044,1,0,0:0:0:0:
182,192,117141,1,0,0:0:0:0:
109,192,117238,1,0,0:0:0:0:
475,192,117238,1,0,0:0:0:0:
256,192,117335,1,0,0:0:0:0:
36,192,117335,1,0,0:0:0:0:
329,192,117335,1,0,0:0:0:0:
182,192,117431,1,0,0:0:0:0:
402,192,117431,1,0,0:0:0:0:
109,192,117431,1,0,0:0:0:0:
475,192,117431,1,0,0:0:0:0:
256,192,117528,1,0,0:0:0:0:
329,192,117625,1,0,0:0:0:0:
109,192,117625,1,0,0:0:0:0:
36,192,117625,1,0,0:0:0:0:
402,192,117625,1,0,0:0:0:0:
182,192,117722,1,0,0:0:0:0:
256,192,117819,1,0,0:0:0:0:
36,192,117819,1,0,0:0:0:0:
329,192,117819,1,0,0:0:0:0:
402,192,117819,1,0,0:0:0:0:
475,192,117819,1,0,0:0:0:0:
109,192,117915,1,0,0:0:0:0:
182,192,118012,1,0,0:0:0:0:
256,192,118012,1,0,0:0:0:0:
329,192,118012,1,0,0:0:0:0:
402,192,118109,1,0,0:0:0:0:
475,192,118206,1,0,0:0:0:0:
256,192,118206,1,0,0:0:0:0:
182,192,118206,1,0,0:0:0:0:
109,192,118206,1,0,0:0:0:0:
36,192,118206,1,0,0:0:0:0:
402,192,118302,1,0,0:0:0:0:
329,192,118399,1,0,0:0:0:0:
109,192,118399,1,0,0:0:0:0:
36,192,118399,1,0,0:0:0:0:
256,192,118496,1,0,0:0:0:0:
182,192,118593,1,0,0:0:0:0:
402,192,118593,1,0,0:0:0:0:
475,192,118593,1,0,0:0:0:0:
109,192,118593,1,0,0:0:0:0:
36,192,118593,1,0,0:0:0:0:
256,192,118689,1,0,0:0:0:0:
329,192,118786,1,0,0:0:0:0:
109,192,118786,1,0,0:0:0:0:
36,192,118786,1,0,0:0:0:0:
402,192,118883,1,0,0:0:0:0:
475,192,118980,1,0,0:0:0:0:
329,192,118980,1,0,0:0:0:0:
36,192,118980,1,0,0:0:0:0:
182,192,118980,1,0,0:0:0:0:
256,192,118980,1,0,0:0:0:0:
109,192,119077,1,0,0:0:0:0:
182,192,119173,1,0,0:0:0:0:
402,192,119173,1,0,0:0:0:0:
475,192,119173,1,0,0:0:0:0:
256,192,119270,1,0,0:0:0:0:
329,192,119367,1,0,0:0:0:0:
109,192,119367,1,0,0:0:0:0:
36,192,119367,1,0,0:0:0:0:
402,192,119367,1,0,0:0:0:0:
475,192,119367,1,0,0:0:0:0:
256,192,119464,1,0,0:0:0:0:
182,192,119560,1,0,0:0:0:0:
329,192,119560,1,0,0:0:0:0:
475,192,119560,1,0,0:0:0:0:
109,192,119657,1,0,0:0:0:0:
36,192,119657,1,0,0:0:0:0:
256,192,119754,1,0,0:0:0:0:
329,192,119754,1,0,0:0:0:0:
402,192,119754,1,0,0:0:0:0:
475,192,119754,1,0,0:0:0:0:
182,192,119851,1,0,0:0:0:0:
109,192,119851,1,0,0:0:0:0:
402,192,119948,1,0,0:0:0:0:
329,192,119948,1,0,0:0:0:0:
475,192,119948,1,0,0:0:0:0:
182,192,120044,1,0,0:0:0:0:
256,192,120044,1,0,0:0:0:0:
109,192,120141,1,0,0:0:0:0:
36,192,120141,1,0,0:0:0:0:
329,192,120141,1,0,0:0:0:0:
402,192,120141,1,0,0:0:0:0:
475,192,120141,1,0,0:0:0:0:
182,192,120238,1,0,0:0:0:0:
256,192,120335,1,0,0:0:0:0:
36,192,120335,1,0,0:0:0:0:
109,192,120431,1,0,0:0:0:0:
329,192,120431,1,0,0:0:0:0:
182,192,120528,1,0,0:0:0:0:
402,192,120528,1,0,0:0:0:0:
475,192,120528,1,0,0:0:0:0:
36,192,120528,1,0,0:0:0:0:
256,192,120625,1,0,0:0:0:0:
329,192,120722,1,0,0:0:0:0:
109,192,120722,1,0,0:0:0:0:
36,192,120722,1,0,0:0:0:0:
256,192,120819,1,0,0:0:0:0:
182,192,120915,1,0,0:0:0:0:
402,192,120915,1,0,0:0:0:0:
475,192,120915,1,0,0:0:0:0:
109,192,120915,1,0,0:0:0:0:
36,192,120915,1,0,0:0:0:0:
329,192,121012,1,0,0:0:0:0:
256,192,121109,1,0,0:0:0:0:
109,192,121109,1,0,0:0:0:0:
402,192,121109,1,0,0:0:0:0:
475,192,121109,1,0,0:0:0:0:
182,192,121206,1,0,0:0:0:0:
109,192,121302,1,0,0:0:0:0:
36,192,121302,1,0,0:0:0:0:
329,192,121302,1,0,0:0:0:0:
475,192,121302,1,0,0:0:0:0:
256,192,121399,1,0,0:0:0:0:
182,192,121496,1,0,0:0:0:0:
36,192,121496,1,0,0:0:0:0:
402,192,121496,1,0,0:0:0:0:
475,192,121496,1,0,0:0:0:0:
256,192,121593,1,0,0:0:0:0:
329,192,121689,1,0,0:0:0:0:
109,192,121689,1,0,0:0:0:0:
36,192,121689,1,0,0:0:0:0:
475,192,121689,1,0,0:0:0:0:
402,192,121689,1,0,0:0:0:0:
182,192,121786,1,0,0:0:0:0:
256,192,121883,1,0,0:0:0:0:
402,192,121883,1,0,0:0:0:0:
36,192,121883,1,0,0:0:0:0:
182,192,121980,1,0,0:0:0:0:
109,192,122077,1,0,0:0:0:0:
36,192,122077,1,0,0:0:0:0:
329,192,122077,1,0,0:0:0:0:
475,192,122077,1,0,0:0:0:0:
256,192,122173,1,0,0:0:0:0:
182,192,122270,1,0,0:0:0:0:
402,192,122270,1,0,0:0:0:0:
475,192,122270,1,0,0:0:0:0:
109,192,122367,1,0,0:0:0:0:
36,192,122464,1,0,0:0:0:0:
256,192,122464,1,0,0:0:0:0:
329,192,122464,1,0,0:0:0:0:
402,192,122464,1,0,0:0:0:0:
475,192,122464,1,0,0:0:0:0:
109,192,122560,1,0,0:0:0:0:
182,192,122657,1,0,0:0:0:0:
329,192,122657,1,0,0:0:0:0:
475,192,122657,1,0,0:0:0:0:
402,192,122754,1,0,0:0:0:0:
256,192,122754,1,0,0:0:0:0:
475,192,122851,1,0,0:0:0:0:
109,192,122851,1,0,0:0:0:0:
36,192,122851,1,0,0:0:0:0:
329,192,122851,1,0,0:0:0:0:
256,192,122948,1,0,0:0:0:0:
182,192,122948,1,0,0:0:0:0:
329,192,123044,1,0,0:0:0:0:
402,192,123044,1,0,0:0:0:0:
36,192,123044,1,0,0:0:0:0:
182,192,123141,1,0,0:0:0:0:
109,192,123238,1,0,0:0:0:0:
36,192,123238,1,0,0:0:0:0:
329,192,123238,1,0,0:0:0:0:
475,192,123238,1,0,0:0:0:0:
402,192,123238,1,0,0:0:0:0:
256,192,123335,1,0,0:0:0:0:
182,192,123431,1,0,0:0:0:0:
402,192,123431,1,0,0:0:0:0:
36,192,123431,1,0,0:0:0:0:
329,192,123528,1,0,0:0:0:0:
109,192,123528,1,0,0:0:0:0:
182,192,123625,1,0,0:0:0:0:
256,192,123625,1,0,0:0:0:0:
402,192,123625,1,0,0:0:0:0:
475,192,123625,1,0,0:0:0:0:
36,192,123722,1,0,0:0:0:0:
109,192,123819,1,0,0:0:0:0:
256,192,123819,1,0,0:0:0:0:
402,192,123819,1,0,0:0:0:0:
475,192,123915,1,0,0:0:0:0:
329,192,124012,1,0,0:0:0:0:
182,192,124012,1,0,0:0:0:0:
109,192,124012,1,0,0:0:0:0:
36,192,124012,1,0,0:0:0:0:
256,192,124012,1,0,0:0:0:0:
402,192,124109,1,0,0:0:0:0:
475,192,124109,1,0,0:0:0:0:
256,192,124206,1,0,0:0:0:0:
109,192,124206,1,0,0:0:0:0:
36,192,124206,1,0,0:0:0:0:
182,192,124302,1,0,0:0:0:0:
329,192,124302,1,0,0:0:0:0:
256,192,124399,1,0,0:0:0:0:
475,192,124399,1,0,0:0:0:0:
36,192,124399,1,0,0:0:0:0:
402,192,124399,1,0,0:0:0:0:
182,192,124496,1,0,0:0:0:0:
109,192,124496,1,0,0:0:0:0:
329,192,124593,1,0,0:0:0:0:
402,192,124593,1,0,0:0:0:0:
475,192,124593,1,0,0:0:0:0:
109,192,124689,1,0,0:0:0:0:
36,192,124689,1,0,0:0:0:0:
182,192,124786,1,0,0:0:0:0:
256,192,124786,1,0,0:0:0:0:
329,192,124786,1,0,0:0:0:0:
402,192,124786,1,0,0:0:0:0:
475,192,124786,1,0,0:0:0:0:
109,192,124980,1,0,0:0:0:0:
329,192,124980,1,0,0:0:0:0:
36,192,124980,1,0,0:0:0:0:
182,192,125173,1,0,0:0:0:0:
36,192,125173,1,0,0:0:0:0:
402,192,125173,1,0,0:0:0:0:
475,192,125173,1,0,0:0:0:0:
109,192,125270,1,0,0:0:0:0:
256,192,125270,1,0,0:0:0:0:
329,192,125367,1,0,0:0:0:0:
182,192,125367,1,0,0:0:0:0:
256,192,125464,1,0,0:0:0:0:
402,192,125464,1,0,0:0:0:0:
329,192,125560,1,0,0:0:0:0:
475,192,125560,1,0,0:0:0:0:
182,192,125560,1,0,0:0:0:0:
109,192,125560,1,0,0:0:0:0:
36,192,125560,1,0,0:0:0:0:
256,192,125657,1,0,0:0:0:0:
182,192,125754,1,0,0:0:0:0:
402,192,125754,1,0,0:0:0:0:
109,192,125851,1,0,0:0:0:0:
329,192,125851,1,0,0:0:0:0:
256,192,125948,1,0,0:0:0:0:
36,192,125948,1,0,0:0:0:0:
475,192,125948,1,0,0:0:0:0:
402,192,125948,1,0,0:0:0:0:
182,192,125948,1,0,0:0:0:0:
329,192,126044,1,0,0:0:0:0:
109,192,126044,1,0,0:0:0:0:
402,192,126141,1,0,0:0:0:0:
256,192,126141,1,0,0:0:0:0:
182,192,126238,1,0,0:0:0:0:
36,192,126238,1,0,0:0:0:0:
256,192,126335,1,0,0:0:0:0:
109,192,126335,1,0,0:0:0:0:
475,192,126335,1,0,0:0:0:0:
402,192,126335,1,0,0:0:0:0:
329,192,126431,1,0,0:0:0:0:
182,192,126431,1,0,0:0:0:0:
402,192,126528,1,0,0:0:0:0:
256,192,126528,1,0,0:0:0:0:
36,192,126528,1,0,0:0:0:0:
329,192,126625,1,0,0:0:0:0:
475,192,126625,1,0,0:0:0:0:
256,192,126722,1,0,0:0:0:0:
182,192,126722,1,0,0:0:0:0:
109,192,126722,1,0,0:0:0:0:
36,192,126722,1,0,0:0:0:0:
402,192,126722,1,0,0:0:0:0:
329,192,126819,1,0,0:0:0:0:
475,192,126819,1,0,0:0:0:0:
182,192,126915,1,0,0:0:0:0:
36,192,126915,1,0,0:0:0:0:
256,192,127012,1,0,0:0:0:0:
402,192,127012,1,0,0:0:0:0:
182,192,127109,1,0,0:0:0:0:
329,192,127109,1,0,0:0:0:0:
36,192,127109,1,0,0:0:0:0:
109,192,127109,1,0,0:0:0:0:
402,192,127206,1,0,0:0:0:0:
475,192,127302,1,0,0:0:0:0:
182,192,127302,1,0,0:0:0:0:
329,192,127399,1,0,0:0:0:0:
256,192,127399,1,0,0:0:0:0:
402,192,127496,1,0,0:0:0:0:
182,192,127496,1,0,0:0:0:0:
36,192,127496,1,0,0:0:0:0:
475,192,127496,1,0,0:0:0:0:
109,192,127496,1,0,0:0:0:0:
256,192,127593,1,0,0:0:0:0:
329,192,127593,1,0,0:0:0:0:
36,192,127689,1,0,0:0:0:0:
109,192,127689,1,0,0:0:0:0:
329,192,127786,1,0,0:0:0:0:
475,192,127786,1,0,0:0:0:0:
402,192,127883,1,0,0:0:0:0:
256,192,127883,1,0,0:0:0:0:
109,192,127883,1,0,0:0:0:0:
36,192,127883,1,0,0:0:0:0:
182,192,127980,1,0,0:0:0:0:
329,192,127980,1,0,0:0:0:0:
109,192,128077,1,0,0:0:0:0:
256,192,128077,1,0,0:0:0:0:
182,192,128173,1,0,0:0:0:0:
36,192,128173,1,0,0:0:0:0:
109,192,128270,1,0,0:0:0:0:
256,192,128270,1,0,0:0:0:0:
402,192,128270,1,0,0:0:0:0:
329,192,128270,1,0,0:0:0:0:
475,192,128270,1,0,0:0:0:0:
182,192,128367,1,0,0:0:0:0:
36,192,128367,1,0,0:0:0:0:
329,192,128464,1,0,0:0:0:0:
402,192,128464,1,0,0:0:0:0:
256,192,128560,1,0,0:0:0:0:
109,192,128560,1,0,0:0:0:0:
182,192,128657,1,0,0:0:0:0:
36,192,128657,1,0,0:0:0:0:
329,192,128657,1,0,0:0:0:0:
475,192,128657,1,0,0:0:0:0:
402,192,128657,1,0,0:0:0:0:
256,192,128754,1,0,0:0:0:0:
109,192,128851,1,0,0:0:0:0:
329,192,128851,1,0,0:0:0:0:
402,192,128948,1,0,0:0:0:0:
182,192,128948,1,0,0:0:0:0:
256,192,129044,1,0,0:0:0:0:
36,192,129044,1,0,0:0:0:0:
109,192,129044,1,0,0:0:0:0:
329,192,129044,1,0,0:0:0:0:
475,192,129044,1,0,0:0:0:0:
182,192,129141,1,0,0:0:0:0:
402,192,129141,1,0,0:0:0:0:
109,192,129238,1,0,0:0:0:0:
36,192,129238,1,0,0:0:0:0:
256,192,129335,1,0,0:0:0:0:
402,192,129335,1,0,0:0:0:0:
109,192,129431,1,0,0:0:0:0:
329,192,129431,1,0,0:0:0:0:
475,192,129431,1,0,0:0:0:0:
36,192,129431,1,0,0:0:0:0:
182,192,129528,1,0,0:0:0:0:
256,192,129528,1,0,0:0:0:0:
329,192,129625,1,0,0:0:0:0:
475,192,129625,1,0,0:0:0:0:
402,192,129722,1,0,0:0:0:0:
256,192,129722,1,0,0:0:0:0:
109,192,129819,1,0,0:0:0:0:
36,192,129819,1,0,0:0:0:0:
182,192,129819,1,0,0:0:0:0:
475,192,129819,1,0,0:0:0:0:
329,192,129819,1,0,0:0:0:0:
256,192,129915,1,0,0:0:0:0:
402,192,129915,1,0,0:0:0:0:
182,192,130012,1,0,0:0:0:0:
36,192,130012,1,0,0:0:0:0:
109,192,130109,1,0,0:0:0:0:
256,192,130109,1,0,0:0:0:0:
182,192,130206,1,0,0:0:0:0:
329,192,130206,1,0,0:0:0:0:
402,192,130206,1,0,0:0:0:0:
475,192,130206,1,0,0:0:0:0:
36,192,130206,1,0,0:0:0:0:
256,192,130496,1,0,0:0:0:0:
182,192,130496,1,0,0:0:0:0:
329,192,130496,1,0,0:0:0:0:
475,192,130496,1,0,0:0:0:0:
36,192,130496,1,0,0:0:0:0:
182,192,130786,1,0,0:0:0:0:
109,192,130786,1,0,0:0:0:0:
36,192,130786,1,0,0:0:0:0:
329,192,130786,1,0,0:0:0:0:
475,192,130786,1,0,0:0:0:0:
256,192,130883,1,0,0:0:0:0:
256,192,131077,1,0,0:0:0:0:
329,192,131173,1,0,0:0:0:0:
402,192,131270,1,0,0:0:0:0:
182,192,131270,1,0,0:0:0:0:
475,192,131270,1,0,0:0:0:0:
36,192,131270,1,0,0:0:0:0:
109,192,131270,1,0,0:0:0:0:
256,192,131367,1,0,0:0:0:0:
329,192,131464,1,0,0:0:0:0:
402,192,131464,1,0,0:0:0:0:
475,192,131464,1,0,0:0:0:0:
109,192,131464,1,0,0:0:0:0:
36,192,131464,1,0,0:0:0:0:
182,192,131560,1,0,0:0:0:0:
329,192,131657,1,0,0:0:0:0:
256,192,131754,1,0,0:0:0:0:
109,192,131754,1,0,0:0:0:0:
36,192,131754,1,0,0:0:0:0:
475,192,131754,1,0,0:0:0:0:
402,192,131754,1,0,0:0:0:0:
182,192,131851,1,0,0:0:0:0:
329,192,131948,1,0,0:0:0:0:
475,192,131948,1,0,0:0:0:0:
109,192,131948,1,0,0:0:0:0:
256,192,132044,1,0,0:0:0:0:
36,192,132044,1,0,0:0:0:0:
182,192,132141,1,0,0:0:0:0:
329,192,132141,1,0,0:0:0:0:
402,192,132141,1,0,0:0:0:0:
475,192,132141,1,0,0:0:0:0:
109,192,132141,1,0,0:0:0:0:
36,192,132238,1,0,0:0:0:0:
256,192,132238,1,0,0:0:0:0:
402,192,132335,1,0,0:0:0:0:
182,192,132335,1,0,0:0:0:0:
256,192,132431,1,0,0:0:0:0:
475,192,132431,1,0,0:0:0:0:
329,192,132528,1,0,0:0:0:0:
182,192,132528,1,0,0:0:0:0:
36,192,132528,1,0,0:0:0:0:
109,192,132528,1,0,0:0:0:0:
402,192,132625,1,0,0:0:0:0:
475,192,132625,1,0,0:0:0:0:
109,192,132722,1,0,0:0:0:0:
36,192,132722,1,0,0:0:0:0:
182,192,132819,1,0,0:0:0:0:
329,192,132819,1,0,0:0:0:0:
109,192,132915,1,0,0:0:0:0:
36,192,132915,1,0,0:0:0:0:
475,192,132915,1,0,0:0:0:0:
256,192,132915,1,0,0:0:0:0:
402,192,132915,1,0,0:0:0:0:
329,192,133012,1,0,0:0:0:0:
182,192,133012,1,0,0:0:0:0:
475,192,133109,1,0,0:0:0:0:
402,192,133109,1,0,0:0:0:0:
256,192,133206,1,0,0:0:0:0:
109,192,133206,1,0,0:0:0:0:
182,192,133302,1,0,0:0:0:0:
329,192,133302,1,0,0:0:0:0:
475,192,133302,1,0,0:0:0:0:
402,192,133302,1,0,0:0:0:0:
36,192,133302,1,0,0:0:0:0:
256,192,133399,1,0,0:0:0:0:
182,192,133496,1,0,0:0:0:0:
109,192,133496,1,0,0:0:0:0:
402,192,133593,1,0,0:0:0:0:
475,192,133593,1,0,0:0:0:0:
182,192,133689,1,0,0:0:0:0:
109,192,133689,1,0,0:0:0:0:
36,192,133689,1,0,0:0:0:0:
256,192,133689,1,0,0:0:0:0:
329,192,133689,1,0,0:0:0:0:
402,192,133786,1,0,0:0:0:0:
475,192,133786,1,0,0:0:0:0:
109,192,133883,1,0,0:0:0:0:
36,192,133883,1,0,0:0:0:0:
182,192,133980,1,0,0:0:0:0:
256,192,133980,1,0,0:0:0:0:
329,192,133980,1,0,0:0:0:0:
402,192,133980,1,0,0:0:0:0:
475,192,133980,1,0,0:0:0:0:
256,192,134270,1,0,0:0:0:0:
36,192,134270,1,0,0:0:0:0:
329,192,134367,1,0,0:0:0:0:
109,192,134367,1,0,0:0:0:0:
182,192,134464,1,0,0:0:0:0:
256,192,134464,1,0,0:0:0:0:
402,192,134464,1,0,0:0:0:0:
475,192,134464,1,0,0:0:0:0:
36,192,134464,1,0,0:0:0:0:
329,192,134657,1,0,0:0:0:0:
182,192,134657,1,0,0:0:0:0:
109,192,134657,1,0,0:0:0:0:
109,192,134851,1,0,0:0:0:0:
36,192,134851,1,0,0:0:0:0:
256,192,134851,1,0,0:0:0:0:
402,192,134851,1,0,0:0:0:0:
475,192,134851,1,0,0:0:0:0:
329,192,134948,1,0,0:0:0:0:
402,192,135044,1,0,0:0:0:0:
182,192,135044,1,0,0:0:0:0:
36,192,135044,1,0,0:0:0:0:
256,192,135141,1,0,0:0:0:0:
475,192,135141,1,0,0:0:0:0:
329,192,135238,1,0,0:0:0:0:
109,192,135238,1,0,0:0:0:0:
36,192,135238,1,0,0:0:0:0:
182,192,135238,1,0,0:0:0:0:
402,192,135335,1,0,0:0:0:0:
475,192,135335,1,0,0:0:0:0:
256,192,135431,1,0,0:0:0:0:
36,192,135431,1,0,0:0:0:0:
109,192,135431,1,0,0:0:0:0:
329,192,135528,1,0,0:0:0:0:
402,192,135528,1,0,0:0:0:0:
182,192,135625,1,0,0:0:0:0:
256,192,135625,1,0,0:0:0:0:
475,192,135625,1,0,0:0:0:0:
109,192,135625,1,0,0:0:0:0:
36,192,135625,1,0,0:0:0:0:
329,192,135722,1,0,0:0:0:0:
402,192,135722,1,0,0:0:0:0:
109,192,135819,1,0,0:0:0:0:
182,192,135819,1,0,0:0:0:0:
256,192,135819,1,0,0:0:0:0:
475,192,135915,1,0,0:0:0:0:
402,192,135915,1,0,0:0:0:0:
182,192,136012,1,0,0:0:0:0:
36,192,136012,1,0,0:0:0:0:
109,192,136012,1,0,0:0:0:0:
256,192,136012,1,0,0:0:0:0:
475,192,136109,1,0,0:0:0:0:
402,192,136109,1,0,0:0:0:0:
329,192,136206,1,0,0:0:0:0:
256,192,136206,1,0,0:0:0:0:
182,192,136206,1,0,0:0:0:0:
109,192,136302,1,0,0:0:0:0:
36,192,136302,1,0,0:0:0:0:
329,192,136399,1,0,0:0:0:0:
256,192,136399,1,0,0:0:0:0:
402,192,136399,1,0,0:0:0:0:
475,192,136399,1,0,0:0:0:0:
182,192,136399,1,0,0:0:0:0:
36,192,136496,1,0,0:0:0:0:
109,192,136496,1,0,0:0:0:0:
329,192,136593,1,0,0:0:0:0:
182,192,136593,1,0,0:0:0:0:
402,192,136593,1,0,0:0:0:0:
475,192,136593,1,0,0:0:0:0:
256,192,136689,1,0,0:0:0:0:
109,192,136689,1,0,0:0:0:0:
182,192,136786,1,0,0:0:0:0:
329,192,136786,1,0,0:0:0:0:
475,192,136786,1,0,0:0:0:0:
402,192,136786,1,0,0:0:0:0:
36,192,136786,1,0,0:0:0:0:
109,192,136883,1,0,0:0:0:0:
256,192,136883,1,0,0:0:0:0:
329,192,136980,1,0,0:0:0:0:
182,192,136980,1,0,0:0:0:0:
109,192,137077,1,0,0:0:0:0:
36,192,137077,1,0,0:0:0:0:
256,192,137077,1,0,0:0:0:0:
402,192,137077,1,0,0:0:0:0:
475,192,137077,1,0,0:0:0:0:
36,192,137560,1,0,0:0:0:0:
402,192,137560,1,0,0:0:0:0:
182,192,137609,1,0,0:0:0:0:
329,192,137657,1,0,0:0:0:0:
475,192,137657,1,0,0:0:0:0:
109,192,137706,1,0,0:0:0:0:
256,192,137754,1,0,0:0:0:0:
402,192,137754,1,0,0:0:0:0:
36,192,137802,1,0,0:0:0:0:
182,192,137851,1,0,0:0:0:0:
329,192,137851,1,0,0:0:0:0:
36,192,137948,1,0,0:0:0:0:
256,192,137948,1,0,0:0:0:0:
402,192,137948,1,0,0:0:0:0:
475,192,137948,1,0,0:0:0:0:
182,192,138044,1,0,0:0:0:0:
109,192,138044,1,0,0:0:0:0:
329,192,138044,1,0,0:0:0:0:
256,192,138238,1,0,0:0:0:0:
475,192,138238,1,0,0:0:0:0:
109,192,138238,1,0,0:0:0:0:
36,192,138238,1,0,0:0:0:0:
182,192,138335,1,0,0:0:0:0:
329,192,138335,1,0,0:0:0:0:
402,192,138335,1,0,0:0:0:0:
182,192,138528,1,0,0:0:0:0:
36,192,138528,1,0,0:0:0:0:
402,192,138528,1,0,0:0:0:0:
475,192,138528,1,0,0:0:0:0:
329,192,138625,1,0,0:0:0:0:
256,192,138625,1,0,0:0:0:0:
109,192,138625,1,0,0:0:0:0:
329,192,138819,1,0,0:0:0:0:
109,192,138819,1,0,0:0:0:0:
36,192,138819,1,0,0:0:0:0:
475,192,138819,1,0,0:0:0:0:
182,192,138915,1,0,0:0:0:0:
256,192,138915,1,0,0:0:0:0:
402,192,138915,1,0,0:0:0:0:
36,192,139109,1,0,0:0:0:0:
182,192,139109,1,0,0:0:0:0:
402,192,139109,1,0,0:0:0:0:
329,192,139109,1,0,0:0:0:0:
256,192,139206,1,0,0:0:0:0:
109,192,139206,1,0,0:0:0:0:
475,192,139206,1,0,0:0:0:0:
329,192,139399,1,0,0:0:0:0:
402,192,139399,1,0,0:0:0:0:
475,192,139399,1,0,0:0:0:0:
182,192,139399,1,0,0:0:0:0:
109,192,139399,1,0,0:0:0:0:
36,192,139399,1,0,0:0:0:0:
