osu file format v14

[General]
AudioFilename: audio.mp3
AudioLeadIn: 0
PreviewTime: 79559
Countdown: 0
SampleSet: Soft
StackLeniency: 0.7
Mode: 3
LetterboxInBreaks: 0
SpecialStyle: 0
WidescreenStoryboard: 1

[Editor]
Bookmarks: 21454,31559,41665,51770,61875,71980,82086,92191,102296,122507,132612,142717,147770,152822,162928,173033
DistanceSpacing: 2.3
BeatDivisor: 5
GridSize: 32
TimelineZoom: 3.299999

[Metadata]
Title:O
TitleUnicode:〇∞
Artist:seatrus
ArtistUnicode:seatrus
Creator:Shiro_122
Version:To The Infinity | Extra
Source:
Tags:hirata kiyohiko M3 2021 秋 Fall 東京流通センター Tokyo Distribution Center TRC uL- AquaTC Disguise infinite infinity loudly cloudly breakcore electronic instrumental fa featured artist
BeatmapID:4224474
BeatmapSetID:2027374

[Difficulty]
HPDrainRate:8.4
CircleSize:4
OverallDifficulty:8.4
ApproachRate:10
SliderMultiplier:1.4
SliderTickRate:1

[Events]
//Background and Video events
0,0,"hi.jpg",0,0
//Break Periods
//Storyboard Layer 0 (Background)
//Storyboard Layer 1 (Fail)
//Storyboard Layer 2 (Pass)
//Storyboard Layer 3 (Foreground)
//Storyboard Layer 4 (Overlay)
//Storyboard Sound Samples

[TimingPoints]
1244,315.789473684211,4,2,1,20,1,0
61875,-100,4,2,1,25,0,0
62349,-100,4,2,1,15,0,0
62822,-100,4,2,1,10,0,0
63296,-100,4,2,1,5,0,0
64401,-100,4,2,1,25,0,0
64875,-100,4,2,1,15,0,0
65349,-100,4,2,1,10,0,0
65822,-100,4,2,1,5,0,0
66928,-100,4,2,1,25,0,0
67402,-100,4,2,1,15,0,0
67875,-100,4,2,1,10,0,0
68349,-100,4,2,1,5,0,0
69454,-100,4,2,1,25,0,0
69928,-100,4,2,1,15,0,0
70402,-100,4,2,1,10,0,0
70875,-100,4,2,1,5,0,0
71980,-100,4,2,1,20,0,0

[HitObjects]
320,192,1244,5,0,0:0:0:0:
192,192,1270,1,0,0:0:0:0:
64,192,1296,128,0,3454:0:0:0:0:
320,192,3770,5,0,0:0:0:0:
192,192,3796,1,0,0:0:0:0:
64,192,3822,128,0,5665:0:0:0:0:
192,192,5822,128,0,6138:0:0:0:0:
320,192,6296,5,0,0:0:0:0:
192,192,6322,1,0,0:0:0:0:
64,192,6349,128,0,8507:0:0:0:0:
320,192,8822,5,0,0:0:0:0:
192,192,8849,1,0,0:0:0:0:
64,192,8875,128,0,10717:0:0:0:0:
192,192,10875,128,0,11191:0:0:0:0:
64,192,11349,1,0,0:0:0:0:
192,192,11375,1,0,0:0:0:0:
320,192,11401,128,0,13559:0:0:0:0:
64,192,13875,1,0,0:0:0:0:
192,192,13901,1,0,0:0:0:0:
320,192,13928,128,0,15770:0:0:0:0:
448,192,15928,128,0,16244:0:0:0:0:
64,192,16401,1,0,0:0:0:0:
192,192,16428,1,0,0:0:0:0:
320,192,16454,128,0,18612:0:0:0:0:
64,192,18928,1,0,0:0:0:0:
192,192,18954,1,0,0:0:0:0:
320,192,18980,128,0,20822:0:0:0:0:
192,192,20980,128,0,21296:0:0:0:0:
64,192,21454,1,0,0:0:0:0:
448,192,21454,1,0,0:0:0:0:
192,192,21612,1,0,0:0:0:0:
320,192,21691,1,0,0:0:0:0:
192,192,21770,1,0,0:0:0:0:
448,192,21849,1,0,0:0:0:0:
64,192,21928,1,0,0:0:0:0:
448,192,21928,1,0,0:0:0:0:
192,192,22086,1,0,0:0:0:0:
448,192,22165,1,0,0:0:0:0:
64,192,22244,1,0,0:0:0:0:
320,192,22322,1,0,0:0:0:0:
448,192,22401,1,0,0:0:0:0:
192,192,22401,1,0,0:0:0:0:
64,192,22480,1,0,0:0:0:0:
192,192,22559,1,0,0:0:0:0:
320,192,22638,1,0,0:0:0:0:
64,192,22717,1,0,0:0:0:0:
320,192,22717,1,0,0:0:0:0:
192,192,22875,1,0,0:0:0:0:
448,192,22954,1,0,0:0:0:0:
192,192,23033,1,0,0:0:0:0:
320,192,23112,1,0,0:0:0:0:
64,192,23191,1,0,0:0:0:0:
320,192,23191,1,0,0:0:0:0:
320,192,23349,1,0,0:0:0:0:
64,192,23428,1,0,0:0:0:0:
192,192,23507,1,0,0:0:0:0:
448,192,23546,1,0,0:0:0:0:
320,192,23586,1,0,0:0:0:0:
192,192,23625,1,0,0:0:0:0:
64,192,23665,1,0,0:0:0:0:
448,192,23665,1,0,0:0:0:0:
448,192,23770,1,0,0:0:0:0:
320,192,23770,1,0,0:0:0:0:
192,192,23875,1,0,0:0:0:0:
320,192,23875,1,0,0:0:0:0:
64,192,23980,1,0,0:0:0:0:
192,192,23980,1,0,0:0:0:0:
320,192,24138,1,0,0:0:0:0:
448,192,24217,1,0,0:0:0:0:
64,192,24296,1,0,0:0:0:0:
192,192,24375,1,0,0:0:0:0:
192,192,24454,1,0,0:0:0:0:
320,192,24454,1,0,0:0:0:0:
320,192,24612,1,0,0:0:0:0:
448,192,24691,1,0,0:0:0:0:
64,192,24770,1,0,0:0:0:0:
320,192,24849,1,0,0:0:0:0:
192,192,24928,1,0,0:0:0:0:
448,192,24928,1,0,0:0:0:0:
64,192,25007,1,0,0:0:0:0:
192,192,25086,1,0,0:0:0:0:
448,192,25165,1,0,0:0:0:0:
448,192,25244,1,0,0:0:0:0:
64,192,25244,1,0,0:0:0:0:
320,192,25401,1,0,0:0:0:0:
192,192,25480,1,0,0:0:0:0:
192,192,25559,1,0,0:0:0:0:
64,192,25559,1,0,0:0:0:0:
320,192,25717,1,0,0:0:0:0:
448,192,25796,1,0,0:0:0:0:
64,192,25875,1,0,0:0:0:0:
320,192,25875,1,0,0:0:0:0:
448,192,25875,1,0,0:0:0:0:
192,192,26033,1,0,0:0:0:0:
64,192,26191,1,0,0:0:0:0:
320,192,26191,1,0,0:0:0:0:
192,192,26349,1,0,0:0:0:0:
320,192,26349,1,0,0:0:0:0:
448,192,26349,1,0,0:0:0:0:
64,192,26507,1,0,0:0:0:0:
448,192,26507,1,0,0:0:0:0:
192,192,26665,1,0,0:0:0:0:
448,192,26744,1,0,0:0:0:0:
192,192,26822,1,0,0:0:0:0:
320,192,26901,1,0,0:0:0:0:
64,192,26980,1,0,0:0:0:0:
320,192,26980,1,0,0:0:0:0:
192,192,27138,1,0,0:0:0:0:
448,192,27217,1,0,0:0:0:0:
64,192,27296,1,0,0:0:0:0:
320,192,27375,1,0,0:0:0:0:
448,192,27454,1,0,0:0:0:0:
192,192,27454,1,0,0:0:0:0:
64,192,27533,1,0,0:0:0:0:
192,192,27612,1,0,0:0:0:0:
448,192,27691,1,0,0:0:0:0:
64,192,27770,1,0,0:0:0:0:
448,192,27770,1,0,0:0:0:0:
192,192,27928,1,0,0:0:0:0:
448,192,28007,1,0,0:0:0:0:
320,192,28086,1,0,0:0:0:0:
192,192,28165,1,0,0:0:0:0:
64,192,28244,1,0,0:0:0:0:
192,192,28244,1,0,0:0:0:0:
320,192,28401,1,0,0:0:0:0:
64,192,28480,1,0,0:0:0:0:
192,192,28559,1,0,0:0:0:0:
448,192,28599,1,0,0:0:0:0:
320,192,28638,1,0,0:0:0:0:
192,192,28678,1,0,0:0:0:0:
64,192,28717,1,0,0:0:0:0:
448,192,28717,1,0,0:0:0:0:
320,192,28822,1,0,0:0:0:0:
448,192,28822,1,0,0:0:0:0:
192,192,28928,1,0,0:0:0:0:
320,192,28928,1,0,0:0:0:0:
64,192,29033,1,0,0:0:0:0:
192,192,29033,1,0,0:0:0:0:
448,192,29191,1,0,0:0:0:0:
192,192,29270,1,0,0:0:0:0:
320,192,29349,1,0,0:0:0:0:
64,192,29428,1,0,0:0:0:0:
64,192,29507,1,0,0:0:0:0:
448,192,29507,1,0,0:0:0:0:
192,192,29665,1,0,0:0:0:0:
320,192,29744,1,0,0:0:0:0:
64,192,29822,1,0,0:0:0:0:
320,192,29901,1,0,0:0:0:0:
192,192,29980,1,0,0:0:0:0:
448,192,29980,1,0,0:0:0:0:
64,192,30059,1,0,0:0:0:0:
192,192,30138,1,0,0:0:0:0:
320,192,30217,1,0,0:0:0:0:
448,192,30296,1,0,0:0:0:0:
64,192,30296,1,0,0:0:0:0:
192,192,30336,1,0,0:0:0:0:
320,192,30375,1,0,0:0:0:0:
448,192,30415,1,0,0:0:0:0:
64,192,30454,1,0,0:0:0:0:
192,192,30494,1,0,0:0:0:0:
320,192,30533,1,0,0:0:0:0:
448,192,30572,1,0,0:0:0:0:
192,192,30612,1,0,0:0:0:0:
192,192,30691,1,0,0:0:0:0:
320,192,30770,1,0,0:0:0:0:
320,192,30849,1,0,0:0:0:0:
64,192,30928,1,0,0:0:0:0:
448,192,30928,1,0,0:0:0:0:
192,192,31086,1,0,0:0:0:0:
448,192,31086,1,0,0:0:0:0:
64,192,31086,1,0,0:0:0:0:
64,192,31244,1,0,0:0:0:0:
192,192,31244,1,0,0:0:0:0:
320,192,31244,1,0,0:0:0:0:
64,192,31401,1,0,0:0:0:0:
448,192,31401,1,0,0:0:0:0:
320,192,31401,1,0,0:0:0:0:
320,192,31559,1,0,0:0:0:0:
448,192,31559,1,0,0:0:0:0:
192,192,31559,1,0,0:0:0:0:
64,192,31717,1,0,0:0:0:0:
192,192,31717,1,0,0:0:0:0:
320,192,31796,1,0,0:0:0:0:
64,192,31796,1,0,0:0:0:0:
448,192,31954,1,0,0:0:0:0:
320,192,31954,1,0,0:0:0:0:
448,192,32033,1,0,0:0:0:0:
192,192,32033,1,0,0:0:0:0:
192,192,32191,1,0,0:0:0:0:
64,192,32191,1,0,0:0:0:0:
192,192,32270,1,0,0:0:0:0:
448,192,32270,1,0,0:0:0:0:
64,192,32349,1,0,0:0:0:0:
320,192,32428,1,0,0:0:0:0:
64,192,32507,1,0,0:0:0:0:
192,192,32586,1,0,0:0:0:0:
320,192,32665,1,0,0:0:0:0:
448,192,32665,1,0,0:0:0:0:
64,192,32822,1,0,0:0:0:0:
192,192,32822,1,0,0:0:0:0:
448,192,32822,1,0,0:0:0:0:
320,192,32980,1,0,0:0:0:0:
192,192,32980,1,0,0:0:0:0:
320,192,33059,1,0,0:0:0:0:
64,192,33059,1,0,0:0:0:0:
192,192,33217,1,0,0:0:0:0:
320,192,33217,1,0,0:0:0:0:
192,192,33296,1,0,0:0:0:0:
448,192,33296,1,0,0:0:0:0:
448,192,33454,1,0,0:0:0:0:
320,192,33454,1,0,0:0:0:0:
64,192,33494,1,0,0:0:0:0:
192,192,33533,1,0,0:0:0:0:
320,192,33572,1,0,0:0:0:0:
448,192,33612,1,0,0:0:0:0:
448,192,33691,1,0,0:0:0:0:
64,192,33770,1,0,0:0:0:0:
192,192,33770,1,0,0:0:0:0:
64,192,33849,1,0,0:0:0:0:
320,192,33928,1,0,0:0:0:0:
448,192,33928,1,0,0:0:0:0:
448,192,34007,1,0,0:0:0:0:
64,192,34086,1,0,0:0:0:0:
192,192,34086,1,0,0:0:0:0:
320,192,34086,1,0,0:0:0:0:
320,192,34244,1,0,0:0:0:0:
448,192,34244,1,0,0:0:0:0:
192,192,34322,1,0,0:0:0:0:
448,192,34322,1,0,0:0:0:0:
64,192,34480,1,0,0:0:0:0:
192,192,34480,1,0,0:0:0:0:
64,192,34559,1,0,0:0:0:0:
320,192,34559,1,0,0:0:0:0:
192,192,34638,1,0,0:0:0:0:
448,192,34717,1,0,0:0:0:0:
64,192,34796,1,0,0:0:0:0:
320,192,34796,1,0,0:0:0:0:
192,192,34875,1,0,0:0:0:0:
64,192,34954,1,0,0:0:0:0:
448,192,34954,1,0,0:0:0:0:
320,192,35033,1,0,0:0:0:0:
192,192,35112,1,0,0:0:0:0:
64,192,35191,1,0,0:0:0:0:
448,192,35270,1,0,0:0:0:0:
64,192,35349,1,0,0:0:0:0:
192,192,35349,1,0,0:0:0:0:
320,192,35349,1,0,0:0:0:0:
320,192,35507,1,0,0:0:0:0:
448,192,35507,1,0,0:0:0:0:
320,192,35586,1,0,0:0:0:0:
192,192,35586,1,0,0:0:0:0:
64,192,35744,1,0,0:0:0:0:
192,192,35744,1,0,0:0:0:0:
192,192,35822,1,0,0:0:0:0:
320,192,35822,1,0,0:0:0:0:
64,192,35980,1,0,0:0:0:0:
192,192,36020,1,0,0:0:0:0:
448,192,36059,1,0,0:0:0:0:
320,192,36099,1,0,0:0:0:0:
192,192,36138,1,0,0:0:0:0:
64,192,36138,128,0,36454:0:0:0:0:
320,192,36612,1,0,0:0:0:0:
448,192,36612,1,0,0:0:0:0:
192,192,36612,1,0,0:0:0:0:
192,192,36770,1,0,0:0:0:0:
64,192,36770,1,0,0:0:0:0:
320,192,36849,1,0,0:0:0:0:
64,192,36849,1,0,0:0:0:0:
448,192,37007,1,0,0:0:0:0:
320,192,37007,1,0,0:0:0:0:
448,192,37086,1,0,0:0:0:0:
192,192,37086,1,0,0:0:0:0:
192,192,37244,1,0,0:0:0:0:
64,192,37244,1,0,0:0:0:0:
192,192,37322,1,0,0:0:0:0:
320,192,37322,1,0,0:0:0:0:
64,192,37401,1,0,0:0:0:0:
320,192,37480,1,0,0:0:0:0:
64,192,37559,1,0,0:0:0:0:
192,192,37638,1,0,0:0:0:0:
320,192,37717,1,0,0:0:0:0:
448,192,37717,1,0,0:0:0:0:
64,192,37875,1,0,0:0:0:0:
192,192,37875,1,0,0:0:0:0:
448,192,37875,1,0,0:0:0:0:
320,192,38033,1,0,0:0:0:0:
192,192,38033,1,0,0:0:0:0:
320,192,38112,1,0,0:0:0:0:
64,192,38112,1,0,0:0:0:0:
192,192,38270,1,0,0:0:0:0:
320,192,38270,1,0,0:0:0:0:
192,192,38349,1,0,0:0:0:0:
448,192,38349,1,0,0:0:0:0:
448,192,38507,1,0,0:0:0:0:
320,192,38507,1,0,0:0:0:0:
64,192,38546,1,0,0:0:0:0:
192,192,38586,1,0,0:0:0:0:
320,192,38625,1,0,0:0:0:0:
448,192,38665,1,0,0:0:0:0:
448,192,38744,1,0,0:0:0:0:
64,192,38822,1,0,0:0:0:0:
192,192,38822,1,0,0:0:0:0:
64,192,38901,1,0,0:0:0:0:
320,192,38980,1,0,0:0:0:0:
448,192,38980,1,0,0:0:0:0:
448,192,39059,1,0,0:0:0:0:
64,192,39138,1,0,0:0:0:0:
192,192,39138,1,0,0:0:0:0:
320,192,39138,1,0,0:0:0:0:
320,192,39296,1,0,0:0:0:0:
448,192,39296,1,0,0:0:0:0:
448,192,39375,1,0,0:0:0:0:
192,192,39375,1,0,0:0:0:0:
64,192,39533,1,0,0:0:0:0:
192,192,39533,1,0,0:0:0:0:
64,192,39612,1,0,0:0:0:0:
320,192,39612,1,0,0:0:0:0:
192,192,39691,1,0,0:0:0:0:
448,192,39770,1,0,0:0:0:0:
64,192,39849,1,0,0:0:0:0:
320,192,39849,1,0,0:0:0:0:
192,192,39928,1,0,0:0:0:0:
64,192,40007,1,0,0:0:0:0:
448,192,40007,1,0,0:0:0:0:
320,192,40086,1,0,0:0:0:0:
192,192,40165,1,0,0:0:0:0:
64,192,40244,1,0,0:0:0:0:
320,192,40322,1,0,0:0:0:0:
64,192,40401,1,0,0:0:0:0:
448,192,40401,1,0,0:0:0:0:
192,192,40401,1,0,0:0:0:0:
320,192,40559,1,0,0:0:0:0:
448,192,40559,1,0,0:0:0:0:
192,192,40638,1,0,0:0:0:0:
320,192,40638,1,0,0:0:0:0:
64,192,40796,1,0,0:0:0:0:
192,192,40796,1,0,0:0:0:0:
192,192,40875,1,0,0:0:0:0:
320,192,40875,1,0,0:0:0:0:
64,192,41033,1,0,0:0:0:0:
192,192,41072,1,0,0:0:0:0:
448,192,41112,1,0,0:0:0:0:
320,192,41151,1,0,0:0:0:0:
64,192,41191,1,0,0:0:0:0:
192,192,41191,128,0,41507:0:0:0:0:
64,192,41665,1,0,0:0:0:0:
448,192,41665,1,0,0:0:0:0:
320,192,41665,1,0,0:0:0:0:
192,192,41822,1,0,0:0:0:0:
320,192,41901,1,0,0:0:0:0:
192,192,41980,1,0,0:0:0:0:
320,192,42059,1,0,0:0:0:0:
64,192,42138,1,0,0:0:0:0:
192,192,42138,1,0,0:0:0:0:
448,192,42138,1,0,0:0:0:0:
192,192,42296,1,0,0:0:0:0:
448,192,42375,1,0,0:0:0:0:
320,192,42454,1,0,0:0:0:0:
64,192,42533,1,0,0:0:0:0:
448,192,42612,1,0,0:0:0:0:
192,192,42612,1,0,0:0:0:0:
320,192,42612,1,0,0:0:0:0:
64,192,42691,1,0,0:0:0:0:
192,192,42770,1,0,0:0:0:0:
320,192,42849,1,0,0:0:0:0:
64,192,42928,1,0,0:0:0:0:
448,192,42928,1,0,0:0:0:0:
192,192,42928,1,0,0:0:0:0:
192,192,43086,1,0,0:0:0:0:
448,192,43165,1,0,0:0:0:0:
192,192,43244,1,0,0:0:0:0:
448,192,43322,1,0,0:0:0:0:
64,192,43401,1,0,0:0:0:0:
192,192,43401,1,0,0:0:0:0:
320,192,43401,1,0,0:0:0:0:
320,192,43559,1,0,0:0:0:0:
64,192,43638,1,0,0:0:0:0:
192,192,43717,1,0,0:0:0:0:
448,192,43757,1,0,0:0:0:0:
320,192,43796,1,0,0:0:0:0:
192,192,43836,1,0,0:0:0:0:
64,192,43875,1,0,0:0:0:0:
448,192,43875,1,0,0:0:0:0:
448,192,43980,1,0,0:0:0:0:
320,192,43980,1,0,0:0:0:0:
192,192,44086,1,0,0:0:0:0:
320,192,44086,1,0,0:0:0:0:
64,192,44191,1,0,0:0:0:0:
192,192,44191,1,0,0:0:0:0:
320,192,44349,1,0,0:0:0:0:
448,192,44428,1,0,0:0:0:0:
64,192,44507,1,0,0:0:0:0:
320,192,44586,1,0,0:0:0:0:
192,192,44665,1,0,0:0:0:0:
64,192,44665,1,0,0:0:0:0:
448,192,44665,1,0,0:0:0:0:
448,192,44822,1,0,0:0:0:0:
64,192,44901,1,0,0:0:0:0:
320,192,44980,1,0,0:0:0:0:
192,192,45059,1,0,0:0:0:0:
64,192,45138,1,0,0:0:0:0:
448,192,45138,1,0,0:0:0:0:
320,192,45138,1,0,0:0:0:0:
192,192,45217,1,0,0:0:0:0:
320,192,45296,1,0,0:0:0:0:
64,192,45375,1,0,0:0:0:0:
448,192,45375,1,0,0:0:0:0:
448,192,45454,1,0,0:0:0:0:
320,192,45454,1,0,0:0:0:0:
192,192,45454,1,0,0:0:0:0:
320,192,45612,1,0,0:0:0:0:
64,192,45691,1,0,0:0:0:0:
192,192,45691,1,0,0:0:0:0:
64,192,45770,1,0,0:0:0:0:
448,192,45770,1,0,0:0:0:0:
320,192,45928,1,0,0:0:0:0:
448,192,45928,1,0,0:0:0:0:
192,192,46007,1,0,0:0:0:0:
64,192,46086,1,0,0:0:0:0:
448,192,46086,1,0,0:0:0:0:
320,192,46086,1,0,0:0:0:0:
192,192,46244,1,0,0:0:0:0:
64,192,46401,1,0,0:0:0:0:
320,192,46401,1,0,0:0:0:0:
192,192,46559,1,0,0:0:0:0:
320,192,46559,1,0,0:0:0:0:
448,192,46559,1,0,0:0:0:0:
64,192,46717,1,0,0:0:0:0:
448,192,46717,1,0,0:0:0:0:
192,192,46717,1,0,0:0:0:0:
192,192,46875,1,0,0:0:0:0:
320,192,46954,1,0,0:0:0:0:
64,192,47033,1,0,0:0:0:0:
448,192,47112,1,0,0:0:0:0:
64,192,47191,1,0,0:0:0:0:
320,192,47191,1,0,0:0:0:0:
192,192,47191,1,0,0:0:0:0:
192,192,47349,1,0,0:0:0:0:
448,192,47428,1,0,0:0:0:0:
320,192,47507,1,0,0:0:0:0:
64,192,47586,1,0,0:0:0:0:
448,192,47665,1,0,0:0:0:0:
192,192,47665,1,0,0:0:0:0:
320,192,47665,1,0,0:0:0:0:
64,192,47744,1,0,0:0:0:0:
192,192,47822,1,0,0:0:0:0:
320,192,47901,1,0,0:0:0:0:
64,192,47980,1,0,0:0:0:0:
448,192,47980,1,0,0:0:0:0:
192,192,47980,1,0,0:0:0:0:
320,192,48138,1,0,0:0:0:0:
448,192,48217,1,0,0:0:0:0:
192,192,48296,1,0,0:0:0:0:
448,192,48375,1,0,0:0:0:0:
64,192,48454,1,0,0:0:0:0:
192,192,48454,1,0,0:0:0:0:
320,192,48454,1,0,0:0:0:0:
320,192,48612,1,0,0:0:0:0:
192,192,48770,1,0,0:0:0:0:
64,192,48770,1,0,0:0:0:0:
448,192,48809,1,0,0:0:0:0:
320,192,48849,1,0,0:0:0:0:
64,192,48928,1,0,0:0:0:0:
448,192,48928,1,0,0:0:0:0:
320,192,49033,1,0,0:0:0:0:
448,192,49033,1,0,0:0:0:0:
192,192,49138,1,0,0:0:0:0:
320,192,49138,1,0,0:0:0:0:
64,192,49244,1,0,0:0:0:0:
192,192,49244,1,0,0:0:0:0:
448,192,49244,1,0,0:0:0:0:
320,192,49401,1,0,0:0:0:0:
192,192,49480,1,0,0:0:0:0:
320,192,49559,1,0,0:0:0:0:
64,192,49559,1,0,0:0:0:0:
448,192,49559,1,0,0:0:0:0:
192,192,49638,1,0,0:0:0:0:
64,192,49717,1,0,0:0:0:0:
448,192,49717,1,0,0:0:0:0:
192,192,49875,1,0,0:0:0:0:
320,192,49954,1,0,0:0:0:0:
64,192,50033,1,0,0:0:0:0:
448,192,50033,1,0,0:0:0:0:
192,192,50033,1,0,0:0:0:0:
320,192,50112,1,0,0:0:0:0:
448,192,50191,1,0,0:0:0:0:
192,192,50191,1,0,0:0:0:0:
64,192,50270,1,0,0:0:0:0:
192,192,50349,1,0,0:0:0:0:
320,192,50428,1,0,0:0:0:0:
448,192,50507,1,0,0:0:0:0:
64,192,50507,1,0,0:0:0:0:
192,192,50546,1,0,0:0:0:0:
320,192,50586,1,0,0:0:0:0:
448,192,50625,1,0,0:0:0:0:
64,192,50665,1,0,0:0:0:0:
192,192,50704,1,0,0:0:0:0:
320,192,50744,1,0,0:0:0:0:
448,192,50783,1,0,0:0:0:0:
192,192,50822,1,0,0:0:0:0:
192,192,50901,1,0,0:0:0:0:
320,192,50980,1,0,0:0:0:0:
320,192,51059,1,0,0:0:0:0:
64,192,51138,1,0,0:0:0:0:
448,192,51138,1,0,0:0:0:0:
192,192,51138,1,0,0:0:0:0:
192,192,51296,1,0,0:0:0:0:
320,192,51296,1,0,0:0:0:0:
448,192,51296,1,0,0:0:0:0:
64,192,51454,1,0,0:0:0:0:
192,192,51454,1,0,0:0:0:0:
320,192,51454,1,0,0:0:0:0:
64,192,51612,1,0,0:0:0:0:
192,192,51612,1,0,0:0:0:0:
448,192,51612,1,0,0:0:0:0:
320,192,51770,1,0,0:0:0:0:
448,192,51770,1,0,0:0:0:0:
192,192,51770,1,0,0:0:0:0:
192,192,51928,1,0,0:0:0:0:
64,192,51928,1,0,0:0:0:0:
64,192,52007,1,0,0:0:0:0:
320,192,52007,1,0,0:0:0:0:
448,192,52165,1,0,0:0:0:0:
320,192,52165,1,0,0:0:0:0:
448,192,52244,1,0,0:0:0:0:
192,192,52244,1,0,0:0:0:0:
192,192,52401,1,0,0:0:0:0:
64,192,52401,1,0,0:0:0:0:
320,192,52401,1,0,0:0:0:0:
448,192,52480,1,0,0:0:0:0:
320,192,52559,1,0,0:0:0:0:
192,192,52638,1,0,0:0:0:0:
64,192,52717,1,0,0:0:0:0:
448,192,52717,1,0,0:0:0:0:
192,192,52796,1,0,0:0:0:0:
448,192,52875,1,0,0:0:0:0:
320,192,52875,1,0,0:0:0:0:
64,192,52875,1,0,0:0:0:0:
64,192,53033,1,0,0:0:0:0:
448,192,53033,1,0,0:0:0:0:
320,192,53191,1,0,0:0:0:0:
192,192,53191,1,0,0:0:0:0:
320,192,53270,1,0,0:0:0:0:
64,192,53270,1,0,0:0:0:0:
192,192,53428,1,0,0:0:0:0:
320,192,53428,1,0,0:0:0:0:
192,192,53507,1,0,0:0:0:0:
448,192,53507,1,0,0:0:0:0:
448,192,53665,1,0,0:0:0:0:
64,192,53665,1,0,0:0:0:0:
320,192,53717,1,0,0:0:0:0:
192,192,53770,1,0,0:0:0:0:
64,192,53822,1,0,0:0:0:0:
448,192,53901,1,0,0:0:0:0:
320,192,53901,1,0,0:0:0:0:
64,192,53980,1,0,0:0:0:0:
192,192,53980,1,0,0:0:0:0:
192,192,54059,1,0,0:0:0:0:
320,192,54138,1,0,0:0:0:0:
448,192,54138,1,0,0:0:0:0:
320,192,54217,1,0,0:0:0:0:
64,192,54296,1,0,0:0:0:0:
192,192,54296,1,0,0:0:0:0:
448,192,54296,1,0,0:0:0:0:
320,192,54454,1,0,0:0:0:0:
448,192,54454,1,0,0:0:0:0:
448,192,54533,1,0,0:0:0:0:
192,192,54533,1,0,0:0:0:0:
64,192,54691,1,0,0:0:0:0:
192,192,54691,1,0,0:0:0:0:
64,192,54770,1,0,0:0:0:0:
320,192,54770,1,0,0:0:0:0:
320,192,54928,1,0,0:0:0:0:
448,192,54928,1,0,0:0:0:0:
192,192,54928,1,0,0:0:0:0:
64,192,55007,1,0,0:0:0:0:
320,192,55086,1,0,0:0:0:0:
192,192,55165,1,0,0:0:0:0:
64,192,55244,1,0,0:0:0:0:
448,192,55244,1,0,0:0:0:0:
320,192,55322,1,0,0:0:0:0:
448,192,55401,1,0,0:0:0:0:
64,192,55401,1,0,0:0:0:0:
192,192,55401,1,0,0:0:0:0:
320,192,55480,1,0,0:0:0:0:
64,192,55559,1,0,0:0:0:0:
192,192,55559,1,0,0:0:0:0:
192,192,55717,1,0,0:0:0:0:
320,192,55717,1,0,0:0:0:0:
320,192,55796,1,0,0:0:0:0:
64,192,55796,1,0,0:0:0:0:
192,192,55954,1,0,0:0:0:0:
320,192,55954,1,0,0:0:0:0:
192,192,56033,1,0,0:0:0:0:
448,192,56033,1,0,0:0:0:0:
448,192,56191,1,0,0:0:0:0:
320,192,56230,1,0,0:0:0:0:
64,192,56270,1,0,0:0:0:0:
192,192,56309,1,0,0:0:0:0:
320,192,56349,1,0,0:0:0:0:
448,192,56349,128,0,56665:0:0:0:0:
320,192,56822,1,0,0:0:0:0:
448,192,56822,1,0,0:0:0:0:
192,192,56822,1,0,0:0:0:0:
192,192,56980,1,0,0:0:0:0:
64,192,56980,1,0,0:0:0:0:
320,192,57059,1,0,0:0:0:0:
64,192,57059,1,0,0:0:0:0:
448,192,57217,1,0,0:0:0:0:
320,192,57217,1,0,0:0:0:0:
448,192,57296,1,0,0:0:0:0:
192,192,57296,1,0,0:0:0:0:
192,192,57454,1,0,0:0:0:0:
64,192,57454,1,0,0:0:0:0:
320,192,57454,1,0,0:0:0:0:
448,192,57533,1,0,0:0:0:0:
320,192,57612,1,0,0:0:0:0:
192,192,57691,1,0,0:0:0:0:
64,192,57691,1,0,0:0:0:0:
448,192,57770,1,0,0:0:0:0:
64,192,57849,1,0,0:0:0:0:
320,192,57849,1,0,0:0:0:0:
192,192,57928,1,0,0:0:0:0:
64,192,57928,1,0,0:0:0:0:
448,192,57928,1,0,0:0:0:0:
64,192,58086,1,0,0:0:0:0:
192,192,58086,1,0,0:0:0:0:
448,192,58086,1,0,0:0:0:0:
320,192,58244,1,0,0:0:0:0:
192,192,58244,1,0,0:0:0:0:
320,192,58322,1,0,0:0:0:0:
64,192,58322,1,0,0:0:0:0:
192,192,58480,1,0,0:0:0:0:
320,192,58480,1,0,0:0:0:0:
192,192,58559,1,0,0:0:0:0:
448,192,58559,1,0,0:0:0:0:
448,192,58717,1,0,0:0:0:0:
64,192,58717,1,0,0:0:0:0:
320,192,58770,1,0,0:0:0:0:
192,192,58822,1,0,0:0:0:0:
64,192,58875,1,0,0:0:0:0:
448,192,58954,1,0,0:0:0:0:
320,192,58954,1,0,0:0:0:0:
64,192,59033,1,0,0:0:0:0:
192,192,59033,1,0,0:0:0:0:
192,192,59112,1,0,0:0:0:0:
320,192,59191,1,0,0:0:0:0:
448,192,59191,1,0,0:0:0:0:
320,192,59270,1,0,0:0:0:0:
64,192,59349,1,0,0:0:0:0:
192,192,59349,1,0,0:0:0:0:
448,192,59349,1,0,0:0:0:0:
64,192,59507,1,0,0:0:0:0:
320,192,59507,1,0,0:0:0:0:
64,192,59586,1,0,0:0:0:0:
192,192,59586,1,0,0:0:0:0:
192,192,59744,1,0,0:0:0:0:
448,192,59744,1,0,0:0:0:0:
448,192,59822,1,0,0:0:0:0:
320,192,59822,1,0,0:0:0:0:
64,192,59980,1,0,0:0:0:0:
192,192,59980,1,0,0:0:0:0:
448,192,59980,1,0,0:0:0:0:
320,192,60059,1,0,0:0:0:0:
192,192,60138,1,0,0:0:0:0:
64,192,60217,1,0,0:0:0:0:
448,192,60296,1,0,0:0:0:0:
192,192,60296,1,0,0:0:0:0:
320,192,60375,1,0,0:0:0:0:
448,192,60454,1,0,0:0:0:0:
64,192,60454,1,0,0:0:0:0:
192,192,60454,1,0,0:0:0:0:
320,192,60533,1,0,0:0:0:0:
64,192,60612,1,0,0:0:0:0:
448,192,60612,1,0,0:0:0:0:
192,192,60770,1,0,0:0:0:0:
320,192,60770,1,0,0:0:0:0:
192,192,60849,1,0,0:0:0:0:
448,192,60849,1,0,0:0:0:0:
192,192,61007,1,0,0:0:0:0:
320,192,61007,1,0,0:0:0:0:
320,192,61086,1,0,0:0:0:0:
64,192,61086,1,0,0:0:0:0:
64,192,61244,1,0,0:0:0:0:
192,192,61283,1,0,0:0:0:0:
448,192,61322,1,0,0:0:0:0:
320,192,61362,1,0,0:0:0:0:
64,192,61401,1,0,0:0:0:0:
192,192,61401,128,0,61717:0:0:0:0:
320,192,61875,1,0,0:0:0:0:
448,192,61875,1,0,0:0:0:0:
64,192,61875,1,0,0:0:0:0:
192,192,61954,1,0,0:0:0:0:
320,192,62033,1,0,0:0:0:0:
64,192,62112,1,0,0:0:0:0:
448,192,62191,1,0,0:0:0:0:
192,192,62270,1,0,0:0:0:0:
320,192,62349,1,0,0:0:0:0:
448,192,62349,1,0,0:0:0:0:
320,192,62507,1,0,0:0:0:0:
64,192,62586,1,0,0:0:0:0:
448,192,62665,1,0,0:0:0:0:
192,192,62744,1,0,0:0:0:0:
320,192,62822,1,0,0:0:0:0:
448,192,62822,1,0,0:0:0:0:
320,192,62980,1,0,0:0:0:0:
64,192,63059,1,0,0:0:0:0:
448,192,63138,1,0,0:0:0:0:
192,192,63217,1,0,0:0:0:0:
448,192,63296,1,0,0:0:0:0:
320,192,63454,1,0,0:0:0:0:
64,192,63533,1,0,0:0:0:0:
448,192,63612,1,0,0:0:0:0:
192,192,63691,1,0,0:0:0:0:
64,192,63770,1,0,0:0:0:0:
64,192,63849,1,0,0:0:0:0:
448,192,63928,1,0,0:0:0:0:
448,192,64007,1,0,0:0:0:0:
320,192,64086,128,0,64322:0:0:0:0:
192,192,64322,128,0,64401:0:0:0:0:
64,192,64401,1,0,0:0:0:0:
448,192,64401,1,0,0:0:0:0:
320,192,64401,1,0,0:0:0:0:
192,192,64480,1,0,0:0:0:0:
320,192,64559,1,0,0:0:0:0:
64,192,64638,1,0,0:0:0:0:
448,192,64717,1,0,0:0:0:0:
192,192,64796,1,0,0:0:0:0:
320,192,64875,1,0,0:0:0:0:
448,192,64875,1,0,0:0:0:0:
320,192,65033,1,0,0:0:0:0:
64,192,65112,1,0,0:0:0:0:
448,192,65191,1,0,0:0:0:0:
192,192,65270,1,0,0:0:0:0:
320,192,65349,1,0,0:0:0:0:
448,192,65349,1,0,0:0:0:0:
320,192,65507,1,0,0:0:0:0:
64,192,65586,1,0,0:0:0:0:
448,192,65665,1,0,0:0:0:0:
192,192,65744,1,0,0:0:0:0:
448,192,65822,1,0,0:0:0:0:
320,192,65980,1,0,0:0:0:0:
64,192,66059,1,0,0:0:0:0:
448,192,66138,1,0,0:0:0:0:
192,192,66217,1,0,0:0:0:0:
64,192,66296,1,0,0:0:0:0:
64,192,66375,1,0,0:0:0:0:
448,192,66454,1,0,0:0:0:0:
448,192,66533,1,0,0:0:0:0:
320,192,66612,128,0,66849:0:0:0:0:
192,192,66849,128,0,66928:0:0:0:0:
64,192,66928,1,0,0:0:0:0:
448,192,66928,1,0,0:0:0:0:
320,192,66928,1,0,0:0:0:0:
192,192,67007,1,0,0:0:0:0:
320,192,67086,1,0,0:0:0:0:
64,192,67165,1,0,0:0:0:0:
448,192,67244,1,0,0:0:0:0:
192,192,67322,1,0,0:0:0:0:
448,192,67401,1,0,0:0:0:0:
320,192,67401,1,0,0:0:0:0:
320,192,67559,1,0,0:0:0:0:
64,192,67638,1,0,0:0:0:0:
448,192,67717,1,0,0:0:0:0:
192,192,67796,1,0,0:0:0:0:
448,192,67875,1,0,0:0:0:0:
320,192,67875,1,0,0:0:0:0:
320,192,68033,1,0,0:0:0:0:
64,192,68112,1,0,0:0:0:0:
448,192,68191,1,0,0:0:0:0:
192,192,68270,1,0,0:0:0:0:
448,192,68349,1,0,0:0:0:0:
320,192,68507,1,0,0:0:0:0:
64,192,68586,1,0,0:0:0:0:
448,192,68665,1,0,0:0:0:0:
192,192,68744,1,0,0:0:0:0:
64,192,68822,1,0,0:0:0:0:
64,192,68901,1,0,0:0:0:0:
448,192,68980,1,0,0:0:0:0:
448,192,69059,1,0,0:0:0:0:
320,192,69138,128,0,69375:0:0:0:0:
192,192,69375,128,0,69454:0:0:0:0:
320,192,69454,1,0,0:0:0:0:
448,192,69454,1,0,0:0:0:0:
64,192,69454,1,0,0:0:0:0:
192,192,69533,1,0,0:0:0:0:
320,192,69612,1,0,0:0:0:0:
64,192,69691,1,0,0:0:0:0:
448,192,69770,1,0,0:0:0:0:
192,192,69849,1,0,0:0:0:0:
320,192,69928,1,0,0:0:0:0:
448,192,69928,1,0,0:0:0:0:
320,192,70086,1,0,0:0:0:0:
64,192,70165,1,0,0:0:0:0:
448,192,70244,1,0,0:0:0:0:
192,192,70322,1,0,0:0:0:0:
320,192,70401,1,0,0:0:0:0:
448,192,70401,1,0,0:0:0:0:
320,192,70559,1,0,0:0:0:0:
64,192,70638,1,0,0:0:0:0:
448,192,70717,1,0,0:0:0:0:
192,192,70796,1,0,0:0:0:0:
448,192,70875,1,0,0:0:0:0:
320,192,71033,1,0,0:0:0:0:
64,192,71112,1,0,0:0:0:0:
448,192,71191,1,0,0:0:0:0:
192,192,71270,1,0,0:0:0:0:
64,192,71349,1,0,0:0:0:0:
64,192,71428,1,0,0:0:0:0:
448,192,71507,1,0,0:0:0:0:
448,192,71586,5,0,0:0:0:0:
192,192,71665,128,0,71901:0:0:0:0:
320,192,71901,128,0,71980:0:0:0:0:
64,192,71980,1,0,0:0:0:0:
448,192,71980,1,0,0:0:0:0:
192,192,71980,1,0,0:0:0:0:
192,192,72138,1,0,0:0:0:0:
320,192,72217,1,0,0:0:0:0:
192,192,72296,1,0,0:0:0:0:
448,192,72375,1,0,0:0:0:0:
64,192,72454,1,0,0:0:0:0:
320,192,72454,1,0,0:0:0:0:
192,192,72612,1,0,0:0:0:0:
448,192,72691,1,0,0:0:0:0:
64,192,72770,1,0,0:0:0:0:
320,192,72849,1,0,0:0:0:0:
448,192,72928,1,0,0:0:0:0:
192,192,72928,1,0,0:0:0:0:
64,192,73007,1,0,0:0:0:0:
192,192,73086,1,0,0:0:0:0:
320,192,73165,1,0,0:0:0:0:
64,192,73244,1,0,0:0:0:0:
448,192,73244,1,0,0:0:0:0:
192,192,73401,1,0,0:0:0:0:
448,192,73480,1,0,0:0:0:0:
192,192,73559,1,0,0:0:0:0:
448,192,73638,1,0,0:0:0:0:
64,192,73717,1,0,0:0:0:0:
192,192,73717,1,0,0:0:0:0:
320,192,73875,1,0,0:0:0:0:
64,192,73954,1,0,0:0:0:0:
192,192,74033,1,0,0:0:0:0:
448,192,74072,1,0,0:0:0:0:
320,192,74112,1,0,0:0:0:0:
192,192,74151,1,0,0:0:0:0:
64,192,74191,1,0,0:0:0:0:
448,192,74191,1,0,0:0:0:0:
448,192,74296,1,0,0:0:0:0:
320,192,74296,1,0,0:0:0:0:
192,192,74401,1,0,0:0:0:0:
320,192,74401,1,0,0:0:0:0:
64,192,74507,1,0,0:0:0:0:
192,192,74507,1,0,0:0:0:0:
320,192,74665,1,0,0:0:0:0:
448,192,74744,1,0,0:0:0:0:
64,192,74822,1,0,0:0:0:0:
320,192,74901,1,0,0:0:0:0:
192,192,74980,1,0,0:0:0:0:
64,192,74980,1,0,0:0:0:0:
320,192,75138,1,0,0:0:0:0:
448,192,75217,1,0,0:0:0:0:
64,192,75296,1,0,0:0:0:0:
320,192,75375,1,0,0:0:0:0:
192,192,75454,1,0,0:0:0:0:
448,192,75454,1,0,0:0:0:0:
64,192,75533,1,0,0:0:0:0:
192,192,75612,1,0,0:0:0:0:
320,192,75691,1,0,0:0:0:0:
448,192,75770,1,0,0:0:0:0:
64,192,75770,1,0,0:0:0:0:
192,192,75928,1,0,0:0:0:0:
320,192,76007,1,0,0:0:0:0:
192,192,76086,1,0,0:0:0:0:
64,192,76086,1,0,0:0:0:0:
320,192,76244,1,0,0:0:0:0:
192,192,76322,1,0,0:0:0:0:
64,192,76401,1,0,0:0:0:0:
320,192,76401,1,0,0:0:0:0:
448,192,76401,1,0,0:0:0:0:
192,192,76559,1,0,0:0:0:0:
64,192,76717,1,0,0:0:0:0:
320,192,76717,1,0,0:0:0:0:
192,192,76875,1,0,0:0:0:0:
320,192,76875,1,0,0:0:0:0:
448,192,76875,1,0,0:0:0:0:
64,192,77033,1,0,0:0:0:0:
448,192,77033,1,0,0:0:0:0:
192,192,77191,1,0,0:0:0:0:
320,192,77270,1,0,0:0:0:0:
192,192,77349,1,0,0:0:0:0:
448,192,77428,1,0,0:0:0:0:
64,192,77507,1,0,0:0:0:0:
320,192,77507,1,0,0:0:0:0:
192,192,77665,1,0,0:0:0:0:
448,192,77744,1,0,0:0:0:0:
64,192,77822,1,0,0:0:0:0:
320,192,77901,1,0,0:0:0:0:
448,192,77980,1,0,0:0:0:0:
192,192,77980,1,0,0:0:0:0:
64,192,78059,1,0,0:0:0:0:
192,192,78138,1,0,0:0:0:0:
320,192,78217,1,0,0:0:0:0:
64,192,78296,1,0,0:0:0:0:
448,192,78296,1,0,0:0:0:0:
192,192,78454,1,0,0:0:0:0:
448,192,78533,1,0,0:0:0:0:
192,192,78612,1,0,0:0:0:0:
448,192,78691,1,0,0:0:0:0:
64,192,78770,1,0,0:0:0:0:
192,192,78770,1,0,0:0:0:0:
320,192,78928,1,0,0:0:0:0:
64,192,79007,1,0,0:0:0:0:
192,192,79086,1,0,0:0:0:0:
448,192,79125,1,0,0:0:0:0:
320,192,79165,1,0,0:0:0:0:
192,192,79204,1,0,0:0:0:0:
64,192,79244,1,0,0:0:0:0:
448,192,79244,1,0,0:0:0:0:
320,192,79349,1,0,0:0:0:0:
448,192,79349,1,0,0:0:0:0:
192,192,79454,1,0,0:0:0:0:
320,192,79454,1,0,0:0:0:0:
64,192,79559,1,0,0:0:0:0:
192,192,79559,1,0,0:0:0:0:
448,192,79717,1,0,0:0:0:0:
192,192,79796,1,0,0:0:0:0:
320,192,79875,1,0,0:0:0:0:
192,192,79954,1,0,0:0:0:0:
64,192,80033,1,0,0:0:0:0:
448,192,80033,1,0,0:0:0:0:
192,192,80191,1,0,0:0:0:0:
320,192,80270,1,0,0:0:0:0:
64,192,80349,1,0,0:0:0:0:
320,192,80428,1,0,0:0:0:0:
192,192,80507,1,0,0:0:0:0:
448,192,80507,1,0,0:0:0:0:
64,192,80586,1,0,0:0:0:0:
192,192,80665,1,0,0:0:0:0:
320,192,80744,1,0,0:0:0:0:
448,192,80822,1,0,0:0:0:0:
64,192,80822,1,0,0:0:0:0:
192,192,80862,1,0,0:0:0:0:
320,192,80901,1,0,0:0:0:0:
448,192,80941,1,0,0:0:0:0:
64,192,80980,1,0,0:0:0:0:
192,192,81020,1,0,0:0:0:0:
320,192,81059,1,0,0:0:0:0:
448,192,81099,1,0,0:0:0:0:
192,192,81138,1,0,0:0:0:0:
192,192,81217,1,0,0:0:0:0:
320,192,81296,1,0,0:0:0:0:
320,192,81375,1,0,0:0:0:0:
64,192,81454,1,0,0:0:0:0:
448,192,81454,1,0,0:0:0:0:
64,192,81612,1,0,0:0:0:0:
192,192,81612,1,0,0:0:0:0:
320,192,81612,1,0,0:0:0:0:
192,192,81770,1,0,0:0:0:0:
320,192,81770,1,0,0:0:0:0:
448,192,81770,1,0,0:0:0:0:
64,192,81928,1,0,0:0:0:0:
320,192,81928,1,0,0:0:0:0:
448,192,81928,1,0,0:0:0:0:
64,192,82086,1,0,0:0:0:0:
192,192,82086,1,0,0:0:0:0:
448,192,82086,1,0,0:0:0:0:
448,192,82244,1,0,0:0:0:0:
64,192,82283,1,0,0:0:0:0:
320,192,82322,1,0,0:0:0:0:
192,192,82362,1,0,0:0:0:0:
64,192,82401,1,0,0:0:0:0:
448,192,82401,1,0,0:0:0:0:
320,192,82559,1,0,0:0:0:0:
448,192,82559,1,0,0:0:0:0:
320,192,82638,1,0,0:0:0:0:
192,192,82638,1,0,0:0:0:0:
64,192,82796,1,0,0:0:0:0:
192,192,82875,1,0,0:0:0:0:
320,192,82875,1,0,0:0:0:0:
448,192,82875,1,0,0:0:0:0:
448,192,83033,1,0,0:0:0:0:
320,192,83072,1,0,0:0:0:0:
192,192,83112,1,0,0:0:0:0:
64,192,83151,1,0,0:0:0:0:
320,192,83191,1,0,0:0:0:0:
64,192,83270,1,0,0:0:0:0:
192,192,83349,1,0,0:0:0:0:
320,192,83349,1,0,0:0:0:0:
448,192,83349,1,0,0:0:0:0:
64,192,83507,1,0,0:0:0:0:
448,192,83546,1,0,0:0:0:0:
192,192,83586,1,0,0:0:0:0:
448,192,83665,1,0,0:0:0:0:
320,192,83665,1,0,0:0:0:0:
64,192,83665,1,0,0:0:0:0:
192,192,83744,1,0,0:0:0:0:
320,192,83783,1,0,0:0:0:0:
448,192,83822,1,0,0:0:0:0:
64,192,83822,1,0,0:0:0:0:
320,192,83901,1,0,0:0:0:0:
192,192,83980,1,0,0:0:0:0:
64,192,84059,1,0,0:0:0:0:
320,192,84138,1,0,0:0:0:0:
192,192,84138,1,0,0:0:0:0:
448,192,84138,1,0,0:0:0:0:
64,192,84217,1,0,0:0:0:0:
448,192,84296,1,0,0:0:0:0:
64,192,84375,1,0,0:0:0:0:
192,192,84375,1,0,0:0:0:0:
320,192,84454,1,0,0:0:0:0:
448,192,84533,1,0,0:0:0:0:
320,192,84612,1,0,0:0:0:0:
64,192,84612,1,0,0:0:0:0:
192,192,84612,1,0,0:0:0:0:
448,192,84691,1,0,0:0:0:0:
64,192,84770,1,0,0:0:0:0:
320,192,84770,1,0,0:0:0:0:
192,192,84849,1,0,0:0:0:0:
192,192,84928,1,0,0:0:0:0:
64,192,84928,1,0,0:0:0:0:
448,192,84928,1,0,0:0:0:0:
448,192,85086,1,0,0:0:0:0:
320,192,85086,1,0,0:0:0:0:
64,192,85165,1,0,0:0:0:0:
448,192,85244,1,0,0:0:0:0:
320,192,85322,1,0,0:0:0:0:
64,192,85322,1,0,0:0:0:0:
192,192,85401,1,0,0:0:0:0:
64,192,85401,1,0,0:0:0:0:
448,192,85480,1,0,0:0:0:0:
448,192,85559,1,0,0:0:0:0:
320,192,85559,1,0,0:0:0:0:
64,192,85638,1,0,0:0:0:0:
192,192,85717,1,0,0:0:0:0:
192,192,85796,1,0,0:0:0:0:
320,192,85796,1,0,0:0:0:0:
448,192,85875,1,0,0:0:0:0:
64,192,85875,1,0,0:0:0:0:
192,192,85954,1,0,0:0:0:0:
320,192,86033,1,0,0:0:0:0:
192,192,86112,1,0,0:0:0:0:
64,192,86112,1,0,0:0:0:0:
64,192,86191,1,0,0:0:0:0:
320,192,86191,1,0,0:0:0:0:
448,192,86191,1,0,0:0:0:0:
192,192,86270,1,0,0:0:0:0:
448,192,86349,1,0,0:0:0:0:
320,192,86349,1,0,0:0:0:0:
320,192,86428,1,0,0:0:0:0:
64,192,86665,1,0,0:0:0:0:
192,192,86665,1,0,0:0:0:0:
448,192,86665,128,0,86980:0:0:0:0:
64,192,86980,1,0,0:0:0:0:
192,192,87020,1,0,0:0:0:0:
320,192,87059,1,0,0:0:0:0:
448,192,87099,1,0,0:0:0:0:
64,192,87138,1,0,0:0:0:0:
192,192,87138,1,0,0:0:0:0:
320,192,87296,1,0,0:0:0:0:
192,192,87336,1,0,0:0:0:0:
448,192,87375,1,0,0:0:0:0:
64,192,87415,1,0,0:0:0:0:
192,192,87454,1,0,0:0:0:0:
320,192,87454,1,0,0:0:0:0:
448,192,87454,1,0,0:0:0:0:
64,192,87612,1,0,0:0:0:0:
192,192,87612,1,0,0:0:0:0:
320,192,87691,1,0,0:0:0:0:
192,192,87691,1,0,0:0:0:0:
448,192,87849,1,0,0:0:0:0:
64,192,87928,1,0,0:0:0:0:
192,192,87928,1,0,0:0:0:0:
320,192,87928,1,0,0:0:0:0:
448,192,88086,1,0,0:0:0:0:
320,192,88125,1,0,0:0:0:0:
192,192,88165,1,0,0:0:0:0:
64,192,88204,1,0,0:0:0:0:
448,192,88244,1,0,0:0:0:0:
320,192,88322,1,0,0:0:0:0:
192,192,88401,1,0,0:0:0:0:
64,192,88401,1,0,0:0:0:0:
448,192,88401,1,0,0:0:0:0:
320,192,88480,1,0,0:0:0:0:
64,192,88559,1,0,0:0:0:0:
192,192,88599,1,0,0:0:0:0:
448,192,88638,1,0,0:0:0:0:
64,192,88717,1,0,0:0:0:0:
192,192,88717,1,0,0:0:0:0:
320,192,88717,1,0,0:0:0:0:
448,192,88796,1,0,0:0:0:0:
320,192,88836,1,0,0:0:0:0:
64,192,88875,1,0,0:0:0:0:
192,192,88875,1,0,0:0:0:0:
448,192,88954,1,0,0:0:0:0:
192,192,89033,1,0,0:0:0:0:
320,192,89112,1,0,0:0:0:0:
192,192,89191,1,0,0:0:0:0:
64,192,89191,1,0,0:0:0:0:
448,192,89191,1,0,0:0:0:0:
320,192,89270,1,0,0:0:0:0:
448,192,89349,1,0,0:0:0:0:
64,192,89428,1,0,0:0:0:0:
192,192,89428,1,0,0:0:0:0:
320,192,89507,1,0,0:0:0:0:
448,192,89586,1,0,0:0:0:0:
64,192,89665,1,0,0:0:0:0:
192,192,89665,1,0,0:0:0:0:
320,192,89665,1,0,0:0:0:0:
448,192,89744,1,0,0:0:0:0:
64,192,89822,1,0,0:0:0:0:
320,192,89822,1,0,0:0:0:0:
192,192,89901,1,0,0:0:0:0:
192,192,89980,1,0,0:0:0:0:
64,192,89980,1,0,0:0:0:0:
448,192,89980,1,0,0:0:0:0:
448,192,90138,1,0,0:0:0:0:
320,192,90138,1,0,0:0:0:0:
64,192,90217,1,0,0:0:0:0:
448,192,90296,1,0,0:0:0:0:
320,192,90375,1,0,0:0:0:0:
64,192,90375,1,0,0:0:0:0:
192,192,90454,1,0,0:0:0:0:
64,192,90454,1,0,0:0:0:0:
448,192,90533,1,0,0:0:0:0:
448,192,90612,1,0,0:0:0:0:
320,192,90612,1,0,0:0:0:0:
64,192,90691,1,0,0:0:0:0:
192,192,90770,1,0,0:0:0:0:
192,192,90849,1,0,0:0:0:0:
320,192,90849,1,0,0:0:0:0:
448,192,90928,1,0,0:0:0:0:
64,192,90928,1,0,0:0:0:0:
192,192,91007,1,0,0:0:0:0:
320,192,91086,1,0,0:0:0:0:
192,192,91165,1,0,0:0:0:0:
64,192,91165,1,0,0:0:0:0:
64,192,91244,1,0,0:0:0:0:
320,192,91244,1,0,0:0:0:0:
448,192,91244,1,0,0:0:0:0:
192,192,91322,1,0,0:0:0:0:
448,192,91401,1,0,0:0:0:0:
320,192,91401,1,0,0:0:0:0:
320,192,91480,1,0,0:0:0:0:
64,192,91717,1,0,0:0:0:0:
192,192,91717,1,0,0:0:0:0:
448,192,91717,128,0,92033:0:0:0:0:
64,192,92033,1,0,0:0:0:0:
192,192,92072,1,0,0:0:0:0:
320,192,92112,1,0,0:0:0:0:
448,192,92151,1,0,0:0:0:0:
64,192,92191,1,0,0:0:0:0:
192,192,92191,1,0,0:0:0:0:
320,192,92191,1,0,0:0:0:0:
448,192,92349,1,0,0:0:0:0:
64,192,92388,1,0,0:0:0:0:
320,192,92428,1,0,0:0:0:0:
192,192,92467,1,0,0:0:0:0:
64,192,92507,1,0,0:0:0:0:
448,192,92507,1,0,0:0:0:0:
320,192,92665,1,0,0:0:0:0:
448,192,92665,1,0,0:0:0:0:
320,192,92744,1,0,0:0:0:0:
192,192,92744,1,0,0:0:0:0:
64,192,92901,1,0,0:0:0:0:
192,192,92901,1,0,0:0:0:0:
192,192,92980,1,0,0:0:0:0:
320,192,92980,1,0,0:0:0:0:
448,192,93138,1,0,0:0:0:0:
320,192,93178,1,0,0:0:0:0:
192,192,93217,1,0,0:0:0:0:
64,192,93257,1,0,0:0:0:0:
320,192,93296,1,0,0:0:0:0:
64,192,93375,128,0,93454:0:0:0:0:
192,192,93454,1,0,0:0:0:0:
320,192,93454,1,0,0:0:0:0:
320,192,93612,1,0,0:0:0:0:
448,192,93651,1,0,0:0:0:0:
192,192,93691,1,0,0:0:0:0:
320,192,93770,1,0,0:0:0:0:
64,192,93770,1,0,0:0:0:0:
192,192,93849,1,0,0:0:0:0:
64,192,93888,1,0,0:0:0:0:
448,192,93928,1,0,0:0:0:0:
320,192,93928,1,0,0:0:0:0:
192,192,94007,1,0,0:0:0:0:
64,192,94086,1,0,0:0:0:0:
320,192,94165,1,0,0:0:0:0:
448,192,94244,1,0,0:0:0:0:
64,192,94244,1,0,0:0:0:0:
320,192,94322,1,0,0:0:0:0:
448,192,94401,1,0,0:0:0:0:
64,192,94480,1,0,0:0:0:0:
192,192,94480,1,0,0:0:0:0:
320,192,94559,1,0,0:0:0:0:
448,192,94638,128,0,94717:0:0:0:0:
64,192,94717,1,0,0:0:0:0:
192,192,94717,1,0,0:0:0:0:
448,192,94796,1,0,0:0:0:0:
64,192,94875,1,0,0:0:0:0:
320,192,94875,1,0,0:0:0:0:
192,192,94954,1,0,0:0:0:0:
192,192,95033,1,0,0:0:0:0:
64,192,95033,1,0,0:0:0:0:
448,192,95191,1,0,0:0:0:0:
320,192,95191,1,0,0:0:0:0:
64,192,95270,1,0,0:0:0:0:
448,192,95349,1,0,0:0:0:0:
320,192,95428,1,0,0:0:0:0:
64,192,95428,1,0,0:0:0:0:
192,192,95507,1,0,0:0:0:0:
64,192,95507,1,0,0:0:0:0:
448,192,95586,1,0,0:0:0:0:
448,192,95665,1,0,0:0:0:0:
320,192,95665,1,0,0:0:0:0:
64,192,95744,1,0,0:0:0:0:
192,192,95822,1,0,0:0:0:0:
192,192,95901,1,0,0:0:0:0:
320,192,95901,128,0,95980:0:0:0:0:
448,192,95980,1,0,0:0:0:0:
64,192,95980,1,0,0:0:0:0:
192,192,96059,1,0,0:0:0:0:
320,192,96138,1,0,0:0:0:0:
192,192,96217,1,0,0:0:0:0:
64,192,96217,1,0,0:0:0:0:
64,192,96296,1,0,0:0:0:0:
448,192,96296,1,0,0:0:0:0:
192,192,96375,1,0,0:0:0:0:
320,192,96454,1,0,0:0:0:0:
448,192,96533,1,0,0:0:0:0:
320,192,96533,1,0,0:0:0:0:
64,192,96770,1,0,0:0:0:0:
192,192,96770,1,0,0:0:0:0:
448,192,96770,128,0,97086:0:0:0:0:
64,192,97086,1,0,0:0:0:0:
192,192,97125,1,0,0:0:0:0:
320,192,97165,1,0,0:0:0:0:
448,192,97204,1,0,0:0:0:0:
64,192,97244,1,0,0:0:0:0:
192,192,97244,1,0,0:0:0:0:
320,192,97401,1,0,0:0:0:0:
192,192,97441,1,0,0:0:0:0:
448,192,97480,1,0,0:0:0:0:
64,192,97520,1,0,0:0:0:0:
192,192,97559,1,0,0:0:0:0:
320,192,97559,1,0,0:0:0:0:
64,192,97717,1,0,0:0:0:0:
192,192,97717,1,0,0:0:0:0:
320,192,97796,1,0,0:0:0:0:
192,192,97796,1,0,0:0:0:0:
320,192,97954,1,0,0:0:0:0:
448,192,97954,1,0,0:0:0:0:
192,192,98033,1,0,0:0:0:0:
320,192,98033,1,0,0:0:0:0:
448,192,98191,1,0,0:0:0:0:
320,192,98230,1,0,0:0:0:0:
192,192,98270,1,0,0:0:0:0:
64,192,98309,1,0,0:0:0:0:
448,192,98349,1,0,0:0:0:0:
320,192,98428,128,0,98507:0:0:0:0:
192,192,98507,1,0,0:0:0:0:
64,192,98507,1,0,0:0:0:0:
320,192,98586,1,0,0:0:0:0:
64,192,98665,1,0,0:0:0:0:
192,192,98704,1,0,0:0:0:0:
448,192,98744,1,0,0:0:0:0:
64,192,98822,1,0,0:0:0:0:
320,192,98822,1,0,0:0:0:0:
192,192,98901,1,0,0:0:0:0:
320,192,98941,1,0,0:0:0:0:
64,192,98980,1,0,0:0:0:0:
448,192,98980,1,0,0:0:0:0:
192,192,99059,1,0,0:0:0:0:
448,192,99138,1,0,0:0:0:0:
320,192,99217,1,0,0:0:0:0:
192,192,99296,1,0,0:0:0:0:
64,192,99296,1,0,0:0:0:0:
448,192,99375,1,0,0:0:0:0:
192,192,99454,1,0,0:0:0:0:
64,192,99533,1,0,0:0:0:0:
448,192,99533,1,0,0:0:0:0:
320,192,99612,1,0,0:0:0:0:
448,192,99691,128,0,99770:0:0:0:0:
64,192,99770,1,0,0:0:0:0:
192,192,99770,1,0,0:0:0:0:
448,192,99849,1,0,0:0:0:0:
64,192,99928,1,0,0:0:0:0:
320,192,99928,1,0,0:0:0:0:
192,192,100007,1,0,0:0:0:0:
448,192,100086,1,0,0:0:0:0:
192,192,100086,1,0,0:0:0:0:
448,192,100244,1,0,0:0:0:0:
320,192,100244,1,0,0:0:0:0:
64,192,100322,1,0,0:0:0:0:
448,192,100401,1,0,0:0:0:0:
320,192,100480,1,0,0:0:0:0:
64,192,100480,1,0,0:0:0:0:
192,192,100559,1,0,0:0:0:0:
64,192,100559,1,0,0:0:0:0:
448,192,100638,1,0,0:0:0:0:
448,192,100717,1,0,0:0:0:0:
320,192,100717,1,0,0:0:0:0:
64,192,100796,1,0,0:0:0:0:
192,192,100875,1,0,0:0:0:0:
192,192,100954,1,0,0:0:0:0:
320,192,100954,128,0,101033:0:0:0:0:
448,192,101033,1,0,0:0:0:0:
64,192,101033,1,0,0:0:0:0:
192,192,101112,1,0,0:0:0:0:
320,192,101191,1,0,0:0:0:0:
192,192,101270,1,0,0:0:0:0:
64,192,101270,1,0,0:0:0:0:
64,192,101349,1,0,0:0:0:0:
448,192,101349,1,0,0:0:0:0:
192,192,101428,1,0,0:0:0:0:
320,192,101507,1,0,0:0:0:0:
320,192,101586,1,0,0:0:0:0:
448,192,101586,1,0,0:0:0:0:
64,192,101822,1,0,0:0:0:0:
192,192,101822,1,0,0:0:0:0:
448,192,101822,128,0,102138:0:0:0:0:
192,192,102296,1,0,0:0:0:0:
64,192,102296,1,0,0:0:0:0:
320,192,102296,1,0,0:0:0:0:
448,192,102454,1,0,0:0:0:0:
64,192,102494,1,0,0:0:0:0:
320,192,102533,1,0,0:0:0:0:
192,192,102572,1,0,0:0:0:0:
448,192,102612,1,0,0:0:0:0:
64,192,102612,1,0,0:0:0:0:
448,192,102770,1,0,0:0:0:0:
320,192,102770,1,0,0:0:0:0:
192,192,102849,1,0,0:0:0:0:
320,192,102849,1,0,0:0:0:0:
64,192,103007,1,0,0:0:0:0:
448,192,103086,1,0,0:0:0:0:
320,192,103086,1,0,0:0:0:0:
192,192,103086,1,0,0:0:0:0:
448,192,103244,1,0,0:0:0:0:
320,192,103283,1,0,0:0:0:0:
192,192,103322,1,0,0:0:0:0:
64,192,103362,1,0,0:0:0:0:
320,192,103401,1,0,0:0:0:0:
64,192,103480,1,0,0:0:0:0:
448,192,103559,1,0,0:0:0:0:
320,192,103559,1,0,0:0:0:0:
192,192,103559,1,0,0:0:0:0:
64,192,103717,1,0,0:0:0:0:
448,192,103757,1,0,0:0:0:0:
192,192,103796,1,0,0:0:0:0:
64,192,103875,1,0,0:0:0:0:
320,192,103875,1,0,0:0:0:0:
448,192,103875,1,0,0:0:0:0:
192,192,103954,1,0,0:0:0:0:
320,192,103994,1,0,0:0:0:0:
64,192,104033,1,0,0:0:0:0:
448,192,104033,1,0,0:0:0:0:
320,192,104112,1,0,0:0:0:0:
192,192,104191,1,0,0:0:0:0:
64,192,104270,1,0,0:0:0:0:
448,192,104349,1,0,0:0:0:0:
192,192,104349,1,0,0:0:0:0:
320,192,104349,1,0,0:0:0:0:
64,192,104428,1,0,0:0:0:0:
448,192,104507,1,0,0:0:0:0:
192,192,104586,1,0,0:0:0:0:
64,192,104586,1,0,0:0:0:0:
320,192,104665,1,0,0:0:0:0:
448,192,104744,1,0,0:0:0:0:
192,192,104822,1,0,0:0:0:0:
64,192,104822,1,0,0:0:0:0:
320,192,104822,1,0,0:0:0:0:
448,192,104901,1,0,0:0:0:0:
320,192,104980,1,0,0:0:0:0:
64,192,104980,1,0,0:0:0:0:
192,192,105059,1,0,0:0:0:0:
448,192,105138,1,0,0:0:0:0:
64,192,105138,1,0,0:0:0:0:
192,192,105138,1,0,0:0:0:0:
320,192,105296,1,0,0:0:0:0:
448,192,105296,1,0,0:0:0:0:
64,192,105375,1,0,0:0:0:0:
448,192,105454,1,0,0:0:0:0:
64,192,105533,1,0,0:0:0:0:
320,192,105533,1,0,0:0:0:0:
64,192,105612,1,0,0:0:0:0:
192,192,105612,1,0,0:0:0:0:
448,192,105691,1,0,0:0:0:0:
320,192,105770,1,0,0:0:0:0:
448,192,105770,1,0,0:0:0:0:
64,192,105849,1,0,0:0:0:0:
192,192,105928,1,0,0:0:0:0:
320,192,106007,1,0,0:0:0:0:
192,192,106007,1,0,0:0:0:0:
64,192,106086,1,0,0:0:0:0:
448,192,106086,1,0,0:0:0:0:
192,192,106165,1,0,0:0:0:0:
320,192,106244,1,0,0:0:0:0:
64,192,106322,1,0,0:0:0:0:
192,192,106322,1,0,0:0:0:0:
448,192,106401,1,0,0:0:0:0:
320,192,106401,1,0,0:0:0:0:
64,192,106401,1,0,0:0:0:0:
192,192,106480,1,0,0:0:0:0:
320,192,106559,1,0,0:0:0:0:
448,192,106559,1,0,0:0:0:0:
320,192,106638,1,0,0:0:0:0:
448,192,106875,128,0,107191:0:0:0:0:
192,192,106875,1,0,0:0:0:0:
64,192,106875,1,0,0:0:0:0:
64,192,107191,1,0,0:0:0:0:
192,192,107230,1,0,0:0:0:0:
320,192,107270,1,0,0:0:0:0:
448,192,107309,1,0,0:0:0:0:
192,192,107349,1,0,0:0:0:0:
64,192,107349,1,0,0:0:0:0:
192,192,107507,1,0,0:0:0:0:
448,192,107546,1,0,0:0:0:0:
320,192,107586,1,0,0:0:0:0:
64,192,107625,1,0,0:0:0:0:
448,192,107665,1,0,0:0:0:0:
320,192,107665,1,0,0:0:0:0:
192,192,107665,1,0,0:0:0:0:
192,192,107822,1,0,0:0:0:0:
64,192,107822,1,0,0:0:0:0:
192,192,107901,1,0,0:0:0:0:
320,192,107901,1,0,0:0:0:0:
448,192,108059,1,0,0:0:0:0:
320,192,108138,1,0,0:0:0:0:
192,192,108138,1,0,0:0:0:0:
64,192,108138,1,0,0:0:0:0:
448,192,108296,1,0,0:0:0:0:
320,192,108336,1,0,0:0:0:0:
192,192,108375,1,0,0:0:0:0:
64,192,108415,1,0,0:0:0:0:
448,192,108454,1,0,0:0:0:0:
320,192,108533,1,0,0:0:0:0:
448,192,108612,1,0,0:0:0:0:
64,192,108612,1,0,0:0:0:0:
192,192,108612,1,0,0:0:0:0:
320,192,108691,1,0,0:0:0:0:
64,192,108770,1,0,0:0:0:0:
192,192,108809,1,0,0:0:0:0:
448,192,108849,1,0,0:0:0:0:
320,192,108928,1,0,0:0:0:0:
192,192,108928,1,0,0:0:0:0:
64,192,108928,1,0,0:0:0:0:
448,192,109007,1,0,0:0:0:0:
320,192,109046,1,0,0:0:0:0:
192,192,109086,1,0,0:0:0:0:
64,192,109086,1,0,0:0:0:0:
448,192,109165,1,0,0:0:0:0:
192,192,109244,1,0,0:0:0:0:
320,192,109322,1,0,0:0:0:0:
448,192,109401,1,0,0:0:0:0:
64,192,109401,1,0,0:0:0:0:
192,192,109401,1,0,0:0:0:0:
320,192,109480,1,0,0:0:0:0:
448,192,109559,1,0,0:0:0:0:
192,192,109638,1,0,0:0:0:0:
64,192,109638,1,0,0:0:0:0:
320,192,109717,1,0,0:0:0:0:
448,192,109796,1,0,0:0:0:0:
320,192,109875,1,0,0:0:0:0:
192,192,109875,1,0,0:0:0:0:
64,192,109875,1,0,0:0:0:0:
448,192,109954,1,0,0:0:0:0:
320,192,110033,1,0,0:0:0:0:
64,192,110033,1,0,0:0:0:0:
192,192,110112,1,0,0:0:0:0:
448,192,110191,1,0,0:0:0:0:
64,192,110191,1,0,0:0:0:0:
192,192,110191,1,0,0:0:0:0:
320,192,110349,1,0,0:0:0:0:
448,192,110349,1,0,0:0:0:0:
64,192,110428,1,0,0:0:0:0:
448,192,110507,1,0,0:0:0:0:
64,192,110586,1,0,0:0:0:0:
320,192,110586,1,0,0:0:0:0:
64,192,110665,1,0,0:0:0:0:
192,192,110665,1,0,0:0:0:0:
448,192,110744,1,0,0:0:0:0:
320,192,110822,1,0,0:0:0:0:
448,192,110822,1,0,0:0:0:0:
64,192,110901,1,0,0:0:0:0:
192,192,110980,1,0,0:0:0:0:
320,192,111059,1,0,0:0:0:0:
192,192,111059,1,0,0:0:0:0:
64,192,111138,1,0,0:0:0:0:
448,192,111138,1,0,0:0:0:0:
192,192,111217,1,0,0:0:0:0:
320,192,111296,1,0,0:0:0:0:
64,192,111375,1,0,0:0:0:0:
192,192,111375,1,0,0:0:0:0:
448,192,111454,1,0,0:0:0:0:
320,192,111454,1,0,0:0:0:0:
64,192,111454,1,0,0:0:0:0:
192,192,111533,1,0,0:0:0:0:
320,192,111612,1,0,0:0:0:0:
448,192,111612,1,0,0:0:0:0:
320,192,111691,1,0,0:0:0:0:
448,192,111928,128,0,112244:0:0:0:0:
192,192,111928,1,0,0:0:0:0:
64,192,111928,1,0,0:0:0:0:
64,192,112244,5,0,0:0:0:0:
192,192,112283,1,0,0:0:0:0:
320,192,112322,1,0,0:0:0:0:
448,192,112362,1,0,0:0:0:0:
64,192,112401,5,0,0:0:0:0:
192,192,112401,1,0,0:0:0:0:
448,192,112559,1,0,0:0:0:0:
320,192,112638,1,0,0:0:0:0:
192,192,112717,1,0,0:0:0:0:
320,192,112796,1,0,0:0:0:0:
64,192,112875,1,0,0:0:0:0:
192,192,112875,1,0,0:0:0:0:
448,192,112875,1,0,0:0:0:0:
192,192,113033,1,0,0:0:0:0:
448,192,113112,1,0,0:0:0:0:
320,192,113191,1,0,0:0:0:0:
64,192,113270,1,0,0:0:0:0:
448,192,113349,1,0,0:0:0:0:
192,192,113349,1,0,0:0:0:0:
320,192,113349,1,0,0:0:0:0:
64,192,113428,1,0,0:0:0:0:
192,192,113507,1,0,0:0:0:0:
320,192,113586,1,0,0:0:0:0:
64,192,113665,1,0,0:0:0:0:
448,192,113665,1,0,0:0:0:0:
192,192,113665,1,0,0:0:0:0:
320,192,113822,1,0,0:0:0:0:
448,192,113901,1,0,0:0:0:0:
192,192,113980,1,0,0:0:0:0:
320,192,114059,1,0,0:0:0:0:
64,192,114138,1,0,0:0:0:0:
192,192,114138,1,0,0:0:0:0:
448,192,114138,1,0,0:0:0:0:
320,192,114296,1,0,0:0:0:0:
64,192,114375,1,0,0:0:0:0:
192,192,114454,1,0,0:0:0:0:
448,192,114494,1,0,0:0:0:0:
320,192,114533,1,0,0:0:0:0:
192,192,114572,1,0,0:0:0:0:
64,192,114612,1,0,0:0:0:0:
448,192,114612,1,0,0:0:0:0:
448,192,114717,1,0,0:0:0:0:
320,192,114717,1,0,0:0:0:0:
192,192,114822,1,0,0:0:0:0:
320,192,114822,1,0,0:0:0:0:
64,192,114928,1,0,0:0:0:0:
192,192,114928,1,0,0:0:0:0:
320,192,115086,1,0,0:0:0:0:
448,192,115165,1,0,0:0:0:0:
64,192,115244,1,0,0:0:0:0:
320,192,115322,1,0,0:0:0:0:
192,192,115401,1,0,0:0:0:0:
64,192,115401,1,0,0:0:0:0:
448,192,115401,1,0,0:0:0:0:
448,192,115559,1,0,0:0:0:0:
64,192,115638,1,0,0:0:0:0:
320,192,115717,1,0,0:0:0:0:
192,192,115796,1,0,0:0:0:0:
64,192,115875,1,0,0:0:0:0:
448,192,115875,1,0,0:0:0:0:
320,192,115875,1,0,0:0:0:0:
192,192,115954,1,0,0:0:0:0:
320,192,116033,1,0,0:0:0:0:
64,192,116112,1,0,0:0:0:0:
448,192,116112,1,0,0:0:0:0:
448,192,116191,1,0,0:0:0:0:
320,192,116191,1,0,0:0:0:0:
192,192,116191,1,0,0:0:0:0:
320,192,116349,1,0,0:0:0:0:
64,192,116428,1,0,0:0:0:0:
192,192,116428,1,0,0:0:0:0:
64,192,116507,1,0,0:0:0:0:
448,192,116507,1,0,0:0:0:0:
320,192,116665,1,0,0:0:0:0:
448,192,116665,1,0,0:0:0:0:
192,192,116744,1,0,0:0:0:0:
64,192,116822,1,0,0:0:0:0:
448,192,116822,1,0,0:0:0:0:
320,192,116822,1,0,0:0:0:0:
192,192,116980,1,0,0:0:0:0:
64,192,117138,1,0,0:0:0:0:
320,192,117138,1,0,0:0:0:0:
192,192,117296,1,0,0:0:0:0:
320,192,117296,1,0,0:0:0:0:
448,192,117296,1,0,0:0:0:0:
64,192,117454,1,0,0:0:0:0:
448,192,117454,1,0,0:0:0:0:
192,192,117454,1,0,0:0:0:0:
448,192,117612,1,0,0:0:0:0:
320,192,117691,1,0,0:0:0:0:
192,192,117770,1,0,0:0:0:0:
448,192,117849,1,0,0:0:0:0:
64,192,117928,1,0,0:0:0:0:
320,192,117928,1,0,0:0:0:0:
192,192,117928,1,0,0:0:0:0:
64,192,118086,1,0,0:0:0:0:
448,192,118165,1,0,0:0:0:0:
320,192,118244,1,0,0:0:0:0:
64,192,118322,1,0,0:0:0:0:
448,192,118401,1,0,0:0:0:0:
192,192,118401,1,0,0:0:0:0:
320,192,118401,1,0,0:0:0:0:
64,192,118480,1,0,0:0:0:0:
192,192,118559,1,0,0:0:0:0:
320,192,118638,1,0,0:0:0:0:
64,192,118717,1,0,0:0:0:0:
448,192,118717,1,0,0:0:0:0:
192,192,118717,1,0,0:0:0:0:
320,192,118875,1,0,0:0:0:0:
448,192,118954,1,0,0:0:0:0:
192,192,119033,1,0,0:0:0:0:
448,192,119112,1,0,0:0:0:0:
64,192,119191,1,0,0:0:0:0:
192,192,119191,1,0,0:0:0:0:
320,192,119191,1,0,0:0:0:0:
320,192,119349,1,0,0:0:0:0:
192,192,119507,1,0,0:0:0:0:
64,192,119507,1,0,0:0:0:0:
448,192,119546,1,0,0:0:0:0:
320,192,119586,1,0,0:0:0:0:
192,192,119625,1,0,0:0:0:0:
64,192,119665,1,0,0:0:0:0:
448,192,119665,1,0,0:0:0:0:
320,192,119770,1,0,0:0:0:0:
448,192,119770,1,0,0:0:0:0:
192,192,119875,1,0,0:0:0:0:
320,192,119875,1,0,0:0:0:0:
64,192,119980,1,0,0:0:0:0:
192,192,119980,1,0,0:0:0:0:
448,192,119980,1,0,0:0:0:0:
320,192,120138,1,0,0:0:0:0:
192,192,120217,1,0,0:0:0:0:
320,192,120296,1,0,0:0:0:0:
64,192,120296,1,0,0:0:0:0:
448,192,120296,1,0,0:0:0:0:
192,192,120375,1,0,0:0:0:0:
64,192,120454,1,0,0:0:0:0:
448,192,120454,1,0,0:0:0:0:
192,192,120612,1,0,0:0:0:0:
320,192,120691,1,0,0:0:0:0:
64,192,120770,1,0,0:0:0:0:
448,192,120770,1,0,0:0:0:0:
192,192,120770,1,0,0:0:0:0:
320,192,120849,1,0,0:0:0:0:
448,192,120928,1,0,0:0:0:0:
192,192,120928,1,0,0:0:0:0:
64,192,121007,1,0,0:0:0:0:
192,192,121086,1,0,0:0:0:0:
320,192,121165,1,0,0:0:0:0:
448,192,121244,1,0,0:0:0:0:
64,192,121244,1,0,0:0:0:0:
192,192,121283,1,0,0:0:0:0:
320,192,121322,1,0,0:0:0:0:
448,192,121362,1,0,0:0:0:0:
64,192,121401,1,0,0:0:0:0:
192,192,121441,1,0,0:0:0:0:
320,192,121480,1,0,0:0:0:0:
448,192,121520,1,0,0:0:0:0:
192,192,121559,1,0,0:0:0:0:
192,192,121638,1,0,0:0:0:0:
320,192,121717,1,0,0:0:0:0:
320,192,121796,1,0,0:0:0:0:
64,192,121875,1,0,0:0:0:0:
448,192,121875,1,0,0:0:0:0:
192,192,121875,1,0,0:0:0:0:
192,192,122033,1,0,0:0:0:0:
320,192,122033,1,0,0:0:0:0:
448,192,122033,1,0,0:0:0:0:
64,192,122191,1,0,0:0:0:0:
192,192,122191,1,0,0:0:0:0:
320,192,122191,1,0,0:0:0:0:
64,192,122349,1,0,0:0:0:0:
192,192,122349,1,0,0:0:0:0:
448,192,122349,1,0,0:0:0:0:
320,192,122507,1,0,0:0:0:0:
448,192,122507,1,0,0:0:0:0:
192,192,122507,1,0,0:0:0:0:
192,192,122665,1,0,0:0:0:0:
64,192,122665,1,0,0:0:0:0:
64,192,122744,1,0,0:0:0:0:
320,192,122744,1,0,0:0:0:0:
448,192,122901,1,0,0:0:0:0:
320,192,122901,1,0,0:0:0:0:
448,192,122980,1,0,0:0:0:0:
192,192,122980,1,0,0:0:0:0:
192,192,123138,1,0,0:0:0:0:
64,192,123138,1,0,0:0:0:0:
320,192,123138,1,0,0:0:0:0:
448,192,123217,1,0,0:0:0:0:
320,192,123296,1,0,0:0:0:0:
192,192,123375,1,0,0:0:0:0:
64,192,123454,1,0,0:0:0:0:
448,192,123454,1,0,0:0:0:0:
192,192,123533,1,0,0:0:0:0:
448,192,123612,1,0,0:0:0:0:
320,192,123612,1,0,0:0:0:0:
64,192,123612,1,0,0:0:0:0:
64,192,123770,1,0,0:0:0:0:
192,192,123770,1,0,0:0:0:0:
448,192,123770,1,0,0:0:0:0:
320,192,123928,1,0,0:0:0:0:
192,192,123928,1,0,0:0:0:0:
320,192,124007,1,0,0:0:0:0:
64,192,124007,1,0,0:0:0:0:
192,192,124165,1,0,0:0:0:0:
320,192,124165,1,0,0:0:0:0:
192,192,124244,1,0,0:0:0:0:
448,192,124244,1,0,0:0:0:0:
448,192,124401,1,0,0:0:0:0:
64,192,124401,1,0,0:0:0:0:
320,192,124454,1,0,0:0:0:0:
192,192,124507,1,0,0:0:0:0:
64,192,124559,1,0,0:0:0:0:
448,192,124638,1,0,0:0:0:0:
320,192,124638,1,0,0:0:0:0:
64,192,124717,1,0,0:0:0:0:
192,192,124717,1,0,0:0:0:0:
192,192,124796,1,0,0:0:0:0:
320,192,124875,1,0,0:0:0:0:
448,192,124875,1,0,0:0:0:0:
320,192,124954,1,0,0:0:0:0:
64,192,125033,1,0,0:0:0:0:
192,192,125033,1,0,0:0:0:0:
448,192,125033,1,0,0:0:0:0:
320,192,125191,1,0,0:0:0:0:
448,192,125191,1,0,0:0:0:0:
448,192,125270,1,0,0:0:0:0:
192,192,125270,1,0,0:0:0:0:
64,192,125428,1,0,0:0:0:0:
192,192,125428,1,0,0:0:0:0:
64,192,125507,1,0,0:0:0:0:
320,192,125507,1,0,0:0:0:0:
320,192,125665,1,0,0:0:0:0:
448,192,125665,1,0,0:0:0:0:
192,192,125665,1,0,0:0:0:0:
64,192,125744,1,0,0:0:0:0:
320,192,125822,1,0,0:0:0:0:
192,192,125901,1,0,0:0:0:0:
64,192,125980,1,0,0:0:0:0:
448,192,125980,1,0,0:0:0:0:
320,192,126059,1,0,0:0:0:0:
448,192,126138,1,0,0:0:0:0:
64,192,126138,1,0,0:0:0:0:
192,192,126138,1,0,0:0:0:0:
320,192,126217,1,0,0:0:0:0:
64,192,126296,1,0,0:0:0:0:
448,192,126296,1,0,0:0:0:0:
192,192,126296,1,0,0:0:0:0:
192,192,126454,1,0,0:0:0:0:
320,192,126454,1,0,0:0:0:0:
320,192,126533,1,0,0:0:0:0:
64,192,126533,1,0,0:0:0:0:
192,192,126691,1,0,0:0:0:0:
320,192,126691,1,0,0:0:0:0:
192,192,126770,1,0,0:0:0:0:
448,192,126770,1,0,0:0:0:0:
448,192,126928,1,0,0:0:0:0:
320,192,126967,1,0,0:0:0:0:
64,192,127007,1,0,0:0:0:0:
192,192,127046,1,0,0:0:0:0:
320,192,127086,1,0,0:0:0:0:
448,192,127086,128,0,127401:0:0:0:0:
320,192,127559,1,0,0:0:0:0:
448,192,127559,1,0,0:0:0:0:
192,192,127559,1,0,0:0:0:0:
192,192,127717,1,0,0:0:0:0:
64,192,127717,1,0,0:0:0:0:
320,192,127796,1,0,0:0:0:0:
64,192,127796,1,0,0:0:0:0:
448,192,127954,1,0,0:0:0:0:
320,192,127954,1,0,0:0:0:0:
448,192,128033,1,0,0:0:0:0:
192,192,128033,1,0,0:0:0:0:
192,192,128191,1,0,0:0:0:0:
64,192,128191,1,0,0:0:0:0:
320,192,128191,1,0,0:0:0:0:
448,192,128270,1,0,0:0:0:0:
320,192,128349,1,0,0:0:0:0:
192,192,128428,1,0,0:0:0:0:
64,192,128428,1,0,0:0:0:0:
448,192,128507,1,0,0:0:0:0:
64,192,128586,1,0,0:0:0:0:
320,192,128586,1,0,0:0:0:0:
192,192,128665,1,0,0:0:0:0:
64,192,128665,1,0,0:0:0:0:
448,192,128665,1,0,0:0:0:0:
64,192,128822,1,0,0:0:0:0:
192,192,128822,1,0,0:0:0:0:
448,192,128822,1,0,0:0:0:0:
320,192,128980,1,0,0:0:0:0:
192,192,128980,1,0,0:0:0:0:
320,192,129059,1,0,0:0:0:0:
64,192,129059,1,0,0:0:0:0:
192,192,129217,1,0,0:0:0:0:
320,192,129217,1,0,0:0:0:0:
192,192,129296,1,0,0:0:0:0:
448,192,129296,1,0,0:0:0:0:
448,192,129454,1,0,0:0:0:0:
64,192,129454,1,0,0:0:0:0:
320,192,129507,1,0,0:0:0:0:
192,192,129559,1,0,0:0:0:0:
64,192,129612,1,0,0:0:0:0:
448,192,129691,1,0,0:0:0:0:
320,192,129691,1,0,0:0:0:0:
64,192,129770,1,0,0:0:0:0:
192,192,129770,1,0,0:0:0:0:
192,192,129849,1,0,0:0:0:0:
320,192,129928,1,0,0:0:0:0:
448,192,129928,1,0,0:0:0:0:
320,192,130007,1,0,0:0:0:0:
64,192,130086,1,0,0:0:0:0:
192,192,130086,1,0,0:0:0:0:
448,192,130086,1,0,0:0:0:0:
64,192,130244,1,0,0:0:0:0:
320,192,130244,1,0,0:0:0:0:
64,192,130322,1,0,0:0:0:0:
192,192,130322,1,0,0:0:0:0:
192,192,130480,1,0,0:0:0:0:
448,192,130480,1,0,0:0:0:0:
448,192,130559,1,0,0:0:0:0:
320,192,130559,1,0,0:0:0:0:
64,192,130717,1,0,0:0:0:0:
192,192,130717,1,0,0:0:0:0:
448,192,130717,1,0,0:0:0:0:
320,192,130796,1,0,0:0:0:0:
192,192,130875,1,0,0:0:0:0:
64,192,130954,1,0,0:0:0:0:
448,192,131033,1,0,0:0:0:0:
192,192,131033,1,0,0:0:0:0:
320,192,131112,1,0,0:0:0:0:
448,192,131191,1,0,0:0:0:0:
64,192,131191,1,0,0:0:0:0:
192,192,131191,1,0,0:0:0:0:
320,192,131270,1,0,0:0:0:0:
192,192,131349,1,0,0:0:0:0:
64,192,131349,1,0,0:0:0:0:
448,192,131349,1,0,0:0:0:0:
192,192,131507,1,0,0:0:0:0:
320,192,131507,1,0,0:0:0:0:
192,192,131586,1,0,0:0:0:0:
448,192,131586,1,0,0:0:0:0:
192,192,131744,1,0,0:0:0:0:
320,192,131744,1,0,0:0:0:0:
320,192,131822,1,0,0:0:0:0:
64,192,131822,1,0,0:0:0:0:
64,192,131980,1,0,0:0:0:0:
192,192,132020,1,0,0:0:0:0:
448,192,132059,1,0,0:0:0:0:
320,192,132099,1,0,0:0:0:0:
64,192,132138,1,0,0:0:0:0:
192,192,132138,128,0,132454:0:0:0:0:
320,192,132612,1,0,0:0:0:0:
192,192,132638,1,0,0:0:0:0:
64,192,132665,128,0,134822:0:0:0:0:
320,192,135138,1,0,0:0:0:0:
192,192,135165,1,0,0:0:0:0:
64,192,135191,128,0,137033:0:0:0:0:
192,192,137191,128,0,137507:0:0:0:0:
320,192,137665,1,0,0:0:0:0:
192,192,137691,1,0,0:0:0:0:
64,192,137717,128,0,139875:0:0:0:0:
320,192,140191,1,0,0:0:0:0:
192,192,140217,1,0,0:0:0:0:
64,192,140244,128,0,141928:0:0:0:0:
192,192,142007,128,0,142086:0:0:0:0:
64,192,142086,1,0,0:0:0:0:
448,192,142086,1,0,0:0:0:0:
192,192,142244,1,0,0:0:0:0:
448,192,142244,1,0,0:0:0:0:
320,192,142244,1,0,0:0:0:0:
64,192,142401,1,0,0:0:0:0:
192,192,142401,1,0,0:0:0:0:
320,192,142401,1,0,0:0:0:0:
64,192,142559,1,0,0:0:0:0:
192,192,142559,1,0,0:0:0:0:
448,192,142559,1,0,0:0:0:0:
320,192,142717,1,0,0:0:0:0:
448,192,142717,1,0,0:0:0:0:
64,192,142717,1,0,0:0:0:0:
192,192,142796,1,0,0:0:0:0:
320,192,142836,1,0,0:0:0:0:
448,192,142875,1,0,0:0:0:0:
192,192,142915,1,0,0:0:0:0:
64,192,142954,1,0,0:0:0:0:
320,192,143033,1,0,0:0:0:0:
448,192,143033,1,0,0:0:0:0:
192,192,143112,1,0,0:0:0:0:
448,192,143191,1,0,0:0:0:0:
64,192,143191,1,0,0:0:0:0:
320,192,143230,1,0,0:0:0:0:
192,192,143270,1,0,0:0:0:0:
64,192,143309,1,0,0:0:0:0:
448,192,143349,1,0,0:0:0:0:
192,192,143428,1,0,0:0:0:0:
448,192,143467,1,0,0:0:0:0:
64,192,143507,1,0,0:0:0:0:
320,192,143507,1,0,0:0:0:0:
192,192,143546,1,0,0:0:0:0:
448,192,143586,1,0,0:0:0:0:
64,192,143665,1,0,0:0:0:0:
320,192,143704,1,0,0:0:0:0:
448,192,143744,1,0,0:0:0:0:
64,192,143783,1,0,0:0:0:0:
320,192,143822,1,0,0:0:0:0:
192,192,143875,1,0,0:0:0:0:
64,192,143928,1,0,0:0:0:0:
320,192,143980,1,0,0:0:0:0:
448,192,143980,1,0,0:0:0:0:
192,192,144059,1,0,0:0:0:0:
64,192,144099,1,0,0:0:0:0:
448,192,144138,1,0,0:0:0:0:
192,192,144178,1,0,0:0:0:0:
320,192,144217,1,0,0:0:0:0:
64,192,144296,1,0,0:0:0:0:
448,192,144296,1,0,0:0:0:0:
192,192,144375,1,0,0:0:0:0:
320,192,144454,1,0,0:0:0:0:
448,192,144454,1,0,0:0:0:0:
64,192,144494,1,0,0:0:0:0:
192,192,144533,1,0,0:0:0:0:
448,192,144572,1,0,0:0:0:0:
64,192,144612,1,0,0:0:0:0:
320,192,144691,1,0,0:0:0:0:
448,192,144730,1,0,0:0:0:0:
192,192,144770,1,0,0:0:0:0:
64,192,144770,1,0,0:0:0:0:
320,192,144849,1,0,0:0:0:0:
192,192,144888,1,0,0:0:0:0:
64,192,144928,1,0,0:0:0:0:
448,192,144928,1,0,0:0:0:0:
320,192,145086,1,0,0:0:0:0:
448,192,145086,1,0,0:0:0:0:
64,192,145165,1,0,0:0:0:0:
320,192,145165,1,0,0:0:0:0:
192,192,145244,1,0,0:0:0:0:
64,192,145244,1,0,0:0:0:0:
448,192,145244,1,0,0:0:0:0:
320,192,145322,1,0,0:0:0:0:
192,192,145362,1,0,0:0:0:0:
64,192,145401,1,0,0:0:0:0:
320,192,145441,1,0,0:0:0:0:
448,192,145480,1,0,0:0:0:0:
192,192,145559,1,0,0:0:0:0:
64,192,145559,1,0,0:0:0:0:
320,192,145638,1,0,0:0:0:0:
64,192,145717,1,0,0:0:0:0:
448,192,145717,1,0,0:0:0:0:
192,192,145757,1,0,0:0:0:0:
320,192,145796,1,0,0:0:0:0:
448,192,145836,1,0,0:0:0:0:
64,192,145875,1,0,0:0:0:0:
320,192,145954,1,0,0:0:0:0:
64,192,145994,1,0,0:0:0:0:
448,192,146033,1,0,0:0:0:0:
192,192,146033,1,0,0:0:0:0:
320,192,146072,1,0,0:0:0:0:
64,192,146112,1,0,0:0:0:0:
448,192,146191,1,0,0:0:0:0:
192,192,146230,1,0,0:0:0:0:
64,192,146270,1,0,0:0:0:0:
448,192,146309,1,0,0:0:0:0:
192,192,146349,1,0,0:0:0:0:
320,192,146401,1,0,0:0:0:0:
448,192,146454,1,0,0:0:0:0:
192,192,146507,1,0,0:0:0:0:
64,192,146507,1,0,0:0:0:0:
320,192,146586,1,0,0:0:0:0:
448,192,146625,1,0,0:0:0:0:
64,192,146665,1,0,0:0:0:0:
320,192,146704,1,0,0:0:0:0:
192,192,146744,1,0,0:0:0:0:
448,192,146822,1,0,0:0:0:0:
64,192,146822,1,0,0:0:0:0:
320,192,146901,1,0,0:0:0:0:
192,192,146980,1,0,0:0:0:0:
64,192,146980,1,0,0:0:0:0:
448,192,147020,1,0,0:0:0:0:
320,192,147059,1,0,0:0:0:0:
64,192,147099,1,0,0:0:0:0:
448,192,147138,1,0,0:0:0:0:
320,192,147165,1,0,0:0:0:0:
192,192,147191,1,0,0:0:0:0:
64,192,147217,1,0,0:0:0:0:
448,192,147244,1,0,0:0:0:0:
320,192,147270,1,0,0:0:0:0:
192,192,147296,1,0,0:0:0:0:
64,192,147296,128,0,147454:0:0:0:0:
320,192,147454,1,0,0:0:0:0:
448,192,147454,1,0,0:0:0:0:
320,192,147533,1,0,0:0:0:0:
448,192,147533,1,0,0:0:0:0:
192,192,147612,1,0,0:0:0:0:
64,192,147612,1,0,0:0:0:0:
192,192,147691,1,0,0:0:0:0:
64,192,147691,1,0,0:0:0:0:
320,192,147770,1,0,0:0:0:0:
64,192,147770,1,0,0:0:0:0:
448,192,147770,1,0,0:0:0:0:
320,192,147901,1,0,0:0:0:0:
448,192,147928,1,0,0:0:0:0:
320,192,148022,1,0,0:0:0:0:
448,192,148046,1,0,0:0:0:0:
64,192,148086,1,0,0:0:0:0:
192,192,148086,1,0,0:0:0:0:
320,192,148165,1,0,0:0:0:0:
448,192,148204,1,0,0:0:0:0:
64,192,148244,1,0,0:0:0:0:
192,192,148244,128,0,148401:0:0:0:0:
64,192,148480,1,0,0:0:0:0:
192,192,148520,1,0,0:0:0:0:
320,192,148559,1,0,0:0:0:0:
448,192,148559,1,0,0:0:0:0:
64,192,148599,1,0,0:0:0:0:
192,192,148638,1,0,0:0:0:0:
64,192,148717,1,0,0:0:0:0:
320,192,148757,1,0,0:0:0:0:
448,192,148836,1,0,0:0:0:0:
320,192,148875,1,0,0:0:0:0:
192,192,148954,1,0,0:0:0:0:
448,192,148994,1,0,0:0:0:0:
64,192,149033,1,0,0:0:0:0:
320,192,149033,1,0,0:0:0:0:
448,192,149112,1,0,0:0:0:0:
192,192,149191,1,0,0:0:0:0:
320,192,149217,1,0,0:0:0:0:
64,192,149244,1,0,0:0:0:0:
192,192,149296,1,0,0:0:0:0:
320,192,149349,1,0,0:0:0:0:
448,192,149349,1,0,0:0:0:0:
64,192,149388,1,0,0:0:0:0:
192,192,149428,1,0,0:0:0:0:
64,192,149507,1,0,0:0:0:0:
448,192,149507,1,0,0:0:0:0:
192,192,149586,1,0,0:0:0:0:
320,192,149625,1,0,0:0:0:0:
192,192,149704,1,0,0:0:0:0:
64,192,149717,1,0,0:0:0:0:
320,192,149783,1,0,0:0:0:0:
448,192,149822,1,0,0:0:0:0:
64,192,149822,1,0,0:0:0:0:
448,192,149941,1,0,0:0:0:0:
320,192,149954,1,0,0:0:0:0:
192,192,150059,1,0,0:0:0:0:
64,192,150059,1,0,0:0:0:0:
192,192,150217,128,0,150296:0:0:0:0:
320,192,150296,1,0,0:0:0:0:
64,192,150296,1,0,0:0:0:0:
448,192,150296,1,0,0:0:0:0:
320,192,150428,1,0,0:0:0:0:
448,192,150454,1,0,0:0:0:0:
320,192,150549,1,0,0:0:0:0:
448,192,150572,1,0,0:0:0:0:
64,192,150612,1,0,0:0:0:0:
192,192,150612,1,0,0:0:0:0:
320,192,150691,1,0,0:0:0:0:
448,192,150730,1,0,0:0:0:0:
64,192,150770,1,0,0:0:0:0:
192,192,150770,128,0,150928:0:0:0:0:
64,192,151007,1,0,0:0:0:0:
192,192,151046,1,0,0:0:0:0:
320,192,151086,1,0,0:0:0:0:
448,192,151086,1,0,0:0:0:0:
64,192,151125,1,0,0:0:0:0:
192,192,151165,1,0,0:0:0:0:
64,192,151244,1,0,0:0:0:0:
320,192,151283,1,0,0:0:0:0:
448,192,151362,1,0,0:0:0:0:
320,192,151401,1,0,0:0:0:0:
192,192,151480,1,0,0:0:0:0:
448,192,151520,1,0,0:0:0:0:
64,192,151559,1,0,0:0:0:0:
320,192,151559,1,0,0:0:0:0:
448,192,151638,1,0,0:0:0:0:
192,192,151717,1,0,0:0:0:0:
320,192,151744,1,0,0:0:0:0:
64,192,151770,1,0,0:0:0:0:
192,192,151822,1,0,0:0:0:0:
320,192,151875,1,0,0:0:0:0:
448,192,151875,1,0,0:0:0:0:
192,192,151954,1,0,0:0:0:0:
64,192,152033,1,0,0:0:0:0:
448,192,152033,1,0,0:0:0:0:
192,192,152112,1,0,0:0:0:0:
320,192,152151,1,0,0:0:0:0:
192,192,152230,1,0,0:0:0:0:
64,192,152244,1,0,0:0:0:0:
320,192,152309,1,0,0:0:0:0:
448,192,152349,1,0,0:0:0:0:
64,192,152349,1,0,0:0:0:0:
448,192,152467,1,0,0:0:0:0:
320,192,152480,1,0,0:0:0:0:
64,192,152586,1,0,0:0:0:0:
192,192,152586,1,0,0:0:0:0:
192,192,152744,1,0,0:0:0:0:
320,192,152783,1,0,0:0:0:0:
192,192,152822,1,0,0:0:0:0:
448,192,152822,1,0,0:0:0:0:
64,192,152822,1,0,0:0:0:0:
448,192,152980,1,0,0:0:0:0:
64,192,153020,1,0,0:0:0:0:
320,192,153059,1,0,0:0:0:0:
192,192,153099,1,0,0:0:0:0:
64,192,153138,1,0,0:0:0:0:
448,192,153138,1,0,0:0:0:0:
320,192,153296,1,0,0:0:0:0:
448,192,153296,1,0,0:0:0:0:
320,192,153375,1,0,0:0:0:0:
192,192,153375,1,0,0:0:0:0:
64,192,153533,1,0,0:0:0:0:
192,192,153533,1,0,0:0:0:0:
192,192,153612,1,0,0:0:0:0:
320,192,153612,1,0,0:0:0:0:
448,192,153770,1,0,0:0:0:0:
320,192,153809,1,0,0:0:0:0:
192,192,153849,1,0,0:0:0:0:
64,192,153888,1,0,0:0:0:0:
320,192,153928,1,0,0:0:0:0:
64,192,154007,128,0,154086:0:0:0:0:
192,192,154086,1,0,0:0:0:0:
448,192,154086,1,0,0:0:0:0:
320,192,154244,1,0,0:0:0:0:
448,192,154283,1,0,0:0:0:0:
192,192,154322,1,0,0:0:0:0:
320,192,154401,1,0,0:0:0:0:
64,192,154401,1,0,0:0:0:0:
192,192,154480,1,0,0:0:0:0:
320,192,154520,1,0,0:0:0:0:
448,192,154559,1,0,0:0:0:0:
64,192,154559,1,0,0:0:0:0:
320,192,154638,1,0,0:0:0:0:
192,192,154717,1,0,0:0:0:0:
64,192,154796,1,0,0:0:0:0:
448,192,154875,1,0,0:0:0:0:
192,192,154875,1,0,0:0:0:0:
320,192,154954,1,0,0:0:0:0:
448,192,155033,1,0,0:0:0:0:
64,192,155112,1,0,0:0:0:0:
192,192,155112,1,0,0:0:0:0:
320,192,155191,1,0,0:0:0:0:
448,192,155270,128,0,155349:0:0:0:0:
64,192,155349,1,0,0:0:0:0:
192,192,155349,1,0,0:0:0:0:
448,192,155428,1,0,0:0:0:0:
64,192,155507,1,0,0:0:0:0:
320,192,155507,1,0,0:0:0:0:
192,192,155586,1,0,0:0:0:0:
192,192,155665,1,0,0:0:0:0:
64,192,155665,1,0,0:0:0:0:
448,192,155822,1,0,0:0:0:0:
320,192,155822,1,0,0:0:0:0:
64,192,155901,1,0,0:0:0:0:
448,192,155980,1,0,0:0:0:0:
320,192,156059,1,0,0:0:0:0:
64,192,156059,1,0,0:0:0:0:
192,192,156138,1,0,0:0:0:0:
64,192,156138,1,0,0:0:0:0:
448,192,156217,1,0,0:0:0:0:
448,192,156296,1,0,0:0:0:0:
320,192,156296,1,0,0:0:0:0:
64,192,156375,1,0,0:0:0:0:
192,192,156454,1,0,0:0:0:0:
192,192,156533,1,0,0:0:0:0:
320,192,156533,128,0,156612:0:0:0:0:
448,192,156612,1,0,0:0:0:0:
64,192,156612,1,0,0:0:0:0:
192,192,156691,1,0,0:0:0:0:
320,192,156770,1,0,0:0:0:0:
192,192,156849,1,0,0:0:0:0:
64,192,156849,1,0,0:0:0:0:
64,192,156928,1,0,0:0:0:0:
448,192,156928,1,0,0:0:0:0:
192,192,157007,1,0,0:0:0:0:
320,192,157086,1,0,0:0:0:0:
448,192,157165,1,0,0:0:0:0:
320,192,157165,1,0,0:0:0:0:
64,192,157401,1,0,0:0:0:0:
192,192,157401,1,0,0:0:0:0:
448,192,157401,128,0,157717:0:0:0:0:
64,192,157717,1,0,0:0:0:0:
192,192,157757,1,0,0:0:0:0:
320,192,157796,1,0,0:0:0:0:
448,192,157836,1,0,0:0:0:0:
64,192,157875,1,0,0:0:0:0:
192,192,157875,1,0,0:0:0:0:
320,192,158033,1,0,0:0:0:0:
64,192,158072,1,0,0:0:0:0:
192,192,158112,1,0,0:0:0:0:
448,192,158151,1,0,0:0:0:0:
64,192,158191,1,0,0:0:0:0:
320,192,158191,1,0,0:0:0:0:
64,192,158349,1,0,0:0:0:0:
192,192,158349,1,0,0:0:0:0:
320,192,158428,1,0,0:0:0:0:
192,192,158428,1,0,0:0:0:0:
320,192,158586,1,0,0:0:0:0:
448,192,158586,1,0,0:0:0:0:
192,192,158665,1,0,0:0:0:0:
320,192,158665,1,0,0:0:0:0:
448,192,158822,1,0,0:0:0:0:
320,192,158862,1,0,0:0:0:0:
192,192,158901,1,0,0:0:0:0:
64,192,158941,1,0,0:0:0:0:
448,192,158980,1,0,0:0:0:0:
320,192,159059,128,0,159138:0:0:0:0:
192,192,159138,1,0,0:0:0:0:
64,192,159138,1,0,0:0:0:0:
320,192,159217,1,0,0:0:0:0:
64,192,159296,1,0,0:0:0:0:
192,192,159336,1,0,0:0:0:0:
448,192,159375,1,0,0:0:0:0:
64,192,159454,1,0,0:0:0:0:
320,192,159454,1,0,0:0:0:0:
448,192,159533,1,0,0:0:0:0:
320,192,159572,1,0,0:0:0:0:
64,192,159612,1,0,0:0:0:0:
192,192,159612,1,0,0:0:0:0:
448,192,159691,1,0,0:0:0:0:
192,192,159770,1,0,0:0:0:0:
320,192,159849,1,0,0:0:0:0:
192,192,159928,1,0,0:0:0:0:
64,192,159928,1,0,0:0:0:0:
320,192,160007,1,0,0:0:0:0:
448,192,160086,1,0,0:0:0:0:
64,192,160165,1,0,0:0:0:0:
192,192,160165,1,0,0:0:0:0:
320,192,160244,1,0,0:0:0:0:
448,192,160322,128,0,160401:0:0:0:0:
64,192,160401,1,0,0:0:0:0:
192,192,160401,1,0,0:0:0:0:
448,192,160480,1,0,0:0:0:0:
64,192,160559,1,0,0:0:0:0:
320,192,160559,1,0,0:0:0:0:
192,192,160638,1,0,0:0:0:0:
448,192,160717,1,0,0:0:0:0:
192,192,160717,1,0,0:0:0:0:
448,192,160875,1,0,0:0:0:0:
320,192,160875,1,0,0:0:0:0:
64,192,160954,1,0,0:0:0:0:
448,192,161033,1,0,0:0:0:0:
320,192,161112,1,0,0:0:0:0:
64,192,161112,1,0,0:0:0:0:
192,192,161191,1,0,0:0:0:0:
64,192,161191,1,0,0:0:0:0:
448,192,161270,1,0,0:0:0:0:
448,192,161349,1,0,0:0:0:0:
320,192,161349,1,0,0:0:0:0:
64,192,161428,1,0,0:0:0:0:
192,192,161507,1,0,0:0:0:0:
192,192,161586,1,0,0:0:0:0:
320,192,161586,128,0,161665:0:0:0:0:
448,192,161665,1,0,0:0:0:0:
64,192,161665,1,0,0:0:0:0:
192,192,161744,1,0,0:0:0:0:
320,192,161822,1,0,0:0:0:0:
192,192,161901,1,0,0:0:0:0:
64,192,161901,1,0,0:0:0:0:
64,192,161980,1,0,0:0:0:0:
448,192,161980,1,0,0:0:0:0:
192,192,162059,1,0,0:0:0:0:
320,192,162138,1,0,0:0:0:0:
448,192,162217,1,0,0:0:0:0:
320,192,162217,1,0,0:0:0:0:
64,192,162454,1,0,0:0:0:0:
192,192,162454,1,0,0:0:0:0:
448,192,162454,128,0,162770:0:0:0:0:
64,192,162928,1,0,0:0:0:0:
192,192,162928,1,0,0:0:0:0:
320,192,162928,1,0,0:0:0:0:
448,192,163086,1,0,0:0:0:0:
64,192,163125,1,0,0:0:0:0:
320,192,163165,1,0,0:0:0:0:
192,192,163204,1,0,0:0:0:0:
64,192,163244,1,0,0:0:0:0:
448,192,163244,1,0,0:0:0:0:
320,192,163401,1,0,0:0:0:0:
448,192,163401,1,0,0:0:0:0:
320,192,163480,1,0,0:0:0:0:
192,192,163480,1,0,0:0:0:0:
64,192,163638,1,0,0:0:0:0:
192,192,163717,1,0,0:0:0:0:
320,192,163717,1,0,0:0:0:0:
448,192,163717,1,0,0:0:0:0:
448,192,163875,1,0,0:0:0:0:
320,192,163915,1,0,0:0:0:0:
192,192,163954,1,0,0:0:0:0:
64,192,163994,1,0,0:0:0:0:
320,192,164033,1,0,0:0:0:0:
64,192,164112,1,0,0:0:0:0:
192,192,164191,1,0,0:0:0:0:
320,192,164191,1,0,0:0:0:0:
448,192,164191,1,0,0:0:0:0:
64,192,164349,1,0,0:0:0:0:
448,192,164388,1,0,0:0:0:0:
192,192,164428,1,0,0:0:0:0:
448,192,164507,1,0,0:0:0:0:
320,192,164507,1,0,0:0:0:0:
64,192,164507,1,0,0:0:0:0:
192,192,164586,1,0,0:0:0:0:
320,192,164625,1,0,0:0:0:0:
448,192,164665,1,0,0:0:0:0:
64,192,164665,1,0,0:0:0:0:
320,192,164744,1,0,0:0:0:0:
192,192,164822,1,0,0:0:0:0:
448,192,164901,1,0,0:0:0:0:
64,192,164980,1,0,0:0:0:0:
192,192,164980,1,0,0:0:0:0:
320,192,164980,1,0,0:0:0:0:
448,192,165059,1,0,0:0:0:0:
320,192,165138,1,0,0:0:0:0:
64,192,165217,1,0,0:0:0:0:
192,192,165217,1,0,0:0:0:0:
320,192,165296,1,0,0:0:0:0:
448,192,165375,1,0,0:0:0:0:
320,192,165454,1,0,0:0:0:0:
64,192,165454,1,0,0:0:0:0:
192,192,165454,1,0,0:0:0:0:
448,192,165533,1,0,0:0:0:0:
64,192,165612,1,0,0:0:0:0:
192,192,165612,1,0,0:0:0:0:
320,192,165691,1,0,0:0:0:0:
320,192,165770,1,0,0:0:0:0:
64,192,165770,1,0,0:0:0:0:
448,192,165770,1,0,0:0:0:0:
448,192,165928,1,0,0:0:0:0:
320,192,165928,1,0,0:0:0:0:
64,192,166007,1,0,0:0:0:0:
448,192,166086,1,0,0:0:0:0:
320,192,166165,1,0,0:0:0:0:
64,192,166165,1,0,0:0:0:0:
192,192,166244,1,0,0:0:0:0:
64,192,166244,1,0,0:0:0:0:
448,192,166322,1,0,0:0:0:0:
448,192,166401,1,0,0:0:0:0:
320,192,166401,1,0,0:0:0:0:
64,192,166480,1,0,0:0:0:0:
192,192,166559,1,0,0:0:0:0:
192,192,166638,1,0,0:0:0:0:
320,192,166638,1,0,0:0:0:0:
448,192,166717,1,0,0:0:0:0:
64,192,166717,1,0,0:0:0:0:
192,192,166796,1,0,0:0:0:0:
320,192,166875,1,0,0:0:0:0:
192,192,166954,1,0,0:0:0:0:
64,192,166954,1,0,0:0:0:0:
64,192,167033,1,0,0:0:0:0:
320,192,167033,1,0,0:0:0:0:
448,192,167033,1,0,0:0:0:0:
192,192,167112,1,0,0:0:0:0:
448,192,167191,1,0,0:0:0:0:
320,192,167191,1,0,0:0:0:0:
320,192,167270,1,0,0:0:0:0:
64,192,167507,1,0,0:0:0:0:
192,192,167507,1,0,0:0:0:0:
448,192,167507,128,0,167822:0:0:0:0:
64,192,167822,1,0,0:0:0:0:
192,192,167862,1,0,0:0:0:0:
320,192,167901,1,0,0:0:0:0:
448,192,167941,1,0,0:0:0:0:
64,192,167980,1,0,0:0:0:0:
192,192,167980,1,0,0:0:0:0:
192,192,168138,1,0,0:0:0:0:
448,192,168178,1,0,0:0:0:0:
320,192,168217,1,0,0:0:0:0:
64,192,168257,1,0,0:0:0:0:
192,192,168296,1,0,0:0:0:0:
320,192,168296,1,0,0:0:0:0:
448,192,168296,1,0,0:0:0:0:
64,192,168454,1,0,0:0:0:0:
192,192,168454,1,0,0:0:0:0:
320,192,168533,1,0,0:0:0:0:
192,192,168533,1,0,0:0:0:0:
448,192,168691,1,0,0:0:0:0:
64,192,168770,1,0,0:0:0:0:
192,192,168770,1,0,0:0:0:0:
320,192,168770,1,0,0:0:0:0:
448,192,168928,1,0,0:0:0:0:
320,192,168967,1,0,0:0:0:0:
192,192,169007,1,0,0:0:0:0:
64,192,169046,1,0,0:0:0:0:
320,192,169165,1,0,0:0:0:0:
192,192,169244,1,0,0:0:0:0:
64,192,169244,1,0,0:0:0:0:
448,192,169244,1,0,0:0:0:0:
320,192,169322,1,0,0:0:0:0:
64,192,169401,1,0,0:0:0:0:
192,192,169441,1,0,0:0:0:0:
448,192,169480,1,0,0:0:0:0:
64,192,169559,1,0,0:0:0:0:
192,192,169559,1,0,0:0:0:0:
320,192,169559,1,0,0:0:0:0:
448,192,169638,1,0,0:0:0:0:
64,192,169717,1,0,0:0:0:0:
192,192,169717,1,0,0:0:0:0:
448,192,169796,1,0,0:0:0:0:
192,192,169875,1,0,0:0:0:0:
320,192,169954,1,0,0:0:0:0:
192,192,170033,1,0,0:0:0:0:
64,192,170033,1,0,0:0:0:0:
448,192,170033,1,0,0:0:0:0:
320,192,170112,1,0,0:0:0:0:
448,192,170191,1,0,0:0:0:0:
64,192,170270,1,0,0:0:0:0:
192,192,170270,1,0,0:0:0:0:
320,192,170349,1,0,0:0:0:0:
448,192,170428,1,0,0:0:0:0:
64,192,170507,1,0,0:0:0:0:
192,192,170507,1,0,0:0:0:0:
320,192,170507,1,0,0:0:0:0:
448,192,170586,1,0,0:0:0:0:
64,192,170665,1,0,0:0:0:0:
320,192,170665,1,0,0:0:0:0:
192,192,170744,1,0,0:0:0:0:
192,192,170822,1,0,0:0:0:0:
64,192,170822,1,0,0:0:0:0:
448,192,170822,1,0,0:0:0:0:
448,192,170980,1,0,0:0:0:0:
320,192,170980,1,0,0:0:0:0:
64,192,171059,1,0,0:0:0:0:
448,192,171138,1,0,0:0:0:0:
320,192,171217,1,0,0:0:0:0:
64,192,171217,1,0,0:0:0:0:
192,192,171296,1,0,0:0:0:0:
64,192,171296,1,0,0:0:0:0:
448,192,171375,1,0,0:0:0:0:
448,192,171454,1,0,0:0:0:0:
320,192,171454,1,0,0:0:0:0:
64,192,171533,1,0,0:0:0:0:
192,192,171612,1,0,0:0:0:0:
192,192,171691,1,0,0:0:0:0:
320,192,171691,1,0,0:0:0:0:
448,192,171770,1,0,0:0:0:0:
64,192,171770,1,0,0:0:0:0:
192,192,171849,1,0,0:0:0:0:
320,192,171928,1,0,0:0:0:0:
192,192,172007,1,0,0:0:0:0:
64,192,172007,1,0,0:0:0:0:
64,192,172086,1,0,0:0:0:0:
320,192,172086,1,0,0:0:0:0:
448,192,172086,1,0,0:0:0:0:
192,192,172165,1,0,0:0:0:0:
448,192,172244,1,0,0:0:0:0:
320,192,172244,1,0,0:0:0:0:
320,192,172322,1,0,0:0:0:0:
64,192,172559,1,0,0:0:0:0:
192,192,172559,1,0,0:0:0:0:
448,192,172559,128,0,172875:0:0:0:0:
64,192,172875,5,0,0:0:0:0:
192,192,172915,1,0,0:0:0:0:
320,192,172954,1,0,0:0:0:0:
448,192,172994,1,0,0:0:0:0:
320,192,173033,1,0,0:0:0:0:
192,192,173059,1,0,0:0:0:0:
64,192,173086,128,0,175244:0:0:0:0:
320,192,175559,1,0,0:0:0:0:
192,192,175586,1,0,0:0:0:0:
64,192,175612,128,0,177454:0:0:0:0:
192,192,177612,128,0,177928:0:0:0:0:
320,192,178086,1,0,0:0:0:0:
192,192,178112,1,0,0:0:0:0:
64,192,178138,128,0,180296:0:0:0:0:
320,192,180612,1,0,0:0:0:0:
192,192,180638,1,0,0:0:0:0:
64,192,180665,128,0,182507:0:0:0:0:
192,192,182665,128,0,182901:0:0:0:0:
320,192,182901,128,0,182980:0:0:0:0:
