osu file format v14

[General]
AudioFilename: audio.mp3
AudioLeadIn: 0
PreviewTime: 34874
Countdown: 0
SampleSet: Soft
StackLeniency: 0.4
Mode: 0
LetterboxInBreaks: 0
WidescreenStoryboard: 0

[Editor]
Bookmarks: 2731,24674,35646,46617,57589,68560,90503,101474,112446,123417,134389
DistanceSpacing: 0.3
BeatDivisor: 4
GridSize: 32
TimelineZoom: 2.3

[Metadata]
Title:MONONOKE
TitleUnicode:MONONOKE
Artist:seatrus
ArtistUnicode:seatrus
Creator:Realazy
Version:Orientalism
Source:
Tags:fa featured artist owc 2020 qualifiers nomod nm4 agatsu zelq cubby eiri- ayyri neurofunk oriental drum n bass dnb drumstep lanota electronic instrumental
BeatmapID:2659353
BeatmapSetID:1280194

[Difficulty]
HPDrainRate:5
CircleSize:4
OverallDifficulty:9
ApproachRate:9.4
SliderMultiplier:2.16
SliderTickRate:1

[Events]
//Background and Video events
0,0,"mononoke.jpg",0,0
//Break Periods
//Storyboard Layer 0 (Background)
//Storyboard Layer 1 (Fail)
//Storyboard Layer 2 (Pass)
//Storyboard Layer 3 (Foreground)
//Storyboard Layer 4 (Overlay)
//Storyboard Sound Samples

[TimingPoints]
2732,342.857142857143,4,2,1,70,1,0
2732,-133.333333333333,4,2,1,70,0,0
13703,-100,4,2,1,70,0,0
19189,-80,4,2,1,70,0,0
19532,-200,4,2,1,70,0,0
19875,-79.9999999999999,4,2,1,70,0,0
20218,-200,4,2,1,70,0,0
20561,-66.6666666666667,4,2,1,70,0,0
20903,-133.333333333333,4,2,1,70,0,0
21246,-66.6666666666667,4,2,1,70,0,0
21588,-133.333333333333,4,2,1,70,0,0
23303,-200,4,2,1,70,0,0
24332,-500,4,2,1,70,0,0
24675,-50,4,2,1,70,0,0
25018,-133.333333333333,4,2,1,70,0,0
25360,-50,4,2,1,70,0,0
25703,-66.6666666666667,4,2,1,70,0,0
25874,-50,4,2,1,70,0,0
26046,-133.333333333333,4,2,1,70,0,0
27074,-66.6666666666667,4,2,1,70,0,0
27418,-50,4,2,1,70,0,0
28789,-44.4444444444445,4,2,1,70,0,0
30161,-22.9498383532529,4,2,1,70,0,0
30503,-22.6058603332954,4,2,1,70,0,0
30675,-22.6162503572985,4,2,1,70,0,0
30932,-23.1231391396529,4,2,1,70,0,0
31189,-23.0553921425599,4,2,1,70,0,0
31361,-24.635821059045,4,2,1,70,0,0
31532,-22.1924283174046,4,2,1,70,0,0
31703,-23.7414748834002,4,2,1,70,0,0
31875,-21.8578964625903,4,2,1,70,0,0
32046,-23.1290530613955,4,2,1,70,0,0
32218,-23.5251614597919,4,2,1,70,0,0
32561,-80,4,2,1,70,0,0
32903,-50,4,2,1,70,0,0
34446,-66.6666666666667,4,2,1,70,0,0
35646,-50,4,2,1,70,0,0
35989,-66.6666666666667,4,2,1,70,0,0
36675,-57.1428571428571,4,2,1,70,0,0
37018,-100,4,2,1,70,0,0
38046,-80,4,2,1,70,0,0
38389,-50,4,2,1,70,0,0
39761,-40,4,2,1,70,0,0
40103,-57.1428571428571,4,2,1,70,0,0
40275,-133.333333333333,4,2,1,70,0,0
40446,-57.1428571428571,4,2,1,70,0,0
41132,-66.6666666666667,4,2,1,70,0,0
41475,-100,4,2,1,70,0,0
43532,-40,4,2,1,70,0,0
43875,-66.6666666666667,4,2,1,70,0,0
45075,-57.1428571428571,4,2,1,70,0,0
45418,-66.6666666666667,4,2,1,70,0,0
46618,-57.1428571428571,4,2,1,70,0,0
49875,-100,4,2,1,70,0,0
50046,-57.1428571428571,4,2,1,70,0,0
50389,-133.333333333333,4,2,1,70,0,0
50560,-100,4,2,1,70,0,0
50732,-57.1428571428571,4,2,1,70,0,0
51075,-133.333333333333,4,2,1,70,0,0
51246,-66.6666666666667,4,2,1,70,0,0
52103,-57.1428571428571,4,2,1,70,0,0
53132,-133.333333333333,4,2,1,70,0,0
53303,-57.1428571428571,4,2,1,70,0,0
53818,-133.333333333333,4,2,1,70,0,0
53989,-57.1428571428571,4,2,1,70,0,0
55361,-100,4,2,1,70,0,0
55532,-57.1428571428571,4,2,1,70,0,0
55875,-133.333333333333,4,2,1,70,0,0
56046,-100,4,2,1,70,0,0
56217,-57.1428571428571,4,2,1,70,0,0
56560,-133.333333333333,4,2,1,70,0,0
56732,-100,4,2,1,70,0,0
57589,-57.1428571428571,4,2,1,70,0,0
59989,-80,4,2,1,70,0,0
60332,-57.1428571428571,4,2,1,70,0,0
61189,-40,4,2,1,70,0,0
61532,-100,4,2,1,70,0,0
62046,-40,4,2,1,70,0,0
62218,-57.1428571428571,4,2,1,70,0,0
62732,-66.6666666666667,4,2,1,70,0,0
63075,-57.1428571428571,4,2,1,70,0,0
64103,-100,4,2,1,70,0,0
64446,-57.1428571428571,4,2,1,70,0,0
65475,-66.6666666666667,4,2,1,70,0,0
65818,-50,4,2,1,70,0,0
67189,-66.6666666666667,4,2,1,70,0,0
68561,-133.333333333333,4,2,1,70,0,0
79532,-100,4,2,1,70,0,0
85018,-80,4,2,1,70,0,0
85361,-200,4,2,1,70,0,0
85703,-79.9999999999999,4,2,1,70,0,0
86046,-200,4,2,1,70,0,0
86389,-66.6666666666667,4,2,1,70,0,0
86732,-133.333333333333,4,2,1,70,0,0
87075,-66.6666666666667,4,2,1,70,0,0
87418,-133.333333333333,4,2,1,70,0,0
89132,-200,4,2,1,70,0,0
90161,-500,4,2,1,70,0,0
90503,-44.4444444444445,4,2,1,70,0,0
90846,-50,4,2,1,70,0,0
91189,-66.6666666666667,4,2,1,70,0,0
91532,-50,4,2,1,70,0,0
91875,-44.4444444444445,4,2,1,70,0,0
92218,-50,4,2,1,70,0,0
92903,-33.3333333333333,4,2,1,70,0,0
93246,-66.6666666666667,4,2,1,70,0,0
94618,-57.1428571428571,4,2,1,70,0,0
94961,-40,4,2,1,70,0,0
95132,-57.1428571428571,4,2,1,70,0,0
95303,-66.6666666666667,4,2,1,70,0,0
95561,-44.4444444444445,4,2,1,70,0,0
95818,-57.1428571428571,4,2,1,70,0,0
95989,-100,4,2,1,70,0,0
96332,-66.6666666666667,4,2,1,70,0,0
96503,-100,4,2,1,70,0,0
97018,-66.6666666666667,4,2,1,70,0,0
97361,-100,4,2,1,70,0,0
97703,-50,4,2,1,70,0,0
97875,-57.1428571428571,4,2,1,70,0,0
98732,-50,4,2,1,70,0,0
100275,-66.6666666666667,4,2,1,70,0,0
100789,-200,4,2,1,70,0,0
101475,-33.3333333333333,4,2,1,70,0,0
101818,-50,4,2,1,70,0,0
102161,-66.6666666666667,4,2,1,70,0,0
102503,-50,4,2,1,70,0,0
102846,-44.4444444444445,4,2,1,70,0,0
103189,-50,4,2,1,70,0,0
103532,-33.3333333333333,4,2,1,70,0,0
104218,-500,4,2,1,70,0,0
104561,-66.6666666666667,4,2,1,70,0,0
104903,-57.1428571428571,4,2,1,70,0,0
105075,-80,4,2,1,70,0,0
105246,-100,4,2,1,70,0,0
105761,-80,4,2,1,70,0,0
105932,-100,4,2,1,70,0,0
106446,-133.333333333333,4,2,1,70,0,0
106961,-57.1428571428571,4,2,1,70,0,0
107475,-100,4,2,1,70,0,0
108332,-80,4,2,1,70,0,0
109018,-57.1428571428571,4,2,1,70,0,0
109361,-133.333333333333,4,2,1,70,0,0
109703,-50,4,2,1,70,0,0
111246,-66.6666666666667,4,2,1,70,0,0
112446,-50,4,2,1,70,0,0
112789,-100,4,2,1,70,0,0
113132,-50,4,2,1,70,0,0
113475,-66.6666666666667,4,2,1,70,0,0
113646,-50,4,2,1,70,0,0
113818,-57.1428571428571,4,2,1,70,0,0
114332,-100,4,2,1,70,0,0
114846,-66.6666666666667,4,2,1,70,0,0
115189,-50,4,2,1,70,0,0
116561,-40,4,2,1,70,0,0
117932,-22.297855966773,4,2,1,70,0,0
118275,-23.8558822918989,4,2,1,70,0,0
118446,-22.9059491078775,4,2,1,70,0,0
118703,-22.9409241728538,4,2,1,70,0,0
118961,-23.3036755135673,4,2,1,70,0,0
119132,-23.634605795593,4,2,1,70,0,0
119303,-22.5504872587066,4,2,1,70,0,0
119475,-23.0279059319124,4,2,1,70,0,0
119646,-23.6906045568298,4,2,1,70,0,0
119818,-22.8939609787438,4,2,1,70,0,0
120075,-22.9057739599969,4,2,1,70,0,0
120332,-80,4,2,1,70,0,0
120675,-50,4,2,1,70,0,0
122218,-66.6666666666667,4,2,1,70,0,0
122561,-100,4,2,1,70,0,0
123075,-133.333333333333,4,2,1,70,0,0
123418,-50,4,2,1,70,0,0
123761,-66.6666666666667,4,2,1,70,0,0
124446,-57.1428571428571,4,2,1,70,0,0
124789,-100,4,2,1,70,0,0
125818,-80,4,2,1,70,0,0
126161,-44.4444444444445,4,2,1,70,0,0
127875,-80,4,2,1,70,0,0
128218,-44.4444444444445,4,2,1,70,0,0
128903,-200,4,2,1,70,0,0
129246,-100,4,2,1,70,0,0
131303,-40,4,2,1,70,0,0
131646,-66.6666666666667,4,2,1,70,0,0
132846,-57.1428571428571,4,2,1,70,0,0
133189,-66.6666666666667,4,2,1,70,0,0

[Colours]
Combo1 : 237,134,58
Combo2 : 245,75,46

[HitObjects]
342,370,2732,5,10,0:0:0:0:
418,310,2903,1,2,0:2:0:0:
418,310,2989,1,2,0:2:0:0:
418,310,3075,2,0,L|497:324,1,81.0000030899049,2|8,0:0|0:0,0:0:0:0:
328,384,3418,1,2,0:0:0:0:
311,360,3503,1,2,3:3:0:0:
302,334,3589,1,2,0:0:0:0:
300,306,3675,1,2,0:2:0:0:
307,278,3760,1,2,3:3:0:0:
430,94,3932,6,0,L|425:113,1,20.2500007724762,2|0,0:0|0:0,0:0:0:0:
419,98,4018,2,0,L|414:117,1,20.2500007724762,2|0,0:0|0:0,0:0:0:0:
408,102,4103,2,0,L|391:181,1,81.0000030899049,10|0,0:0|0:0,0:0:0:0:
335,17,4446,1,2,0:0:0:0:
335,17,4618,1,10,0:0:0:0:
390,181,4789,2,0,B|381:208|433:240|459:176|408:102,1,162.00000617981,2|8,0:0|0:0,0:0:0:0:
123,236,5303,5,2,3:3:0:0:
123,236,5389,1,2,3:3:0:0:
123,236,5475,2,0,L|202:249,1,81.0000030899049,10|0,0:0|3:0,0:0:0:0:
202,249,5732,1,0,3:0:0:0:
202,249,5818,1,0,3:0:0:0:
0,321,5989,1,10,0:0:0:0:
110,384,6161,2,0,L|104:343,2,40.5000015449525,0|0|0,3:0|3:0|3:0,0:0:0:0:
10,161,6503,5,10,0:0:0:0:
8,169,6589,1,2,3:3:0:0:
7,177,6675,1,2,0:0:0:0:
6,185,6761,1,2,0:0:0:0:
5,192,6846,2,0,P|63:198|100:153,1,121.500004634857,10|0,0:2|0:0,0:0:0:0:
101,137,7189,1,2,0:0:0:0:
213,290,7361,2,0,P|184:237|191:177,1,121.500004634857,10|0,0:0|0:0,0:0:0:0:
178,174,7703,2,0,P|185:156|197:140,1,40.5000015449525,2|0,0:0|0:0,0:0:0:0:
317,21,7875,5,10,0:0:0:0:
325,23,7961,1,2,3:2:0:0:
356,30,8046,5,2,3:3:0:0:
364,32,8132,1,2,3:3:0:0:
395,39,8218,6,0,P|396:114|324:140,1,162.00000617981,10|0,0:0|3:0,0:0:0:0:
464,286,8732,2,0,P|447:250|447:210,1,81.0000030899049,10|0,0:0|3:0,0:0:0:0:
447,210,8989,1,0,3:0:0:0:
447,210,9075,1,0,3:0:0:0:
374,364,9246,1,10,0:0:0:0:
201,259,9417,5,10,0:0:0:0:
190,271,9503,1,2,0:0:0:0:
179,283,9589,2,0,B|133:293|99:267|111:261|74:236|26:248,1,162.00000617981,10|0,0:0|0:0,0:0:0:0:
117,376,10103,1,10,0:0:0:0:
161,114,10274,2,0,B|181:86|131:52|98:137|155:197,1,162.00000617981,2|8,0:0|0:0,0:0:0:0:
394,72,10789,5,2,3:3:0:0:
389,55,10875,1,2,3:3:0:0:
381,40,10961,2,0,B|341:27|294:64|298:136|346:149|357:140|405:154|409:229|351:281|291:238,1,324.00001235962,10|0,0:0|3:0,0:0:0:0:
303,148,11818,1,0,3:0:0:0:
195,363,11989,5,10,0:0:0:0:
187,361,12075,1,2,3:2:0:0:
156,354,12160,5,2,3:3:0:0:
148,352,12246,1,2,3:3:0:0:
116,344,12332,6,0,P|139:289|134:229,1,121.500004634857,10|0,0:0|0:0,0:0:0:0:
126,211,12675,1,0,3:0:0:0:
209,102,12846,1,0,3:0:0:0:
293,260,13018,5,2,3:2:0:0:
271,278,13103,1,2,3:2:0:0:
257,303,13189,1,0,3:2:0:0:
252,330,13275,1,0,3:2:0:0:
256,358,13361,5,2,3:2:0:0:
272,296,13446,1,2,3:2:0:0:
246,237,13532,1,2,3:2:0:0:
221,178,13618,1,2,3:2:0:0:
237,117,13703,6,0,L|397:93,1,162,14|0,0:0|0:0,0:0:0:0:
410,73,14046,1,2,1:2:0:0:
355,272,14218,1,2,0:0:0:0:
485,94,14389,2,0,B|504:44|504:44|460:11,1,108,10|0,0:0|0:0,0:0:0:0:
414,77,14646,1,8,0:0:0:0:
414,77,14732,1,2,1:2:0:0:
492,342,14903,5,2,1:2:0:0:
509,294,14989,1,2,0:0:0:0:
484,247,15075,2,0,L|430:257,1,54,10|0,0:0|0:0,0:0:0:0:
355,272,15246,2,0,L|301:282,1,54,10|0,0:0|0:0,0:0:0:0:
227,296,15418,2,0,P|196:233|264:212,1,162,2|0,1:2|0:0,0:0:0:0:
265,212,15761,2,0,L|158:231,1,108,10|0,0:0|0:0,0:0:0:0:
92,187,16018,1,8,0:0:0:0:
105,167,16103,1,2,1:2:0:0:
194,365,16275,5,2,1:2:0:0:
151,358,16361,1,2,1:2:0:0:
106,350,16446,2,0,P|65:283|81:205,1,162,10|0,0:0|0:0,0:0:0:0:
57,216,16789,2,0,P|107:155|186:147,1,162,2|0,1:2|0:0,0:0:0:0:
168,127,17132,1,10,0:0:0:0:
445,380,17389,5,8,0:0:0:0:
476,354,17475,2,0,L|482:300,1,54,2|0,1:2|0:0,0:0:0:0:
492,225,17646,2,0,L|498:171,1,54,2|0,1:2|0:0,0:0:0:0:
508,96,17818,1,10,0:0:0:0:
251,312,18075,5,8,0:0:0:0:
282,286,18161,2,0,L|288:232,1,54,2|0,1:2|0:0,0:0:0:0:
298,157,18332,2,0,L|304:103,1,54,2|0,1:2|0:0,0:0:0:0:
314,28,18504,1,10,0:0:0:0:
83,363,18761,5,8,0:0:0:0:
70,353,18847,2,0,L|63:299,1,54,2|0,1:2|0:0,0:0:0:0:
46,182,19018,5,2,1:2:0:0:
31,204,19103,1,2,1:2:0:0:
15,225,19189,2,0,P|47:218|75:198,1,67.5,14|0,0:0|0:0,0:0:0:0:
127,140,19361,2,0,P|137:108|134:75,1,67.5,10|0,0:0|0:0,0:0:0:0:
95,4,19532,6,0,L|69:0,1,27,2|0,1:2|0:0,0:0:0:0:
60,9,19703,2,0,L|86:13,1,27,10|0,0:0|0:0,0:0:0:0:
187,210,19875,6,0,P|201:179|227:158,1,67.5,10|0,0:0|0:0,0:0:0:0:
298,123,20047,2,0,P|331:120|362:132,1,67.5,10|0,0:0|0:0,0:0:0:0:
419,188,20218,6,0,L|416:215,1,27,2|0,1:2|0:0,0:0:0:0:
407,221,20389,2,0,L|410:194,1,27,10|0,0:0|0:0,0:0:0:0:
499,5,20561,6,0,B|523:38|523:38|511:76,1,81.0000030899049,14|0,0:0|0:0,0:0:0:0:
298,123,20732,2,0,B|274:90|274:90|286:52,1,81.0000030899049,10|0,0:0|0:0,0:0:0:0:
438,55,20903,6,0,L|398:64,1,40.5000015449525,2|0,1:2|0:0,0:0:0:0:
359,73,21075,2,0,L|399:64,1,40.5000015449525,10|0,0:0|0:0,0:0:0:0:
455,346,21246,6,0,B|479:313|479:313|467:275,1,81.0000030899049,10|0,0:0|0:0,0:0:0:0:
253,228,21417,2,0,B|229:261|229:261|241:299,1,81.0000030899049,10|0,0:0|0:0,0:0:0:0:
394,296,21589,6,0,L|354:287,1,40.5000015449525,2|0,1:2|0:0,0:0:0:0:
314,278,21761,2,0,L|354:287,1,40.5000015449525,10|0,0:0|0:0,0:0:0:0:
398,64,21932,5,14,0:0:0:0:
435,76,22017,1,10,0:0:0:0:
459,107,22103,1,10,0:0:0:0:
459,147,22189,1,10,0:0:0:0:
437,179,22274,1,2,1:2:0:0:
400,193,22360,1,10,0:0:0:0:
362,182,22446,1,10,0:0:0:0:
337,152,22532,1,10,0:0:0:0:
386,84,22618,5,14,0:0:0:0:
340,66,22703,1,10,0:0:0:0:
294,77,22789,1,10,0:0:0:0:
262,112,22875,1,10,0:0:0:0:
255,159,22961,1,2,1:2:0:0:
248,206,23046,1,10,0:0:0:0:
217,242,23132,1,10,0:0:0:0:
170,254,23218,1,10,0:0:0:0:
125,236,23303,6,0,B|118:185|118:185|122:189|122:189|116:138,1,108,6|2,1:1|0:1,0:0:0:0:
116,138,23732,1,2,0:1:0:0:
116,138,23818,1,2,0:1:0:0:
26,384,23989,5,2,0:1:0:0:
45,365,24075,1,2,0:1:0:0:
81,343,24161,1,2,0:1:0:0:
134,324,24246,1,2,0:1:0:0:
211,323,24332,6,0,L|242:329,1,32.4,6|0,1:1|0:0,0:0:0:0:
310,384,24675,6,0,B|374:332|374:332|361:221|361:221|355:227|355:227|340:106,1,324,14|0,0:0|0:0,0:0:0:0:
423,17,25017,5,2,1:2:0:0:
440,34,25103,1,2,0:0:0:0:
457,51,25189,2,0,L|449:90,1,40.5000015449525,2|0,0:0|0:0,0:0:0:0:
461,240,25360,6,0,P|409:227|378:184,1,108,10|0,0:0|0:0,0:0:0:0:
288,171,25532,2,0,P|260:125|269:73,1,108,2|0,0:0|0:0,0:0:0:0:
193,22,25703,6,0,B|164:48|164:48|82:38,1,121.500004634857,2|0,1:2|0:0,0:0:0:0:
82,38,25874,2,0,B|43:78|43:78|68:123,1,108,2|0,0:0|0:0,0:0:0:0:
194,208,26046,5,10,0:0:0:0:
156,194,26132,1,2,0:0:0:0:
118,204,26217,1,2,0:0:0:0:
91,234,26304,1,2,0:0:0:0:
86,273,26389,1,2,1:2:0:0:
103,278,26474,1,2,0:0:0:0:
121,283,26560,2,0,L|161:293,1,40.5000015449525,2|0,0:0|0:0,0:0:0:0:
269,365,26732,6,0,L|295:358,3,27.0000010299683,10|2|2|2,0:0|0:0|0:0|0:0,0:0:0:0:
393,324,26989,1,2,0:0:0:0:
466,359,27074,2,0,B|537:344|537:344|509:175,1,243.000009269715,6|0,1:2|0:0,0:0:0:0:
458,100,27418,6,0,P|476:67|465:103,1,108,14|0,0:0|0:0,0:0:0:0:
384,220,27589,2,0,P|413:287|399:215,1,216,10|0,0:0|1:0,0:0:0:0:
294,108,27846,2,0,P|323:40|309:112,1,216,10|0,0:0|0:0,0:0:0:0:
197,282,28103,2,0,P|241:383|220:274,1,324,10|0,0:0|0:0,0:0:0:0:
109,88,28446,2,0,P|153:-14|132:95,1,324,2|0,1:2|0:0,0:0:0:0:
26,338,28789,6,0,B|183:365|183:365|197:284,1,243.000009269715,14|10,0:0|0:0,0:0:0:0:
111,181,29046,1,10,0:0:0:0:
111,181,29132,1,2,1:2:0:0:
111,181,29217,2,0,B|51:170|51:170|41:229,1,121.500004634857,2|8,0:2|0:0,0:0:0:0:
212,189,29389,1,10,0:0:0:0:
212,189,29474,2,0,B|291:203|291:203|304:122|304:122|225:109,1,243.000009269715,10|10,0:0|0:0,0:0:0:0:
184,364,29817,2,0,B|104:350|104:350|117:269|117:269|196:283,1,243.000009269715,2|10,1:2|0:0,0:0:0:0:
510,226,30161,6,0,B|509:227|508:227|508:227|509:230|509:230|506:228|506:228|506:229|506:229|503:227|503:227|504:230|504:230|503:230|503:230|504:233|504:233|501:231|501:231|500:232|500:232|498:230|498:230|499:233|499:233|498:233|498:233|499:237|499:237|496:235|496:235|495:235|495:235|493:233|493:233|494:236|494:236|494:237|493:237|493:237|494:240|494:240|491:238|491:238|491:239|491:239|488:237|488:237|489:240|489:240|488:241|488:241|490:244|490:244|487:242|487:242|486:242|486:242|483:241|483:241|485:244|485:244|484:244|484:245|484:245|485:247|485:247|482:246|482:246|481:247|481:247|479:245|479:245|480:248|480:248|479:249|479:249|481:251|481:251|478:250|478:250|477:251|477:251|474:249|474:249|476:252|476:252|475:253|475:253|477:256|477:256|474:254|474:254|474:255|473:255|473:255|470:254|470:254|472:257|472:257|471:257|471:257|473:260|473:260|470:259|470:259|469:260|469:260|466:259|466:259|468:261|468:261|468:262|468:262|469:265|469:265|466:264|466:264|463:264|463:264|465:266|465:266|464:267|464:267|466:269|466:269|463:269|463:269|462:269|462:269|459:269|459:269|461:271|461:271|461:272|461:272|463:274|463:274|460:274|460:274|459:275|459:275|456:274|456:274|458:276|458:276|458:277|458:277|460:279|460:279|457:279|457:279|456:280|456:280|453:279|453:279|456:282|456:282|455:283|455:283|457:285|457:285|454:284|454:284|454:285|454:285|451:285|451:285|453:287|453:287|453:288|453:288|455:290|455:290|452:290|452:290|451:291|451:291|449:291|449:291|451:293|451:293|450:294|450:294|453:296|453:296|450:296|450:296|449:296|449:296|447:296|447:296|449:298|449:298|448:299|448:299|451:301|451:301|448:301|448:301|448:302|448:302|445:302|445:302|447:304|447:304|447:305|447:305|450:307|450:307|446:307|446:307|446:308|446:308|443:308|443:308|445:310|445:310|445:311|445:311|448:313|448:313|445:313|445:313|445:314|445:314|442:314|442:314|444:316|444:316|444:317|444:317|447:318|447:318|444:319|444:319|443:319|443:320|443:320|440:320|440:320|443:322|443:322|443:323|443:323|446:324|446:324|443:324|443:324|443:326|443:326|439:326|439:326|442:328|442:328|442:329|442:329|445:330|445:330|442:331|442:331|442:332|442:332|439:332|439:332|442:334|442:334|441:335|442:335|442:335|444:336|444:336|441:336|441:336|441:338|441:338|438:338|438:338|441:340|441:340|441:342|441:342|441:340|441:341|441:341|443:341|443:341|441:342|441:342|441:341|440:341|440:341|443:339|443:339|440:339|440:339|439:338|439:338|436:338|436:338|438:336|438:336|438:335|438:335|440:333|440:333|437:333|437:333|437:332|437:332|434:333|434:333|436:331|436:331|436:330|435:330|435:330|438:327|438:327|435:328|435:328|434:327|434:327|431:328|431:328|433:325|433:325|433:324|433:324|435:322|435:322|432:322|432:322|431:322|431:322|428:322|428:322|430:320|430:320|430:319|430:319|432:317|432:317|429:317|429:317|428:317|428:316|428:316|425:317|425:317|427:315|427:315|427:314|427:314|428:312|428:312|426:312|426:312|425:312|425:312|422:312|422:312|424:310|424:310|423:309|423:309|425:307|425:307|422:308|422:308|422:307|421:307|421:307|418:308|418:308|420:305|420:305|420:304|420:304|421:302|421:302|418:303|418:303|418:302|418:302|415:303|415:303|416:300|416:300|417:297|417:297|414:298|414:298|414:297|414:297|411:299|411:299|412:296|412:296|412:295|412:295|413:292|413:292|410:294|410:294|410:293|410:293|407:295|407:295|408:292|408:292|408:291|408:291|409:288|409:288|406:290|406:290|406:289|406:289|403:290|403:290|404:288|404:288|404:287|403:287|403:287|404:284|404:284|402:286|402:286|401:285|401:285|398:287|398:287|399:284|399:284|399:283|399:283|400:280|400:280|397:282|397:282|396:281|396:281|394:283|394:283|395:280|395:280|394:279|394:279|395:276|395:276|392:278|392:278|391:278|391:278|389:280|389:280|390:277|390:277|389:276|389:276|390:273|390:273|387:275|387:275|386:274|386:274|384:277|384:277|385:273|385:273|384:273|384:273|384:270|384:270|382:272|382:272|381:271|381:271|379:274|379:274|379:270|379:270|378:270|378:270|379:267|379:267|377:269|377:269|376:269|376:269|374:271|374:271|374:268|374:268|373:267|373:267|373:264|373:264|371:267|371:267|371:266|370:266|370:266|368:269|368:269|368:265|368:265|368:262|368:262|366:264|366:264|365:264|365:264|363:266|363:266|363:263|363:263|362:263|362:263|362:260|362:260|360:262|360:262|359:262|359:262|357:264|357:264|357:261|357:261|356:261|356:261|356:258|356:258|354:261|354:261|353:260|353:260|351:263|351:263|351:260|351:260|351:259|351:259|350:256|350:256|348:259|348:259|346:262|346:262|345:258|345:258|344:255|344:255|343:258|343:258|342:257|342:257|340:260|340:260|340:257|340:257|339:257|339:257|338:254|338:254|337:256|337:256|336:256,1,705.887331541882,14|0,0:0|0:0,0:0:0:0:
264,337,30503,2,0,B|266:336|267:336|267:336|267:333|267:333|269:336|269:336|270:336|270:336|271:338|271:338|272:335|272:335|273:335|273:335|273:332|273:332|275:335|275:335|276:334|276:334|277:337|277:337|278:334|278:334|279:334|279:334|279:331|279:331|281:334|281:334|282:334|282:334|283:337|283:337|284:333|284:333|285:333|285:333|285:330|285:330|286:333|286:333|287:333|287:333|289:336|289:336|289:333|289:333|290:333|290:333|291:330|291:330|292:333|292:333|293:333|293:333|294:336|294:336|295:333|295:333|296:333|296:333|298:330|298:330|298:333|298:333|299:334|299:334|300:337|300:337|301:334|301:334|302:334|302:334|304:331|304:331|304:334|304:334|305:334|305:334|306:337|306:337|307:335|307:335|308:335|308:335|310:332|310:332|310:335|310:335|311:335|311:335|312:338|312:338|313:336|313:336|314:336|314:336|316:333|316:333|316:336|316:336|317:337|317:337|317:340|317:340|319:337|319:337|320:337|320:337|322:335|322:335|322:338|322:338|323:338|323:338|323:341|323:341|325:339|325:339|327:337|327:337|327:340|327:340|328:340|328:340|328:344|328:344|330:341|330:341|331:342|331:342|333:339|333:339|333:342|333:342|334:343|334:343|333:346|333:346|335:344|335:344|336:344|336:344|339:342|339:342|338:345|338:345|339:346|339:346|338:349|338:349|341:347|341:347|342:347|342:347|344:345|344:345|343:348|343:348|344:349|344:349|343:352|343:352|346:350|346:350|347:350|347:350|349:348|349:348|348:351|348:351|349:352|349:352|348:355|348:355|351:353|351:353|353:355|353:355|351:354|351:354|354:352|354:352|353:355|353:355|354:356,1,238.876113179596,2|0,1:2|0:0,0:0:0:0:
323,166,30675,2,0,B|321:168|321:168|322:171|322:171|319:169|319:169|319:170|319:170|316:169|316:169|317:172|317:172|318:175|318:175|315:173|315:173|314:174|314:174|312:172|312:172|313:175|313:175|312:176|312:176|313:179|313:179|310:177|310:177|310:178|310:178|307:176|307:176|308:179|308:179|307:180|307:180|308:183|308:183|306:181|306:181|305:181|305:181|302:179|302:179|303:182|303:182|302:183|302:183|303:186|303:186|301:184|301:184|300:184|300:184|297:182|297:182|298:185|298:185|297:186|297:186|298:189|298:189|295:187|295:187|292:185|292:185|293:188|293:188|292:189|292:189|292:192|292:192|290:189|290:189|289:190|289:190|287:188|287:188|287:191|287:191|286:191|286:191|287:194|287:194|285:192|285:192|284:192|284:192|282:190|282:190|282:193|282:193|281:193|281:193|281:196|281:196|279:194|279:194|278:194|278:194|276:192|276:192|276:195|276:195|275:195|275:195|275:198|275:198|273:195|273:195|272:196|272:196|271:193|271:193|270:196|270:196|269:196|269:196|269:200|269:200|268:197|268:197|267:197|267:197|265:194|265:194|265:197|265:197|264:198|264:198|263:201|263:201|262:198|262:198|261:198|261:198|259:195|259:195|259:198|259:198|258:198|258:198|257:202|257:202|256:199|256:199|255:199|255:199|254:196|254:196|253:199|253:199|252:199|252:199|251:202|251:202|250:199|250:199|249:199|249:199|248:196|248:196|247:199|247:199|246:199|246:199|245:202|245:202|244:199|244:199|243:199|243:199|242:196|242:196|241:199|241:199|238:199|238:199|240:199|240:199|239:202|239:202|238:199|238:199|237:199,1,238.766372240648,2|0,0:0|0:0,0:0:0:0:
96,289,30846,5,10,0:0:0:0:
92,304,30932,2,0,B|93:306|93:307|93:307|96:307|96:307|94:309|94:309|94:310|94:310|92:312|92:312|95:311|95:311|95:312|95:312|99:312|99:312|96:314|96:314|97:315|97:315|95:317|95:317|98:317|98:317|99:317|99:317|102:316|102:316|100:319|100:319|100:320|100:320|99:322|99:322|102:321|102:321|102:322|102:322|105:321|105:321|104:323|104:323|104:324|104:324|103:327|103:327|106:326|106:326|107:326|107:326|109:325|109:325|108:327|108:327|109:328|109:328|108:331|108:331|111:329|111:329|111:330|111:330|114:328|114:328|113:331|113:331|114:331|114:331|113:335|113:335|116:332|116:332|117:333|117:333|119:331|119:331|118:334|118:334|119:334|119:334|119:337|119:337|121:335|121:335|122:335|122:335|124:333|124:333|124:336|124:336|125:336|125:336|125:339|125:339|127:337|127:337|128:337|128:337|129:334|129:334|130:337|130:337|131:337|131:337|131:341|131:341|133:338|133:338|134:338|134:338|135:335|135:335|136:338|136:338|137:338|137:338|138:341|138:341|139:338|139:338|140:338|140:338|141:335|141:335|142:338|142:338|143:338|143:338|144:341|144:341|145:338|145:338|146:337|146:337|146:334|146:334|148:337|148:337|149:337|149:337|150:340|150:340|150:337|150:337|151:336|151:336|152:333|152:333|153:336|153:336|154:335|154:335|156:338|156:338|156:335|156:335|157:334|157:334|157:331|157:331|159:333|159:333|160:333|160:333|162:335|162:335|162:332|162:332|162:329|162:329|164:331|164:331|165:330|165:330|168:332|168:332|167:329|167:329|167:328|167:328|166:325|166:325|169:327|169:327|170:327|170:327|173:328|173:328|171:325|171:325|172:325|172:325|171:322|171:322|173:323|173:323|174:322|174:322|177:324|177:324|175:321|175:321|176:320|176:320|174:318|174:318|177:319|177:319|178:318|178:318|181:319|181:319|179:316|179:316|180:315|180:315|178:313|178:313|181:314|181:314|181:313|181:313|184:313|184:313|182:311|182:311|182:310|182:310|180:308|180:308|183:308|183:308|184:307|184:307|187:307|187:307|184:305|184:305|185:304|185:304|182:303|182:303|185:303|185:303|186:302|186:302|189:301|189:301|186:300|186:300|186:299|186:299|183:297|183:297|187:297|187:297|187:296|187:296|190:295|190:295|187:294|187:294|187:293|187:293|184:292|184:292|187:291|187:291|187:290|187:290|190:289|190:289|187:288|187:288|187:287|187:287|184:286|184:286|187:285|187:285|187:284|187:284|190:282|190:282|186:282|186:282|186:281|186:281|183:280|183:280|186:279|186:279|186:278|186:278|188:276|188:276|185:276|185:276|185:275|185:275|182:275|182:275|184:273|184:273|184:272|184:272|186:270|186:270|183:270|183:270|183:269|183:269|180:270|180:270|182:268|182:268|181:267|181:267|184:264|184:264|181:265|181:265|180:264|180:264|177:265|177:265|179:262|179:262|178:262|178:262|180:259|180:259|177:260|177:260|177:259|177:259|174:260|174:260|175:258|175:258|175:257|175:257|176:254|176:254|173:255|173:255|170:256|170:256|171:253|171:253|170:253|170:253|172:250|172:250|169:251|169:251|168:251|168:251|166:253|166:253|166:250|166:250|164:248|164:248|166:249|166:249|166:246|166:246|164:248|164:248|162:247,1,467.064616000876,10|0,0:0|0:0,0:0:0:0:
83,126,31189,2,0,B|85:128|85:128|88:127|88:127|86:130|86:130|87:130|87:130|86:133|86:133|89:132|89:132|92:131|92:131|91:134|91:134|92:134|92:134|90:137|90:137|93:136|93:136|94:136|94:136|97:134|97:134|95:137|95:137|96:138|96:138|95:141|95:141|98:139|98:139|99:140|99:140|101:138|101:138|100:141|100:141|101:141|101:141|100:145|100:145|103:143|103:143|104:143|104:143|106:141|106:141|105:144|105:144|106:145|106:145|105:148|105:148|108:146|108:146|109:146|109:146|111:144|111:144|110:147|110:147|111:148|111:148|111:151|111:151|113:148|113:148|114:149|114:149|116:147|116:147|116:150|116:150|117:150|117:150|116:153|116:153|118:151|118:151|119:151|119:151|121:149|121:149|121:152|121:152|122:152|122:152|122:156|122:156|124:153|124:153|125:153|125:153|127:151|127:151|127:154|127:154|128:154|128:154|128:158|128:158|130:155|130:155|131:155|131:155|132:153|132:153|133:156|133:156|134:156|134:156|134:159|134:159|135:157|135:157|136:157|136:157|138:154|138:154|138:157|138:157|139:157|139:157|140:160|140:160|141:158|141:158|142:158|142:158|144:155|144:155|144:158|144:158|145:158|145:158|146:161|146:161|147:159|147:159|148:159|148:159|149:156|149:156|150:159|150:159|151:159|151:159|152:162|152:162|153:159|153:159|154:159|154:159|155:156|155:156|156:159|156:159|157:159|157:159|158:162|158:162|159:159|159:159|160:159|160:159|161:156|161:156|162:159|162:159|163:159|163:159|164:162|164:162|165:159|165:159|168:159|167:159|167:159|169:159|167:159|167:159|168:156|168:156|169:159,1,234.218529795903,2|0,1:2|0:0,0:0:0:0:
238,199,31361,2,0,B|240:197|240:197|239:194|239:194|241:195|241:195|242:195|242:195|245:196|245:196|244:193|244:193|243:190|243:190|246:191|246:191|246:190|246:190|249:192|249:192|248:189|248:189|249:188|249:188|248:186|248:186|250:187|250:187|251:187|251:187|254:188|254:188|253:185|253:185|252:182|252:182|255:184|255:184|256:183|256:183|258:185|258:185|257:182|257:182|258:181|258:181|257:178|257:178|260:180|260:180|261:180|261:180|263:182|263:182|263:179|263:179|263:178|263:178|263:175|263:175|265:177|265:177|266:177|266:177|268:179|268:179|268:176|268:176|269:175|269:175|268:172|268:172|270:174|270:174|271:174|271:174|274:176|274:176|273:173|273:173|274:173|274:173|274:170|274:170|276:172|276:172|277:172|277:172|279:174|279:174|279:171|279:171|280:171|280:171|280:167|280:167|282:170|282:170|283:170|283:170|284:172|284:172|284:169|284:169|285:169|285:169|286:166|286:166|287:168|287:168|288:168|288:168|290:171|290:171|290:167|290:167|291:167|291:167|292:164|292:164|293:167|293:167|294:167|294:167|296:169|296:169|296:166|296:166|297:166|297:166|298:163|298:163|299:166|299:166|300:166|300:166|301:168|301:168|302:165|302:165|303:165|303:165|304:162|304:162|305:165|305:165|306:165|306:165|307:168|307:168|308:165|308:165|309:165|309:165|310:162|310:162|311:165|311:165|312:165|312:165|313:168|313:168|314:165|314:165|315:165|315:165|316:162|316:162|317:165|317:165|318:165|318:165|319:168|319:168|320:165|320:165|321:165|322:165|322:165|323:165,1,219.193021355211,2|0,0:0|0:0,0:0:0:0:
467,0,31532,6,0,B|468:2|468:2|471:2|471:2|468:4|468:4|469:5|469:5|466:7|466:7|469:7|469:7|470:8|470:8|473:8|473:8|470:10|470:10|471:11|471:11|468:13|468:13|471:13|471:13|472:14|472:14|475:14|475:14|472:16|472:16|473:17|473:17|470:18|470:18|473:18|473:18|474:19|474:19|477:19|477:19|474:21|474:21|475:22|475:22|472:24|472:24|475:24|475:24|476:25|476:25|479:25|479:25|476:27|476:27|477:28|477:28|474:30|474:30|477:30|477:30|477:31|477:31|481:31|481:31|478:33|478:33|478:34|478:34|476:36|476:36|479:35|479:35|479:36|479:36|483:36|483:36|480:38|480:38|480:39|480:39|478:41|478:41|481:41|481:41|482:44|482:44|481:42|481:42|485:42|485:42|482:44|482:44|481:45|481:45|478:44|478:44|480:46|480:46|479:47|479:47|481:50|481:50|478:49|478:49|475:48|475:48|476:51|476:51|476:52|476:52|477:54|477:54|474:53|474:53|474:54|474:54|471:53|471:53|472:55|472:55|472:56|472:56|473:59|473:59|470:58|470:58|467:57|467:57|469:60|469:60|468:61|468:61|470:63|470:63|467:62|467:62|466:63|466:63|463:62|463:62|465:65|465:65|464:65|464:65|466:68|466:68|463:67|463:67|462:68|462:68|459:66|459:66|461:69|461:69|460:70|460:70|462:73|462:73|459:71|459:71|458:72|458:72|455:71|455:71|457:74|457:74|456:75|456:75|458:77|458:77|455:76|455:76|455:77|455:77|452:76|452:76|453:78|453:78|453:79|453:79|454:82|454:82|451:81,1,243.326236059684,14|0,0:0|0:0,0:0:0:0:
323,166,31703,2,0,B|322:164|322:164|319:164|319:164|321:162|321:162|321:161|321:161|324:159|324:159|321:159|321:159|320:158|320:158|317:158|317:158|319:156|319:156|319:155|319:155|322:153|322:153|319:153|319:153|318:152|318:152|315:152|315:152|317:151|317:151|317:150|317:150|320:148|320:148|317:148|317:148|316:147|316:147|313:147|313:147|315:145|315:145|315:144|315:144|318:142|318:142|315:142|315:142|314:141|314:141|311:141|311:141|313:139|313:139|313:138|313:138|316:136|316:136|313:136|313:136|312:136|312:136|309:136|309:136|311:134|311:134|311:133|311:133|314:131|314:131|311:131|311:131|310:130|310:130|307:130|307:130|309:128|309:128|309:127|309:127|312:125|312:125|309:125|309:125|308:124|308:124|305:124|305:124|307:122|307:122|307:121|307:121|311:122|311:122|309:119|309:119|308:117|308:117|310:118|310:118|311:117|311:117|313:118|313:118|312:115|312:115|311:112|311:112|314:113|314:113|314:112|314:112|317:113|317:113|316:111|316:111|316:110|316:110|315:107|315:107|318:108|318:108|321:109|321:109|319:106|319:106|320:105|320:105|318:103|318:103|321:104|321:104|322:103|322:103|325:104|325:104|323:102|323:102|324:101|324:101|322:98|322:98|325:99|325:99|326:98|326:98|329:100|329:100|327:97|327:97|328:96|328:96|326:94|326:94|329:95|329:95|330:94|330:94|333:95|333:95|331:92|331:92|332:92|332:92|330:89|330:89|333:90|333:90|334:89|334:89|336:90|336:90|335:88|335:88|335:87|335:87|334:84|334:84|337:86|337:86|337:85,1,227.450066940619,2|0,0:0|0:0,0:0:0:0:
312,10,31875,2,0,B|314:9|314:9|314:6|314:6|316:9|316:9|317:8|317:8|319:11|319:11|319:8|319:8|320:7|320:7|320:4|320:4|322:7|322:7|323:6|323:6|325:9|325:9|325:6|325:6|326:5|326:5|326:2|326:2|328:5|328:5|329:4|329:4|330:7|330:7|330:4|330:4|331:3|331:3|331:0|331:0|333:3|333:3|334:2|334:2|336:5|336:5|336:2|336:2|337:1|337:1|337:-2|337:-2|339:1|339:1|340:0|340:0|342:3|342:3|342:0|342:0|343:0|343:0|343:-4|343:-4|345:-1|345:-1|346:-1|346:-1|348:1|348:1|347:-2|347:-2|348:-2|348:-2|348:-6|348:-6|350:-3|350:-3|351:-3|351:-3|353:-1|353:-1|353:-4|353:-4|356:-5|356:-5|354:-4|354:-4|354:-8|354:-8|356:-5|356:-5|357:-4|357:-4|356:-1|356:-1|358:-3|358:-3|359:-2|359:-2|362:-4|362:-4|361:-1|361:-1|360:2|360:2|363:1|363:1|364:1|364:1|366:0|366:0|365:2|365:2|366:3|366:3|365:6|365:6|368:4|368:4|368:5|368:5|371:3|371:3|370:6|370:6|371:7|371:7|370:10|370:10|372:8|372:8|373:9|373:9|376:7|376:7|375:10|375:10|375:11|375:11|374:14|374:14|377:12|377:12|378:12|378:12|380:11|380:11|379:14|379:14|380:14|380:14|379:17|379:17|381:16|381:16|382:16|382:16|385:15|385:15|384:18|384:18|385:18|385:18|383:21|383:21|386:19|386:19|387:20|387:20|389:18|389:18|388:21|388:21|389:22|389:22|388:25|388:25|391:23|391:23|393:25|393:25|391:24|391:24|394:22|394:22|393:25,1,247.050307916889,2|0,1:2|0:0,0:0:0:0:
478,154,32046,2,0,B|476:155|476:155|476:158|476:158|474:155|474:155|473:156|473:156|471:153|471:153|471:156|471:156|470:157|470:157|470:160|470:160|468:157|468:157|467:158|467:158|465:155|465:155|465:158|465:158|464:159|464:159|464:162|464:162|462:159|462:159|461:160|461:160|460:157|460:157|460:160|460:160|459:160|459:160|459:164|459:164|457:161|457:161|456:161|456:161|454:159|454:159|454:162|454:162|453:162|453:162|453:166|453:166|451:163|451:163|450:163|450:163|448:161|448:161|448:164|448:164|447:164|447:164|447:167|447:167|445:165|445:165|444:165|444:165|442:163|442:163|442:166|442:166|442:169|442:169|440:167|440:167|439:167|439:167|437:165|437:165|437:168|437:168|436:168|436:168|436:171|436:171|434:169|434:169|433:169|433:169|434:166|434:166|431:168|431:168|431:167|431:167|428:169|428:169|429:166|429:166|428:165|428:165|430:162|430:162|427:164|427:164|426:163|426:163|423:165|423:165|425:162|425:162|424:161|424:161|425:158|425:158|422:160|422:160|422:159|422:159|419:161|419:161|420:158|420:158|419:157|419:157|420:155|420:155|418:156|418:156|417:156|417:156|414:157|414:157|415:154|415:154|416:151|416:151|413:152|413:152|412:152|412:152|410:153|410:153|411:150|411:150|410:150|410:150|411:147|411:147|409:149|409:149|408:148|408:148|405:150|405:150|406:147|406:147|406:146|406:146|407:143|407:143|404:145|404:145|403:144|403:144|401:146|401:146|402:143|402:143|401:142|401:142|402:139|402:139|399:141|399:141|399:140|399:140|396:142|396:142|397:139,1,233.472595577702,2|0,0:0|0:0,0:0:0:0:
303,320,32218,6,0,B|302:318|301:318|301:318|298:318|298:318|300:316|300:316|300:315|300:315|301:313|301:313|298:314|298:314|298:313|298:313|295:314|295:314|296:311|296:311|297:308|297:308|295:309|295:309|294:308|294:308|291:310|291:310|292:307|292:307|292:306|292:306|293:303|293:303|290:305|290:305|290:304|290:304|287:306|287:306|288:303|288:303|287:302|287:302|289:299|289:299|286:301|286:301|285:300|285:300|282:302|282:302|284:299|284:299|283:298|283:298|284:295|284:295|281:297|281:297|280:297|280:297|278:299|278:299|279:296|279:296|278:295|278:295|279:292|279:292|276:294|276:294|275:293|275:293|273:295|273:295|274:292|274:292|273:292|273:292|273:289|273:289|271:291|271:291|270:291|270:291|268:293|268:293|268:290|268:290|267:289|267:289|268:286|268:286|266:288|266:288|265:288|265:288|263:290|263:290|263:287|263:287|262:287|262:287|262:284|262:284|260:286|260:286|259:286|259:286|257:288|257:288|257:285|257:285|256:285|256:285|256:282|256:282|254:284|254:284|253:284|253:284|252:287|252:287|252:284|252:284|251:283|251:283|250:280|250:280|249:283|249:283|248:283|248:283|246:286|246:286|246:282|246:282|245:282|245:282|244:279|244:279|243:282|243:282|242:282|242:282|240:285|240:285|240:282|240:282|239:282|239:282|238:279|238:279|237:281|237:281|236:281|236:281|235:284|235:284|234:281|234:281|233:281|233:281|232:278|232:278|231:281|231:281|230:281|230:281|229:284|229:284|228:281|228:281|227:281|227:281|226:279|226:279|225:282|225:282|224:282|224:282|223:285|223:285|222:282|222:282|221:282,1,229.541466090587,10|0,0:0|0:0,0:0:0:0:
0,227,32389,1,10,0:0:0:0:
0,227,32475,1,10,0:0:0:0:
55,282,32561,2,0,P|107:197|101:97,1,202.5,2|0,1:2|0:0,0:0:0:0:
6,89,32903,6,0,B|56:96|56:96|51:90|51:90|100:97,1,108,14|0,0:0|0:0,0:0:0:0:
258,55,33075,2,0,B|207:47|207:47|212:53|212:53|163:46,1,108,2|0,1:2|0:0,0:0:0:0:
98,0,33246,1,10,0:0:0:0:
144,177,33418,6,0,B|194:184|194:184|189:178|189:178|238:185,1,108,14|0,0:0|0:0,0:0:0:0:
430,187,33589,2,0,B|326:174|326:174|333:183|333:183|230:170,1,216,2|10,1:2|0:0,0:0:0:0:
73,211,33846,1,2,1:2:0:0:
129,268,33932,6,0,B|164:225|164:225|143:176,1,108,14|0,0:0|0:0,0:0:0:0:
17,155,34103,1,2,1:2:0:0:
17,155,34189,1,2,1:2:0:0:
17,155,34275,2,0,B|-19:197|-19:197|2:246,1,108,10|0,0:0|0:0,0:0:0:0:
95,378,34446,6,0,L|174:361,1,81.0000030899049,14|0,0:0|0:0,0:0:0:0:
253,344,34618,1,2,1:2:0:0:
98,359,34789,5,2,1:2:0:0:
177,342,34874,1,2,1:2:0:0:
256,325,34961,1,14,0:0:0:0:
286,322,35046,1,10,0:0:0:0:
314,339,35132,1,10,0:0:0:0:
336,366,35218,1,10,0:0:0:0:
369,380,35303,1,2,1:2:0:0:
409,371,35389,1,2,1:2:0:0:
446,334,35475,1,2,1:2:0:0:
446,271,35561,1,2,1:2:0:0:
389,218,35646,6,0,B|280:118|394:-40|504:78|443:136,1,324,14|0,0:0|0:0,0:0:0:0:
314,339,35989,5,2,1:2:0:0:
300,326,36075,2,0,P|227:291|147:293,1,162.00000617981,2|8,0:0|0:0,0:0:0:0:
96,238,36332,2,0,P|73:270|73:310,1,81.0000030899049,10|0,0:0|0:0,0:0:0:0:
199,347,36503,2,0,P|222:315|222:275,1,81.0000030899049,10|0,0:0|0:0,0:0:0:0:
161,73,36675,6,0,B|92:84|92:84|97:88|97:88|33:99,1,141.750001351833,2|0,1:2|0:0,0:0:0:0:
15,91,36846,2,0,B|-18:55|-18:55|0:11,1,94.5000009012222,2|2,0:0|0:0,0:0:0:0:
187,175,37018,5,10,0:0:0:0:
223,166,37103,1,2,0:0:0:0:
260,157,37190,1,2,0:0:0:0:
297,148,37275,1,2,0:0:0:0:
333,139,37361,1,2,1:2:0:0:
344,124,37446,1,2,0:0:0:0:
355,108,37532,2,0,L|342:55,1,54,10|10,0:0|0:0,0:0:0:0:
420,20,37703,6,0,L|426:55,3,36,10|0|0|0,3:2|3:0|3:0|3:0,0:0:0:0:
446,150,37961,1,0,3:0:0:0:
382,198,38046,2,0,B|370:331|370:331|438:340,1,202.5,2|0,1:2|0:0,0:0:0:0:
481,244,38389,6,0,B|394:209|325:278|359:313|290:382|204:347,1,324,10|0,0:0|0:0,0:0:0:0:
202,345,38732,2,0,P|207:294|254:275,1,108,2|0,1:2|0:0,0:0:0:0:
438,340,38903,6,0,B|351:374|282:305|316:270|247:201|161:236,1,324,10|0,0:0|0:0,0:0:0:0:
160,236,39246,2,0,P|164:287|211:306,1,108,10|0,0:0|0:0,0:0:0:0:
395,244,39418,6,0,B|308:209|239:278|273:313|204:382|118:347,1,324,2|8,1:2|0:0,0:0:0:0:
84,274,39761,6,0,B|38:292|34:348|34:348|-10:255|55:189|73:207|141:139|106:69,1,405,10|0,0:0|0:0,0:0:0:0:
69,1,40103,2,0,P|35:32|27:77,1,94.5000009012222,2|0,1:2|0:0,0:0:0:0:
120,167,40275,2,0,L|159:156,1,40.5000015449525,10|0,0:0|0:0,0:0:0:0:
243,86,40446,6,0,P|312:2|317:111,1,283.500002703667,10|0,0:0|0:0,0:0:0:0:
258,162,40789,1,2,1:2:0:0:
258,162,40961,1,10,0:0:0:0:
512,75,41132,6,0,L|485:70,9,27.0000010299683,10|0|0|0|0|0|0|0|0|0,3:2|3:0|3:0|3:0|3:0|3:0|3:0|3:0|3:0|3:0,0:0:0:0:
395,6,41475,5,2,1:2:0:0:
402,48,41560,1,2,0:0:0:0:
409,91,41646,1,2,0:0:0:0:
416,133,41732,1,2,0:0:0:0:
424,176,41817,1,8,0:0:0:0:
444,184,41903,1,8,0:0:0:0:
463,192,41989,2,0,L|474:244,1,54,8|8,0:0|0:0,0:0:0:0:
484,343,42161,5,2,1:2:0:0:
441,333,42246,1,2,0:0:0:0:
399,323,42332,1,2,0:0:0:0:
357,314,42418,1,2,0:0:0:0:
337,273,42503,5,10,0:0:0:0:
294,263,42588,1,2,0:0:0:0:
252,253,42674,1,2,0:0:0:0:
210,244,42760,1,2,0:0:0:0:
143,192,42846,5,2,1:2:0:0:
133,207,42932,2,0,B|107:252|107:252|142:294,1,108,2|8,0:0|0:0,0:0:0:0:
271,349,43189,6,0,L|218:336,1,54,10|0,0:0|0:0,0:0:0:0:
12,326,43361,1,10,0:0:0:0:
27,342,43446,1,10,0:0:0:0:
42,358,43532,6,0,B|61:243|61:243|65:251|65:251|88:124|88:124|15:111|15:111|2:187,1,405,2|0,1:2|0:0,0:0:0:0:
129,374,43875,6,0,L|142:294,1,81.0000030899049,14|0,0:0|0:0,0:0:0:0:
183,58,44047,2,0,L|169:137,1,81.0000030899049,2|0,1:2|0:0,0:0:0:0:
156,216,44218,1,10,0:0:0:0:
292,23,44389,6,0,L|278:102,1,81.0000030899049,14|0,0:0|0:0,0:0:0:0:
238,339,44561,2,0,L|251:259,1,81.0000030899049,2|0,1:2|0:0,0:0:0:0:
265,181,44732,1,10,0:0:0:0:
265,181,44818,1,2,1:2:0:0:
327,232,44903,2,0,B|352:200|352:200|339:161,1,81.0000030899049,14|0,0:0|0:0,0:0:0:0:
209,39,45075,5,2,1:2:0:0:
183,58,45161,2,0,B|377:25,1,189.000001802444,10|0,0:0|0:0,0:0:0:0:
497,195,45418,6,0,L|418:178,1,81.0000030899049,14|0,0:0|0:0,0:0:0:0:
339,161,45590,1,2,1:2:0:0:
494,176,45761,5,2,1:2:0:0:
415,159,45846,1,2,1:2:0:0:
336,142,45933,1,14,0:0:0:0:
311,139,46018,1,10,0:0:0:0:
281,153,46104,1,10,0:0:0:0:
265,181,46189,1,10,0:0:0:0:
271,221,46275,1,2,1:2:0:0:
304,247,46361,1,2,1:2:0:0:
342,284,46446,1,2,1:2:0:0:
341,340,46532,1,2,1:2:0:0:
282,384,46618,6,0,P|242:358|196:347,1,94.5000009012222,14|0,0:0|0:0,0:0:0:0:
192,268,46789,2,0,P|98:274|13:315,1,189.000001802444,10|0,0:0|0:0,0:0:0:0:
13,315,47132,6,0,P|42:279|48:232,1,94.5000009012222,10|0,0:0|0:0,0:0:0:0:
103,36,47303,2,0,P|67:6|20:0,1,94.5000009012222,2|0,1:2|0:0,0:0:0:0:
115,193,47475,2,0,P|110:146|81:109,1,94.5000009012222,10|0,0:0|0:0,0:0:0:0:
82,110,47818,6,0,P|87:157|116:194,1,94.5000009012222,10|0,0:0|0:0,0:0:0:0:
272,329,47989,2,0,P|310:302|327:258,1,94.5000009012222,2|0,1:2|0:0,0:0:0:0:
125,270,48161,2,0,P|167:290|213:283,1,94.5000009012222,10|0,0:0|0:0,0:0:0:0:
213,282,48503,6,0,P|230:238|268:210,1,94.5000009012222,10|0,0:0|0:0,0:0:0:0:
464,141,48675,2,0,P|493:177|497:224,1,94.5000009012222,2|0,1:2|0:0,0:0:0:0:
298,140,48846,2,0,P|343:132|386:151,1,94.5000009012222,10|0,0:0|0:0,0:0:0:0:
477,335,49018,5,2,1:2:0:0:
459,330,49103,1,10,0:0:0:0:
465,312,49189,1,2,1:2:0:0:
482,318,49275,1,2,1:2:0:0:
374,299,49361,6,0,B|329:307|329:307|332:303|332:303|288:311,1,94.5000009012222,14|0,0:0|0:0,0:0:0:0:
229,364,49532,2,0,B|205:387|205:387|104:341|104:341|188:268|188:268|217:284,1,283.500002703667,10|0,0:0|0:0,0:0:0:0:
374,299,49875,6,0,L|378:272,1,27,10|0,0:0|0:0,0:0:0:0:
384,301,49961,2,0,L|388:274,1,27,10|0,0:0|0:0,0:0:0:0:
394,303,50046,6,0,B|426:269|426:269|411:224,1,94.5000009012222,2|0,1:2|0:0,0:0:0:0:
339,110,50217,2,0,B|324:65|324:65|356:31,1,94.5000009012222,10|0,0:0|0:0,0:0:0:0:
461,100,50389,6,0,L|422:90,1,40.5000015449525,2|0,0:1|0:0,0:0:0:0:
175,89,50560,6,0,L|201:95,1,27,10|0,0:0|0:0,0:0:0:0:
167,100,50647,2,0,L|193:106,1,27,10|0,0:0|0:0,0:0:0:0:
159,111,50732,6,0,B|134:150|134:150|157:191,1,94.5000009012222,2|0,1:2|0:0,0:0:0:0:
302,231,50903,2,0,B|319:276|319:276|288:311,1,94.5000009012222,10|0,0:0|0:0,0:0:0:0:
153,352,51075,6,0,L|113:359,1,40.5000015449525,2|0,0:1|0:0,0:0:0:0:
12,260,51246,6,0,B|48:266|48:266|46:268|46:268|85:275,1,81.0000030899049,10|0,0:0|0:0,0:0:0:0:
214,296,51418,2,0,B|250:302|250:302|248:304|248:304|287:311,1,81.0000030899049,2|0,1:2|0:0,0:0:0:0:
416,332,51589,2,0,B|452:338|452:338|450:340|450:340|489:347,1,81.0000030899049,10|0,0:0|0:0,0:0:0:0:
512,202,51761,5,2,1:2:0:0:
492,206,51846,1,10,0:0:0:0:
472,211,51932,1,2,1:2:0:0:
452,215,52018,1,2,1:2:0:0:
394,155,52103,6,0,B|402:110|402:110|398:113|398:113|406:69,1,94.5000009012222,14|0,0:0|0:0,0:0:0:0:
482,93,52275,2,0,B|389:112|389:112|396:118|396:118|313:137,1,189.000001802444,10|0,0:0|0:0,0:0:0:0:
313,137,52618,6,0,B|268:125|268:125|271:129|271:129|228:117,1,94.5000009012222,10|0,0:0|0:0,0:0:0:0:
172,172,52789,2,0,B|149:132|149:132|148:137|148:137|125:98,1,94.5000009012222,2|0,1:2|0:0,0:0:0:0:
47,97,52961,2,0,B|58:52|58:52|54:55|54:55|66:12,1,94.5000009012222,10|0,0:0|0:0,0:0:0:0:
58,7,53132,2,0,B|47:46,1,40.5000015449525,2|0,0:1|0:0,0:0:0:0:
58,267,53303,6,0,B|102:255|102:255|99:259|99:259|142:247,1,94.5000009012222,10|0,0:0|0:0,0:0:0:0:
199,302,53475,2,0,B|221:262|221:262|222:267|222:267|245:228,1,94.5000009012222,2|0,1:2|0:0,0:0:0:0:
324,227,53646,2,0,B|312:182|312:182|316:185|316:185|304:142,1,94.5000009012222,10|0,0:0|0:0,0:0:0:0:
313,137,53818,2,0,B|324:180,1,40.5000015449525,2|0,0:1|0:0,0:0:0:0:
430,362,53989,6,0,B|441:317|441:317|444:322|444:322|455:278,1,94.5000009012222,10|0,0:0|0:0,0:0:0:0:
332,221,54161,2,0,B|320:177|320:177|324:180|324:180|313:137,1,94.5000009012222,2|0,1:2|0:0,0:0:0:0:
440,95,54332,2,0,B|451:50|451:50|454:55|454:55|465:11,1,94.5000009012222,10|0,0:0|0:0,0:0:0:0:
301,10,54503,5,2,1:2:0:0:
277,14,54588,1,10,0:0:0:0:
254,19,54674,1,2,1:2:0:0:
231,24,54760,1,2,1:2:0:0:
170,84,54846,6,0,P|136:52|89:52,1,94.5000009012222,14|0,0:0|0:0,0:0:0:0:
0,116,55017,2,0,B|45:144|92:111|76:87|123:55|170:84,1,189.000001802444,10|0,0:0|0:0,0:0:0:0:
25,235,55361,6,0,L|52:231,1,27,10|0,0:0|0:0,0:0:0:0:
23,220,55446,2,0,L|50:216,1,27,10|0,0:0|0:0,0:0:0:0:
19,204,55532,6,0,B|56:175|56:175|103:193,1,94.5000009012222,6|0,1:2|0:0,0:0:0:0:
119,337,55703,2,0,B|79:364|79:364|36:346,1,94.5000009012222,10|0,0:0|0:0,0:0:0:0:
146,260,55875,6,0,L|186:255,1,40.5000015449525,2|0,0:1|0:0,0:0:0:0:
487,235,56046,6,0,L|460:231,1,27,10|0,0:0|0:0,0:0:0:0:
489,220,56131,2,0,L|462:216,1,27,10|0,0:0|0:0,0:0:0:0:
493,204,56217,6,0,B|456:175|456:175|409:193,1,94.5000009012222,6|0,1:2|0:0,0:0:0:0:
393,337,56388,2,0,B|432:364|432:364|475:346,1,94.5000009012222,10|0,0:0|0:0,0:0:0:0:
366,260,56560,6,0,L|325:255,1,40.5000015449525,2|0,0:1|0:0,0:0:0:0:
256,384,56732,6,0,L|230:375,1,27,10|0,0:0|0:0,0:0:0:0:
256,368,56817,2,0,L|281:359,1,27,10|0,0:0|0:0,0:0:0:0:
256,352,56903,5,2,1:2:0:0:
256,289,56989,1,2,1:2:0:0:
256,226,57074,1,2,1:2:0:0:
256,163,57161,1,2,1:2:0:0:
256,100,57246,1,14,0:0:0:0:
256,100,57589,6,0,B|271:56|271:56|241:19,1,94.5000009012222,14|0,0:0|0:0,0:0:0:0:
181,72,57761,2,0,B|266:56|266:56|259:52|259:52|352:35,1,189.000001802444,2|2,0:0|1:2,0:0:0:0:
450,12,58018,5,2,0:0:0:0:
460,28,58103,2,0,B|483:70|483:70|463:112,1,94.5000009012222,2|0,0:0|0:0,0:0:0:0:
502,179,58275,2,0,B|477:219|477:219|430:224,1,94.5000009012222,10|0,0:0|0:0,0:0:0:0:
392,290,58447,2,0,B|344:288|344:288|317:250,1,94.5000009012222,10|0,0:0|0:0,0:0:0:0:
350,165,58618,6,0,B|377:131|377:131|362:180,1,94.5000009012222,2|0,1:2|0:0,0:0:0:0:
252,316,58789,6,0,P|205:318|167:292,1,94.5000009012222,2|0,0:0|0:0,0:0:0:0:
113,350,58961,2,0,P|87:311|91:264,1,94.5000009012222,10|0,0:0|0:0,0:0:0:0:
14,247,59132,2,0,P|34:205|76:185,1,94.5000009012222,2|0,0:0|0:0,0:0:0:0:
101,103,59303,6,0,B|130:110|139:135|139:135|124:117|105:111,1,94.5000009012222,2|0,1:2|0:0,0:0:0:0:
10,39,59475,6,0,B|55:32|55:32|50:30|50:30|95:24,1,94.5000009012222,2|10,0:0|0:0,0:0:0:0:
169,50,59646,2,0,B|214:43|214:43|209:41|209:41|254:35,1,94.5000009012222,10|0,0:0|0:0,0:0:0:0:
327,60,59818,2,0,B|372:53|372:53|367:51|367:51|412:45,1,94.5000009012222,10|0,0:0|0:0,0:0:0:0:
502,158,59989,6,0,B|495:112|495:112|416:123|416:123|421:126|421:126|352:136,1,202.5,2|0,1:1|0:0,0:0:0:0:
303,195,60332,6,0,B|339:223|339:223|386:208,1,94.5000009012222,10|0,0:0|0:0,0:0:0:0:
413,281,60503,2,0,B|322:310|322:310|249:251,1,189.000001802444,2|2,0:0|1:2,0:0:0:0:
74,148,60847,5,10,0:0:0:0:
59,160,60933,1,10,0:0:0:0:
44,172,61018,2,0,B|37:217|37:217|35:212|35:212|29:257,1,94.5000009012222,10|0,0:0|0:0,0:0:0:0:
174,202,61189,5,10,0:0:0:0:
174,202,61275,1,2,0:0:0:0:
109,247,61360,2,0,B|99:310|99:310|96:303|96:303|87:366,1,135,2|0,1:2|0:0,0:0:0:0:
185,84,61532,5,2,0:0:0:0:
208,96,61618,1,10,0:0:0:0:
231,108,61703,1,2,1:2:0:0:
254,120,61789,2,0,L|248:66,1,54,10|8,1:2|0:0,0:0:0:0:
392,4,61961,5,2,0:0:0:0:
320,35,62046,2,0,B|327:98|327:98|330:91|330:91|336:154,1,135,2|0,1:2|0:0,0:0:0:0:
445,250,62218,5,10,0:0:0:0:
462,244,62303,1,2,0:0:0:0:
480,238,62389,2,0,P|443:209|397:208,1,94.5000009012222,10|0,0:0|0:0,0:0:0:0:
337,155,62561,2,0,P|293:172|269:211,1,94.5000009012222,10|0,0:0|0:0,0:0:0:0:
190,253,62732,6,0,B|248:279|247:352|247:352|269:281|332:278,1,243.000009269715,2|0,1:1|0:0,0:0:0:0:
418,380,63075,6,0,B|373:373|373:373|378:371|378:371|334:365,1,94.5000009012222,14|0,0:0|0:0,0:0:0:0:
345,267,63246,2,0,B|255:253|255:253|265:249|265:249|178:237,1,189.000001802444,2|2,0:0|1:2,0:0:0:0:
80,375,63503,5,2,0:0:0:0:
60,384,63589,2,0,P|43:339|58:297,1,94.5000009012222,2|0,0:0|0:0,0:0:0:0:
15,230,63761,2,0,P|44:194|90:186,1,94.5000009012222,10|0,0:0|0:0,0:0:0:0:
127,115,63932,2,0,P|173:122|202:157,1,94.5000009012222,10|0,0:0|0:0,0:0:0:0:
269,210,64103,6,0,L|273:263,1,54,2|0,1:2|0:0,0:0:0:0:
260,275,64275,2,0,L|255:221,1,54,2|0,0:0|0:0,0:0:0:0:
399,87,64446,6,0,B|443:69|443:69|479:98,1,94.5000009012222,10|0,0:0|0:0,0:0:0:0:
470,177,64618,2,0,B|426:195|426:195|389:165,1,94.5000009012222,2|0,0:0|0:0,0:0:0:0:
320,47,64789,6,0,B|316:21|316:21|332:1|332:1|338:26|338:26|320:47,1,94.5000009012222,2|0,1:2|0:0,0:0:0:0:
201,155,64961,5,2,0:0:0:0:
176,140,65046,1,10,0:0:0:0:
151,125,65132,2,0,P|115:154|111:200,1,94.5000009012222,10|0,0:0|0:0,0:0:0:0:
61,261,65303,2,0,P|68:306|106:333,1,94.5000009012222,10|0,0:0|0:0,0:0:0:0:
168,384,65475,6,0,B|277:369|277:369|269:363|269:363|389:348,1,243.000009269715,2|0,1:1|0:0,0:0:0:0:
481,197,65818,6,0,P|489:249|463:295,1,108,14|0,0:0|0:0,0:0:0:0:
343,273,65989,2,0,P|335:221|361:175,1,108,2|0,1:2|0:0,0:0:0:0:
412,235,66161,1,10,0:0:0:0:
42,162,66332,5,14,0:0:0:0:
42,162,66418,1,10,0:0:0:0:
42,162,66503,2,0,P|34:214|60:260,1,108,2|0,1:2|0:0,0:0:0:0:
180,238,66675,1,10,0:0:0:0:
180,238,66761,1,10,0:0:0:0:
180,238,66846,2,0,P|188:186|162:140,1,108,14|0,0:0|0:0,0:0:0:0:
111,200,67018,1,2,1:2:0:0:
303,352,67189,5,10,0:0:0:0:
285,360,67275,1,10,0:0:0:0:
266,365,67361,2,0,L|277:284,1,81.0000030899049,14|0,0:0|0:0,0:0:0:0:
289,205,67533,1,2,1:2:0:0:
249,355,67704,5,2,1:2:0:0:
260,275,67789,1,2,1:2:0:0:
271,195,67874,1,14,0:0:0:0:
285,179,67961,1,10,0:0:0:0:
310,169,68046,1,10,0:0:0:0:
341,173,68132,1,10,0:0:0:0:
372,199,68218,1,2,1:2:0:0:
408,220,68303,1,2,1:2:0:0:
461,207,68389,1,2,1:2:0:0:
493,153,68475,1,2,1:2:0:0:
472,82,68561,6,0,P|412:81|354:63,1,121.500004634857,14|0,0:0|0:0,0:0:0:0:
297,19,68903,1,2,0:0:0:0:
297,19,69075,1,10,0:0:0:0:
409,158,69246,2,0,P|407:137|404:117,2,40.5000015449525,2|2|2,0:0|0:0|0:0,0:0:0:0:
504,11,69589,1,10,0:0:0:0:
312,140,69761,5,8,3:2:0:0:
300,136,69846,1,0,3:0:0:0:
288,132,69932,2,0,B|256:122|229:142|229:142|202:162|170:152,2,121.500004634857,10|2|10,0:0|0:0|0:0,0:0:0:0:
484,209,70618,1,2,0:0:0:0:
484,209,70789,2,0,P|498:162|485:121,1,81.0000030899049,2|10,0:0|0:0,0:0:0:0:
375,286,71132,5,0,3:0:0:0:
375,286,71218,1,0,3:0:0:0:
375,286,71303,2,0,L|453:307,1,81.0000030899049,10|0,0:0|3:0,0:0:0:0:
453,307,71561,1,0,3:0:0:0:
453,307,71646,1,2,0:0:0:0:
382,200,71818,2,0,P|340:264|262:263,1,162.00000617981,10|0,0:0|3:0,0:0:0:0:
81,381,72332,1,10,0:0:0:0:
101,367,72417,1,2,3:3:0:0:
123,358,72503,1,2,0:0:0:0:
147,355,72589,1,2,0:2:0:0:
172,357,72674,5,10,3:2:0:0:
262,263,72846,2,0,L|301:272,2,40.5000015449525,2|2|2,0:0|0:0|0:0,0:0:0:0:
138,156,73189,2,0,P|135:196|148:235,1,81.0000030899049,10|2,0:0|0:0,0:0:0:0:
148,235,73446,1,2,0:0:0:0:
148,235,73532,1,2,0:0:0:0:
18,306,73703,2,0,L|26:266,1,40.5000015449525,10|2,0:0|3:3,0:0:0:0:
32,300,73875,2,0,L|40:260,1,40.5000015449525,2|2,0:0|3:3,0:0:0:0:
99,360,74046,5,10,0:0:0:0:
155,242,74218,1,0,3:0:0:0:
155,242,74303,1,0,3:0:0:0:
155,242,74389,1,2,0:0:0:0:
39,179,74561,1,10,0:0:0:0:
87,53,74732,2,0,L|94:92,2,40.5000015449525,2|2|2,0:0|0:0|0:0,0:0:0:0:
155,242,75075,5,10,0:0:0:0:
176,221,75160,1,2,3:3:0:0:
203,207,75246,1,2,0:0:0:0:
233,202,75332,1,2,0:0:0:0:
263,206,75418,6,0,L|341:225,1,81.0000030899049,10|0,0:0|3:0,0:0:0:0:
502,268,75761,1,2,0:0:0:0:
354,216,75932,1,10,0:0:0:0:
446,375,76103,2,0,L|439:335,2,40.5000015449525,2|2|2,0:0|0:0|0:0,0:0:0:0:
406,153,76446,1,10,0:0:0:0:
310,349,76618,5,0,3:0:0:0:
301,340,76703,1,0,3:0:0:0:
291,330,76789,2,0,P|215:319|169:381,1,162.00000617981,10|0,0:0|3:0,0:0:0:0:
346,234,77303,1,10,0:0:0:0:
221,134,77475,2,0,L|228:173,2,40.5000015449525,2|2|2,0:0|0:0|0:0,0:0:0:0:
382,38,77818,1,10,0:0:0:0:
388,13,77903,1,2,3:3:0:0:
367,0,77989,1,2,0:0:0:0:
348,17,78075,1,2,0:0:0:0:
359,40,78161,6,0,P|376:76|382:116,1,81.0000030899049,10|0,0:0|3:0,0:0:0:0:
350,238,78503,1,2,0:0:0:0:
350,238,78675,1,10,0:0:0:0:
512,360,78846,5,2,0:0:0:0:
512,360,79018,1,2,0:0:0:0:
434,238,79189,2,0,L|430:197,1,40.5000015449525,10|2,0:0|3:3,0:0:0:0:
444,230,79361,2,0,L|440:189,1,40.5000015449525,2|2,0:0|3:3,0:0:0:0:
355,347,79532,6,0,L|194:323,1,162,14|0,0:0|0:0,0:0:0:0:
176,332,79875,2,0,B|149:284|149:284|183:244,1,108,2|2,1:2|0:0,0:0:0:0:
81,378,80218,1,10,0:0:0:0:
32,57,80475,1,8,0:0:0:0:
11,65,80561,2,0,P|30:83|55:92,1,54,2|0,1:2|0:0,0:0:0:0:
96,158,80732,2,0,P|122:157|147:146,1,54,2|2,1:2|0:0,0:0:0:0:
221,163,80903,6,0,P|239:143|248:118,1,54,10|0,0:0|0:0,0:0:0:0:
177,8,81075,2,0,P|184:33|201:54,1,54,10|0,0:0|0:0,0:0:0:0:
333,47,81246,2,0,P|306:40|280:45,1,54,2|0,1:2|0:0,0:0:0:0:
280,45,81589,6,0,P|328:68|381:62,1,108,10|0,0:0|0:0,0:0:0:0:
492,19,81846,1,8,0:0:0:0:
478,4,81932,2,0,P|464:27|459:53,1,54,2|0,1:2|0:0,0:0:0:0:
427,126,82103,1,2,1:2:0:0:
427,153,82188,1,2,1:2:0:0:
435,178,82275,6,0,P|413:251|337:257,1,162,10|0,0:0|0:0,0:0:0:0:
317,276,82618,2,0,P|295:202|219:196,1,162,2|0,1:2|0:0,0:0:0:0:
206,180,82961,1,10,0:0:0:0:
14,333,83218,5,8,0:0:0:0:
26,352,83304,2,0,L|80:358,1,54,2|0,1:2|0:0,0:0:0:0:
155,368,83475,2,0,L|209:374,1,54,2|0,1:2|0:0,0:0:0:0:
284,384,83647,1,10,0:0:0:0:
493,213,83903,5,8,0:0:0:0:
477,228,83989,2,0,L|423:220,1,54,2|0,1:2|0:0,0:0:0:0:
349,211,84160,2,0,L|295:203,1,54,2|0,1:2|0:0,0:0:0:0:
219,196,84332,1,10,0:0:0:0:
32,17,84589,5,8,0:0:0:0:
39,0,84675,2,0,L|49:52,1,54,2|0,1:2|0:0,0:0:0:0:
66,154,84846,5,2,1:2:0:0:
71,180,84931,1,2,1:2:0:0:
77,207,85018,2,0,P|110:206|141:192,1,67.5,14|0,0:0|0:0,0:0:0:0:
219,196,85189,2,0,P|235:166|238:133,1,67.5,10|0,0:0|0:0,0:0:0:0:
268,48,85361,6,0,L|294:58,1,27,2|0,1:2|0:0,0:0:0:0:
256,57,85532,2,0,L|282:67,1,27,10|0,0:0|0:0,0:0:0:0:
498,102,85703,6,0,P|464:102|433:116,1,67.5,10|0,0:0|0:0,0:0:0:0:
356,113,85875,2,0,P|339:142|336:175,1,67.5,10|0,0:0|0:0,0:0:0:0:
306,261,86047,6,0,L|280:251,1,27,2|0,1:2|0:0,0:0:0:0:
318,251,86218,2,0,L|292:241,1,27,10|0,0:0|0:0,0:0:0:0:
60,176,86389,6,0,B|73:161|73:161|133:172,1,81.0000030899049,14|0,0:0|0:0,0:0:0:0:
217,327,86561,2,0,B|204:342|204:342|143:330,1,81.0000030899049,10|0,0:0|0:0,0:0:0:0:
99,244,86732,6,0,B|138:251,1,40.5000015449525,2|0,1:2|0:0,0:0:0:0:
178,259,86904,2,0,B|138:251,1,40.5000015449525,10|0,0:0|0:0,0:0:0:0:
49,17,87075,6,0,B|62:2|62:2|122:13,1,81.0000030899049,10|0,0:0|0:0,0:0:0:0:
206,168,87247,2,0,B|193:183|193:183|132:171,1,81.0000030899049,10|0,0:0|0:0,0:0:0:0:
88,85,87418,6,0,B|127:92,1,40.5000015449525,2|0,1:2|0:0,0:0:0:0:
167,100,87590,2,0,B|127:92,1,40.5000015449525,10|0,0:0|0:0,0:0:0:0:
16,176,87760,5,14,0:0:0:0:
0,218,87845,1,10,0:0:0:0:
0,263,87931,1,10,0:0:0:0:
18,304,88017,1,10,0:0:0:0:
53,331,88102,1,2,1:2:0:0:
97,323,88188,1,10,0:0:0:0:
116,284,88274,1,10,0:0:0:0:
99,244,88360,1,10,0:0:0:0:
132,171,88446,5,14,0:0:0:0:
176,150,88531,1,10,0:0:0:0:
224,165,88617,1,10,0:0:0:0:
253,205,88703,1,10,0:0:0:0:
249,254,88789,1,2,1:2:0:0:
244,303,88874,1,10,0:0:0:0:
273,343,88960,1,10,0:0:0:0:
321,358,89046,1,10,0:0:0:0:
367,338,89132,6,0,B|374:301|374:301|371:298|371:298|377:258,1,81,6|0,1:1|0:0,0:0:0:0:
380,236,89474,2,0,L|384:209,3,27,2|2|2|2,1:2|0:0|0:0|0:0,0:0:0:0:
453,279,89818,6,0,B|457:252,1,27,2|0,0:0|0:0,0:0:0:0:
469,174,89989,2,0,B|473:147,1,27,2|0,0:0|0:0,0:0:0:0:
481,28,90161,6,0,B|511:38,1,32.4,6|0,1:2|0:0,0:0:0:0:
511,38,90503,6,0,B|332:59|332:59|342:67|342:67|172:87,1,364.500013904572,14|0,0:0|0:0,0:0:0:0:
114,18,90846,6,0,B|82:42|82:42|90:109,1,108,2|0,1:2|0:0,0:0:0:0:
229,156,91018,2,0,B|260:131|260:131|252:64,1,108,2|0,0:0|0:0,0:0:0:0:
208,253,91189,6,0,P|179:221|142:206,1,81.0000030899049,10|0,0:0|0:0,0:0:0:0:
64,208,91361,2,0,P|99:191|139:193,1,81.0000030899049,10|0,0:0|0:0,0:0:0:0:
327,369,91532,6,0,B|291:328|291:328|310:278,1,108,2|0,1:2|0:0,0:0:0:0:
405,259,91703,2,0,B|441:300|441:300|423:351,1,108,10|0,0:0|0:0,0:0:0:0:
228,384,91875,6,0,B|112:362|112:362|84:300|84:300|-19:282|-19:282|1:309|1:309|40:316,1,364.500013904572,14|0,0:0|0:0,0:0:0:0:
222,272,92218,6,0,B|231:221|231:221|226:224|226:224|235:174,1,108,2|0,1:2|0:0,0:0:0:0:
248,77,92389,2,0,B|238:126|238:126|243:123|243:123|234:174,1,108,10|10,0:0|0:0,0:0:0:0:
82,214,92561,5,2,1:2:0:0:
79,201,92646,1,2,1:2:0:0:
66,124,92732,5,2,1:2:0:0:
64,112,92817,1,10,0:0:0:0:
49,34,92903,6,0,B|72:0|72:0|38:-23|38:-23|15:10|15:10|49:34,1,162.00000617981,2|0,1:1|0:0,0:0:0:0:
49,34,93246,6,0,B|77:-1|123:0|123:0|139:33|184:41,1,162.00000617981,10|10,0:0|0:0,0:0:0:0:
298,138,93503,1,10,0:0:0:0:
317,126,93589,2,0,P|288:98|248:96,1,81.0000030899049,2|0,1:2|0:0,0:0:0:0:
161,153,93761,6,0,B|248:188|318:118|283:83|353:13|438:47,1,324.00001235962,10|10,0:0|0:0,0:0:0:0:
502,152,94189,1,10,0:0:0:0:
497,171,94275,2,0,B|486:215|486:215|482:179,1,81.0000030899049,2|0,1:2|0:0,0:0:0:0:
437,46,94446,2,0,B|426:2|426:2|422:37,1,81.0000030899049,10|0,0:0|0:0,0:0:0:0:
356,253,94618,6,0,P|389:253|357:241,1,94.5000009012222,10|0,0:0|0:0,0:0:0:0:
243,228,94789,2,0,P|276:228|244:216,1,94.5000009012222,10|0,0:0|0:0,0:0:0:0:
5,174,94961,2,0,P|51:178|6:162,1,135,2|0,1:1|0:0,0:0:0:0:
130,203,95132,2,0,P|163:203|131:191,1,94.5000009012222,10|0,0:0|0:0,0:0:0:0:
59,333,95303,6,0,P|44:387|42:331,1,162.00000617981,10|8,0:0|0:0,0:0:0:0:
160,242,95561,2,0,P|138:162|143:243,1,243.000009269715,10|0,0:0|0:0,0:0:0:0:
241,342,95818,2,0,P|227:374|224:340,1,94.5000009012222,10|0,0:0|0:0,0:0:0:0:
347,187,95989,6,0,B|351:190|351:190|348:194|348:194|353:198|353:198|349:202|349:202|354:206|354:206|351:210|351:210|355:213|355:213|352:218|352:218|357:221|357:221|353:226|353:226|358:229|358:229|355:234|355:234|359:237|359:237|356:242|356:242|361:245|361:245|358:250|358:250|362:253|362:253|359:257|359:257|364:261,1,108,14|2,0:0|0:0,0:0:0:0:
423,317,96246,1,2,0:0:0:0:
423,317,96332,2,0,B|450:290|450:290|441:248,1,81.0000030899049,2|0,1:1|0:0,0:0:0:0:
417,71,96503,5,2,0:0:0:0:
429,96,96588,1,2,0:0:0:0:
450,114,96674,1,2,0:0:0:0:
477,121,96760,1,2,0:0:0:0:
505,117,96846,2,0,P|481:103|455:100,1,54,10|0,0:0|0:0,0:0:0:0:
347,187,97018,6,0,L|357:135,2,40.5000015449525,2|0|0,1:1|0:0|0:0,0:0:0:0:
279,227,97189,1,2,0:0:0:0:
279,227,97275,1,2,0:0:0:0:
206,185,97361,6,0,B|210:182|210:182|207:178|207:178|212:174|212:174|208:170|208:170|213:166|213:166|210:162|210:162|214:159|214:159|211:154|211:154|216:151|216:151|212:146|212:146|217:143|217:143|214:138|214:138|218:135|218:135|215:130|215:130|220:127|220:127|217:122|217:122|221:119|221:119|218:115|218:115|223:111,1,108,10|2,0:0|0:0,0:0:0:0:
258,38,97618,1,2,0:0:0:0:
247,33,97703,2,0,B|198:14|198:14|164:57,1,108,2|0,1:1|0:0,0:0:0:0:
30,216,97875,5,2,0:0:0:0:
35,200,97961,1,10,0:0:0:0:
40,185,98046,2,0,P|85:183|121:212,1,94.5000009012222,2|0,0:0|0:0,0:0:0:0:
270,330,98218,5,10,0:0:0:0:
270,330,98303,1,10,0:0:0:0:
334,287,98389,1,2,1:2:0:0:
334,287,98732,6,0,B|283:296|283:296|286:291|286:291|236:300,1,108,14|0,0:0|0:0,0:0:0:0:
54,314,98903,2,0,B|6:340|6:340|151:369|151:369|131:250,1,324,2|0,1:2|0:0,0:0:0:0:
70,198,99246,6,0,B|12:222|12:222|56:213,1,108,14|0,0:0|0:0,0:0:0:0:
296,118,99418,2,0,B|282:196|282:196|148:173,1,216,2|10,1:2|0:0,0:0:0:0:
67,21,99675,1,2,1:2:0:0:
0,61,99761,6,0,B|22:111|22:111|71:97,1,108,14|0,0:0|0:0,0:0:0:0:
235,38,99932,1,2,1:2:0:0:
235,38,100018,2,0,B|164:25|164:25|152:96|152:96|223:109,1,216,10|0,0:0|0:0,0:0:0:0:
412,11,100275,6,0,L|423:91,1,81.0000030899049,14|0,0:0|0:0,0:0:0:0:
434,171,100447,1,2,1:2:0:0:
395,20,100618,5,2,1:2:0:0:
406,100,100703,1,2,1:2:0:0:
417,180,100790,1,14,0:0:0:0:
486,266,100960,5,0,3:0:0:0:
486,266,101132,2,0,L|513:270,2,27,0|0|2,3:0|3:0|3:3,0:0:0:0:
429,339,101475,6,0,L|270:313,1,162.00000617981,2|0,3:1|0:0,0:0:0:0:
269,312,101818,6,0,B|243:282|243:282|255:214,1,108,6|0,1:2|0:0,0:0:0:0:
434,197,101989,2,0,B|468:177|468:177|480:110,1,108,2|0,0:0|0:0,0:0:0:0:
405,53,102161,6,0,B|398:91|398:91|401:89|401:89|395:127,1,81.0000030899049,10|0,0:0|0:0,0:0:0:0:
345,187,102332,2,0,B|338:225|338:225|335:222|335:222|328:260,1,81.0000030899049,10|0,0:0|0:0,0:0:0:0:
194,37,102503,6,0,B|245:21|245:21|285:59,1,108,2|0,1:2|0:0,0:0:0:0:
255,214,102675,2,0,B|206:230|206:230|165:191,1,108,10|0,0:0|0:0,0:0:0:0:
0,100,102846,6,0,B|-23:26|-23:26|99:95|99:95|67:238,1,364.500013904572,14|0,0:0|0:0,0:0:0:0:
0,371,103189,6,0,B|26:349|26:349|99:359,1,108,2|0,1:2|0:0,0:0:0:0:
154,276,103361,2,0,B|172:304|172:304|246:314,1,108,10|10,0:0|0:0,0:0:0:0:
302,368,103532,5,2,1:2:0:0:
316,362,103617,1,2,1:2:0:0:
381,315,103703,5,2,1:2:0:0:
395,321,103788,1,10,0:0:0:0:
459,372,103875,6,0,B|499:386|499:386|531:359|531:359|491:344|491:344|459:372,1,162.00000617981,2|0,1:1|0:0,0:0:0:0:
99,359,104218,6,0,L|92:320,1,32.4,2|0,3:1|0:0,0:0:0:0:
99,359,104561,6,0,L|107:278,1,81.0000030899049,6|0,1:2|0:0,0:0:0:0:
21,142,104732,1,2,0:0:0:0:
21,142,104818,1,2,0:0:0:0:
73,81,104903,6,0,P|112:107|159:107,1,94.5000009012222,8|0,0:0|0:0,0:0:0:0:
240,173,105075,2,0,P|269:157|302:154,1,67.5,10|0,0:0|0:0,0:0:0:0:
354,91,105246,2,0,L|345:37,1,54,2|0,1:2|0:0,0:0:0:0:
340,87,105418,2,0,L|331:33,1,54,2|0,1:2|0:0,0:0:0:0:
426,175,105589,5,10,0:0:0:0:
242,186,105761,6,0,P|271:171|304:168,1,67.5,10|0,0:0|0:0,0:0:0:0:
354,91,105932,2,0,L|345:38,1,54,2|0,1:2|0:0,0:0:0:0:
340,87,106104,2,0,L|331:34,1,54,10|0,0:0|0:0,0:0:0:0:
429,185,106275,5,10,0:0:0:0:
281,355,106446,5,10,0:0:0:0:
281,355,106532,1,10,0:0:0:0:
281,355,106618,2,0,L|240:348,1,40.5000015449525,2|0,1:2|0:0,0:0:0:0:
228,358,106789,2,0,L|187:351,1,40.5000015449525,10|0,0:0|0:0,0:0:0:0:
97,272,106961,6,0,P|38:300|56:363,1,141.750001351833,14|0,0:0|0:0,0:0:0:0:
56,363,107132,2,0,B|76:317|47:265|28:286|1:240|23:187,1,189.000001802444,14|2,0:0|1:2,0:0:0:0:
199,33,107475,5,10,0:0:0:0:
151,26,107561,1,10,0:0:0:0:
103,19,107646,5,2,1:2:0:0:
96,37,107732,1,2,0:0:0:0:
69,63,107818,5,10,0:0:0:0:
76,80,107904,1,10,0:0:0:0:
75,117,107989,5,2,1:2:0:0:
104,141,108075,1,2,1:2:0:0:
133,165,108161,2,0,L|186:156,1,54,10|2,0:0|1:2,0:0:0:0:
286,9,108332,6,0,P|347:38|414:38,1,135,14|10,0:0|0:0,0:0:0:0:
493,100,108590,1,10,0:0:0:0:
485,141,108675,1,2,1:2:0:0:
450,168,108761,1,2,0:0:0:0:
406,161,108846,2,0,L|339:148,1,67.5,10|10,0:0|0:0,0:0:0:0:
285,245,109018,6,0,B|244:211|244:211|378:238,1,189.000001802444,10|10,0:0|0:0,0:0:0:0:
512,370,109275,1,10,0:0:0:0:
498,383,109361,2,0,B|436:372|436:372|445:313,1,121.500004634857,2|0,1:1|0:0,0:0:0:0:
445,315,109703,6,0,B|476:270|476:270|454:220,1,108,14|0,0:0|0:0,0:0:0:0:
434,13,109875,2,0,B|345:22|345:22|357:133|357:133|362:125|362:125|376:237,1,324,2|0,1:2|0:0,0:0:0:0:
357,322,110218,6,0,B|307:311|307:311|314:307|314:307|264:296,1,108,14|0,0:0|0:0,0:0:0:0:
146,112,110389,2,0,B|241:65|241:65|253:176,1,216,2|10,1:2|0:0,0:0:0:0:
75,336,110646,5,2,1:2:0:0:
139,384,110732,2,0,B|190:340|190:340|170:193,1,216,14|2,0:0|1:2,0:0:0:0:
64,112,110989,1,10,0:0:0:0:
5,164,111075,2,0,B|43:201|43:201|95:182,1,108
248,7,111246,6,0,L|259:87,1,81.0000030899049,14|0,0:0|0:0,0:0:0:0:
270,167,111418,1,2,1:2:0:0:
231,16,111589,5,2,1:2:0:0:
242,96,111674,1,2,1:2:0:0:
253,176,111761,1,14,0:0:0:0:
260,205,111846,1,10,0:0:0:0:
286,226,111932,1,10,0:0:0:0:
319,237,112018,1,10,0:0:0:0:
343,263,112103,1,2,1:2:0:0:
348,304,112189,1,2,1:2:0:0:
326,351,112275,1,2,1:2:0:0:
267,373,112361,1,2,1:2:0:0:
197,336,112446,6,0,B|119:267|20:242|-28:316|19:390|83:369|110:326,1,324,14|0,0:0|0:0,0:0:0:0:
169,164,112789,5,2,1:2:0:0:
152,179,112875,1,2,1:2:0:0:
135,194,112961,2,0,L|82:182,1,54,2|0,1:2|0:0,0:0:0:0:
51,22,113132,6,0,P|94:51|109:102,1,108,10|0,0:0|0:0,0:0:0:0:
247,129,113303,2,0,P|256:181|230:227,1,108,10|0,0:0|0:0,0:0:0:0:
109,326,113475,6,0,B|47:343|47:343|3:306,1,121.500004634857,2|0,1:2|0:0,0:0:0:0:
5,299,113646,2,0,L|111:319,1,108,10|0,0:0|0:0,0:0:0:0:
192,384,113818,6,0,B|242:404|282:364|262:343|303:303|354:323,1,189.000001802444,14|10,0:0|0:0,0:0:0:0:
476,355,114075,1,10,0:0:0:0:
458,374,114161,1,2,1:2:0:0:
445,354,114246,1,2,0:0:0:0:
436,327,114332,2,0,P|433:300|435:273,1,54,10|0,0:0|0:0,0:0:0:0:
494,139,114503,6,0,L|502:174,3,36,10|10|10|10,0:0|0:0|0:0|0:0,0:0:0:0:
341,74,114761,1,8,0:0:0:0:
396,15,114846,2,0,B|473:-2|473:-2|508:159,1,243.000009269715,2|0,1:1|0:0,0:0:0:0:
434,273,115189,6,0,P|449:307|441:270,1,108,14|0,0:0|0:0,0:0:0:0:
366,163,115361,2,0,P|389:93|381:166,1,216,10|0,0:0|1:0,0:0:0:0:
264,285,115617,2,0,P|286:355|279:282,1,216,10|0,0:0|0:0,0:0:0:0:
176,131,115874,2,0,P|211:26|199:136,1,324,10|0,0:0|0:0,0:0:0:0:
72,277,116217,2,0,P|106:382|98:272,1,324,2|0,1:2|0:0,0:0:0:0:
37,100,116561,6,0,B|53:5|53:5|225:35,1,270,14|10,0:0|0:0,0:0:0:0:
229,295,116818,1,10,0:0:0:0:
229,295,116903,1,2,1:2:0:0:
229,295,116989,2,0,L|96:271,1,135,2|8,0:0|0:0,0:0:0:0:
125,103,117161,1,10,0:0:0:0:
125,103,117246,2,0,B|213:118|213:118|198:207|198:207|109:191,1,270,10|10,0:0|0:0,0:0:0:0:
448,229,117589,2,0,B|471:96|471:96|338:72|338:72|315:205,1,405,2|0,1:2|0:0,0:0:0:0:
232,321,117932,6,0,B|236:320|236:320|235:314|235:314|239:319|239:319|241:318|240:318|240:318|243:322|243:322|243:317|243:317|246:316|245:316|245:316|245:311|245:311|248:316|248:316|251:315|250:315|250:315|253:319|253:319|253:314|253:314|254:314|255:314|255:314|255:308|255:308|258:313|258:313|259:313|260:312|260:312|262:317|262:317|263:312|263:312|263:311|264:311|264:311|265:306|265:306|267:311|267:311|268:310|269:310|269:310|272:315|272:315|272:310|272:310|273:309|274:309|274:309|275:304|275:304|277:309|277:309|278:308|279:308|279:308|281:313|281:313|282:308|282:308|285:307|284:308|284:308|285:302|285:302|287:307|287:307|288:307|289:307|289:307|291:312|291:312|292:307|292:307|295:306|294:306|294:306|295:301|295:301|297:306|297:306|300:306|299:306|299:306|301:311|301:311|302:306|302:306|303:306|304:306|304:306|305:300|305:300|307:305|307:305|310:305|309:305|309:305|311:310|311:310|312:305|312:305|315:305|314:305|314:305|315:300|315:300|317:305|317:305|320:305|319:305|319:305|320:310|320:310|322:305|322:305|325:305|324:305|324:305|326:300|326:300|327:305|327:305|330:305|329:305|329:305|330:310|330:310|332:306|332:306|333:306|334:306|334:306|336:301|336:301|337:306|337:306|338:306|339:306|339:306|340:311|340:311|342:306|342:306|345:307|344:307|344:307|346:302|346:302|347:307|347:307|348:307|349:307|349:307|350:312|350:312|352:307|352:307|355:308|354:308|354:308|356:303|356:303|357:308|357:308|358:308|359:309|359:309|359:314|359:314|362:309|362:309|363:309|364:309|364:309|366:305|366:305|367:310|367:310|368:310|368:310|369:316|369:316|371:311|371:311|372:311|373:312|373:312|376:307|376:307|376:312|376:312|377:312|378:313|378:313|378:318|378:318|381:313|381:313|382:314|383:314|383:314|386:310|386:310|386:315|386:315|387:315|388:315|388:315|388:321|388:321|391:316|391:316|394:317|393:317|393:317|396:313|396:313|395:318|395:318|396:318|397:318|397:318|397:324|397:324|400:319|400:319|401:320|402:320|402:320|405:316|405:316|405:321|405:321|408:322|407:322|407:322|406:327|406:327|409:323|409:323|410:323|411:324|411:324|415:320|415:320|414:325|414:325|415:325|416:326|416:326|415:331|415:331|419:327|419:327|420:327|420:328|420:328|424:324|424:324|423:329|423:329|424:330|425:330|425:330|424:335|424:335|428:331|428:331|429:332|429:332|433:329|433:329|432:334|432:334|433:334|434:335|434:335|433:340|433:340|436:336|436:336|437:337|438:337|438:337|442:333|442:333|441:339|441:339|442:339|442:340|442:340|441:345|441:345|445:341|445:341|446:342|447:342|447:342|451:339|451:339|449:344|449:344|452:345|451:345|451:345|449:350|449:350|453:347|453:347|454:347|455:348|455:348|459:344|459:344|458:349|458:349|458:350|459:351|459:351|457:355|457:355|462:352|462:352|462:353|463:354|463:354|467:350|467:350|466:355|466:355|466:356|467:357|467:357|465:361|465:361|469:358|469:358|470:359|471:360|471:360|475:357|475:357|473:362|473:362|474:362|475:363|475:363|473:368|473:368|477:365|477:365|478:365|479:366|479:366|483:363|483:363|481:368|481:368|483:370|482:369|482:369|480:374|480:374|485:372|485:372|486:373|486:373|491:370|491:370|488:375|488:375|489:376|490:376|490:376|487:381|487:381|492:379|492:379|494:381|493:380,1,726.527257985501,14|0,0:0|0:0,0:0:0:0:
494,151,118275,2,0,B|491:153|491:153|492:158|492:158|488:155|488:155|487:155|486:156|486:156|482:153|482:153|484:157|484:157|482:159|482:159|484:163|484:163|480:161|480:161|478:162|479:162|479:162|474:159|474:159|476:164|476:164|474:166|475:165|475:165|477:170|477:170|473:167|473:167|472:168|471:169|471:169|467:167|467:167|469:171|469:171|469:172|468:172|468:172|471:177|471:177|466:175|466:175|466:176|465:176|465:176|460:175|460:175|463:179|463:179|462:181|462:180|462:180|466:184|466:184|461:183|461:183|460:184|460:185|460:185|455:183|455:183|458:187|458:187|458:188|457:189|457:189|461:192|461:192|456:192|456:192|455:193|455:193|450:193|450:193|454:196|454:196|453:199|453:198|453:198|457:201|457:201|452:201|452:201|451:203|451:204|451:204|446:204|446:204|450:206|450:206|450:207|450:208|450:208|454:211|454:211|449:211|449:211|449:212|449:213|449:213|444:214|444:214|448:216|448:216|448:219|448:218|448:218|453:220|453:220|448:221|448:221|447:222|447:223|447:223|442:224|442:224|447:226|447:226|447:229,1,226.35926793335,2|0,1:2|0:0,0:0:0:0:
315,206,118446,2,0,B|316:202|316:202|312:199|312:199|317:199|317:199|318:196|317:197|317:197|323:197|323:197|318:195|318:195|319:192|318:193|318:193|314:190|314:190|319:190|319:190|319:187|319:188|319:188|324:187|324:187|319:185|319:185|320:184|320:183|320:183|315:181|315:181|320:180|320:180|320:177|320:178|320:178|325:176|325:176|320:175|320:175|320:172|320:173|320:173|315:172|315:172|320:170|320:170|319:169|319:168|319:168|324:166|324:166|319:165|319:165|319:164|319:163|319:163|314:162|314:162|318:160|318:160|318:157|318:158|318:158|322:156|322:156|317:155|317:155|317:154|317:153|317:153|310:153|310:153|316:149|316:149|315:147|315:148|315:148|319:145|319:145|314:145|314:145|313:142|313:143|313:143|308:144|308:144|312:140|312:140|311:138|311:138|315:135|315:135|310:136|310:136|309:135|309:134|309:134|304:135|304:135|307:131|307:131|306:130|306:130|310:126|310:126|305:127|305:127|304:126|304:126|299:127|299:127|302:123|302:123|300:121|301:122|301:122|304:117|304:117|299:119|299:119|297:117,1,235.746618752475,10|0,0:0|0:0,0:0:0:0:
383,34,118618,5,10,0:0:0:0:
383,34,118703,2,0,B|386:31|386:31|384:27|384:27|388:29|388:29|389:28|389:28|394:30|394:30|392:26|392:26|393:24|393:24|391:20|391:20|395:22|395:22|397:21|397:21|401:23|401:23|399:19|399:19|400:17|400:17|398:13|398:13|402:15|402:15|404:14|404:14|408:17|408:17|406:12|406:12|408:11|408:11|405:6|405:6|410:9|410:9|411:7|411:7|416:10|416:10|413:5|413:5|415:4|415:4|412:-1|412:-1|417:2|417:2|418:0|418:0|423:3|423:3|421:-2|421:-2|422:-3|422:-3|420:-8|420:-8|424:-5|424:-5|427:-8|427:-8|426:-7|426:-7|429:-5|429:-5|427:-8|427:-8|426:-5|426:-5|431:-2|431:-2|426:-2|426:-2|425:0|425:0|420:0|420:0|424:3|424:3|424:5|424:5|428:7|428:7|423:7|423:7|423:9|423:9|418:10|418:10|422:12|422:12|422:14|422:14|426:17|426:17|421:17|421:17|420:19|420:19|415:19|415:19|420:22|420:22|419:24|419:24|424:27|424:27|418:27|418:27|418:29|418:29|413:29|413:29|417:32|417:32|417:34|417:34|421:36|421:36|416:37|416:37|416:38|416:38|410:39|410:39|415:41|415:41|414:43|414:43|419:46|419:46|414:46|414:46|413:48|413:48|408:48|408:48|413:51|413:51|412:53|412:53|417:56|417:56|411:56|411:56|411:58|411:58|406:58|406:58|410:61|410:61|410:63|410:63|414:65|414:65|409:66|409:66|409:68|409:68|403:68|403:68|408:70|408:70|407:72|407:72|412:75|412:75|407:75|407:75|406:77|406:77|401:77|401:77|406:80|406:80|405:82|405:82|410:85|410:85|404:85|404:85|404:87|404:87|399:87|399:87|403:90|403:90|403:92|403:92|408:95|408:95|402:95|402:95|401:97|401:97|396:97|396:97|401:100|401:100|400:102|400:102|405:105|405:105|399:105|399:105|399:107|399:107|394:107|394:107|398:110|398:110|398:112|398:112|402:114|402:114|397:115|397:115|397:117,1,470.77441264448,10|10,0:0|0:0,0:0:0:0:
342,283,118961,6,0,B|338:284|338:284|338:289|338:289|335:285|335:285|333:286|333:286|331:281|331:281|331:287|331:287|329:287|329:287|329:292|329:292|326:288|326:288|324:289|324:289|321:284|321:284|321:289|321:289|319:290|319:290|319:295|319:295|316:291|316:291|315:292|315:292|312:287|312:287|312:292|312:292|310:293|310:293|310:298|310:298|307:294|307:294|305:294|305:294|302:290|302:290|302:295|302:295|300:296|300:296|300:301|300:301|297:297|297:297|296:296|296:296|298:291|298:291|294:294|294:294|292:293|292:293|288:296|288:296|290:291|290:291|288:290|288:290|290:284|290:284|285:288|285:288|284:286|284:286|280:289|280:289|282:284|282:284|280:283|280:283|282:278|282:278|278:281|278:281|276:280|276:280|272:283|272:283|274:278|274:278|272:277|272:277|274:272|274:272|270:275|270:275|269:274|269:274|264:277|264:277|266:272|266:272|265:271|265:271|267:266|267:266|262:269|262:269|260:267,1,231.723105153715,2|0,1:2|0:0,0:0:0:0:
180,156,119132,2,0,B|176:155|176:155|173:159|173:159|173:154|173:154|171:153|171:153|172:148|172:148|169:152|169:152|167:152|167:152|164:156|164:156|164:151|164:151|162:150|162:150|162:145|162:145|159:150|159:150|157:149|157:149|154:153|154:153|154:148|154:148|153:147|153:147|153:142|153:142|150:147|150:147|148:146|148:146|145:150|145:150|145:145|145:145|143:145|143:145|143:139|143:139|140:144|140:144|138:143|138:143|135:147|135:147|135:142|135:142|134:143|134:143|130:140|130:140|131:145|131:145|130:146|130:146|132:151|132:151|128:148|128:148|126:149|126:149|122:146|122:146|124:151|124:151|122:152|122:152|124:157|124:157|120:154|120:154|118:155|118:155|114:152|114:152|116:157|116:157|114:158|114:158|116:163|116:163|112:160|112:160|110:161|110:161|106:158|106:158|108:163|108:163|106:165|106:165|108:169|108:169|104:166|104:166|102:168|102:168|98:165|98:165|100:170|100:170|98:171,1,228.478532631389,2|0,1:2|0:0,0:0:0:0:
36,384,119303,6,0,B|37:383|39:381|39:381|36:377|36:377|41:379|41:379|41:378|42:377|42:377|47:379|47:379|44:375|44:375|46:373|45:373|45:373|42:369|42:369|47:371|47:371|49:369|48:369|48:369|53:371|53:371|50:367|50:367|50:366|51:365|51:365|47:361|47:361|52:363|52:363|54:360|53:361|53:361|58:362|58:362|55:358|55:358|56:356|56:357|56:357|52:353|52:353|57:354|57:354|57:353|58:352|58:352|63:353|63:353|59:349|59:349|60:348|60:348|56:344|56:344|61:345|61:345|61:344|61:343|61:343|67:343|67:343|62:340|62:340|63:337|63:338|63:338|58:335|58:335|64:335|64:335|64:332|64:333|64:333|69:333|69:333|65:331|65:331|65:330|65:329|65:329|59:325|59:325|66:325|66:325|66:324|66:323|66:323|71:322|71:322|67:320|67:320|67:317|67:318|67:318|62:316|62:316|67:315|67:315|67:314|67:313|67:313|72:312|72:312|67:310|67:310|67:309|67:308|67:308|62:306|62:306|67:305|67:305|67:304|67:303|67:303|72:301|72:301|67:300|67:300|67:299|67:298|67:298|67:297,1,239.462677216143,14|0,0:0|0:0,0:0:0:0:
136,255,119475,2,0,B|136:251|136:251|131:250|131:250|136:248|136:248|136:245|136:246|136:246|140:244|140:244|135:243|135:243|135:242|135:241|135:241|130:240|130:240|135:238|135:238|135:237|134:236|134:236|139:234|139:234|134:233|134:233|133:230|133:231|133:231|128:231|128:231|133:228|133:228|133:227|132:226|132:226|137:224|137:224|131:224|131:224|131:221|131:222|131:222|126:222|126:222|130:219|130:219|130:218|129:217|129:217|133:214|133:214|128:214|128:214|128:213|127:212|127:212|122:213|122:213|126:210|126:210|126:209|125:208|125:208|129:204|129:204|124:205|124:205|124:204|123:203|123:203|118:204|118:204|122:201|122:201|121:200|121:199|121:199|124:195|124:195|119:196|119:196|118:195|118:195|113:196|113:196|116:192|116:192|116:191|115:191|115:191|118:186|118:186|113:188|113:188|113:187|112:187|112:187|107:189|107:189|110:184|110:184|109:183|109:183|112:178|112:178|107:181|107:181|106:180|106:179|106:179|101:182|101:182|104:177|104:177|101:175|102:176|102:176|104:171|104:171|100:174|100:174|98:172,1,234.49809407181,10|0,0:0|0:0,0:0:0:0:
260,267,119646,6,0,B|260:263|260:263|255:261|255:261|260:260|260:260|260:259|260:258|260:258|265:257|265:257|260:255|260:255|261:252|260:253|260:253|256:251|256:251|261:250|261:250|261:247|261:248|261:248|266:247|266:247|262:245|262:245|262:244|262:243|262:243|257:241|257:241|263:240|263:240|263:237|263:238|263:238|268:238|268:238|264:236|264:236|265:233|264:234|264:234|260:231|260:231|265:231|265:231|266:230|266:229|266:229|271:229|271:229|267:226|267:226|267:225|268:224|268:224|264:221|264:221|269:221|269:221|270:219|270:220|270:220|275:220|275:220|271:217|271:217|272:214|272:215|272:215|268:212|268:212|273:213|273:213|275:210|274:211|274:211|279:212|279:212|276:208|276:208|276:207|277:207|277:207|274:203|274:203|279:204|279:204|279:203|280:203|280:203|285:204|285:204|281:200|281:200|283:198|283:199|283:199|280:194|280:194|285:196|285:196|285:195|286:195|286:195|291:197|291:197|288:193|288:193|289:192|289:191|289:191|287:187|287:187|291:189|291:189|293:187|293:188|293:188|297:190|297:190|295:186|295:186|297:184,1,227.938465586419,2|0,1:2|0:0,0:0:0:0:
115,93,119818,6,0,B|114:92|112:90|112:90|108:93|108:93|110:88|110:88|109:87|108:87|108:87|111:82|111:82|106:85|106:85|104:83|105:84|105:84|100:87|100:87|102:82|102:82|101:81|101:81|102:76|102:76|98:79|98:79|96:77|97:78|97:78|93:81|93:81|94:76|94:76|91:75|92:75|92:75|93:70|93:70|90:74|90:74|89:73|88:73|88:73|84:77|84:77|85:71|85:71|84:71|83:71|83:71|84:65|84:65|81:69|81:69|78:68|79:69|79:69|76:73|76:73|76:67|76:67|73:66|74:67|74:67|74:62|74:62|71:66|71:66|69:65|69:65|67:70|67:70|67:64|67:64|64:64|65:64|65:64|64:59|64:59|62:63|62:63|61:63|60:63|60:63|57:67|57:67|57:62|57:62|54:62|55:62|55:62|54:57|54:57|52:61|52:61|51:61|50:61|50:61|48:66|48:66|47:61|47:61|44:61|45:61|45:61|44:56|44:56|42:61|42:61|41:61|40:61|40:61|38:66|38:66|37:61|37:61|36:61|35:61|35:61|33:56|33:56|32:61|32:61|29:61,1,235.870064446782,10|0,0:0|0:0,0:0:0:0:
212,49,119989,5,10,0:0:0:0:
227,36,120075,2,0,B|229:35|230:35|230:35|231:29|231:29|233:34|233:34|235:34|235:34|238:38|238:38|238:33|238:33|239:33|240:33|240:33|241:27|241:27|243:32|243:32|244:32|245:32|245:32|247:37|247:37|248:32|248:32|249:31|250:31|250:31|251:26|251:26|253:31|253:31|254:31|255:31|255:31|257:36|257:36|258:31|258:31|259:31|260:31|260:31|262:26|262:26|263:32|263:32|264:32|265:32|265:32|266:37|266:37|268:32|268:32|269:33|270:33|270:33|273:28|273:28|273:33|273:33|274:34|275:34|275:34|275:39|275:39|278:35|278:35|279:35|280:36|280:36|283:31|283:31|282:37|282:37|284:37|284:37|284:43|284:43|287:39|287:39|288:39|289:40|289:40|293:36|293:36|291:41|291:41|293:42|293:42|292:47|292:47|296:44|296:44|297:45|297:45|301:42|301:42|300:47|300:47|301:47|301:48|301:48|299:53|299:53|303:50|303:50|305:51|305:51|309:49|309:49|307:53|307:53|308:54|309:54|309:54|306:59|306:59|311:57|311:57|312:58|312:58|317:56|317:56|314:60|314:60|315:61|316:62|316:62|313:66|313:66|318:64|318:64|319:65|319:65|324:62|324:62|322:67|322:67|322:68|323:68|323:68|321:73|321:73|325:70|325:70|326:71|327:71|327:71|331:68|331:68|329:73|329:73|330:74|331:74|331:74|330:79|330:79|334:76|334:76|335:76|336:77|336:77|339:73|339:73|338:78|338:78|339:79|340:79|340:79|339:84|339:84|343:80|343:80|344:81|344:81|348:77|348:77|347:82|347:82|348:82|349:83|349:83|349:88|349:88|352:83|352:83|354:84|354:84|357:79|357:79|357:84|357:84|358:85|359:85|359:85|360:90|360:90|362:85|362:85|363:85|364:85|364:85|366:80|366:80|367:86|367:86|369:86|369:86|370:90|370:90|372:86|372:86|373:86|374:86|374:86|375:80|375:80|377:85|377:85|378:85|379:85|379:85|381:90|381:90|382:85|382:85|383:85|384:84|384:84|385:79|385:79|387:84|387:84|388:84|389:83|389:83|391:88|391:88|392:83|392:83|393:83|394:82|394:82|394:77|394:77|397:81|397:81|398:81|398:81|399:81,1,471.496842754937,10|10,0:0|0:0,0:0:0:0:
480,0,120332,6,0,P|424:81|420:180,1,202.5,2|0,1:1|0:0,0:0:0:0:
477,371,120675,6,0,B|511:329|511:329|491:279,1,108,14|0,0:0|0:0,0:0:0:0:
363,259,120846,2,0,B|328:300|328:300|348:350,1,108,2|0,1:2|0:0,0:0:0:0:
420,315,121017,1,10,0:0:0:0:
312,77,121189,6,0,B|277:118|277:118|297:168,1,108,14|0,0:0|0:0,0:0:0:0:
492,130,121361,2,0,B|385:145|385:145|393:152|393:152|297:169,1,216,2|10,1:2|0:0,0:0:0:0:
103,65,121618,1,2,1:2:0:0:
176,1,121703,6,0,B|183:54|183:54|187:50|187:50|195:98,1,108,14|0,0:0|0:0,0:0:0:0:
272,312,121875,1,2,1:2:0:0:
260,325,121961,1,2,1:2:0:0:
249,339,122046,2,0,B|241:285|241:285|237:289|237:289|229:241,1,108,10|0,0:0|0:0,0:0:0:0:
103,65,122218,6,0,L|86:143,1,81.0000030899049,14|0,0:0|0:0,0:0:0:0:
69,222,122390,1,2,1:2:0:0:
84,68,122561,5,2,1:2:0:0:
66,145,122646,1,2,1:2:0:0:
50,224,122732,2,0,L|44:250,6,27,2|2|2|2|2|2|2,0:1|0:1|0:1|0:1|0:1|0:1|0:1,0:0:0:0:
33,331,123075,6,0,P|53:330|72:326,1,40.5000015449525,10|0,0:0|0:0,0:0:0:0:
42,343,123246,2,0,P|62:342|81:338,1,40.5000015449525,10|0,0:0|0:0,0:0:0:0:
245,256,123418,6,0,B|314:307|260:383|183:368|159:292|204:232|219:242|241:202|218:144,1,324,14|0,0:0|0:0,0:0:0:0:
31,42,123761,5,2,1:2:0:0:
17,57,123846,2,0,P|87:93|167:85,1,162.00000617981,10|10,0:0|0:0,0:0:0:0:
283,1,124103,2,0,P|256:31|244:69,1,81.0000030899049,10|0,0:0|0:0,0:0:0:0:
218,145,124275,2,0,P|230:183|257:212,1,81.0000030899049,10|0,0:0|0:0,0:0:0:0:
292,344,124446,6,0,B|317:307|317:307|412:323,1,141.750001351833,2|0,1:2|0:0,0:0:0:0:
412,323,124618,2,0,B|444:286|444:286|424:240,1,94.5000009012222,10|0,0:0|0:0,0:0:0:0:
328,78,124789,5,14,0:0:0:0:
331,108,124874,1,10,0:0:0:0:
346,135,124960,1,10,0:0:0:0:
371,154,125046,1,10,0:0:0:0:
401,162,125131,1,2,1:2:0:0:
432,158,125217,1,2,1:2:0:0:
458,142,125303,2,0,L|462:88,1,54,10|10,0:0|0:0,0:0:0:0:
334,237,125475,6,0,L|298:229,3,36,10|10|10|10,0:0|0:0|0:0|0:0,0:0:0:0:
251,322,125732,1,10,0:0:0:0:
316,369,125818,2,0,B|451:383|451:383|456:316,1,202.5,2|0,1:1|0:0,0:0:0:0:
507,222,126161,6,0,B|408:182|331:260|369:299|291:377|194:338,1,364.500013904572,14|0,0:0|0:0,0:0:0:0:
314,353,126503,6,0,P|282:381|303:344,1,121.500004634857,10|0,0:0|0:0,0:0:0:0:
190,325,126675,6,0,B|288:364|365:286|327:247|405:169|502:208,1,364.500013904572,14|0,0:0|0:0,0:0:0:0:
383,194,127017,6,0,P|414:165|393:202,1,121.500004634857,2|0,1:2|0:0,0:0:0:0:
497,194,127189,6,0,B|400:155|322:233|360:272|283:350|185:311,1,364.500013904572,6|0,1:2|0:0,0:0:0:0:
314,353,127532,6,0,P|282:381|303:344,1,121.500004634857,10|0,0:0|0:0,0:0:0:0:
378,180,127703,2,0,P|409:151|388:188,1,121.500004634857,14|0,0:0|0:0,0:0:0:0:
193,90,127875,6,0,P|165:72|132:68,1,67.5,2|0,1:2|0:0,0:0:0:0:
106,141,128046,2,0,P|134:159|168:164,1,67.5,10|0,0:0|0:0,0:0:0:0:
233,219,128218,6,0,B|298:192|351:244|325:271|377:323|442:297,1,243.000009269715,14|10,0:0|0:0,0:0:0:0:
132,366,128561,5,2,1:2:0:0:
120,363,128646,1,10,0:0:0:0:
107,360,128732,1,10,0:0:0:0:
94,358,128818,1,10,0:0:0:0:
41,301,128903,6,2,B|39:256|39:256|58:288,1,81,12|0,0:0|0:0,1:0:0:0:
94,358,129246,5,6,1:2:0:0:
130,349,129331,1,2,1:2:0:0:
169,340,129418,1,2,1:2:0:0:
205,331,129503,1,2,1:2:0:0:
244,322,129589,1,10,0:0:0:0:
250,306,129675,1,10,0:0:0:0:
256,290,129761,2,0,L|249:236,1,54,2|2,1:2|1:2,0:0:0:0:
172,162,129932,5,10,0:0:0:0:
137,169,130017,1,10,0:0:0:0:
102,176,130103,1,2,1:2:0:0:
67,183,130189,1,2,1:2:0:0:
33,156,130275,5,10,0:0:0:0:
25,121,130360,1,10,0:0:0:0:
18,86,130446,1,10,0:0:0:0:
11,51,130532,1,10,0:0:0:0:
76,0,130618,5,2,1:2:0:0:
86,13,130703,2,0,B|108:41|108:41|179:31,1,108,10|10,0:0|0:0,0:0:0:0:
236,96,130961,6,0,L|289:88,1,54,10|0,0:0|0:0,0:0:0:0:
446,60,131132,1,10,0:0:0:0:
429,35,131218,1,10,0:0:0:0:
415,10,131303,6,0,B|367:175|367:175|489:259|489:259|464:177,1,405,2|0,1:1|0:0,0:0:0:0:
369,75,131646,6,0,L|289:88,1,81.0000030899049,14|0,0:0|0:0,0:0:0:0:
53,129,131818,2,0,L|132:115,1,81.0000030899049,2|0,1:2|0:0,0:0:0:0:
211,102,131989,1,10,0:0:0:0:
26,235,132160,6,0,L|105:221,1,81.0000030899049,14|0,0:0|0:0,0:0:0:0:
342,180,132332,2,0,L|262:193,1,81.0000030899049,2|0,1:2|0:0,0:0:0:0:
184,208,132503,1,10,0:0:0:0:
184,208,132589,1,2,1:2:0:0:
235,270,132675,2,0,B|247:308|247:308|221:340,1,81.0000030899049,14|0,0:0|0:0,0:0:0:0:
67,384,132846,5,2,1:2:0:0:
43,371,132932,2,0,B|136:361|136:361|129:354|129:354|215:345,1,189.000001802444,2|0,1:2|0:0,0:0:0:0:
393,235,133189,6,0,L|314:252,1,81.0000030899049,14|0,0:0|0:0,0:0:0:0:
235,270,133361,1,2,1:2:0:0:
394,214,133532,5,2,1:2:0:0:
315,231,133617,1,2,1:2:0:0:
236,248,133703,1,14,0:0:0:0:
210,242,133788,1,10,0:0:0:0:
185,219,133874,1,10,0:0:0:0:
179,186,133961,1,10,0:0:0:0:
196,151,134045,1,2,1:2:0:0:
235,135,134131,1,2,1:2:0:0:
284,112,134218,1,2,1:2:0:0:
300,60,134302,1,2,1:2:0:0:
256,0,134389,5,14,0:0:0:0:
256,192,134475,12,0,139703,0:0:0:0:
